  0
SECTION
  2
HEADER
  9
$ACADVER
  1
AC1027
  9
$ACADMAINTVER
 70
    81
  9
$DWGCODEPAGE
  3
ANSI_932
  9
$LASTSAVEDBY
  1
reiko.miyawaki
  9
$REQUIREDVERSIONS
160
                 0
  9
$INSBASE
 10
0.0
 20
0.0
 30
0.0
  9
$EXTMIN
 10
0.0
 20
0.0
 30
0.0
  9
$EXTMAX
 10
2100.0
 20
2950.0
 30
0.0
  9
$LIMMIN
 10
0.0
 20
0.0
  9
$LIMMAX
 10
297.0
 20
210.0
  9
$ORTHOMODE
 70
     0
  9
$REGENMODE
 70
     1
  9
$FILLMODE
 70
     0
  9
$QTEXTMODE
 70
     0
  9
$MIRRTEXT
 70
     1
  9
$LTSCALE
 40
100.0
  9
$ATTMODE
 70
     1
  9
$TEXTSIZE
 40
180.0
  9
$TRACEWID
 40
0.05
  9
$TEXTSTYLE
  7
STANDARD
  9
$CLAYER
  8
3
  9
$CELTYPE
  6
BYLAYER
  9
$CECOLOR
 62
   256
  9
$CELTSCALE
 40
1.0
  9
$DISPSILH
 70
     0
  9
$DIMSCALE
 40
10.0
  9
$DIMASZ
 40
2.0
  9
$DIMEXO
 40
0.5
  9
$DIMDLI
 40
10.0
  9
$DIMRND
 40
0.0
  9
$DIMDLE
 40
0.0
  9
$DIMEXE
 40
1.0
  9
$DIMTP
 40
1.0
  9
$DIMTM
 40
1.0
  9
$DIMTXT
 40
3.0
  9
$DIMCEN
 40
0.0
  9
$DIMTSZ
 40
0.0
  9
$DIMTOL
 70
     0
  9
$DIMLIM
 70
     0
  9
$DIMTIH
 70
     0
  9
$DIMTOH
 70
     0
  9
$DIMSE1
 70
     0
  9
$DIMSE2
 70
     0
  9
$DIMTAD
 70
     1
  9
$DIMZIN
 70
     8
  9
$DIMBLK
  1

  9
$DIMASO
 70
     1
  9
$DIMSHO
 70
     1
  9
$DIMPOST
  1
(<>)
  9
$DIMAPOST
  1

  9
$DIMALT
 70
     0
  9
$DIMALTD
 70
     2
  9
$DIMALTF
 40
0.039
  9
$DIMLFAC
 40
1.0
  9
$DIMTOFL
 70
     1
  9
$DIMTVP
 40
0.0
  9
$DIMTIX
 70
     0
  9
$DIMSOXD
 70
     0
  9
$DIMSAH
 70
     1
  9
$DIMBLK1
  1
OPEN
  9
$DIMBLK2
  1
OPEN
  9
$DIMSTYLE
  2
IGA
  9
$DIMCLRD
 70
     0
  9
$DIMCLRE
 70
     0
  9
$DIMCLRT
 70
     0
  9
$DIMTFAC
 40
10.0
  9
$DIMGAP
 40
1.0
  9
$DIMJUST
 70
     0
  9
$DIMSD1
 70
     0
  9
$DIMSD2
 70
     0
  9
$DIMTOLJ
 70
     1
  9
$DIMTZIN
 70
     8
  9
$DIMALTZ
 70
     0
  9
$DIMALTTZ
 70
     0
  9
$DIMUPT
 70
     0
  9
$DIMDEC
 70
     0
  9
$DIMTDEC
 70
     0
  9
$DIMALTU
 70
     2
  9
$DIMALTTD
 70
     2
  9
$DIMTXSTY
  7
STANDARD
  9
$DIMAUNIT
 70
     0
  9
$DIMADEC
 70
     0
  9
$DIMALTRND
 40
0.0
  9
$DIMAZIN
 70
     0
  9
$DIMDSEP
 70
    46
  9
$DIMATFIT
 70
     3
  9
$DIMFRAC
 70
     0
  9
$DIMLDRBLK
  1
OPEN
  9
$DIMLUNIT
 70
     2
  9
$DIMLWD
 70
    -2
  9
$DIMLWE
 70
    -2
  9
$DIMTMOVE
 70
     2
  9
$DIMFXL
 40
1.0
  9
$DIMFXLON
 70
     0
  9
$DIMJOGANG
 40
0.7853981633974483
  9
$DIMTFILL
 70
     0
  9
$DIMTFILLCLR
 70
     0
  9
$DIMARCSYM
 70
     0
  9
$DIMLTYPE
  6

  9
$DIMLTEX1
  6

  9
$DIMLTEX2
  6

  9
$DIMTXTDIRECTION
 70
     0
  9
$LUNITS
 70
     2
  9
$LUPREC
 70
     3
  9
$SKETCHINC
 40
0.1
  9
$FILLETRAD
 40
50.0
  9
$AUNITS
 70
     0
  9
$AUPREC
 70
     0
  9
$MENU
  1
acad
  9
$ELEVATION
 40
0.0
  9
$PELEVATION
 40
0.0
  9
$THICKNESS
 40
0.0
  9
$LIMCHECK
 70
     0
  9
$CHAMFERA
 40
0.5
  9
$CHAMFERB
 40
0.5
  9
$CHAMFERC
 40
20.0
  9
$CHAMFERD
 40
0.0
  9
$SKPOLY
 70
     0
  9
$TDCREATE
 40
2451935.559176389
  9
$TDUCREATE
 40
2451935.184176389
  9
$TDUPDATE
 40
2459024.484108646
  9
$TDUUPDATE
 40
2459024.109108646
  9
$TDINDWG
 40
0.2207221181
  9
$TDUSRTIMER
 40
0.2207221181
  9
$USRTIMER
 70
     1
  9
$ANGBASE
 50
0.0
  9
$ANGDIR
 70
     0
  9
$PDMODE
 70
     0
  9
$PDSIZE
 40
0.0
  9
$PLINEWID
 40
0.0
  9
$SPLFRAME
 70
     0
  9
$SPLINETYPE
 70
     6
  9
$SPLINESEGS
 70
     8
  9
$HANDSEED
  5
8381
  9
$SURFTAB1
 70
     6
  9
$SURFTAB2
 70
     6
  9
$SURFTYPE
 70
     6
  9
$SURFU
 70
     6
  9
$SURFV
 70
     6
  9
$UCSBASE
  2

  9
$UCSNAME
  2

  9
$UCSORG
 10
0.0
 20
0.0
 30
0.0
  9
$UCSXDIR
 10
1.0
 20
0.0
 30
0.0
  9
$UCSYDIR
 10
0.0
 20
1.0
 30
0.0
  9
$UCSORTHOREF
  2

  9
$UCSORTHOVIEW
 70
     0
  9
$UCSORGTOP
 10
0.0
 20
0.0
 30
0.0
  9
$UCSORGBOTTOM
 10
0.0
 20
0.0
 30
0.0
  9
$UCSORGLEFT
 10
0.0
 20
0.0
 30
0.0
  9
$UCSORGRIGHT
 10
0.0
 20
0.0
 30
0.0
  9
$UCSORGFRONT
 10
0.0
 20
0.0
 30
0.0
  9
$UCSORGBACK
 10
0.0
 20
0.0
 30
0.0
  9
$PUCSBASE
  2

  9
$PUCSNAME
  2

  9
$PUCSORG
 10
0.0
 20
0.0
 30
0.0
  9
$PUCSXDIR
 10
1.0
 20
0.0
 30
0.0
  9
$PUCSYDIR
 10
0.0
 20
1.0
 30
0.0
  9
$PUCSORTHOREF
  2

  9
$PUCSORTHOVIEW
 70
     0
  9
$PUCSORGTOP
 10
0.0
 20
0.0
 30
0.0
  9
$PUCSORGBOTTOM
 10
0.0
 20
0.0
 30
0.0
  9
$PUCSORGLEFT
 10
0.0
 20
0.0
 30
0.0
  9
$PUCSORGRIGHT
 10
0.0
 20
0.0
 30
0.0
  9
$PUCSORGFRONT
 10
0.0
 20
0.0
 30
0.0
  9
$PUCSORGBACK
 10
0.0
 20
0.0
 30
0.0
  9
$USERI1
 70
     0
  9
$USERI2
 70
     0
  9
$USERI3
 70
     0
  9
$USERI4
 70
     0
  9
$USERI5
 70
     0
  9
$USERR1
 40
0.0
  9
$USERR2
 40
0.0
  9
$USERR3
 40
0.0
  9
$USERR4
 40
0.0
  9
$USERR5
 40
0.0
  9
$WORLDVIEW
 70
     1
  9
$SHADEDGE
 70
     3
  9
$SHADEDIF
 70
    70
  9
$TILEMODE
 70
     1
  9
$MAXACTVP
 70
    16
  9
$PINSBASE
 10
0.0
 20
0.0
 30
0.0
  9
$PLIMCHECK
 70
     0
  9
$PEXTMIN
 10
1.000000000000000E+20
 20
1.000000000000000E+20
 30
1.000000000000000E+20
  9
$PEXTMAX
 10
-1.000000000000000E+20
 20
-1.000000000000000E+20
 30
-1.000000000000000E+20
  9
$PLIMMIN
 10
0.0
 20
0.0
  9
$PLIMMAX
 10
12.0
 20
9.0
  9
$UNITMODE
 70
     0
  9
$VISRETAIN
 70
     0
  9
$PLINEGEN
 70
     0
  9
$PSLTSCALE
 70
     1
  9
$TREEDEPTH
 70
  3020
  9
$CMLSTYLE
  2
STANDARD
  9
$CMLJUST
 70
     0
  9
$CMLSCALE
 40
20.0
  9
$PROXYGRAPHICS
 70
     1
  9
$MEASUREMENT
 70
     1
  9
$CELWEIGHT
370
    -1
  9
$ENDCAPS
280
     0
  9
$JOINSTYLE
280
     0
  9
$LWDISPLAY
290
     0
  9
$INSUNITS
 70
     0
  9
$HYPERLINKBASE
  1

  9
$STYLESHEET
  1

  9
$XEDIT
290
     1
  9
$CEPSNTYPE
380
     0
  9
$PSTYLEMODE
290
     1
  9
$FINGERPRINTGUID
  2
{F630EA9D-9C9B-4D34-940B-963C6F56C25E}
  9
$VERSIONGUID
  2
{C67A40BB-90FB-4F26-A2E7-4D8BE801BEE5}
  9
$EXTNAMES
290
     1
  9
$PSVPSCALE
 40
0.0
  9
$OLESTARTUP
290
     0
  9
$SORTENTS
280
   127
  9
$INDEXCTL
280
     0
  9
$HIDETEXT
280
     0
  9
$XCLIPFRAME
280
     2
  9
$HALOGAP
280
     0
  9
$OBSCOLOR
 70
   257
  9
$OBSLTYPE
280
     0
  9
$INTERSECTIONDISPLAY
280
     0
  9
$INTERSECTIONCOLOR
 70
   257
  9
$DIMASSOC
280
     1
  9
$PROJECTNAME
  1

  9
$CAMERADISPLAY
290
     0
  9
$LENSLENGTH
 40
50.0
  9
$CAMERAHEIGHT
 40
0.0
  9
$STEPSPERSEC
 40
2.0
  9
$STEPSIZE
 40
6.0
  9
$3DDWFPREC
 40
2.0
  9
$PSOLWIDTH
 40
0.25
  9
$PSOLHEIGHT
 40
4.0
  9
$LOFTANG1
 40
1.570796326794896
  9
$LOFTANG2
 40
1.570796326794896
  9
$LOFTMAG1
 40
0.0
  9
$LOFTMAG2
 40
0.0
  9
$LOFTPARAM
 70
     7
  9
$LOFTNORMALS
280
     1
  9
$LATITUDE
 40
37.795
  9
$LONGITUDE
 40
-122.394
  9
$NORTHDIRECTION
 40
0.0
  9
$TIMEZONE
 70
 -8000
  9
$LIGHTGLYPHDISPLAY
280
     1
  9
$TILEMODELIGHTSYNCH
280
     1
  9
$CMATERIAL
347
8294
  9
$SOLIDHIST
280
     0
  9
$SHOWHIST
280
     1
  9
$DWFFRAME
280
     2
  9
$DGNFRAME
280
     0
  9
$REALWORLDSCALE
290
     1
  9
$INTERFERECOLOR
 62
     1
  9
$INTERFEREOBJVS
345
82B6
  9
$INTERFEREVPVS
346
82B3
  9
$CSHADOW
280
     0
  9
$SHADOWPLANELOCATION
 40
0.0
  0
ENDSEC
  0
SECTION
  2
CLASSES
  0
CLASS
  1
ACDBDICTIONARYWDFLT
  2
AcDbDictionaryWithDefault
  3
ObjectDBX Classes
 90
        0
 91
        1
280
     0
281
     0
  0
CLASS
  1
MATERIAL
  2
AcDbMaterial
  3
ObjectDBX Classes
 90
     1153
 91
        3
280
     0
281
     0
  0
CLASS
  1
VISUALSTYLE
  2
AcDbVisualStyle
  3
ObjectDBX Classes
 90
     4095
 91
       24
280
     0
281
     0
  0
CLASS
  1
TABLESTYLE
  2
AcDbTableStyle
  3
ObjectDBX Classes
 90
     4095
 91
        1
280
     0
281
     0
  0
CLASS
  1
SCALE
  2
AcDbScale
  3
ObjectDBX Classes
 90
     1153
 91
       17
280
     0
281
     0
  0
CLASS
  1
MLEADERSTYLE
  2
AcDbMLeaderStyle
  3
ACDB_MLEADERSTYLE_CLASS
 90
     4095
 91
        1
280
     0
281
     0
  0
CLASS
  1
ACDBSECTIONVIEWSTYLE
  2
AcDbSectionViewStyle
  3
ObjectDBX Classes
 90
     1025
 91
        1
280
     0
281
     0
  0
CLASS
  1
ACDBDETAILVIEWSTYLE
  2
AcDbDetailViewStyle
  3
ObjectDBX Classes
 90
     1025
 91
        1
280
     0
281
     0
  0
CLASS
  1
SORTENTSTABLE
  2
AcDbSortentsTable
  3
ObjectDBX Classes
 90
        0
 91
        1
280
     0
281
     0
  0
CLASS
  1
DICTIONARYVAR
  2
AcDbDictionaryVar
  3
ObjectDBX Classes
 90
        0
 91
        9
280
     0
281
     0
  0
CLASS
  1
CELLSTYLEMAP
  2
AcDbCellStyleMap
  3
ObjectDBX Classes
 90
     1152
 91
        1
280
     0
281
     0
  0
ENDSEC
  0
SECTION
  2
TABLES
  0
TABLE
  2
VPORT
  5
8
330
0
100
AcDbSymbolTable
 70
     1
  0
VPORT
  5
8291
330
8
100
AcDbSymbolTableRecord
100
AcDbViewportTableRecord
  2
*Active
 70
     0
 10
0.0
 20
0.0
 11
1.0
 21
1.0
 12
1050.000014669225
 22
1545.621937369708
 13
0.0
 23
0.0
 14
10.0
 24
10.0
 15
10.0
 25
10.0
 16
0.0
 26
0.0
 36
1.0
 17
0.0
 27
0.0
 37
0.0
 40
3110.224489446325
 41
1.957107843137254
 42
50.0
 43
0.0
 44
0.0
 50
0.0
 51
0.0
 71
     0
 72
   100
 73
     1
 74
     0
 75
     0
 76
     0
 77
     0
 78
     0
281
     0
 65
     1
110
0.0
120
0.0
130
0.0
111
1.0
121
0.0
131
0.0
112
0.0
122
1.0
132
0.0
 79
     0
146
0.0
348
82B2
 60
     3
 61
     5
292
     1
282
     1
141
0.0
142
0.0
 63
   250
421
  3355443
1001
ACAD_NAV_VCDISPLAY
1070
     3
  0
ENDTAB
  0
TABLE
  2
LTYPE
  5
5
330
0
100
AcDbSymbolTable
 70
     2
  0
LTYPE
  5
13
330
5
100
AcDbSymbolTableRecord
100
AcDbLinetypeTableRecord
  2
BYBLOCK
 70
     0
  3

 72
    65
 73
     0
 40
0.0
  0
LTYPE
  5
14
330
5
100
AcDbSymbolTableRecord
100
AcDbLinetypeTableRecord
  2
BYLAYER
 70
     0
  3

 72
    65
 73
     0
 40
0.0
  0
LTYPE
  5
15
330
5
100
AcDbSymbolTableRecord
100
AcDbLinetypeTableRecord
  2
CONTINUOUS
 70
     0
  3
Solid line
 72
    65
 73
     0
 40
0.0
  0
LTYPE
  5
1F
330
5
100
AcDbSymbolTableRecord
100
AcDbLinetypeTableRecord
  2
CENTER
 70
     0
  3
____ _ ____ _ ____ _ ____ _ ____ _ ____ _ ____ 
 72
    65
 73
     4
 40
2.0
 49
1.25
 74
     0
 49
-0.25
 74
     0
 49
0.25
 74
     0
 49
-0.25
 74
     0
  0
ENDTAB
  0
TABLE
  2
LAYER
  5
2
102
{ACAD_XDICTIONARY
360
833F
102
}
330
0
100
AcDbSymbolTable
 70
     6
  0
LAYER
  5
F
102
{ACAD_XDICTIONARY
360
8332
102
}
330
2
100
AcDbSymbolTableRecord
100
AcDbLayerTableRecord
  2
0
 70
     0
 62
     7
  6
CONTINUOUS
370
    -3
390
8284
347
82A4
348
0
  0
LAYER
  5
31
102
{ACAD_XDICTIONARY
360
8334
102
}
330
2
100
AcDbSymbolTableRecord
100
AcDbLayerTableRecord
  2
3
 70
     0
 62
     2
  6
CONTINUOUS
370
    -3
390
8284
347
82A4
348
0
  0
LAYER
  5
76D0
102
{ACAD_XDICTIONARY
360
8336
102
}
330
2
100
AcDbSymbolTableRecord
100
AcDbLayerTableRecord
  2
2
 70
     0
 62
     3
  6
CENTER
370
    -3
390
8284
347
82A4
348
0
  0
LAYER
  5
76D1
102
{ACAD_XDICTIONARY
360
8338
102
}
330
2
100
AcDbSymbolTableRecord
100
AcDbLayerTableRecord
  2
1
 70
     0
 62
     4
  6
CONTINUOUS
370
    -3
390
8284
347
82A4
348
0
  0
LAYER
  5
76D2
102
{ACAD_XDICTIONARY
360
833A
102
}
330
2
100
AcDbSymbolTableRecord
100
AcDbLayerTableRecord
  2
4
 70
     0
 62
     7
  6
CONTINUOUS
370
    -3
390
8284
347
82A4
348
0
  0
LAYER
  5
7B0F
330
2
100
AcDbSymbolTableRecord
100
AcDbLayerTableRecord
  2
DEFPOINTS
 70
     0
 62
     7
  6
CONTINUOUS
290
     0
370
    -3
390
8284
347
82A4
348
0
  0
ENDTAB
  0
TABLE
  2
STYLE
  5
3
330
0
100
AcDbSymbolTable
 70
     1
  0
STYLE
  5
10
330
3
100
AcDbSymbolTableRecord
100
AcDbTextStyleTableRecord
  2
STANDARD
 70
     0
 40
0.0
 41
1.0
 50
0.0
 71
     0
 42
180.0
  3
simplex.shx
  4
extfont.shx
  0
ENDTAB
  0
TABLE
  2
VIEW
  5
6
330
0
100
AcDbSymbolTable
 70
     0
  0
ENDTAB
  0
TABLE
  2
UCS
  5
7
330
0
100
AcDbSymbolTable
 70
     0
  0
ENDTAB
  0
TABLE
  2
APPID
  5
9
330
0
100
AcDbSymbolTable
 70
     4
  0
APPID
  5
11
330
9
100
AcDbSymbolTableRecord
100
AcDbRegAppTableRecord
  2
ACAD
 70
     0
  0
APPID
  5
8345
330
9
100
AcDbSymbolTableRecord
100
AcDbRegAppTableRecord
  2
ACAD_NAV_VCDISPLAY
 70
     0
  0
APPID
  5
8359
330
9
100
AcDbSymbolTableRecord
100
AcDbRegAppTableRecord
  2
AcadAnnoMonitorAlertIconDisabled
 70
     0
  0
APPID
  5
835A
330
9
100
AcDbSymbolTableRecord
100
AcDbRegAppTableRecord
  2
ACAD_EXEMPT_FROM_CAD_STANDARDS
 70
     0
  0
ENDTAB
  0
TABLE
  2
DIMSTYLE
  5
A
330
0
100
AcDbSymbolTable
 70
     1
100
AcDbDimStyleTable
 71
     0
  0
DIMSTYLE
105
1D
102
{ACAD_REACTORS
330
7C95
330
7C96
330
7CB8
330
7CB9
330
7CBA
330
7CBB
330
7CE7
330
7CF3
330
7CF4
330
7CF5
330
7CF7
330
8137
330
81E3
330
81FD
330
820C
330
8226
330
8243
330
826E
330
8280
102
}
330
A
100
AcDbSymbolTableRecord
100
AcDbDimStyleTableRecord
  2
IGA
 70
     0
 40
2.0
 41
2.0
 42
0.5
 43
10.0
 44
1.0
 47
1.0
 48
1.0
 73
     0
 74
     0
 77
     1
 78
     8
140
3.0
141
0.0
143
0.03937
146
10.0
147
1.0
173
     1
271
     1
272
     0
279
     2
284
     8
340
10
341
79FC
343
79FC
344
79FC
  0
ENDTAB
  0
TABLE
  2
BLOCK_RECORD
  5
1
330
0
100
AcDbSymbolTable
 70
    23
  0
BLOCK_RECORD
  5
19
102
{ACAD_XDICTIONARY
360
82E4
102
}
330
1
100
AcDbSymbolTableRecord
100
AcDbBlockTableRecord
  2
*MODEL_SPACE
340
8287
 70
     0
280
     1
281
     0
  0
BLOCK_RECORD
  5
16
330
1
100
AcDbSymbolTableRecord
100
AcDbBlockTableRecord
  2
*PAPER_SPACE
340
8288
 70
     0
280
     1
281
     0
  0
BLOCK_RECORD
  5
79FC
330
1
100
AcDbSymbolTableRecord
100
AcDbBlockTableRecord
  2
_OPEN
340
0
102
{BLKREFS
331
82E9
331
82EA
331
82F2
331
82F3
331
82FD
331
82FE
331
8306
331
8307
331
8312
331
8323
331
8324
331
832E
331
8368
331
8369
331
811F
331
8120
331
813C
331
813D
331
7F17
331
7F18
331
7F2D
331
7F2E
331
7F38
331
7F39
331
7F43
331
7F44
331
7FEF
331
7FF0
331
7FFA
331
7FFB
331
8043
331
8044
331
804E
331
804F
331
809E
331
809F
102
}
 70
     0
280
     1
281
     0
  0
BLOCK_RECORD
  5
7A02
330
1
100
AcDbSymbolTableRecord
100
AcDbBlockTableRecord
  2
YA_N
340
0
102
{BLKREFS
331
7C15
331
7C16
102
}
 70
     0
280
     1
281
     0
  0
BLOCK_RECORD
  5
7A5B
330
1
100
AcDbSymbolTableRecord
100
AcDbBlockTableRecord
  2
_DOT
340
0
102
{BLKREFS
331
8311
331
832D
102
}
 70
     0
280
     1
281
     0
  0
BLOCK_RECORD
  5
7D14
330
1
100
AcDbSymbolTableRecord
100
AcDbBlockTableRecord
  2
*D3
340
0
 70
     0
280
     1
281
     0
  0
BLOCK_RECORD
  5
7D20
330
1
100
AcDbSymbolTableRecord
100
AcDbBlockTableRecord
  2
*D4
340
0
 70
     0
280
     1
281
     0
  0
BLOCK_RECORD
  5
7D8D
330
1
100
AcDbSymbolTableRecord
100
AcDbBlockTableRecord
  2
*D5
340
0
 70
     0
280
     1
281
     0
  0
BLOCK_RECORD
  5
7D99
330
1
100
AcDbSymbolTableRecord
100
AcDbBlockTableRecord
  2
*D6
340
0
 70
     0
280
     1
281
     0
  0
BLOCK_RECORD
  5
7DA5
330
1
100
AcDbSymbolTableRecord
100
AcDbBlockTableRecord
  2
*D7
340
0
 70
     0
280
     1
281
     0
  0
BLOCK_RECORD
  5
7DB1
330
1
100
AcDbSymbolTableRecord
100
AcDbBlockTableRecord
  2
*D8
340
0
 70
     0
280
     1
281
     0
  0
BLOCK_RECORD
  5
7DBC
330
1
100
AcDbSymbolTableRecord
100
AcDbBlockTableRecord
  2
*D9
340
0
 70
     0
280
     1
281
     0
  0
BLOCK_RECORD
  5
7DD4
330
1
100
AcDbSymbolTableRecord
100
AcDbBlockTableRecord
  2
*D10
340
0
 70
     0
280
     1
281
     0
  0
BLOCK_RECORD
  5
7DE0
330
1
100
AcDbSymbolTableRecord
100
AcDbBlockTableRecord
  2
*D11
340
0
 70
     0
280
     1
281
     0
  0
BLOCK_RECORD
  5
7DEB
330
1
100
AcDbSymbolTableRecord
100
AcDbBlockTableRecord
  2
*D12
340
0
 70
     0
280
     1
281
     0
  0
BLOCK_RECORD
  5
7E02
330
1
100
AcDbSymbolTableRecord
100
AcDbBlockTableRecord
  2
*D13
340
0
 70
     0
280
     1
281
     0
  0
BLOCK_RECORD
  5
812B
330
1
100
AcDbSymbolTableRecord
100
AcDbBlockTableRecord
  2
*D14
340
0
 70
     0
280
     1
281
     0
  0
BLOCK_RECORD
  5
81D7
330
1
100
AcDbSymbolTableRecord
100
AcDbBlockTableRecord
  2
*D15
340
0
 70
     0
280
     1
281
     0
  0
BLOCK_RECORD
  5
81F1
330
1
100
AcDbSymbolTableRecord
100
AcDbBlockTableRecord
  2
*D16
340
0
 70
     0
280
     1
281
     0
  0
BLOCK_RECORD
  5
81FE
330
1
100
AcDbSymbolTableRecord
100
AcDbBlockTableRecord
  2
*D17
340
0
 70
     0
280
     1
281
     0
  0
BLOCK_RECORD
  5
821A
330
1
100
AcDbSymbolTableRecord
100
AcDbBlockTableRecord
  2
*D18
340
0
 70
     0
280
     1
281
     0
  0
BLOCK_RECORD
  5
8235
330
1
100
AcDbSymbolTableRecord
100
AcDbBlockTableRecord
  2
*D19
340
0
 70
     0
280
     1
281
     0
  0
BLOCK_RECORD
  5
8262
330
1
100
AcDbSymbolTableRecord
100
AcDbBlockTableRecord
  2
*D20
340
0
 70
     0
280
     1
281
     0
  0
BLOCK_RECORD
  5
826F
330
1
100
AcDbSymbolTableRecord
100
AcDbBlockTableRecord
  2
_ORIGIN
340
0
 70
     0
280
     1
281
     0
  0
BLOCK_RECORD
  5
8274
330
1
100
AcDbSymbolTableRecord
100
AcDbBlockTableRecord
  2
*D22
340
0
 70
     0
280
     1
281
     0
  0
ENDTAB
  0
ENDSEC
  0
SECTION
  2
BLOCKS
  0
BLOCK
  5
1A
330
19
100
AcDbEntity
  8
0
100
AcDbBlockBegin
  2
*MODEL_SPACE
 70
     0
 10
0.0
 20
0.0
 30
0.0
  3
*MODEL_SPACE
  1

  0
ENDBLK
  5
1B
330
19
100
AcDbEntity
  8
0
100
AcDbBlockEnd
  0
BLOCK
  5
17
330
16
100
AcDbEntity
 67
     1
  8
0
100
AcDbBlockBegin
  2
*PAPER_SPACE
 70
     0
 10
0.0
 20
0.0
 30
0.0
  3
*PAPER_SPACE
  1

  0
ENDBLK
  5
18
330
16
100
AcDbEntity
 67
     1
  8
0
100
AcDbBlockEnd
  0
BLOCK
  5
7A00
330
79FC
100
AcDbEntity
  8
0
100
AcDbBlockBegin
  2
_OPEN
 70
     0
 10
0.0
 20
0.0
 30
0.0
  3
_OPEN
  1

  0
LINE
  5
79FD
330
79FC
100
AcDbEntity
  8
0
  6
ByBlock
 62
     0
100
AcDbLine
 10
-1.0
 20
0.1666666666666666
 30
0.0
 11
0.0
 21
0.0
 31
0.0
  0
LINE
  5
79FE
330
79FC
100
AcDbEntity
  8
0
  6
ByBlock
 62
     0
100
AcDbLine
 10
0.0
 20
0.0
 30
0.0
 11
-1.0
 21
-0.1666666666666666
 31
0.0
  0
LINE
  5
79FF
330
79FC
100
AcDbEntity
  8
0
  6
ByBlock
 62
     0
100
AcDbLine
 10
0.0
 20
0.0
 30
0.0
 11
-1.0
 21
0.0
 31
0.0
  0
ENDBLK
  5
7A01
330
79FC
100
AcDbEntity
  8
0
100
AcDbBlockEnd
  0
BLOCK
  5
7A03
330
7A02
100
AcDbEntity
  8
0
100
AcDbBlockBegin
  2
YA_N
 70
     0
 10
0.0
 20
0.0
 30
0.0
  3
YA_N
  1

  0
ENDBLK
  5
7A04
330
7A02
100
AcDbEntity
  8
0
100
AcDbBlockEnd
  0
BLOCK
  5
7A61
330
7A5B
100
AcDbEntity
  8
0
100
AcDbBlockBegin
  2
_DOT
 70
     0
 10
0.0
 20
0.0
 30
0.0
  3
_DOT
  1

  0
LINE
  5
80A9
330
7A5B
100
AcDbEntity
  8
0
  6
ByBlock
 62
     0
100
AcDbLine
 10
0.0
 20
0.0
 30
0.0
 11
-1.0
 21
-0.0000000000000284
 31
0.0
  0
LWPOLYLINE
  5
80AA
330
7A5B
100
AcDbEntity
  8
0
  6
ByBlock
 62
     0
100
AcDbPolyline
 90
        2
 70
     1
 43
0.1666666666666666
 10
-0.0833333333333286
 20
-0.0000000000000284
 42
1.0
 10
0.0833333333333286
 20
-0.0000000000000284
 42
1.0
  0
ENDBLK
  5
7A62
330
7A5B
100
AcDbEntity
  8
0
100
AcDbBlockEnd
  0
BLOCK
  5
7FF6
330
7D14
100
AcDbEntity
  8
0
100
AcDbBlockBegin
  2
*D3
 70
     1
 10
0.0
 20
0.0
 30
0.0
  3
*D3
  1

  0
LINE
  5
7FF7
330
7D14
100
AcDbEntity
  8
0
  6
ByBlock
 62
     0
440
 16777216
100
AcDbLine
 10
526.4148661329896
 20
1133.767826060976
 30
0.0
 11
526.4148661329896
 21
1213.610104278245
 31
0.0
  0
LINE
  5
7FF8
330
7D14
100
AcDbEntity
  8
0
  6
ByBlock
 62
     0
440
 16777216
100
AcDbLine
 10
686.4148661329895
 20
1133.767826060976
 30
0.0
 11
686.4148661329895
 21
1213.610104278245
 31
0.0
  0
LINE
  5
7FF9
330
7D14
100
AcDbEntity
  8
0
  6
ByBlock
 62
     0
440
 16777216
100
AcDbLine
 10
546.4148661329895
 20
1203.610104278246
 30
0.0
 11
666.4148661329895
 21
1203.610104278246
 31
0.0
  0
INSERT
  5
7FFA
330
7D14
100
AcDbEntity
  8
0
  6
ByBlock
 62
     0
440
 16777216
100
AcDbBlockReference
  2
_OPEN
 10
526.4148661329896
 20
1203.610104278246
 30
0.0
 41
20.0
 42
20.0
 43
20.0
 50
180.0
  0
INSERT
  5
7FFB
330
7D14
100
AcDbEntity
  8
0
  6
ByBlock
 62
     0
440
 16777216
100
AcDbBlockReference
  2
_OPEN
 10
686.4148661329895
 20
1203.610104278246
 30
0.0
 41
20.0
 42
20.0
 43
20.0
  0
MTEXT
  5
7FFC
330
7D14
100
AcDbEntity
  8
0
  6
ByBlock
 62
     0
440
 16777216
100
AcDbMText
 10
606.4148661329896
 20
1228.610104278246
 30
0.0
 40
30.0
 41
0.0
 46
0.0
 71
     5
 72
     5
  1
\A1;160
 73
     1
 44
1.0
  0
POINT
  5
7FFD
330
7D14
100
AcDbEntity
  8
DEFPOINTS
  6
ByBlock
 62
     0
440
 16777216
100
AcDbPoint
 10
526.4148661329896
 20
1128.767826060976
 30
0.0
  0
POINT
  5
7FFE
330
7D14
100
AcDbEntity
  8
DEFPOINTS
  6
ByBlock
 62
     0
440
 16777216
100
AcDbPoint
 10
686.4148661329895
 20
1128.767826060976
 30
0.0
  0
POINT
  5
7FFF
330
7D14
100
AcDbEntity
  8
DEFPOINTS
  6
ByBlock
 62
     0
440
 16777216
100
AcDbPoint
 10
686.4148661329895
 20
1203.610104278246
 30
0.0
  0
ENDBLK
  5
8000
330
7D14
100
AcDbEntity
  8
0
100
AcDbBlockEnd
  0
BLOCK
  5
7FEB
330
7D20
100
AcDbEntity
  8
0
100
AcDbBlockBegin
  2
*D4
 70
     1
 10
0.0
 20
0.0
 30
0.0
  3
*D4
  1

  0
LINE
  5
7FEC
330
7D20
100
AcDbEntity
  8
0
  6
ByBlock
 62
     0
440
 16777216
100
AcDbLine
 10
526.4148661329896
 20
1133.767826060976
 30
0.0
 11
526.4148661329896
 21
1269.483549986905
 31
0.0
  0
LINE
  5
7FED
330
7D20
100
AcDbEntity
  8
0
  6
ByBlock
 62
     0
440
 16777216
100
AcDbLine
 10
680.4148661329896
 20
1170.514070058317
 30
0.0
 11
680.4148661329896
 21
1269.483549986905
 31
0.0
  0
LINE
  5
7FEE
330
7D20
100
AcDbEntity
  8
0
  6
ByBlock
 62
     0
440
 16777216
100
AcDbLine
 10
546.4148661329895
 20
1259.483549986905
 30
0.0
 11
660.4148661329896
 21
1259.483549986905
 31
0.0
  0
INSERT
  5
7FEF
330
7D20
100
AcDbEntity
  8
0
  6
ByBlock
 62
     0
440
 16777216
100
AcDbBlockReference
  2
_OPEN
 10
526.4148661329896
 20
1259.483549986905
 30
0.0
 41
20.0
 42
20.0
 43
20.0
 50
180.0
  0
INSERT
  5
7FF0
330
7D20
100
AcDbEntity
  8
0
  6
ByBlock
 62
     0
440
 16777216
100
AcDbBlockReference
  2
_OPEN
 10
680.4148661329896
 20
1259.483549986905
 30
0.0
 41
20.0
 42
20.0
 43
20.0
  0
MTEXT
  5
7FF1
330
7D20
100
AcDbEntity
  8
0
  6
ByBlock
 62
     0
440
 16777216
100
AcDbMText
 10
603.4148661329895
 20
1284.483549986905
 30
0.0
 40
30.0
 41
0.0
 46
0.0
 71
     5
 72
     5
  1
\A1;154
 73
     1
 44
1.0
  0
POINT
  5
7FF2
330
7D20
100
AcDbEntity
  8
DEFPOINTS
  6
ByBlock
 62
     0
440
 16777216
100
AcDbPoint
 10
526.4148661329896
 20
1128.767826060976
 30
0.0
  0
POINT
  5
7FF3
330
7D20
100
AcDbEntity
  8
DEFPOINTS
  6
ByBlock
 62
     0
440
 16777216
100
AcDbPoint
 10
680.4148661329896
 20
1165.514070058317
 30
0.0
  0
POINT
  5
7FF4
330
7D20
100
AcDbEntity
  8
DEFPOINTS
  6
ByBlock
 62
     0
440
 16777216
100
AcDbPoint
 10
680.4148661329896
 20
1259.483549986905
 30
0.0
  0
ENDBLK
  5
7FF5
330
7D20
100
AcDbEntity
  8
0
100
AcDbBlockEnd
  0
BLOCK
  5
809A
330
7D8D
100
AcDbEntity
  8
0
100
AcDbBlockBegin
  2
*D5
 70
     1
 10
0.0
 20
0.0
 30
0.0
  3
*D5
  1

  0
LINE
  5
809B
330
7D8D
100
AcDbEntity
  8
0
  6
ByBlock
 62
     0
440
 16777216
100
AcDbLine
 10
1798.470548696075
 20
1076.717831359117
 30
0.0
 11
1884.111212505612
 21
1076.717831359117
 31
0.0
  0
LINE
  5
809C
330
7D8D
100
AcDbEntity
  8
0
  6
ByBlock
 62
     0
440
 16777216
100
AcDbLine
 10
1798.470548696075
 20
900.7178313591177
 30
0.0
 11
1884.111212505612
 21
900.7178313591177
 31
0.0
  0
LINE
  5
809D
330
7D8D
100
AcDbEntity
  8
0
  6
ByBlock
 62
     0
440
 16777216
100
AcDbLine
 10
1874.111212505611
 20
1056.717831359117
 30
0.0
 11
1874.111212505611
 21
920.7178313591176
 31
0.0
  0
INSERT
  5
809E
330
7D8D
100
AcDbEntity
  8
0
  6
ByBlock
 62
     0
440
 16777216
100
AcDbBlockReference
  2
_OPEN
 10
1874.111212505611
 20
1076.717831359117
 30
0.0
 41
20.0
 42
20.0
 43
20.0
 50
90.0
  0
INSERT
  5
809F
330
7D8D
100
AcDbEntity
  8
0
  6
ByBlock
 62
     0
440
 16777216
100
AcDbBlockReference
  2
_OPEN
 10
1874.111212505611
 20
900.7178313591177
 30
0.0
 41
20.0
 42
20.0
 43
20.0
 50
270.0
  0
MTEXT
  5
80A0
330
7D8D
100
AcDbEntity
  8
0
  6
ByBlock
 62
     0
440
 16777216
100
AcDbMText
 10
1849.111212505611
 20
988.7178313591176
 30
0.0
 40
30.0
 41
0.0
 46
0.0
 71
     5
 72
     5
  1
\A1;φ176
 11
0.0
 21
1.0
 31
0.0
 73
     1
 44
1.0
  0
POINT
  5
80A1
330
7D8D
100
AcDbEntity
  8
DEFPOINTS
  6
ByBlock
 62
     0
440
 16777216
100
AcDbPoint
 10
1793.470548696075
 20
1076.717831359117
 30
0.0
  0
POINT
  5
80A2
330
7D8D
100
AcDbEntity
  8
DEFPOINTS
  6
ByBlock
 62
     0
440
 16777216
100
AcDbPoint
 10
1793.470548696075
 20
900.7178313591177
 30
0.0
  0
POINT
  5
80A3
330
7D8D
100
AcDbEntity
  8
DEFPOINTS
  6
ByBlock
 62
     0
440
 16777216
100
AcDbPoint
 10
1874.111212505611
 20
900.7178313591177
 30
0.0
  0
ENDBLK
  5
80A4
330
7D8D
100
AcDbEntity
  8
0
100
AcDbBlockEnd
  0
BLOCK
  5
803E
330
7D99
100
AcDbEntity
  8
0
100
AcDbBlockBegin
  2
*D6
 70
     1
 10
0.0
 20
0.0
 30
0.0
  3
*D6
  1

  0
LINE
  5
803F
330
7D99
100
AcDbEntity
  8
0
  6
ByBlock
 62
     0
440
 16777216
100
AcDbLine
 10
1649.470548696074
 20
1127.753868577447
 30
0.0
 11
1649.470548696074
 21
1206.097824364813
 31
0.0
  0
LINE
  5
8040
330
7D99
100
AcDbEntity
  8
0
  6
ByBlock
 62
     0
440
 16777216
100
AcDbLine
 10
1769.470548696074
 20
1127.753868577446
 30
0.0
 11
1769.470548696074
 21
1206.097824364813
 31
0.0
  0
LINE
  5
8041
330
7D99
100
AcDbEntity
  8
0
  6
ByBlock
 62
     0
440
 16777216
100
AcDbLine
 10
1669.470548696074
 20
1196.097824364813
 30
0.0
 11
1749.470548696074
 21
1196.097824364813
 31
0.0
  0
MTEXT
  5
8042
330
7D99
100
AcDbEntity
  8
0
  6
ByBlock
 62
     0
440
 16777216
100
AcDbMText
 10
1708.602270855231
 20
1221.602971161809
 30
0.0
 40
30.0
 41
0.0
 46
0.0
 71
     5
 72
     5
  1
\A1;120
 73
     1
 44
1.0
  0
INSERT
  5
8043
330
7D99
100
AcDbEntity
  8
0
  6
ByBlock
 62
     0
440
 16777216
100
AcDbBlockReference
  2
_OPEN
 10
1649.470548696074
 20
1196.097824364813
 30
0.0
 41
20.0
 42
20.0
 43
20.0
 50
180.0
  0
INSERT
  5
8044
330
7D99
100
AcDbEntity
  8
0
  6
ByBlock
 62
     0
440
 16777216
100
AcDbBlockReference
  2
_OPEN
 10
1769.470548696074
 20
1196.097824364813
 30
0.0
 41
20.0
 42
20.0
 43
20.0
  0
POINT
  5
8045
330
7D99
100
AcDbEntity
  8
DEFPOINTS
  6
ByBlock
 62
     0
440
 16777216
100
AcDbPoint
 10
1649.470548696074
 20
1122.753868577447
 30
0.0
  0
POINT
  5
8046
330
7D99
100
AcDbEntity
  8
DEFPOINTS
  6
ByBlock
 62
     0
440
 16777216
100
AcDbPoint
 10
1769.470548696074
 20
1122.753868577446
 30
0.0
  0
POINT
  5
8047
330
7D99
100
AcDbEntity
  8
DEFPOINTS
  6
ByBlock
 62
     0
440
 16777216
100
AcDbPoint
 10
1769.470548696074
 20
1196.097824364813
 30
0.0
  0
ENDBLK
  5
8048
330
7D99
100
AcDbEntity
  8
0
100
AcDbBlockEnd
  0
BLOCK
  5
8049
330
7DA5
100
AcDbEntity
  8
0
100
AcDbBlockBegin
  2
*D7
 70
     1
 10
0.0
 20
0.0
 30
0.0
  3
*D7
  1

  0
LINE
  5
804A
330
7DA5
100
AcDbEntity
  8
0
  6
ByBlock
 62
     0
440
 16777216
100
AcDbLine
 10
1773.470548696075
 20
1104.717831359118
 30
0.0
 11
1773.470548696075
 21
1274.207315297095
 31
0.0
  0
LINE
  5
804B
330
7DA5
100
AcDbEntity
  8
0
  6
ByBlock
 62
     0
440
 16777216
100
AcDbLine
 10
1709.470548696075
 20
1250.392865026064
 30
0.0
 11
1709.470548696075
 21
1274.207315297095
 31
0.0
  0
LINE
  5
804C
330
7DA5
100
AcDbEntity
  8
0
  6
ByBlock
 62
     0
440
 16777216
100
AcDbLine
 10
1753.470548696074
 20
1264.207315297095
 30
0.0
 11
1729.470548696075
 21
1264.207315297095
 31
0.0
  0
MTEXT
  5
804D
330
7DA5
100
AcDbEntity
  8
0
  6
ByBlock
 62
     0
440
 16777216
100
AcDbMText
 10
1741.436911268445
 20
1292.842668742259
 30
0.0
 40
30.0
 41
0.0
 46
0.0
 71
     5
 72
     5
  1
\A1;64
 73
     1
 44
1.0
  0
INSERT
  5
804E
330
7DA5
100
AcDbEntity
  8
0
  6
ByBlock
 62
     0
440
 16777216
100
AcDbBlockReference
  2
_OPEN
 10
1773.470548696075
 20
1264.207315297095
 30
0.0
 41
20.0
 42
20.0
 43
20.0
  0
INSERT
  5
804F
330
7DA5
100
AcDbEntity
  8
0
  6
ByBlock
 62
     0
440
 16777216
100
AcDbBlockReference
  2
_OPEN
 10
1709.470548696075
 20
1264.207315297095
 30
0.0
 41
20.0
 42
20.0
 43
20.0
 50
180.0
  0
POINT
  5
8050
330
7DA5
100
AcDbEntity
  8
DEFPOINTS
  6
ByBlock
 62
     0
440
 16777216
100
AcDbPoint
 10
1773.470548696075
 20
1099.717831359118
 30
0.0
  0
POINT
  5
8051
330
7DA5
100
AcDbEntity
  8
DEFPOINTS
  6
ByBlock
 62
     0
440
 16777216
100
AcDbPoint
 10
1709.470548696075
 20
1245.392865026065
 30
0.0
  0
POINT
  5
8052
330
7DA5
100
AcDbEntity
  8
DEFPOINTS
  6
ByBlock
 62
     0
440
 16777216
100
AcDbPoint
 10
1709.470548696075
 20
1264.207315297095
 30
0.0
  0
ENDBLK
  5
8053
330
7DA5
100
AcDbEntity
  8
0
100
AcDbBlockEnd
  0
BLOCK
  5
808F
330
7DB1
100
AcDbEntity
  8
0
100
AcDbBlockBegin
  2
*D8
 70
     1
 10
0.0
 20
0.0
 30
0.0
  3
*D8
  1

  0
LINE
  5
8365
330
7DB1
100
AcDbEntity
  8
3
 62
     0
440
 16777216
370
    -2
100
AcDbLine
 10
1709.470548696075
 20
1250.392865026064
 30
0.0
 11
1709.470548696075
 21
1274.207315297095
 31
0.0
  0
LINE
  5
8366
330
7DB1
100
AcDbEntity
  8
3
 62
     0
440
 16777216
370
    -2
100
AcDbLine
 10
1293.725498300777
 20
1148.723796445237
 30
0.0
 11
1293.725498300777
 21
1274.207315297095
 31
0.0
  0
LINE
  5
8367
330
7DB1
100
AcDbEntity
  8
3
 62
     0
440
 16777216
370
    -2
100
AcDbLine
 10
1689.470548696075
 20
1264.207315297095
 30
0.0
 11
1313.725498300777
 21
1264.207315297095
 31
0.0
  0
INSERT
  5
8368
330
7DB1
100
AcDbEntity
  8
3
 62
     0
440
 16777216
370
    -2
100
AcDbBlockReference
  2
_OPEN
 10
1709.470548696075
 20
1264.207315297095
 30
0.0
 41
20.0
 42
20.0
 43
20.0
  0
INSERT
  5
8369
330
7DB1
100
AcDbEntity
  8
3
 62
     0
440
 16777216
370
    -2
100
AcDbBlockReference
  2
_OPEN
 10
1293.725498300777
 20
1264.207315297095
 30
0.0
 41
20.0
 42
20.0
 43
20.0
 50
180.0
  0
MTEXT
  5
836A
330
7DB1
100
AcDbEntity
  8
3
 62
     0
440
 16777216
100
AcDbMText
 10
1501.598023498426
 20
1322.064458154238
 30
0.0
 40
30.0
 41
0.0
 46
0.0
 71
     5
 72
     1
  1
\A1;\P(500)
 73
     1
 44
1.0
  0
POINT
  5
836B
330
7DB1
100
AcDbEntity
  8
DEFPOINTS
 62
     0
440
 16777216
100
AcDbPoint
 10
1709.470548696075
 20
1245.392865026065
 30
0.0
  0
POINT
  5
836C
330
7DB1
100
AcDbEntity
  8
DEFPOINTS
 62
     0
440
 16777216
100
AcDbPoint
 10
1293.725498300777
 20
1143.723796445237
 30
0.0
  0
POINT
  5
836D
330
7DB1
100
AcDbEntity
  8
DEFPOINTS
 62
     0
440
 16777216
100
AcDbPoint
 10
1293.725498300777
 20
1264.207315297095
 30
0.0
  0
ENDBLK
  5
8099
330
7DB1
100
AcDbEntity
  8
0
100
AcDbBlockEnd
  0
BLOCK
  5
811B
330
7DBC
100
AcDbEntity
  8
0
100
AcDbBlockBegin
  2
*D9
 70
     1
 10
0.0
 20
0.0
 30
0.0
  3
*D9
  1

  0
LINE
  5
811C
330
7DBC
100
AcDbEntity
  8
0
  6
ByBlock
 62
     0
440
 16777216
100
AcDbLine
 10
835.414866132989
 20
1966.644944746571
 30
0.0
 11
952.3106572496999
 21
1966.644944746571
 31
0.0
  0
LINE
  5
811D
330
7DBC
100
AcDbEntity
  8
0
  6
ByBlock
 62
     0
440
 16777216
100
AcDbLine
 10
835.414866132989
 20
1586.644944746571
 30
0.0
 11
952.3106572496999
 21
1586.644944746571
 31
0.0
  0
LINE
  5
811E
330
7DBC
100
AcDbEntity
  8
0
  6
ByBlock
 62
     0
440
 16777216
100
AcDbLine
 10
942.3106572496999
 20
1946.644944746571
 30
0.0
 11
942.3106572496999
 21
1606.644944746571
 31
0.0
  0
INSERT
  5
811F
330
7DBC
100
AcDbEntity
  8
0
  6
ByBlock
 62
     0
440
 16777216
100
AcDbBlockReference
  2
_OPEN
 10
942.3106572496999
 20
1966.644944746571
 30
0.0
 41
20.0
 42
20.0
 43
20.0
 50
90.0
  0
INSERT
  5
8120
330
7DBC
100
AcDbEntity
  8
0
  6
ByBlock
 62
     0
440
 16777216
100
AcDbBlockReference
  2
_OPEN
 10
942.3106572496999
 20
1586.644944746571
 30
0.0
 41
20.0
 42
20.0
 43
20.0
 50
270.0
  0
MTEXT
  5
8121
330
7DBC
100
AcDbEntity
  8
0
  6
ByBlock
 62
     0
440
 16777216
100
AcDbMText
 10
917.3106572496999
 20
1776.644944746571
 30
0.0
 40
30.0
 41
0.0
 46
0.0
 71
     5
 72
     5
  1
\A1;380
 11
0.0
 21
1.0
 31
0.0
 73
     1
 44
1.0
  0
POINT
  5
8122
330
7DBC
100
AcDbEntity
  8
DEFPOINTS
  6
ByBlock
 62
     0
440
 16777216
100
AcDbPoint
 10
830.4148661329891
 20
1966.644944746571
 30
0.0
  0
POINT
  5
8123
330
7DBC
100
AcDbEntity
  8
DEFPOINTS
  6
ByBlock
 62
     0
440
 16777216
100
AcDbPoint
 10
830.4148661329891
 20
1586.644944746571
 30
0.0
  0
POINT
  5
8124
330
7DBC
100
AcDbEntity
  8
DEFPOINTS
  6
ByBlock
 62
     0
440
 16777216
100
AcDbPoint
 10
942.3106572496999
 20
1586.644944746571
 30
0.0
  0
ENDBLK
  5
8125
330
7DBC
100
AcDbEntity
  8
0
100
AcDbBlockEnd
  0
BLOCK
  5
7F3F
330
7DD4
100
AcDbEntity
  8
0
100
AcDbBlockBegin
  2
*D10
 70
     1
 10
0.0
 20
0.0
 30
0.0
  3
*D10
  1

  0
LINE
  5
7F40
330
7DD4
100
AcDbEntity
  8
0
  6
ByBlock
 62
     0
440
 16777216
100
AcDbLine
 10
862.161110130331
 20
988.767826060976
 30
0.0
 11
961.7702654821641
 21
988.767826060976
 31
0.0
  0
LINE
  5
7F41
330
7DD4
100
AcDbEntity
  8
0
  6
ByBlock
 62
     0
440
 16777216
100
AcDbLine
 10
835.414866132989
 20
768.7678260609759
 30
0.0
 11
961.7702654821641
 21
768.7678260609759
 31
0.0
  0
LINE
  5
7F42
330
7DD4
100
AcDbEntity
  8
0
  6
ByBlock
 62
     0
440
 16777216
100
AcDbLine
 10
951.7702654821642
 20
968.7678260609761
 30
0.0
 11
951.7702654821642
 21
788.7678260609759
 31
0.0
  0
INSERT
  5
7F43
330
7DD4
100
AcDbEntity
  8
0
  6
ByBlock
 62
     0
440
 16777216
100
AcDbBlockReference
  2
_OPEN
 10
951.7702654821642
 20
988.767826060976
 30
0.0
 41
20.0
 42
20.0
 43
20.0
 50
90.0
  0
INSERT
  5
7F44
330
7DD4
100
AcDbEntity
  8
0
  6
ByBlock
 62
     0
440
 16777216
100
AcDbBlockReference
  2
_OPEN
 10
951.7702654821642
 20
768.7678260609759
 30
0.0
 41
20.0
 42
20.0
 43
20.0
 50
270.0
  0
MTEXT
  5
7F45
330
7DD4
100
AcDbEntity
  8
0
  6
ByBlock
 62
     0
440
 16777216
100
AcDbMText
 10
926.7702654821642
 20
878.7678260609759
 30
0.0
 40
30.0
 41
0.0
 46
0.0
 71
     5
 72
     5
  1
\A1;220
 11
0.0
 21
1.0
 31
0.0
 73
     1
 44
1.0
  0
POINT
  5
7F46
330
7DD4
100
AcDbEntity
  8
DEFPOINTS
  6
ByBlock
 62
     0
440
 16777216
100
AcDbPoint
 10
857.1611101303311
 20
988.767826060976
 30
0.0
  0
POINT
  5
7F47
330
7DD4
100
AcDbEntity
  8
DEFPOINTS
  6
ByBlock
 62
     0
440
 16777216
100
AcDbPoint
 10
830.4148661329891
 20
768.7678260609759
 30
0.0
  0
POINT
  5
7F48
330
7DD4
100
AcDbEntity
  8
DEFPOINTS
  6
ByBlock
 62
     0
440
 16777216
100
AcDbPoint
 10
951.7702654821642
 20
768.7678260609759
 30
0.0
  0
ENDBLK
  5
7F49
330
7DD4
100
AcDbEntity
  8
0
100
AcDbBlockEnd
  0
BLOCK
  5
7F34
330
7DE0
100
AcDbEntity
  8
0
100
AcDbBlockBegin
  2
*D11
 70
     1
 10
0.0
 20
0.0
 30
0.0
  3
*D11
  1

  0
LINE
  5
7F35
330
7DE0
100
AcDbEntity
  8
0
  6
ByBlock
 62
     0
440
 16777216
100
AcDbLine
 10
862.161110130331
 20
988.767826060976
 30
0.0
 11
961.7702654821641
 21
988.767826060976
 31
0.0
  0
LINE
  5
7F36
330
7DE0
100
AcDbEntity
  8
0
  6
ByBlock
 62
     0
440
 16777216
100
AcDbLine
 10
713.7148661329897
 20
1148.767826060976
 30
0.0
 11
961.7702654821641
 21
1148.767826060976
 31
0.0
  0
LINE
  5
7F37
330
7DE0
100
AcDbEntity
  8
0
  6
ByBlock
 62
     0
440
 16777216
100
AcDbLine
 10
951.7702654821642
 20
1008.767826060976
 30
0.0
 11
951.7702654821642
 21
1128.767826060976
 31
0.0
  0
INSERT
  5
7F38
330
7DE0
100
AcDbEntity
  8
0
  6
ByBlock
 62
     0
440
 16777216
100
AcDbBlockReference
  2
_OPEN
 10
951.7702654821642
 20
988.767826060976
 30
0.0
 41
20.0
 42
20.0
 43
20.0
 50
270.0
  0
INSERT
  5
7F39
330
7DE0
100
AcDbEntity
  8
0
  6
ByBlock
 62
     0
440
 16777216
100
AcDbBlockReference
  2
_OPEN
 10
951.7702654821642
 20
1148.767826060976
 30
0.0
 41
20.0
 42
20.0
 43
20.0
 50
90.0
  0
MTEXT
  5
7F3A
330
7DE0
100
AcDbEntity
  8
0
  6
ByBlock
 62
     0
440
 16777216
100
AcDbMText
 10
926.7702654821642
 20
1068.767826060976
 30
0.0
 40
30.0
 41
0.0
 46
0.0
 71
     5
 72
     5
  1
\A1;160
 11
0.0
 21
1.0
 31
0.0
 73
     1
 44
1.0
  0
POINT
  5
7F3B
330
7DE0
100
AcDbEntity
  8
DEFPOINTS
  6
ByBlock
 62
     0
440
 16777216
100
AcDbPoint
 10
857.1611101303311
 20
988.767826060976
 30
0.0
  0
POINT
  5
7F3C
330
7DE0
100
AcDbEntity
  8
DEFPOINTS
  6
ByBlock
 62
     0
440
 16777216
100
AcDbPoint
 10
708.7148661329897
 20
1148.767826060976
 30
0.0
  0
POINT
  5
7F3D
330
7DE0
100
AcDbEntity
  8
DEFPOINTS
  6
ByBlock
 62
     0
440
 16777216
100
AcDbPoint
 10
951.7702654821642
 20
1148.767826060976
 30
0.0
  0
ENDBLK
  5
7F3E
330
7DE0
100
AcDbEntity
  8
0
100
AcDbBlockEnd
  0
BLOCK
  5
7F29
330
7DEB
100
AcDbEntity
  8
0
100
AcDbBlockBegin
  2
*D12
 70
     1
 10
0.0
 20
0.0
 30
0.0
  3
*D12
  1

  0
LINE
  5
7F2A
330
7DEB
100
AcDbEntity
  8
0
  6
ByBlock
 62
     0
440
 16777216
100
AcDbLine
 10
680.4148661329896
 20
1170.514070058317
 30
0.0
 11
680.4148661329896
 21
1269.483549986905
 31
0.0
  0
LINE
  5
7F2B
330
7DEB
100
AcDbEntity
  8
0
  6
ByBlock
 62
     0
440
 16777216
100
AcDbLine
 10
801.9148661329895
 20
986.267826060976
 30
0.0
 11
801.9148661329895
 21
1269.483549986905
 31
0.0
  0
LINE
  5
7F2C
330
7DEB
100
AcDbEntity
  8
0
  6
ByBlock
 62
     0
440
 16777216
100
AcDbLine
 10
700.4148661329895
 20
1259.483549986905
 30
0.0
 11
781.9148661329895
 21
1259.483549986905
 31
0.0
  0
INSERT
  5
7F2D
330
7DEB
100
AcDbEntity
  8
0
  6
ByBlock
 62
     0
440
 16777216
100
AcDbBlockReference
  2
_OPEN
 10
680.4148661329896
 20
1259.483549986905
 30
0.0
 41
20.0
 42
20.0
 43
20.0
 50
180.0
  0
INSERT
  5
7F2E
330
7DEB
100
AcDbEntity
  8
0
  6
ByBlock
 62
     0
440
 16777216
100
AcDbBlockReference
  2
_OPEN
 10
801.9148661329895
 20
1259.483549986905
 30
0.0
 41
20.0
 42
20.0
 43
20.0
  0
MTEXT
  5
7F2F
330
7DEB
100
AcDbEntity
  8
0
  6
ByBlock
 62
     0
440
 16777216
100
AcDbMText
 10
741.1648661329896
 20
1284.483549986905
 30
0.0
 40
30.0
 41
0.0
 46
0.0
 71
     5
 72
     5
  1
\A1;121
 73
     1
 44
1.0
  0
POINT
  5
7F30
330
7DEB
100
AcDbEntity
  8
DEFPOINTS
  6
ByBlock
 62
     0
440
 16777216
100
AcDbPoint
 10
680.4148661329896
 20
1165.514070058317
 30
0.0
  0
POINT
  5
7F31
330
7DEB
100
AcDbEntity
  8
DEFPOINTS
  6
ByBlock
 62
     0
440
 16777216
100
AcDbPoint
 10
801.9148661329895
 20
981.2678260609761
 30
0.0
  0
POINT
  5
7F32
330
7DEB
100
AcDbEntity
  8
DEFPOINTS
  6
ByBlock
 62
     0
440
 16777216
100
AcDbPoint
 10
801.9148661329895
 20
1259.483549986905
 30
0.0
  0
ENDBLK
  5
7F33
330
7DEB
100
AcDbEntity
  8
0
100
AcDbBlockEnd
  0
BLOCK
  5
7F13
330
7E02
100
AcDbEntity
  8
0
100
AcDbBlockBegin
  2
*D13
 70
     1
 10
0.0
 20
0.0
 30
0.0
  3
*D13
  1

  0
LINE
  5
7F14
330
7E02
100
AcDbEntity
  8
0
  6
ByBlock
 62
     0
440
 16777216
100
AcDbLine
 10
801.91486613299
 20
986.267826060976
 30
0.0
 11
801.91486613299
 21
1324.215750820338
 31
0.0
  0
LINE
  5
7F15
330
7E02
100
AcDbEntity
  8
0
  6
ByBlock
 62
     0
440
 16777216
100
AcDbLine
 10
250.4148661329896
 20
813.7678260609762
 30
0.0
 11
250.4148661329896
 21
1324.215750820338
 31
0.0
  0
LINE
  5
7F16
330
7E02
100
AcDbEntity
  8
0
  6
ByBlock
 62
     0
440
 16777216
100
AcDbLine
 10
781.91486613299
 20
1314.215750820338
 30
0.0
 11
270.4148661329896
 21
1314.215750820338
 31
0.0
  0
INSERT
  5
7F17
330
7E02
100
AcDbEntity
  8
0
  6
ByBlock
 62
     0
440
 16777216
100
AcDbBlockReference
  2
_OPEN
 10
801.91486613299
 20
1314.215750820338
 30
0.0
 41
20.0
 42
20.0
 43
20.0
  0
INSERT
  5
7F18
330
7E02
100
AcDbEntity
  8
0
  6
ByBlock
 62
     0
440
 16777216
100
AcDbBlockReference
  2
_OPEN
 10
250.4148661329896
 20
1314.215750820338
 30
0.0
 41
20.0
 42
20.0
 43
20.0
 50
180.0
  0
MTEXT
  5
7F19
330
7E02
100
AcDbEntity
  8
0
  6
ByBlock
 62
     0
440
 16777216
100
AcDbMText
 10
526.1648661329898
 20
1339.215750820338
 30
0.0
 40
30.0
 41
0.0
 46
0.0
 71
     5
 72
     5
  1
\A1;551
 73
     1
 44
1.0
  0
POINT
  5
7F1A
330
7E02
100
AcDbEntity
  8
DEFPOINTS
  6
ByBlock
 62
     0
440
 16777216
100
AcDbPoint
 10
801.91486613299
 20
981.2678260609761
 30
0.0
  0
POINT
  5
7F1B
330
7E02
100
AcDbEntity
  8
DEFPOINTS
  6
ByBlock
 62
     0
440
 16777216
100
AcDbPoint
 10
250.4148661329896
 20
808.7678260609761
 30
0.0
  0
POINT
  5
7F1C
330
7E02
100
AcDbEntity
  8
DEFPOINTS
  6
ByBlock
 62
     0
440
 16777216
100
AcDbPoint
 10
250.4148661329896
 20
1314.215750820338
 30
0.0
  0
ENDBLK
  5
7F1D
330
7E02
100
AcDbEntity
  8
0
100
AcDbBlockEnd
  0
BLOCK
  5
8138
330
812B
100
AcDbEntity
  8
0
100
AcDbBlockBegin
  2
*D14
 70
     1
 10
0.0
 20
0.0
 30
0.0
  3
*D14
  1

  0
LINE
  5
8139
330
812B
100
AcDbEntity
  8
0
  6
ByBlock
 62
     0
440
 16777216
100
AcDbLine
 10
250.4148661329896
 20
1971.644944746571
 30
0.0
 11
250.4148661329896
 21
2107.583830319424
 31
0.0
  0
LINE
  5
813A
330
812B
100
AcDbEntity
  8
0
  6
ByBlock
 62
     0
440
 16777216
100
AcDbLine
 10
830.4148661329891
 20
1971.644944746571
 30
0.0
 11
830.4148661329891
 21
2107.583830319424
 31
0.0
  0
LINE
  5
813B
330
812B
100
AcDbEntity
  8
0
  6
ByBlock
 62
     0
440
 16777216
100
AcDbLine
 10
270.4148661329896
 20
2097.583830319424
 30
0.0
 11
810.414866132989
 21
2097.583830319424
 31
0.0
  0
INSERT
  5
813C
330
812B
100
AcDbEntity
  8
0
  6
ByBlock
 62
     0
440
 16777216
100
AcDbBlockReference
  2
_OPEN
 10
250.4148661329896
 20
2097.583830319424
 30
0.0
 41
20.0
 42
20.0
 43
20.0
 50
180.0
  0
INSERT
  5
813D
330
812B
100
AcDbEntity
  8
0
  6
ByBlock
 62
     0
440
 16777216
100
AcDbBlockReference
  2
_OPEN
 10
830.4148661329891
 20
2097.583830319424
 30
0.0
 41
20.0
 42
20.0
 43
20.0
  0
MTEXT
  5
813E
330
812B
100
AcDbEntity
  8
0
  6
ByBlock
 62
     0
440
 16777216
100
AcDbMText
 10
544.482847026662
 20
2122.583830319424
 30
0.0
 40
30.0
 41
0.0
 46
0.0
 71
     5
 72
     5
  1
\A1;580
 73
     1
 44
1.0
  0
POINT
  5
813F
330
812B
100
AcDbEntity
  8
DEFPOINTS
  6
ByBlock
 62
     0
440
 16777216
100
AcDbPoint
 10
250.4148661329896
 20
1966.644944746571
 30
0.0
  0
POINT
  5
8140
330
812B
100
AcDbEntity
  8
DEFPOINTS
  6
ByBlock
 62
     0
440
 16777216
100
AcDbPoint
 10
830.4148661329891
 20
1966.644944746571
 30
0.0
  0
POINT
  5
8141
330
812B
100
AcDbEntity
  8
DEFPOINTS
  6
ByBlock
 62
     0
440
 16777216
100
AcDbPoint
 10
830.4148661329891
 20
2097.583830319424
 30
0.0
  0
ENDBLK
  5
8142
330
812B
100
AcDbEntity
  8
0
100
AcDbBlockEnd
  0
BLOCK
  5
81D8
330
81D7
100
AcDbEntity
  8
0
100
AcDbBlockBegin
  2
*D15
 70
     1
 10
0.0
 20
0.0
 30
0.0
  3
*D15
  1

  0
LINE
  5
82E6
330
81D7
100
AcDbEntity
  8
3
 62
     0
440
 16777216
370
    -2
100
AcDbLine
 10
250.4148661329897
 20
653.7237964452368
 30
0.0
 11
250.4148661329897
 21
569.97769179053
 31
0.0
  0
LINE
  5
82E7
330
81D7
100
AcDbEntity
  8
3
 62
     0
440
 16777216
370
    -2
100
AcDbLine
 10
680.4148661329898
 20
653.767826060976
 30
0.0
 11
680.4148661329898
 21
569.97769179053
 31
0.0
  0
LINE
  5
82E8
330
81D7
100
AcDbEntity
  8
3
 62
     0
440
 16777216
370
    -2
100
AcDbLine
 10
270.4148661329897
 20
579.9776917905299
 30
0.0
 11
660.4148661329897
 21
579.9776917905299
 31
0.0
  0
INSERT
  5
82E9
330
81D7
100
AcDbEntity
  8
3
 62
     0
440
 16777216
370
    -2
100
AcDbBlockReference
  2
_OPEN
 10
250.4148661329897
 20
579.9776917905299
 30
0.0
 41
20.0
 42
20.0
 43
20.0
 50
180.0
  0
INSERT
  5
82EA
330
81D7
100
AcDbEntity
  8
3
 62
     0
440
 16777216
370
    -2
100
AcDbBlockReference
  2
_OPEN
 10
680.4148661329898
 20
579.9776917905299
 30
0.0
 41
20.0
 42
20.0
 43
20.0
  0
MTEXT
  5
82EB
330
81D7
100
AcDbEntity
  8
3
 62
     0
440
 16777216
100
AcDbMText
 10
465.4148661329897
 20
604.9776917905299
 30
0.0
 40
30.0
 41
0.0
 46
0.0
 71
     5
 72
     1
  1
\A1;430
 73
     1
 44
1.0
  0
POINT
  5
82EC
330
81D7
100
AcDbEntity
  8
DEFPOINTS
 62
     0
440
 16777216
100
AcDbPoint
 10
250.4148661329897
 20
658.7237964452368
 30
0.0
  0
POINT
  5
82ED
330
81D7
100
AcDbEntity
  8
DEFPOINTS
 62
     0
440
 16777216
100
AcDbPoint
 10
680.4148661329898
 20
658.767826060976
 30
0.0
  0
POINT
  5
82EE
330
81D7
100
AcDbEntity
  8
DEFPOINTS
 62
     0
440
 16777216
100
AcDbPoint
 10
680.4148661329898
 20
579.9776917905299
 30
0.0
  0
ENDBLK
  5
81E2
330
81D7
100
AcDbEntity
  8
0
100
AcDbBlockEnd
  0
BLOCK
  5
81F2
330
81F1
100
AcDbEntity
  8
0
100
AcDbBlockBegin
  2
*D16
 70
     1
 10
0.0
 20
0.0
 30
0.0
  3
*D16
  1

  0
LINE
  5
82EF
330
81F1
100
AcDbEntity
  8
3
 62
     0
440
 16777216
370
    -2
100
AcDbLine
 10
1304.470548696074
 20
653.7178313591176
 30
0.0
 11
1304.470548696074
 21
569.97769179053
 31
0.0
  0
LINE
  5
82F0
330
81F1
100
AcDbEntity
  8
3
 62
     0
440
 16777216
370
    -2
100
AcDbLine
 10
1684.470548696075
 20
653.7178313591174
 30
0.0
 11
1684.470548696075
 21
569.97769179053
 31
0.0
  0
LINE
  5
82F1
330
81F1
100
AcDbEntity
  8
3
 62
     0
440
 16777216
370
    -2
100
AcDbLine
 10
1324.470548696074
 20
579.9776917905299
 30
0.0
 11
1664.470548696075
 21
579.9776917905299
 31
0.0
  0
INSERT
  5
82F2
330
81F1
100
AcDbEntity
  8
3
 62
     0
440
 16777216
370
    -2
100
AcDbBlockReference
  2
_OPEN
 10
1304.470548696074
 20
579.9776917905299
 30
0.0
 41
20.0
 42
20.0
 43
20.0
 50
180.0
  0
INSERT
  5
82F3
330
81F1
100
AcDbEntity
  8
3
 62
     0
440
 16777216
370
    -2
100
AcDbBlockReference
  2
_OPEN
 10
1684.470548696075
 20
579.9776917905299
 30
0.0
 41
20.0
 42
20.0
 43
20.0
  0
MTEXT
  5
82F4
330
81F1
100
AcDbEntity
  8
3
 62
     0
440
 16777216
100
AcDbMText
 10
1494.470548696074
 20
604.9776917905299
 30
0.0
 40
30.0
 41
0.0
 46
0.0
 71
     5
 72
     1
  1
\A1;380
 73
     1
 44
1.0
  0
POINT
  5
82F5
330
81F1
100
AcDbEntity
  8
DEFPOINTS
 62
     0
440
 16777216
100
AcDbPoint
 10
1304.470548696074
 20
658.7178313591175
 30
0.0
  0
POINT
  5
82F6
330
81F1
100
AcDbEntity
  8
DEFPOINTS
 62
     0
440
 16777216
100
AcDbPoint
 10
1684.470548696075
 20
658.7178313591174
 30
0.0
  0
POINT
  5
82F7
330
81F1
100
AcDbEntity
  8
DEFPOINTS
 62
     0
440
 16777216
100
AcDbPoint
 10
1684.470548696075
 20
579.9776917905299
 30
0.0
  0
ENDBLK
  5
81FC
330
81F1
100
AcDbEntity
  8
0
100
AcDbBlockEnd
  0
BLOCK
  5
81FF
330
81FE
100
AcDbEntity
  8
0
100
AcDbBlockBegin
  2
*D17
 70
     1
 10
0.0
 20
0.0
 30
0.0
  3
*D17
  1

  0
LINE
  5
82F8
330
81FE
100
AcDbEntity
  8
3
 62
     0
440
 16777216
370
    -2
100
AcDbLine
 10
1684.470548696075
 20
653.7178313591174
 30
0.0
 11
1684.470548696075
 21
569.97769179053
 31
0.0
  0
LINE
  5
82F9
330
81FE
100
AcDbEntity
  8
3
 62
     0
440
 16777216
370
    -2
100
AcDbLine
 10
1709.470548696074
 20
653.7178313591174
 30
0.0
 11
1709.470548696074
 21
569.97769179053
 31
0.0
  0
LINE
  5
82FA
330
81FE
100
AcDbEntity
  8
3
 62
     0
440
 16777216
370
    -2
100
AcDbLine
 10
1664.470548696075
 20
579.9776917905299
 30
0.0
 11
1644.470548696074
 21
579.9776917905299
 31
0.0
  0
LINE
  5
82FB
330
81FE
100
AcDbEntity
  8
3
 62
     0
440
 16777216
370
    -2
100
AcDbLine
 10
1729.470548696074
 20
579.9776917905299
 30
0.0
 11
1818.041977267503
 21
579.9776917905299
 31
0.0
  0
LINE
  5
82FC
330
81FE
100
AcDbEntity
  8
3
 62
     0
440
 16777216
370
    -2
100
AcDbLine
 10
1684.470548696075
 20
579.9776917905299
 30
0.0
 11
1709.470548696074
 21
579.9776917905299
 31
0.0
  0
INSERT
  5
82FD
330
81FE
100
AcDbEntity
  8
3
 62
     0
440
 16777216
370
    -2
100
AcDbBlockReference
  2
_OPEN
 10
1684.470548696075
 20
579.9776917905299
 30
0.0
 41
20.0
 42
20.0
 43
20.0
  0
INSERT
  5
82FE
330
81FE
100
AcDbEntity
  8
3
 62
     0
440
 16777216
370
    -2
100
AcDbBlockReference
  2
_OPEN
 10
1709.470548696074
 20
579.9776917905299
 30
0.0
 41
20.0
 42
20.0
 43
20.0
 50
180.0
  0
MTEXT
  5
82FF
330
81FE
100
AcDbEntity
  8
3
 62
     0
440
 16777216
100
AcDbMText
 10
1783.756262981788
 20
604.9776917905299
 30
0.0
 40
30.0
 41
0.0
 46
0.0
 71
     5
 72
     1
  1
\A1;25
 73
     1
 44
1.0
  0
POINT
  5
8300
330
81FE
100
AcDbEntity
  8
DEFPOINTS
 62
     0
440
 16777216
100
AcDbPoint
 10
1684.470548696075
 20
658.7178313591174
 30
0.0
  0
POINT
  5
8301
330
81FE
100
AcDbEntity
  8
DEFPOINTS
 62
     0
440
 16777216
100
AcDbPoint
 10
1709.470548696074
 20
658.7178313591174
 30
0.0
  0
POINT
  5
8302
330
81FE
100
AcDbEntity
  8
DEFPOINTS
 62
     0
440
 16777216
100
AcDbPoint
 10
1709.470548696074
 20
579.9776917905299
 30
0.0
  0
ENDBLK
  5
820B
330
81FE
100
AcDbEntity
  8
0
100
AcDbBlockEnd
  0
BLOCK
  5
821B
330
821A
100
AcDbEntity
  8
0
100
AcDbBlockBegin
  2
*D18
 70
     1
 10
0.0
 20
0.0
 30
0.0
  3
*D18
  1

  0
LINE
  5
8303
330
821A
100
AcDbEntity
  8
3
 62
     0
440
 16777216
370
    -2
100
AcDbLine
 10
680.4148661329898
 20
653.767826060976
 30
0.0
 11
680.4148661329898
 21
569.97769179053
 31
0.0
  0
LINE
  5
8304
330
821A
100
AcDbEntity
  8
3
 62
     0
440
 16777216
370
    -2
100
AcDbLine
 10
830.4148661329891
 20
653.7237964452364
 30
0.0
 11
830.4148661329891
 21
569.97769179053
 31
0.0
  0
LINE
  5
8305
330
821A
100
AcDbEntity
  8
3
 62
     0
440
 16777216
370
    -2
100
AcDbLine
 10
700.4148661329898
 20
579.9776917905299
 30
0.0
 11
810.4148661329892
 21
579.9776917905299
 31
0.0
  0
INSERT
  5
8306
330
821A
100
AcDbEntity
  8
3
 62
     0
440
 16777216
370
    -2
100
AcDbBlockReference
  2
_OPEN
 10
680.4148661329898
 20
579.9776917905299
 30
0.0
 41
20.0
 42
20.0
 43
20.0
 50
180.0
  0
INSERT
  5
8307
330
821A
100
AcDbEntity
  8
3
 62
     0
440
 16777216
370
    -2
100
AcDbBlockReference
  2
_OPEN
 10
830.4148661329891
 20
579.9776917905299
 30
0.0
 41
20.0
 42
20.0
 43
20.0
  0
MTEXT
  5
8308
330
821A
100
AcDbEntity
  8
3
 62
     0
440
 16777216
100
AcDbMText
 10
755.4148661329896
 20
604.9776917905299
 30
0.0
 40
30.0
 41
0.0
 46
0.0
 71
     5
 72
     1
  1
\A1;150
 73
     1
 44
1.0
  0
POINT
  5
8309
330
821A
100
AcDbEntity
  8
DEFPOINTS
 62
     0
440
 16777216
100
AcDbPoint
 10
680.4148661329898
 20
658.767826060976
 30
0.0
  0
POINT
  5
830A
330
821A
100
AcDbEntity
  8
DEFPOINTS
 62
     0
440
 16777216
100
AcDbPoint
 10
830.4148661329891
 20
658.7237964452364
 30
0.0
  0
POINT
  5
830B
330
821A
100
AcDbEntity
  8
DEFPOINTS
 62
     0
440
 16777216
100
AcDbPoint
 10
830.4148661329891
 20
579.9776917905299
 30
0.0
  0
ENDBLK
  5
8225
330
821A
100
AcDbEntity
  8
0
100
AcDbBlockEnd
  0
BLOCK
  5
8236
330
8235
100
AcDbEntity
  8
0
100
AcDbBlockBegin
  2
*D19
 70
     1
 10
0.0
 20
0.0
 30
0.0
  3
*D19
  1

  0
LINE
  5
830C
330
8235
100
AcDbEntity
  8
3
 62
     0
440
 16777216
370
    -2
100
AcDbLine
 10
835.4148661329892
 20
698.7678260609758
 30
0.0
 11
961.6338497769412
 21
698.7678260609758
 31
0.0
  0
LINE
  5
830D
330
8235
100
AcDbEntity
  8
3
 62
     0
440
 16777216
370
    -2
100
AcDbLine
 10
835.4148661329892
 20
658.7678260609758
 30
0.0
 11
961.6338497769412
 21
658.7678260609758
 31
0.0
  0
LINE
  5
830E
330
8235
100
AcDbEntity
  8
3
 62
     0
440
 16777216
370
    -2
100
AcDbLine
 10
951.6338497769412
 20
718.7678260609758
 30
0.0
 11
951.6338497769412
 21
738.7678260609758
 31
0.0
  0
LINE
  5
830F
330
8235
100
AcDbEntity
  8
3
 62
     0
440
 16777216
370
    -2
100
AcDbLine
 10
951.6338497769412
 20
638.7678260609758
 30
0.0
 11
951.6338497769412
 21
550.1963974895471
 31
0.0
  0
LINE
  5
8310
330
8235
100
AcDbEntity
  8
3
 62
     0
440
 16777216
370
    -2
100
AcDbLine
 10
951.6338497769412
 20
698.7678260609758
 30
0.0
 11
951.6338497769412
 21
658.7678260609758
 31
0.0
  0
INSERT
  5
8311
330
8235
100
AcDbEntity
  8
3
 62
     0
440
 16777216
370
    -2
100
AcDbBlockReference
  2
_DOT
 10
951.6338497769412
 20
698.7678260609758
 30
0.0
 41
20.0
 42
20.0
 43
20.0
 50
270.0
  0
INSERT
  5
8312
330
8235
100
AcDbEntity
  8
3
 62
     0
440
 16777216
370
    -2
100
AcDbBlockReference
  2
_OPEN
 10
951.6338497769412
 20
658.7678260609758
 30
0.0
 41
20.0
 42
20.0
 43
20.0
 50
90.0
  0
MTEXT
  5
8313
330
8235
100
AcDbEntity
  8
3
 62
     0
440
 16777216
100
AcDbMText
 10
926.633849776941
 20
584.4821117752617
 30
0.0
 40
30.0
 41
0.0
 46
0.0
 71
     5
 72
     1
  1
\A1;40
 11
0.0000000000000001
 21
1.0
 31
0.0
 73
     1
 44
1.0
  0
POINT
  5
8314
330
8235
100
AcDbEntity
  8
DEFPOINTS
 62
     0
440
 16777216
100
AcDbPoint
 10
830.4148661329891
 20
698.7678260609758
 30
0.0
  0
POINT
  5
8315
330
8235
100
AcDbEntity
  8
DEFPOINTS
 62
     0
440
 16777216
100
AcDbPoint
 10
830.4148661329891
 20
658.7678260609758
 30
0.0
  0
POINT
  5
8316
330
8235
100
AcDbEntity
  8
DEFPOINTS
 62
     0
440
 16777216
100
AcDbPoint
 10
951.6338497769412
 20
658.7678260609758
 30
0.0
  0
ENDBLK
  5
8242
330
8235
100
AcDbEntity
  8
0
100
AcDbBlockEnd
  0
BLOCK
  5
8263
330
8262
100
AcDbEntity
  8
0
100
AcDbBlockBegin
  2
*D20
 70
     1
 10
0.0
 20
0.0
 30
0.0
  3
*D20
  1

  0
LINE
  5
8329
330
8262
100
AcDbEntity
  8
3
 62
     0
440
 16777216
370
    -2
100
AcDbLine
 10
835.4148661329887
 20
698.7678260609759
 30
0.0
 11
961.9199380338377
 21
698.7678260609759
 31
0.0
  0
LINE
  5
832A
330
8262
100
AcDbEntity
  8
3
 62
     0
440
 16777216
370
    -2
100
AcDbLine
 10
835.414866132989
 20
768.7237964452365
 30
0.0
 11
961.9199380338379
 21
768.7237964452365
 31
0.0
  0
LINE
  5
832B
330
8262
100
AcDbEntity
  8
3
 62
     0
440
 16777216
370
    -2
100
AcDbLine
 10
951.9199380338378
 20
718.7678260609759
 30
0.0
 11
951.9199380338378
 21
748.7237964452365
 31
0.0
  0
MTEXT
  5
832C
330
8262
100
AcDbEntity
  8
3
 62
     0
440
 16777216
100
AcDbMText
 10
996.6270817801269
 20
735.0681462425909
 30
0.0
 40
30.0
 41
0.0
 46
0.0
 71
     5
 72
     1
  1
\A1;(70)
 11
0.0000000000000001
 21
1.0
 31
0.0
 73
     1
 44
1.0
  0
INSERT
  5
832D
330
8262
100
AcDbEntity
  8
3
 62
     0
440
 16777216
370
    -2
100
AcDbBlockReference
  2
_DOT
 10
951.9199380338378
 20
698.7678260609759
 30
0.0
 41
20.0
 42
20.0
 43
20.0
 50
270.0
  0
INSERT
  5
832E
330
8262
100
AcDbEntity
  8
3
 62
     0
440
 16777216
370
    -2
100
AcDbBlockReference
  2
_OPEN
 10
951.9199380338378
 20
768.7237964452365
 30
0.0
 41
20.0
 42
20.0
 43
20.0
 50
90.0
  0
POINT
  5
832F
330
8262
100
AcDbEntity
  8
DEFPOINTS
 62
     0
440
 16777216
100
AcDbPoint
 10
830.4148661329888
 20
698.7678260609759
 30
0.0
  0
POINT
  5
8330
330
8262
100
AcDbEntity
  8
DEFPOINTS
 62
     0
440
 16777216
100
AcDbPoint
 10
830.4148661329891
 20
768.7237964452365
 30
0.0
  0
POINT
  5
8331
330
8262
100
AcDbEntity
  8
DEFPOINTS
 62
     0
440
 16777216
100
AcDbPoint
 10
951.9199380338378
 20
768.7237964452365
 30
0.0
  0
ENDBLK
  5
826D
330
8262
100
AcDbEntity
  8
0
100
AcDbBlockEnd
  0
BLOCK
  5
8270
330
826F
100
AcDbEntity
  8
0
100
AcDbBlockBegin
  2
_ORIGIN
 70
     0
 10
0.0
 20
0.0
 30
0.0
  3
_ORIGIN
  1

  0
CIRCLE
  5
8271
330
826F
100
AcDbEntity
  8
0
  6
ByBlock
 62
     0
100
AcDbCircle
 10
0.0
 20
0.0
 30
0.0
 40
0.5
  0
LINE
  5
8272
330
826F
100
AcDbEntity
  8
0
  6
ByBlock
 62
     0
100
AcDbLine
 10
-0.5
 20
0.0
 30
0.0
 11
-1.0
 21
0.0
 31
0.0
  0
ENDBLK
  5
8273
330
826F
100
AcDbEntity
  8
0
100
AcDbBlockEnd
  0
BLOCK
  5
8275
330
8274
100
AcDbEntity
  8
0
100
AcDbBlockBegin
  2
*D22
 70
     1
 10
0.0
 20
0.0
 30
0.0
  3
*D22
  1

  0
LINE
  5
8320
330
8274
100
AcDbEntity
  8
3
 62
     0
440
 16777216
370
    -2
100
AcDbLine
 10
713.7148661329897
 20
1148.767826060976
 30
0.0
 11
1052.421792114361
 21
1148.767826060976
 31
0.0
  0
LINE
  5
8321
330
8274
100
AcDbEntity
  8
3
 62
     0
440
 16777216
370
    -2
100
AcDbLine
 10
835.4148661329892
 20
658.7678260609758
 30
0.0
 11
1052.421792114361
 21
658.7678260609758
 31
0.0
  0
LINE
  5
8322
330
8274
100
AcDbEntity
  8
3
 62
     0
440
 16777216
370
    -2
100
AcDbLine
 10
1042.421792114361
 20
1128.767826060976
 30
0.0
 11
1042.421792114361
 21
678.7678260609758
 31
0.0
  0
INSERT
  5
8323
330
8274
100
AcDbEntity
  8
3
 62
     0
440
 16777216
370
    -2
100
AcDbBlockReference
  2
_OPEN
 10
1042.421792114361
 20
1148.767826060976
 30
0.0
 41
20.0
 42
20.0
 43
20.0
 50
90.0
  0
INSERT
  5
8324
330
8274
100
AcDbEntity
  8
3
 62
     0
440
 16777216
370
    -2
100
AcDbBlockReference
  2
_OPEN
 10
1042.421792114361
 20
658.7678260609758
 30
0.0
 41
20.0
 42
20.0
 43
20.0
 50
270.0
  0
MTEXT
  5
8325
330
8274
100
AcDbEntity
  8
3
 62
     0
440
 16777216
100
AcDbMText
 10
1009.564649257217
 20
903.767826060976
 30
0.0
 40
30.0
 41
0.0
 46
0.0
 71
     5
 72
     1
  1
\A1;(490)
 11
0.0000000000000001
 21
1.0
 31
0.0
 73
     1
 44
1.0
  0
POINT
  5
8326
330
8274
100
AcDbEntity
  8
DEFPOINTS
 62
     0
440
 16777216
100
AcDbPoint
 10
708.7148661329897
 20
1148.767826060976
 30
0.0
  0
POINT
  5
8327
330
8274
100
AcDbEntity
  8
DEFPOINTS
 62
     0
440
 16777216
100
AcDbPoint
 10
830.4148661329891
 20
658.7678260609758
 30
0.0
  0
POINT
  5
8328
330
8274
100
AcDbEntity
  8
DEFPOINTS
 62
     0
440
 16777216
100
AcDbPoint
 10
1042.421792114361
 20
658.7678260609758
 30
0.0
  0
ENDBLK
  5
827F
330
8274
100
AcDbEntity
  8
0
100
AcDbBlockEnd
  0
ENDSEC
  0
SECTION
  2
ENTITIES
  0
INSERT
  5
7C15
330
19
100
AcDbEntity
  8
0
100
AcDbBlockReference
  2
YA_N
 10
2724.161206490659
 20
327.0207551769345
 30
0.0
  0
INSERT
  5
7C16
330
19
100
AcDbEntity
  8
0
100
AcDbBlockReference
  2
YA_N
 10
2724.161206490659
 20
327.0207551769345
 30
0.0
  0
LINE
  5
7C18
330
19
100
AcDbEntity
  8
1
100
AcDbLine
 10
1547.170548696074
 20
808.7178313591175
 30
0.0
 11
1347.170548696074
 21
808.7178313591175
 31
0.0
  0
LINE
  5
7C19
330
19
100
AcDbEntity
  8
1
100
AcDbLine
 10
1304.470548696074
 20
808.7178313591177
 30
0.0
 11
1684.470548696074
 21
808.7178313591174
 31
0.0
  0
LINE
  5
7C1A
330
19
100
AcDbEntity
  8
1
100
AcDbLine
 10
1304.470548696074
 20
768.7178313591176
 30
0.0
 11
1684.470548696075
 21
768.7178313591174
 31
0.0
  0
LINE
  5
7C1B
330
19
100
AcDbEntity
  8
1
100
AcDbLine
 10
1372.170548696074
 20
949.9178313591171
 30
0.0
 11
1622.170548696075
 21
949.9178313591174
 31
0.0
  0
LINE
  5
7C1C
330
19
100
AcDbEntity
  8
1
100
AcDbLine
 10
1372.170548696074
 20
952.2178313591176
 30
0.0
 11
1622.170548696075
 21
952.2178313591176
 31
0.0
  0
LINE
  5
7C1D
330
19
100
AcDbEntity
  8
2
100
AcDbLine
 10
1311.217040975531
 20
988.7178313591176
 30
0.0
 11
1805.952072675902
 21
988.7178313591176
 31
0.0
  0
LINE
  5
7C1E
330
19
100
AcDbEntity
  8
1
100
AcDbLine
 10
807.029177778571
 20
1143.723796445237
 30
0.0
 11
277.029177778571
 21
1143.723796445237
 31
0.0
  0
LINE
  5
7C1F
330
19
100
AcDbEntity
  8
1
100
AcDbLine
 10
692.5265067103205
 20
945.4283733357101
 30
0.0
 11
375.2179823941717
 21
865.7973838412067
 31
0.0
  0
LINE
  5
7C20
330
19
100
AcDbEntity
  8
1
100
AcDbLine
 10
670.9539886593898
 20
1032.762050652728
 30
0.0
 11
348.8515714430343
 21
972.5385450064509
 31
0.0
  0
LINE
  5
7C21
330
19
100
AcDbEntity
  8
1
100
AcDbLine
 10
277.029177778571
 20
1143.723796445237
 30
0.0
 11
277.029177778571
 21
808.723796445237
 31
0.0
  0
LINE
  5
7C22
330
19
100
AcDbEntity
  8
1
100
AcDbLine
 10
265.4148661329898
 20
808.7678260609761
 30
0.0
 11
455.4148661329902
 21
808.7678260609761
 31
0.0
  0
LINE
  5
7C23
330
19
100
AcDbEntity
  8
1
100
AcDbLine
 10
250.4148661329896
 20
808.7678260609761
 30
0.0
 11
250.4148661329896
 21
768.723796445237
 31
0.0
  0
CIRCLE
  5
7C24
330
19
100
AcDbEntity
  8
1
100
AcDbCircle
 10
360.4148661329898
 20
918.7678260609761
 30
0.0
 40
55.0
  0
LINE
  5
7C25
330
19
100
AcDbEntity
  8
2
100
AcDbLine
 10
457.5734116086366
 20
918.7678260609761
 30
0.0
 11
266.0281863586031
 21
918.7678260609761
 31
0.0
  0
LINE
  5
7C26
330
19
100
AcDbEntity
  8
2
100
AcDbLine
 10
360.4148661329898
 20
1000.157326060976
 30
0.0
 11
360.4148661329898
 21
790.7734279014664
 31
0.0
  0
LINE
  5
7C27
330
19
100
AcDbEntity
  8
1
100
AcDbLine
 10
1379.170548696074
 20
949.9178313591171
 30
0.0
 11
1379.170548696074
 21
808.7178313591175
 31
0.0
  0
LINE
  5
7C28
330
19
100
AcDbEntity
  8
2
100
AcDbLine
 10
680.4148661329896
 20
1167.323889856209
 30
0.0
 11
680.4148661329898
 21
658.7678260609759
 31
0.0
  0
LINE
  5
7C29
330
19
100
AcDbEntity
  8
1
100
AcDbLine
 10
580.4148661329896
 20
949.0678260609762
 30
0.0
 11
580.4148661329896
 21
808.7237964452366
 31
0.0
  0
LINE
  5
7C2A
330
19
100
AcDbEntity
  8
1
100
AcDbLine
 10
807.029177778571
 20
808.723796445237
 30
0.0
 11
807.029177778571
 21
1143.723796445237
 31
0.0
  0
LINE
  5
7C2B
330
19
100
AcDbEntity
  8
1
100
AcDbLine
 10
780.4148661329896
 20
949.0678260609762
 30
0.0
 11
780.4148661329896
 21
808.7237964452365
 31
0.0
  0
LINE
  5
7C2C
330
19
100
AcDbEntity
  8
1
100
AcDbLine
 10
1368.725498300777
 20
817.7178313591177
 30
0.0
 11
1368.725498300777
 21
856.6624436938754
 31
0.0
  0
LINE
  5
7C2D
330
19
100
AcDbEntity
  8
1
100
AcDbLine
 10
1293.725498300777
 20
817.7178313591177
 30
0.0
 11
1293.725498300777
 21
1143.723796445237
 31
0.0
  0
LINE
  5
7C2E
330
19
100
AcDbEntity
  8
1
100
AcDbLine
 10
1368.725498300777
 20
817.7178313591175
 30
0.0
 11
1293.725498300777
 21
817.7178313591175
 31
0.0
  0
LINE
  5
7C2F
330
19
100
AcDbEntity
  8
1
100
AcDbLine
 10
830.4148661329891
 20
808.7678260609759
 30
0.0
 11
830.4148661329891
 21
768.7237964452365
 31
0.0
  0
POINT
  5
7C30
330
19
100
AcDbEntity
  8
1
100
AcDbPoint
 10
1344.470548696074
 20
768.7178313591175
 30
0.0
  0
POINT
  5
7C31
330
19
100
AcDbEntity
  8
1
100
AcDbPoint
 10
1376.870548696074
 20
808.7178313591175
 30
0.0
  0
POINT
  5
7C32
330
19
100
AcDbEntity
  8
1
100
AcDbPoint
 10
1376.870548696074
 20
808.7178313591175
 30
0.0
  0
ARC
  5
7C33
330
19
100
AcDbEntity
  8
1
100
AcDbCircle
 10
672.91486613299
 20
981.2678260609761
 30
0.0
 40
129.0
100
AcDbArc
 50
270.0
 51
0.0
  0
ARC
  5
7C34
330
19
100
AcDbEntity
  8
1
100
AcDbCircle
 10
687.9148661329895
 20
981.2678260609761
 30
0.0
 40
114.0
100
AcDbArc
 50
0.0
 51
90.0
  0
LINE
  5
7C35
330
19
100
AcDbEntity
  8
2
100
AcDbLine
 10
857.1611101303311
 20
988.767826060976
 30
0.0
 11
504.2425533697492
 21
988.767826060976
 31
0.0
  0
LINE
  5
7C36
330
19
100
AcDbEntity
  8
1
100
AcDbLine
 10
588.1148661329894
 20
1052.267831359117
 30
0.0
 11
588.1148661329894
 21
952.267826060976
 31
0.0
  0
LINE
  5
7C37
330
19
100
AcDbEntity
  8
1
100
AcDbLine
 10
582.1148661329893
 20
1052.267831359117
 30
0.0
 11
582.1148661329893
 21
952.267826060976
 31
0.0
  0
LINE
  5
7C38
330
19
100
AcDbEntity
  8
1
100
AcDbLine
 10
778.7148661329893
 20
1052.267831359117
 30
0.0
 11
778.7148661329897
 21
952.267826060976
 31
0.0
  0
LINE
  5
7C39
330
19
100
AcDbEntity
  8
1
100
AcDbLine
 10
772.7148661329892
 20
1052.267831359117
 30
0.0
 11
772.7148661329898
 21
952.267826060976
 31
0.0
  0
LINE
  5
7C3A
330
19
100
AcDbEntity
  8
1
100
AcDbLine
 10
526.4148661329896
 20
1128.767826060975
 30
0.0
 11
528.9922438868853
 21
991.5477830733408
 31
0.0
  0
ARC
  5
7C3B
330
19
100
AcDbEntity
  8
1
100
AcDbCircle
 10
672.91486613299
 20
996.2678260609761
 30
0.0
 40
144.0
100
AcDbArc
 50
180.0000000000018
 51
270.0
  0
CIRCLE
  5
7C3C
330
19
100
AcDbEntity
  8
1
100
AcDbCircle
 10
680.4148661329896
 20
878.7237964452367
 30
0.0
 40
60.0
  0
LINE
  5
7C3E
330
19
100
AcDbEntity
  8
1
100
AcDbLine
 10
785.4148661329896
 20
949.0678260609762
 30
0.0
 11
575.4148661329895
 21
949.0678260609762
 31
0.0
  0
LINE
  5
7C3F
330
19
100
AcDbEntity
  8
1
100
AcDbLine
 10
785.4148661329896
 20
952.267826060976
 30
0.0
 11
575.4148661329895
 21
952.267826060976
 31
0.0
  0
CIRCLE
  5
7C40
330
19
100
AcDbEntity
  8
1
100
AcDbCircle
 10
680.4148661329896
 20
988.767826060976
 30
0.0
 40
45.0
  0
LINE
  5
7C41
330
19
100
AcDbEntity
  8
1
100
AcDbLine
 10
605.4148661329896
 20
955.467826060976
 30
0.0
 11
755.4148661329896
 21
955.467826060976
 31
0.0
  0
LINE
  5
7C42
330
19
100
AcDbEntity
  8
1
100
AcDbLine
 10
755.4148661329896
 20
952.267826060976
 30
0.0
 11
605.4148661329896
 21
952.267826060976
 31
0.0
  0
LINE
  5
7C43
330
19
100
AcDbEntity
  8
1
100
AcDbLine
 10
575.4148661329895
 20
952.267826060976
 30
0.0
 11
575.4148661329895
 21
949.0678260609762
 31
0.0
  0
LINE
  5
7C44
330
19
100
AcDbEntity
  8
1
100
AcDbLine
 10
605.4148661329896
 20
952.267826060976
 30
0.0
 11
605.4148661329896
 21
955.467826060976
 31
0.0
  0
LINE
  5
7C45
330
19
100
AcDbEntity
  8
1
100
AcDbLine
 10
755.4148661329896
 20
955.467826060976
 30
0.0
 11
755.4148661329896
 21
952.267826060976
 31
0.0
  0
LINE
  5
7C46
330
19
100
AcDbEntity
  8
1
100
AcDbLine
 10
785.4148661329896
 20
952.267826060976
 30
0.0
 11
785.4148661329896
 21
949.0678260609762
 31
0.0
  0
LINE
  5
7C47
330
19
100
AcDbEntity
  8
1
100
AcDbLine
 10
504.115175127416
 20
1128.767826060976
 30
0.0
 11
708.7148661329897
 21
1128.767826060976
 31
0.0
  0
LINE
  5
7C48
330
19
100
AcDbEntity
  8
1
100
AcDbLine
 10
504.115175127416
 20
1148.767826060976
 30
0.0
 11
708.7148661329897
 21
1148.767826060976
 31
0.0
  0
LINE
  5
7C49
330
19
100
AcDbEntity
  8
1
100
AcDbLine
 10
504.115175127416
 20
1128.767826060976
 30
0.0
 11
504.115175127416
 21
1148.767826060976
 31
0.0
  0
LINE
  5
7C4A
330
19
100
AcDbEntity
  8
1
100
AcDbLine
 10
588.1148661329894
 20
1052.267831359117
 30
0.0
 11
582.1148661329893
 21
1052.267831359117
 31
0.0
  0
CIRCLE
  5
7C4B
330
19
100
AcDbEntity
  8
1
100
AcDbCircle
 10
657.41486613299
 20
1096.740459150788
 30
0.0
 40
6.0
  0
LINE
  5
7C4C
330
19
100
AcDbEntity
  8
1
100
AcDbLine
 10
686.4148661329895
 20
1128.767826060976
 30
0.0
 11
686.4148661329895
 21
1095.256461772354
 31
0.0
  0
ARC
  5
7C4D
330
19
100
AcDbEntity
  8
1
100
AcDbCircle
 10
687.9148661329895
 20
996.2678260609761
 30
0.0
 40
99.0
100
AcDbArc
 50
90.0
 51
106.8864669975615
  0
LINE
  5
7C4E
330
19
100
AcDbEntity
  8
1
100
AcDbLine
 10
708.7148661329897
 20
1148.767826060976
 30
0.0
 11
708.7148661329897
 21
1128.767826060976
 31
0.0
  0
LINE
  5
7C4F
330
19
100
AcDbEntity
  8
1
100
AcDbLine
 10
778.7148661329893
 20
1052.267831359117
 30
0.0
 11
772.7148661329892
 21
1052.267831359117
 31
0.0
  0
LINE
  5
7C50
330
19
100
AcDbEntity
  8
1
100
AcDbLine
 10
1346.225498300777
 20
1033.717831359117
 30
0.0
 11
1346.225498300777
 21
864.7178313591176
 31
0.0
  0
LINE
  5
7C51
330
19
100
AcDbEntity
  8
1
100
AcDbLine
 10
1316.225498300777
 20
1033.717831359117
 30
0.0
 11
1316.225498300777
 21
864.7178313591176
 31
0.0
  0
LINE
  5
7C52
330
19
100
AcDbEntity
  8
2
100
AcDbLine
 10
1312.833250091607
 20
918.723796445237
 30
0.0
 11
1384.872746997567
 21
918.723796445237
 31
0.0
  0
LINE
  5
7C53
330
19
100
AcDbEntity
  8
1
100
AcDbLine
 10
1346.225498300777
 20
864.7178313591176
 30
0.0
 11
1316.225498300777
 21
864.7178313591176
 31
0.0
  0
LINE
  5
7C54
330
19
100
AcDbEntity
  8
1
100
AcDbLine
 10
1356.225498300777
 20
978.7178313591175
 30
0.0
 11
1622.170548696074
 21
978.7178313591175
 31
0.0
  0
LINE
  5
7C55
330
19
100
AcDbEntity
  8
1
100
AcDbLine
 10
1356.225498300777
 20
998.7178313591174
 30
0.0
 11
1622.170548696074
 21
998.7178313591174
 31
0.0
  0
LINE
  5
7C56
330
19
100
AcDbEntity
  8
1
100
AcDbLine
 10
1356.225498300777
 20
998.7178313591176
 30
0.0
 11
1356.225498300777
 21
978.7178313591175
 31
0.0
  0
LINE
  5
7C57
330
19
100
AcDbEntity
  8
1
100
AcDbLine
 10
1346.225498300777
 20
974.7178313591176
 30
0.0
 11
1316.225498300777
 21
974.7178313591176
 31
0.0
  0
LINE
  5
7C58
330
19
100
AcDbEntity
  8
1
100
AcDbLine
 10
1316.225498300777
 20
943.7178313591177
 30
0.0
 11
1346.225498300777
 21
943.7178313591177
 31
0.0
  0
LINE
  5
7C59
330
19
100
AcDbEntity
  8
1
100
AcDbLine
 10
1372.170548696074
 20
952.2178313591176
 30
0.0
 11
1372.170548696074
 21
949.9178313591171
 31
0.0
  0
LINE
  5
7C5A
330
19
100
AcDbEntity
  8
1
100
AcDbLine
 10
1346.225498300777
 20
979.2178313591174
 30
0.0
 11
1356.225498300777
 21
979.2178313591175
 31
0.0
  0
LINE
  5
7C5B
330
19
100
AcDbEntity
  8
1
100
AcDbLine
 10
1316.225498300777
 20
1033.717831359117
 30
0.0
 11
1346.225498300777
 21
1033.717831359117
 31
0.0
  0
LINE
  5
7C5C
330
19
100
AcDbEntity
  8
1
100
AcDbLine
 10
1346.225498300777
 20
998.2178313591175
 30
0.0
 11
1356.225498300777
 21
998.2178313591175
 31
0.0
  0
LINE
  5
7C5D
330
19
100
AcDbEntity
  8
1
100
AcDbLine
 10
1293.725498300777
 20
1143.723796445237
 30
0.0
 11
1368.725498300777
 21
1143.723796445237
 31
0.0
  0
LINE
  5
7C62
330
19
100
AcDbEntity
  8
1
100
AcDbLine
 10
290.4148661329891
 20
1586.644944746571
 30
0.0
 11
290.4148661329891
 21
1658.648447119512
 31
0.0
  0
LINE
  5
7C63
330
19
100
AcDbEntity
  8
1
100
AcDbLine
 10
250.4148661329891
 20
1626.644944746571
 30
0.0
 11
250.4148661329891
 21
1926.644944746571
 31
0.0
  0
LINE
  5
7C64
330
19
100
AcDbEntity
  8
2
100
AcDbLine
 10
360.4148661329896
 20
1590.022334086263
 30
0.0
 11
360.41486613299
 21
1932.974072343442
 31
0.0
  0
LINE
  5
7C65
330
19
100
AcDbEntity
  8
1
100
AcDbLine
 10
250.4148661329891
 20
1586.644944746571
 30
0.0
 11
250.4148661329891
 21
1626.644944746571
 31
0.0
  0
LINE
  5
7C66
330
19
100
AcDbEntity
  8
1
100
AcDbLine
 10
250.4148661329891
 20
1926.644944746571
 30
0.0
 11
250.4148661329896
 21
1966.64494474657
 31
0.0
  0
LINE
  5
7C67
330
19
100
AcDbEntity
  8
2
100
AcDbLine
 10
680.4148661329896
 20
1593.27534224014
 30
0.0
 11
680.4148661329905
 21
2073.389675861131
 31
0.0
  0
LINE
  5
7C68
330
19
100
AcDbEntity
  8
1
100
AcDbLine
 10
830.4148661329891
 20
1626.644944746571
 30
0.0
 11
830.4148661329891
 21
1966.644944746571
 31
0.0
  0
LINE
  5
7C69
330
19
100
AcDbEntity
  8
1
100
AcDbLine
 10
790.4148661329891
 20
1586.644944746571
 30
0.0
 11
790.4148661329891
 21
1930.148447119512
 31
0.0
  0
LINE
  5
7C6A
330
19
100
AcDbEntity
  8
1
100
AcDbLine
 10
830.4148661329891
 20
1586.644944746571
 30
0.0
 11
830.4148661329891
 21
1626.644944746571
 31
0.0
  0
LINE
  5
7C6B
330
19
100
AcDbEntity
  8
1
100
AcDbLine
 10
830.4148661329891
 20
1926.644944746571
 30
0.0
 11
830.4148661329891
 21
1966.64494474657
 31
0.0
  0
LINE
  5
7C6D
330
19
100
AcDbEntity
  8
2
100
AcDbLine
 10
1709.470548696075
 20
1204.002788878421
 30
0.0
 11
1709.470548696074
 21
658.7178313591175
 31
0.0
  0
LINE
  5
7C6E
330
19
100
AcDbEntity
  8
1
100
AcDbLine
 10
1793.470548696075
 20
900.7178313591177
 30
0.0
 11
1773.470548696075
 21
900.7178313591177
 31
0.0
  0
LINE
  5
7C6F
330
19
100
AcDbEntity
  8
1
100
AcDbLine
 10
1773.470548696075
 20
988.7178313591176
 30
0.0
 11
1773.470548696075
 21
877.7178313591177
 31
0.0
  0
LINE
  5
7C71
330
19
100
AcDbEntity
  8
1
100
AcDbLine
 10
1769.470548696074
 20
1128.767826060976
 30
0.0
 11
1769.470548696074
 21
997.0678260609767
 31
0.0
  0
LINE
  5
7C72
330
19
100
AcDbEntity
  8
1
100
AcDbLine
 10
1649.470548696074
 20
1128.767826060976
 30
0.0
 11
1649.470548696074
 21
997.0678260609764
 31
0.0
  0
LINE
  5
7C75
330
19
100
AcDbEntity
  8
1
100
AcDbLine
 10
1769.470548696074
 20
997.0678260609766
 30
0.0
 11
1769.470548696074
 21
988.7178313591176
 31
0.0
  0
LINE
  5
7C76
330
19
100
AcDbEntity
  8
1
100
AcDbLine
 10
1649.470548696074
 20
997.0678260609764
 30
0.0
 11
1649.470548696074
 21
988.7178313591176
 31
0.0
  0
LINE
  5
7C78
330
19
100
AcDbEntity
  8
1
100
AcDbLine
 10
1649.470548696075
 20
852.7678260609761
 30
0.0
 11
1769.470548696074
 21
852.7678260609764
 31
0.0
  0
LINE
  5
7C7B
330
19
100
AcDbEntity
  8
1
100
AcDbLine
 10
1773.470548696075
 20
900.7178313591177
 30
0.0
 11
1773.470548696075
 21
880.7178313591176
 31
0.0
  0
LINE
  5
7C7C
330
19
100
AcDbEntity
  8
1
100
AcDbLine
 10
1769.470548696074
 20
877.7178313591178
 30
0.0
 11
1773.470548696075
 21
877.7178313591175
 31
0.0
  0
LINE
  5
7C7D
330
19
100
AcDbEntity
  8
1
100
AcDbLine
 10
1627.170548696074
 20
988.7178313591176
 30
0.0
 11
1627.170548696074
 21
988.7178313591176
 31
0.0
  0
LINE
  5
7C7E
330
19
100
AcDbEntity
  8
1
100
AcDbLine
 10
1649.470548696074
 20
997.0678260609764
 30
0.0
 11
1649.470548696074
 21
992.7018542517199
 31
0.0
  0
LINE
  5
7C81
330
19
100
AcDbEntity
  8
1
100
AcDbLine
 10
1622.170548696074
 20
1052.267831359117
 30
0.0
 11
1647.170548696075
 21
1052.267831359117
 31
0.0
  0
POINT
  5
7C82
330
19
100
AcDbEntity
  8
1
100
AcDbPoint
 10
1709.470548696075
 20
1140.834463785148
 30
0.0
  0
LINE
  5
7C83
330
19
100
AcDbEntity
  8
1
100
AcDbLine
 10
1776.470548696074
 20
988.7178313591176
 30
0.0
 11
1776.470548696075
 21
900.7178313591177
 31
0.0
  0
ARC
  5
7C84
330
19
100
AcDbEntity
  8
1
100
AcDbCircle
 10
360.4148661329898
 20
918.7678260609761
 30
0.0
 40
85.000008
100
AcDbArc
 50
180.0
 51
244.082274
  0
ARC
  5
7C85
330
19
100
AcDbEntity
  8
1
100
AcDbCircle
 10
360.4148661329898
 20
918.7678260609761
 30
0.0
 40
85.0
100
AcDbArc
 50
295.875534
 51
180.0
  0
LINE
  5
7C86
330
19
100
AcDbEntity
  8
1
100
AcDbLine
 10
397.5103651329898
 20
842.3168980609762
 30
0.0
 11
323.2630571329898
 21
842.3168980609762
 31
0.0
  0
LINE
  5
7C87
330
19
100
AcDbEntity
  8
1
100
AcDbLine
 10
442.1894636987538
 20
838.7678260609758
 30
0.0
 11
422.7380341329896
 21
860.9493220609762
 31
0.0
  0
LINE
  5
7C88
330
19
100
AcDbEntity
  8
1
100
AcDbLine
 10
437.9148661329898
 20
838.7678260609762
 30
0.0
 11
402.9148661329897
 21
838.7678260609762
 31
0.0
  0
LINE
  5
7C89
330
19
100
AcDbEntity
  8
1
100
AcDbLine
 10
278.6403574583951
 20
838.7678260609762
 30
0.0
 11
298.0935581329898
 21
860.9514640609761
 31
0.0
  0
LINE
  5
7C8A
330
19
100
AcDbEntity
  8
1
100
AcDbLine
 10
282.9148661329898
 20
838.7678260609762
 30
0.0
 11
317.9148661329898
 21
838.7678260609762
 31
0.0
  0
LINE
  5
7C8B
330
19
100
AcDbEntity
  8
1
100
AcDbLine
 10
257.9148661329898
 20
838.7678260609762
 30
0.0
 11
360.4148661329898
 21
838.7678260609762
 31
0.0
  0
LINE
  5
7C8C
330
19
100
AcDbEntity
  8
1
100
AcDbLine
 10
257.9148661329898
 20
838.7678260609762
 30
0.0
 11
252.9148661329898
 21
808.7678260609761
 31
0.0
  0
LINE
  5
7C8D
330
19
100
AcDbEntity
  8
1
100
AcDbLine
 10
462.9148661329898
 20
838.7678260609758
 30
0.0
 11
467.9148661329898
 21
808.7678260609759
 31
0.0
  0
LINE
  5
7C8E
330
19
100
AcDbEntity
  8
1
100
AcDbLine
 10
360.4148661329898
 20
838.7678260609762
 30
0.0
 11
462.9148661329898
 21
838.7678260609758
 31
0.0
  0
LINE
  5
7C8F
330
19
100
AcDbEntity
  8
1
100
AcDbLine
 10
830.4148661329891
 20
1966.644944746571
 30
0.0
 11
801.9148661329897
 21
1966.644944746571
 31
0.0
  0
LINE
  5
7C90
330
19
100
AcDbEntity
  8
1
100
AcDbLine
 10
830.4148661329891
 20
1586.644944746571
 30
0.0
 11
250.4148661329891
 21
1586.644944746571
 31
0.0
  0
DIMENSION
  5
7C95
330
19
100
AcDbEntity
  8
3
100
AcDbDimension
280
     0
  2
*D3
 10
686.4148661329895
 20
1203.610104278246
 30
0.0
 11
606.4148661329896
 21
1228.610104278246
 31
0.0
 70
    32
 71
     5
 42
-1.0
 73
     0
 74
     0
 75
     0
  3
IGA
100
AcDbAlignedDimension
 13
526.4148661329896
 23
1128.767826060976
 33
0.0
 14
686.4148661329895
 24
1128.767826060976
 34
0.0
 50
180.0
100
AcDbRotatedDimension
1001
ACAD
1000
DSTYLE
1002
{
1070
    40
1040
10.0
1070
   143
1040
0.039
1070
   172
1070
     1
1070
   271
1070
     0
1070
   279
1070
     0
1070
   288
1070
     1
1002
}
  0
DIMENSION
  5
7C96
330
19
100
AcDbEntity
  8
3
100
AcDbDimension
280
     0
  2
*D4
 10
680.4148661329896
 20
1259.483549986905
 30
0.0
 11
603.4148661329895
 21
1284.483549986905
 31
0.0
 70
    32
 71
     5
 42
-1.0
 73
     0
 74
     0
 75
     0
  3
IGA
100
AcDbAlignedDimension
 13
526.4148661329896
 23
1128.767826060976
 33
0.0
 14
680.4148661329896
 24
1165.514070058317
 34
0.0
 50
180.0
100
AcDbRotatedDimension
1001
ACAD
1000
DSTYLE
1002
{
1070
    40
1040
10.0
1070
   143
1040
0.039
1070
   172
1070
     1
1070
   271
1070
     0
1070
   279
1070
     0
1070
   288
1070
     1
1002
}
  0
LINE
  5
7C97
330
19
100
AcDbEntity
  8
1
100
AcDbLine
 10
830.4148661329891
 20
768.7678260609759
 30
0.0
 11
250.4148661329896
 21
768.767826060976
 31
0.0
  0
LINE
  5
7C98
330
19
100
AcDbEntity
  8
1
100
AcDbLine
 10
830.4148661329886
 20
808.7678260609759
 30
0.0
 11
250.4148661329896
 21
808.7678260609761
 31
0.0
  0
LINE
  5
7CA7
330
19
100
AcDbEntity
  8
1
100
AcDbLine
 10
1769.470548696074
 20
988.7178313591176
 30
0.0
 11
1769.470548696074
 21
852.7178313591178
 31
0.0
  0
LINE
  5
7CA8
330
19
100
AcDbEntity
  8
1
100
AcDbLine
 10
1649.470548696073
 20
988.7178313591176
 30
0.0
 11
1649.470548696075
 21
808.7178313591174
 31
0.0
  0
LINE
  5
7CAB
330
19
100
AcDbEntity
  8
1
100
AcDbLine
 10
1793.470548696075
 20
1076.717831359117
 30
0.0
 11
1793.470548696075
 21
900.7178313591175
 31
0.0
  0
LINE
  5
7CAC
330
19
100
AcDbEntity
  8
1
100
AcDbLine
 10
1793.470548696075
 20
1076.717831359117
 30
0.0
 11
1791.770548696075
 21
1076.717831359117
 31
0.0
  0
ARC
  5
7CAD
330
19
100
AcDbEntity
  8
1
100
AcDbCircle
 10
1791.470548696075
 20
1077.717831359117
 30
0.0
 40
2.0
100
AcDbArc
 50
0.0
 51
90.0
  0
LINE
  5
7CAE
330
19
100
AcDbEntity
  8
1
100
AcDbLine
 10
1793.470548696075
 20
1077.717831359117
 30
0.0
 11
1793.470548696075
 21
1076.717831359117
 31
0.0
  0
LINE
  5
7CAF
330
19
100
AcDbEntity
  8
1
100
AcDbLine
 10
1776.470548696075
 20
882.7178313591177
 30
0.0
 11
1776.470548696075
 21
893.7178313591177
 31
0.0
  0
LINE
  5
7CB0
330
19
100
AcDbEntity
  8
1
100
AcDbLine
 10
1773.470548696075
 20
880.7178313591176
 30
0.0
 11
1773.470548696075
 21
900.7178313591177
 31
0.0
  0
LINE
  5
7CB1
330
19
100
AcDbEntity
  8
1
100
AcDbLine
 10
1780.470548696075
 20
897.7178313591176
 30
0.0
 11
1791.470548696075
 21
897.7178313591176
 31
0.0
  0
LINE
  5
7CB2
330
19
100
AcDbEntity
  8
1
100
AcDbLine
 10
1773.470548696075
 20
900.7178313591177
 30
0.0
 11
1793.470548696075
 21
900.7178313591177
 31
0.0
  0
ARC
  5
7CB3
330
19
100
AcDbEntity
  8
1
100
AcDbCircle
 10
1780.470548696075
 20
893.7178313591177
 30
0.0
 40
4.0
100
AcDbArc
 50
90.0
 51
180.0
  0
LINE
  5
7CB4
330
19
100
AcDbEntity
  8
1
100
AcDbLine
 10
1793.470548696075
 20
900.7178313591177
 30
0.0
 11
1793.470548696075
 21
899.7178313591176
 31
0.0
  0
ARC
  5
7CB5
330
19
100
AcDbEntity
  8
1
100
AcDbCircle
 10
1791.470548696075
 20
899.7178313591176
 30
0.0
 40
2.0
100
AcDbArc
 50
270.0
 51
0.0
  0
ARC
  5
7CB6
330
19
100
AcDbEntity
  8
1
100
AcDbCircle
 10
1774.470548696075
 20
882.7178313591177
 30
0.0
 40
2.0
100
AcDbArc
 50
270.0
 51
0.0
  0
LINE
  5
7CB7
330
19
100
AcDbEntity
  8
1
100
AcDbLine
 10
1774.470548696075
 20
880.7178313591178
 30
0.0
 11
1773.470548696075
 21
880.7178313591176
 31
0.0
  0
DIMENSION
  5
7CB8
330
19
100
AcDbEntity
  8
3
100
AcDbDimension
280
     0
  2
*D5
 10
1874.111212505611
 20
900.7178313591177
 30
0.0
 11
1849.111212505611
 21
988.7178313591176
 31
0.0
 70
    32
 71
     5
 42
-1.0
 73
     0
 74
     0
 75
     0
  3
IGA
100
AcDbAlignedDimension
 13
1793.470548696075
 23
1076.717831359117
 33
0.0
 14
1793.470548696075
 24
900.7178313591177
 34
0.0
 50
90.0
100
AcDbRotatedDimension
1001
ACAD
1000
DSTYLE
1002
{
1070
     3
1000
φ<>
1070
    40
1040
10.0
1070
   143
1040
0.039
1070
   172
1070
     1
1070
   271
1070
     0
1070
   279
1070
     0
1070
   288
1070
     1
1002
}
  0
DIMENSION
  5
7CB9
330
19
100
AcDbEntity
  8
3
100
AcDbDimension
280
     0
  2
*D6
 10
1769.470548696074
 20
1196.097824364813
 30
0.0
 11
1708.602270855231
 21
1221.602971161809
 31
0.0
 70
   160
 71
     5
 42
-1.0
 73
     0
 74
     0
 75
     0
  3
IGA
100
AcDbAlignedDimension
 13
1649.470548696074
 23
1122.753868577447
 33
0.0
 14
1769.470548696074
 24
1122.753868577446
 34
0.0
100
AcDbRotatedDimension
1001
ACAD
1000
DSTYLE
1002
{
1070
   288
1070
     1
1070
   172
1070
     1
1070
    40
1040
10.0
1070
   271
1070
     0
1070
   143
1040
0.039
1002
}
  0
DIMENSION
  5
7CBA
330
19
100
AcDbEntity
  8
3
100
AcDbDimension
280
     0
  2
*D7
 10
1709.470548696075
 20
1264.207315297095
 30
0.0
 11
1741.436911268445
 21
1292.842668742259
 31
0.0
 70
   160
 71
     5
 42
-1.0
 73
     0
 74
     0
 75
     0
  3
IGA
100
AcDbAlignedDimension
 13
1773.470548696075
 23
1099.717831359118
 33
0.0
 14
1709.470548696075
 24
1245.392865026065
 34
0.0
100
AcDbRotatedDimension
1001
ACAD
1000
DSTYLE
1002
{
1070
   288
1070
     1
1070
   172
1070
     1
1070
    40
1040
10.0
1070
   271
1070
     0
1070
   143
1040
0.039
1002
}
  0
DIMENSION
  5
7CBB
330
19
100
AcDbEntity
  8
3
100
AcDbDimension
280
     0
  2
*D8
 10
1293.725498300777
 20
1264.207315297095
 30
0.0
 11
1501.598023498426
 21
1322.064458154238
 31
0.0
 70
    32
  1
\P(500)
 71
     5
 42
415.7450503952977
 73
     0
 74
     0
 75
     0
  3
IGA
100
AcDbAlignedDimension
 13
1709.470548696075
 23
1245.392865026065
 33
0.0
 14
1293.725498300777
 24
1143.723796445237
 34
0.0
100
AcDbRotatedDimension
1001
ACAD
1000
DSTYLE
1002
{
1070
    40
1040
10.0
1070
   143
1040
0.039
1070
   172
1070
     1
1070
   271
1070
     0
1070
   279
1070
     0
1070
   288
1070
     1
1002
}
  0
LINE
  5
7CBC
330
19
100
AcDbEntity
  8
2
100
AcDbLine
 10
815.5670646001963
 20
1991.644944746571
 30
0.0
 11
487.070619541535
 21
1991.644944746571
 31
0.0
  0
LINE
  5
7CBD
330
19
100
AcDbEntity
  8
1
100
AcDbLine
 10
526.4148661329886
 20
1930.148447119512
 30
0.0
 11
526.414866132989
 21
2050.148447119513
 31
0.0
  0
LINE
  5
7CBE
330
19
100
AcDbEntity
  8
1
100
AcDbLine
 10
526.4148661329886
 20
1930.148447119512
 30
0.0
 11
526.414866132989
 21
2050.148447119513
 31
0.0
  0
LINE
  5
7CBF
330
19
100
AcDbEntity
  8
1
100
AcDbLine
 10
801.9148661329895
 20
2050.148447119513
 30
0.0
 11
708.7148661329897
 21
2050.148447119513
 31
0.0
  0
LINE
  5
7CC0
330
19
100
AcDbEntity
  8
1
100
AcDbLine
 10
801.9148661329895
 20
1930.148447119512
 30
0.0
 11
708.7148661329897
 21
1930.148447119512
 31
0.0
  0
LINE
  5
7CC1
330
19
100
AcDbEntity
  8
1
100
AcDbLine
 10
506.4148661329881
 20
1910.148447119512
 30
0.0
 11
506.4148661329881
 21
2070.148447119513
 31
0.0
  0
LINE
  5
7CC2
330
19
100
AcDbEntity
  8
1
100
AcDbLine
 10
708.7148661329897
 20
2070.148447119513
 30
0.0
 11
506.4148661329881
 21
2070.148447119513
 31
0.0
  0
LINE
  5
7CC3
330
19
100
AcDbEntity
  8
1
100
AcDbLine
 10
708.71486613299
 20
1910.148447119514
 30
0.0
 11
506.4148661329881
 21
1910.148447119512
 31
0.0
  0
LINE
  5
7CC5
330
19
100
AcDbEntity
  8
1
100
AcDbLine
 10
725.4148661329893
 20
1596.903396724215
 30
0.0
 11
725.4148661329893
 21
1626.903396724215
 31
0.0
  0
LINE
  5
7CC6
330
19
100
AcDbEntity
  8
1
100
AcDbLine
 10
635.4148661329893
 20
1596.903396724215
 30
0.0
 11
635.4148661329893
 21
1626.903396724216
 31
0.0
  0
LINE
  5
7CC7
330
19
100
AcDbEntity
  8
1
100
AcDbLine
 10
416.4089010468705
 20
1626.903396724216
 30
0.0
 11
416.4089010468705
 21
1596.903396724216
 31
0.0
  0
LINE
  5
7CC8
330
19
100
AcDbEntity
  8
1
100
AcDbLine
 10
306.4089010468706
 20
1626.903396724216
 30
0.0
 11
306.4089010468706
 21
1596.903396724216
 31
0.0
  0
LINE
  5
7CCB
330
19
100
AcDbEntity
  8
1
100
AcDbLine
 10
277.029177778571
 20
1574.403396724218
 30
0.0
 11
807.029177778571
 21
1574.403396724215
 31
0.0
  0
LINE
  5
7CCC
330
19
100
AcDbEntity
  8
1
100
AcDbLine
 10
725.4148661329893
 20
1596.903396724215
 30
0.0
 11
635.4148661329891
 21
1596.903396724215
 31
0.0
  0
LINE
  5
7CCD
330
19
100
AcDbEntity
  8
1
100
AcDbLine
 10
277.029177778571
 20
1649.403396724217
 30
0.0
 11
807.0291777785708
 21
1649.403396724215
 31
0.0
  0
LINE
  5
7CCE
330
19
100
AcDbEntity
  8
1
100
AcDbLine
 10
690.4148661329891
 20
1636.903396724215
 30
0.0
 11
690.4148661329904
 21
1910.148447119514
 31
0.0
  0
LINE
  5
7CCF
330
19
100
AcDbEntity
  8
1
100
AcDbLine
 10
670.4148661329891
 20
1636.903396724215
 30
0.0
 11
670.41486613299
 21
1910.148447119514
 31
0.0
  0
LINE
  5
7CD0
330
19
100
AcDbEntity
  8
1
100
AcDbLine
 10
690.4148661329891
 20
1636.903396724215
 30
0.0
 11
670.4148661329891
 21
1636.903396724215
 31
0.0
  0
LINE
  5
7CD1
330
19
100
AcDbEntity
  8
1
100
AcDbLine
 10
725.4148661329893
 20
1626.903396724215
 30
0.0
 11
635.4148661329891
 21
1626.903396724216
 31
0.0
  0
LINE
  5
7CD2
330
19
100
AcDbEntity
  8
1
100
AcDbLine
 10
670.9148661329891
 20
1626.903396724216
 30
0.0
 11
670.9148661329891
 21
1636.903396724216
 31
0.0
  0
LINE
  5
7CD3
330
19
100
AcDbEntity
  8
1
100
AcDbLine
 10
689.9148661329891
 20
1626.903396724216
 30
0.0
 11
689.9148661329891
 21
1636.903396724216
 31
0.0
  0
LINE
  5
7CD5
330
19
100
AcDbEntity
  8
1
100
AcDbLine
 10
785.41486613299
 20
1661.344944746571
 30
0.0
 11
785.4148661329897
 21
1930.148447119512
 31
0.0
  0
LINE
  5
7CD6
330
19
100
AcDbEntity
  8
1
100
AcDbLine
 10
575.4148661329899
 20
1661.344944746571
 30
0.0
 11
575.4148661329899
 21
1910.148447119513
 31
0.0
  0
LINE
  5
7CD7
330
19
100
AcDbEntity
  8
1
100
AcDbLine
 10
785.41486613299
 20
1661.344944746571
 30
0.0
 11
690.4148661329891
 21
1661.344944746571
 31
0.0
  0
LINE
  5
7CD8
330
19
100
AcDbEntity
  8
1
100
AcDbLine
 10
670.4148661329891
 20
1661.344944746571
 30
0.0
 11
575.4148661329899
 21
1661.344944746571
 31
0.0
  0
LINE
  5
7CD9
330
19
100
AcDbEntity
  8
1
100
AcDbLine
 10
445.4148661329895
 20
1658.648447119512
 30
0.0
 11
445.41486613299
 21
1886.648447119512
 31
0.0
  0
LINE
  5
7CDA
330
19
100
AcDbEntity
  8
1
100
AcDbLine
 10
275.4148581329896
 20
1658.648447119512
 30
0.0
 11
275.41485813299
 21
1886.648447119512
 31
0.0
  0
LINE
  5
7CDB
330
19
100
AcDbEntity
  8
1
100
AcDbLine
 10
445.41486613299
 20
1886.648447119512
 30
0.0
 11
275.41485813299
 21
1886.648447119512
 31
0.0
  0
LINE
  5
7CDC
330
19
100
AcDbEntity
  8
1
100
AcDbLine
 10
445.41486613299
 20
1658.648447119512
 30
0.0
 11
275.41485813299
 21
1658.648447119512
 31
0.0
  0
LINE
  5
7CDD
330
19
100
AcDbEntity
  8
1
100
AcDbLine
 10
369.9148661329891
 20
1626.903396724217
 30
0.0
 11
369.9148661329891
 21
1658.648447119512
 31
0.0
  0
LINE
  5
7CDE
330
19
100
AcDbEntity
  8
1
100
AcDbLine
 10
350.9148661329891
 20
1626.903396724217
 30
0.0
 11
350.9148661329891
 21
1658.648447119512
 31
0.0
  0
LINE
  5
7CDF
330
19
100
AcDbEntity
  8
1
100
AcDbLine
 10
290.4148661329891
 20
1886.648447119512
 30
0.0
 11
290.4148661329891
 21
1966.644944746571
 31
0.0
  0
LINE
  5
7CE5
330
19
100
AcDbEntity
  8
1
100
AcDbLine
 10
416.4089010468701
 20
1626.903396724217
 30
0.0
 11
306.4089010468706
 21
1626.903396724218
 31
0.0
  0
LINE
  5
7CE6
330
19
100
AcDbEntity
  8
1
100
AcDbLine
 10
416.4089010468701
 20
1596.903396724216
 30
0.0
 11
306.4089010468706
 21
1596.903396724216
 31
0.0
  0
DIMENSION
  5
7CE7
330
19
100
AcDbEntity
  8
3
100
AcDbDimension
280
     0
  2
*D9
 10
942.3106572496999
 20
1586.644944746571
 30
0.0
 11
917.3106572496999
 21
1776.644944746571
 31
0.0
 70
    32
 71
     5
 42
-1.0
 73
     0
 74
     0
 75
     0
  3
IGA
100
AcDbAlignedDimension
 13
830.4148661329891
 23
1966.644944746571
 33
0.0
 14
830.4148661329891
 24
1586.644944746571
 34
0.0
 50
90.0
100
AcDbRotatedDimension
1001
ACAD
1000
DSTYLE
1002
{
1070
    40
1040
10.0
1070
   143
1040
0.039
1070
   172
1070
     1
1070
   271
1070
     0
1070
   279
1070
     0
1070
   288
1070
     1
1002
}
  0
LINE
  5
7CE9
330
19
100
AcDbEntity
  8
1
100
AcDbLine
 10
1304.470548696074
 20
768.7178313591175
 30
0.0
 11
1304.470548696074
 21
808.7178313591175
 31
0.0
  0
LINE
  5
7CEA
330
19
100
AcDbEntity
  8
1
100
AcDbLine
 10
1684.470548696075
 20
768.7178313591175
 30
0.0
 11
1684.470548696074
 21
808.7178313591174
 31
0.0
  0
LINE
  5
7CEB
330
19
100
AcDbEntity
  8
1
100
AcDbLine
 10
1377.970548696072
 20
1003.723804445237
 30
0.0
 11
1605.970548696072
 21
1003.723804445236
 31
0.0
  0
LINE
  5
7CEC
330
19
100
AcDbEntity
  8
1
100
AcDbLine
 10
1377.970548696072
 20
833.7237964452366
 30
0.0
 11
1379.170548696074
 21
833.7237964452366
 31
0.0
  0
LINE
  5
7CED
330
19
100
AcDbEntity
  8
1
100
AcDbLine
 10
1377.970548696072
 20
833.7237964452363
 30
0.0
 11
1377.970548696072
 21
949.9178313591171
 31
0.0
  0
LINE
  5
7CEE
330
19
100
AcDbEntity
  8
1
100
AcDbLine
 10
1346.225498300777
 20
909.2237964452372
 30
0.0
 11
1377.970548696072
 21
909.2237964452372
 31
0.0
  0
LINE
  5
7CEF
330
19
100
AcDbEntity
  8
1
100
AcDbLine
 10
1346.225498300777
 20
928.2237964452372
 30
0.0
 11
1377.970548696072
 21
928.2237964452372
 31
0.0
  0
LINE
  5
7CF0
330
19
100
AcDbEntity
  8
1
100
AcDbLine
 10
1377.970548696072
 20
952.2178313591178
 30
0.0
 11
1377.970548696072
 21
978.7178313591176
 31
0.0
  0
LINE
  5
7CF1
330
19
100
AcDbEntity
  8
1
100
AcDbLine
 10
1377.970548696072
 20
998.7178313591176
 30
0.0
 11
1377.970548696072
 21
1003.723804445236
 31
0.0
  0
LINE
  5
7CF2
330
19
100
AcDbEntity
  8
1
100
AcDbLine
 10
1605.970548696072
 20
1003.723804445236
 30
0.0
 11
1605.970548696072
 21
998.7178313591174
 31
0.0
  0
DIMENSION
  5
7CF3
330
19
100
AcDbEntity
  8
3
100
AcDbDimension
280
     0
  2
*D10
 10
951.7702654821642
 20
768.7678260609759
 30
0.0
 11
926.7702654821642
 21
878.7678260609759
 31
0.0
 70
    32
 71
     5
 42
-1.0
 73
     0
 74
     0
 75
     0
  3
IGA
100
AcDbAlignedDimension
 13
857.1611101303311
 23
988.767826060976
 33
0.0
 14
830.4148661329891
 24
768.7678260609759
 34
0.0
 50
90.0
100
AcDbRotatedDimension
1001
ACAD
1000
DSTYLE
1002
{
1070
    40
1040
10.0
1070
   143
1040
0.039
1070
   172
1070
     1
1070
   271
1070
     0
1070
   279
1070
     0
1070
   288
1070
     1
1002
}
  0
DIMENSION
  5
7CF4
330
19
100
AcDbEntity
  8
3
100
AcDbDimension
280
     0
  2
*D11
 10
951.7702654821642
 20
1148.767826060976
 30
0.0
 11
926.7702654821642
 21
1068.767826060976
 31
0.0
 70
    32
 71
     5
 42
-1.0
 73
     0
 74
     0
 75
     0
  3
IGA
100
AcDbAlignedDimension
 13
857.1611101303311
 23
988.767826060976
 33
0.0
 14
708.7148661329897
 24
1148.767826060976
 34
0.0
 50
90.0
100
AcDbRotatedDimension
1001
ACAD
1000
DSTYLE
1002
{
1070
    40
1040
10.0
1070
   143
1040
0.039
1070
   172
1070
     1
1070
   271
1070
     0
1070
   279
1070
     0
1070
   288
1070
     1
1002
}
  0
DIMENSION
  5
7CF5
330
19
100
AcDbEntity
  8
3
100
AcDbDimension
280
     0
  2
*D12
 10
801.9148661329895
 20
1259.483549986905
 30
0.0
 11
741.1648661329896
 21
1284.483549986905
 31
0.0
 70
    32
  1
121
 71
     5
 42
-1.0
 73
     0
 74
     0
 75
     0
  3
IGA
100
AcDbAlignedDimension
 13
680.4148661329896
 23
1165.514070058317
 33
0.0
 14
801.9148661329895
 24
981.2678260609761
 34
0.0
100
AcDbRotatedDimension
1001
ACAD
1000
DSTYLE
1002
{
1070
    40
1040
10.0
1070
   143
1040
0.039
1070
   172
1070
     1
1070
   271
1070
     0
1070
   279
1070
     0
1070
   288
1070
     1
1002
}
  0
DIMENSION
  5
7CF7
330
19
100
AcDbEntity
  8
3
100
AcDbDimension
280
     0
  2
*D13
 10
250.4148661329896
 20
1314.215750820338
 30
0.0
 11
526.1648661329898
 21
1339.215750820338
 31
0.0
 70
    32
  1
551
 71
     5
 42
-1.0
 73
     0
 74
     0
 75
     0
  3
IGA
100
AcDbAlignedDimension
 13
801.91486613299
 23
981.2678260609761
 33
0.0
 14
250.4148661329896
 24
808.7678260609761
 34
0.0
100
AcDbRotatedDimension
1001
ACAD
1000
DSTYLE
1002
{
1070
    40
1040
10.0
1070
   143
1040
0.039
1070
   172
1070
     1
1070
   271
1070
     0
1070
   279
1070
     0
1070
   288
1070
     1
1002
}
  0
LINE
  5
7CF8
330
19
100
AcDbEntity
  8
1
100
AcDbLine
 10
1629.470548696074
 20
1148.767826060976
 30
0.0
 11
1789.470548696074
 21
1148.767826060976
 31
0.0
  0
LINE
  5
7CF9
330
19
100
AcDbEntity
  8
1
100
AcDbLine
 10
1629.470548696074
 20
1128.767826060976
 30
0.0
 11
1789.470548696074
 21
1128.767826060976
 31
0.0
  0
LINE
  5
7CFA
330
19
100
AcDbEntity
  8
1
100
AcDbLine
 10
1629.470548696074
 20
1148.767826060976
 30
0.0
 11
1629.470548696074
 21
1128.767826060976
 31
0.0
  0
LINE
  5
7CFB
330
19
100
AcDbEntity
  8
1
100
AcDbLine
 10
1789.470548696074
 20
1148.767826060976
 30
0.0
 11
1789.470548696074
 21
1128.767826060976
 31
0.0
  0
LINE
  5
7CFC
330
19
100
AcDbEntity
  8
1
100
AcDbLine
 10
1773.470548696075
 20
1076.717831359117
 30
0.0
 11
1793.470548696075
 21
1076.717831359117
 31
0.0
  0
LINE
  5
7CFD
330
19
100
AcDbEntity
  8
1
100
AcDbLine
 10
1780.470548696075
 20
1079.717831359117
 30
0.0
 11
1791.470548696075
 21
1079.717831359117
 31
0.0
  0
LINE
  5
7CFE
330
19
100
AcDbEntity
  8
1
100
AcDbLine
 10
1793.470548696075
 20
1076.717831359117
 30
0.0
 11
1773.470548696075
 21
1076.717831359117
 31
0.0
  0
LINE
  5
7CFF
330
19
100
AcDbEntity
  8
1
100
AcDbLine
 10
1773.470548696075
 20
988.7178313591176
 30
0.0
 11
1773.470548696075
 21
1099.717831359117
 31
0.0
  0
LINE
  5
7D00
330
19
100
AcDbEntity
  8
1
100
AcDbLine
 10
1776.470548696074
 20
988.7178313591176
 30
0.0
 11
1776.470548696075
 21
1076.717831359117
 31
0.0
  0
LINE
  5
7D01
330
19
100
AcDbEntity
  8
1
100
AcDbLine
 10
1774.470548696075
 20
1096.717831359117
 30
0.0
 11
1773.470548696075
 21
1096.717831359117
 31
0.0
  0
ARC
  5
7D02
330
19
100
AcDbEntity
  8
1
100
AcDbCircle
 10
1774.470548696075
 20
1094.717831359117
 30
0.0
 40
2.0
100
AcDbArc
 50
0.0
 51
90.0
  0
ARC
  5
7D03
330
19
100
AcDbEntity
  8
1
100
AcDbCircle
 10
1780.470548696075
 20
1083.717831359117
 30
0.0
 40
4.0
100
AcDbArc
 50
180.0
 51
270.0
  0
LINE
  5
7D04
330
19
100
AcDbEntity
  8
1
100
AcDbLine
 10
1773.470548696075
 20
1096.717831359117
 30
0.0
 11
1773.470548696075
 21
1076.717831359117
 31
0.0
  0
LINE
  5
7D05
330
19
100
AcDbEntity
  8
1
100
AcDbLine
 10
1776.470548696075
 20
1094.717831359117
 30
0.0
 11
1776.470548696075
 21
1083.717831359117
 31
0.0
  0
LINE
  5
7D06
330
19
100
AcDbEntity
  8
1
100
AcDbLine
 10
1769.470548696074
 20
1099.717831359117
 30
0.0
 11
1773.470548696075
 21
1099.717831359118
 31
0.0
  0
LINE
  5
7D07
330
19
100
AcDbEntity
  8
1
100
AcDbLine
 10
1773.470548696075
 20
1076.717831359117
 30
0.0
 11
1773.470548696075
 21
1096.717831359117
 31
0.0
  0
LINE
  5
7D08
330
19
100
AcDbEntity
  8
1
100
AcDbLine
 10
1793.470548696075
 20
900.7178313591175
 30
0.0
 11
1793.470548696075
 21
1076.717831359117
 31
0.0
  0
ARC
  5
7D09
330
19
100
AcDbEntity
  8
1
100
AcDbCircle
 10
1791.470548696075
 20
1077.717831359117
 30
0.0
 40
2.0
100
AcDbArc
 50
0.0
 51
90.0
  0
LINE
  5
7D0A
330
19
100
AcDbEntity
  8
1
100
AcDbLine
 10
1793.470548696075
 20
1076.717831359117
 30
0.0
 11
1793.470548696075
 21
1077.717831359117
 31
0.0
  0
LINE
  5
7D0B
330
19
100
AcDbEntity
  8
1
100
AcDbLine
 10
801.9148661329895
 20
1930.148447119512
 30
0.0
 11
801.9148661329898
 21
2050.148447119513
 31
0.0
  0
LINE
  5
7D0C
330
19
100
AcDbEntity
  8
1
100
AcDbLine
 10
686.4148661329884
 20
1930.148447119512
 30
0.0
 11
686.4148661329888
 21
2050.148447119513
 31
0.0
  0
LINE
  5
7D0D
330
19
100
AcDbEntity
  8
1
100
AcDbLine
 10
708.7148661329897
 20
1910.148447119514
 30
0.0
 11
708.7148661329897
 21
2070.148447119513
 31
0.0
  0
LINE
  5
7D0E
330
19
100
AcDbEntity
  8
1
100
AcDbLine
 10
686.4148661329884
 20
1930.148447119512
 30
0.0
 11
526.414866132989
 21
1930.148447119512
 31
0.0
  0
LINE
  5
7D0F
330
19
100
AcDbEntity
  8
1
100
AcDbLine
 10
686.4148661329888
 20
2050.148447119513
 30
0.0
 11
526.414866132989
 21
2050.148447119513
 31
0.0
  0
LINE
  5
7D10
330
19
100
AcDbEntity
  8
1
100
AcDbLine
 10
686.4148661329888
 20
2050.148447119513
 30
0.0
 11
526.4148661329886
 21
1930.148447119512
 31
0.0
  0
LINE
  5
7D11
330
19
100
AcDbEntity
  8
1
100
AcDbLine
 10
526.414866132989
 20
2050.148447119513
 30
0.0
 11
686.4148661329884
 21
1930.148447119512
 31
0.0
  0
LINE
  5
7D12
330
19
100
AcDbEntity
  8
1
100
AcDbLine
 10
1622.170548696074
 20
1052.267831359117
 30
0.0
 11
1622.170548696075
 21
832.2678313591174
 31
0.0
  0
LINE
  5
7D13
330
19
100
AcDbEntity
  8
1
100
AcDbLine
 10
1622.170548696075
 20
832.2678313591174
 30
0.0
 11
1649.470548696075
 21
832.2678313591174
 31
0.0
  0
LINE
  5
7EF3
330
19
100
AcDbEntity
  8
4
100
AcDbLine
 10
1850.0
 20
500.0
 30
0.0
 11
1850.0
 21
300.0
 31
0.0
  0
LINE
  5
7EF4
330
19
100
AcDbEntity
  8
4
100
AcDbLine
 10
1150.0
 20
500.0
 30
0.0
 11
1150.0
 21
300.0
 31
0.0
  0
LINE
  5
7EF5
330
19
100
AcDbEntity
  8
4
100
AcDbLine
 10
650.0
 20
500.0
 30
0.0
 11
650.0
 21
300.0
 31
0.0
  0
LINE
  5
7EF8
330
19
100
AcDbEntity
  8
4
100
AcDbLine
 10
650.0
 20
300.0
 30
0.0
 11
1850.0
 21
300.0
 31
0.0
  0
LINE
  5
7EF9
330
19
100
AcDbEntity
  8
4
100
AcDbLine
 10
650.0
 20
400.0
 30
0.0
 11
1850.0
 21
400.0
 31
0.0
  0
TEXT
  5
7EFA
330
19
100
AcDbEntity
  8
4
100
AcDbText
 10
688.5020808469016
 20
431.5430258666128
 30
0.0
 40
50.0
  1
機器名称
100
AcDbText
  0
TEXT
  5
7EFB
330
19
100
AcDbEntity
  8
4
100
AcDbText
 10
686.2581060247975
 20
321.645156732011
 30
0.0
 40
50.0
  1
機器型番
100
AcDbText
  0
TEXT
  5
7EFC
330
19
100
AcDbEntity
  8
4
100
AcDbText
 10
1177.678745487665
 20
422.5717689575685
 30
0.0
 40
50.0
  1
ミツヤ多翼送風機
100
AcDbText
  0
TEXT
  5
7EFD
330
19
100
AcDbEntity
  8
4
100
AcDbText
 10
1186.65449558548
 20
317.1595842799434
 30
0.0
 40
50.0
  1
MF#1-1
100
AcDbText
  0
TEXT
  5
7EFF
330
19
100
AcDbEntity
  8
4
100
AcDbText
 10
747.8659498543475
 20
2377.621754734568
 30
0.0
 40
53.99999999999999
  1
床置防振ベット
100
AcDbText
  0
TEXT
  5
7F00
330
19
100
AcDbEntity
  8
4
100
AcDbText
 10
316.1675933294464
 20
2533.880976199298
 30
0.0
 40
72.0
  1
遠心式片吸込片持多翼ファン
100
AcDbText
  0
LINE
  5
7F01
330
19
100
AcDbEntity
  8
4
100
AcDbLine
 10
250.0
 20
2469.408754264805
 30
0.0
 11
1850.0
 21
2469.408754264805
 31
0.0
  0
LINE
  5
7F02
330
19
100
AcDbEntity
  8
4
100
AcDbLine
 10
250.0
 20
2669.408754264805
 30
0.0
 11
1850.0
 21
2669.408754264805
 31
0.0
  0
LINE
  5
7F03
330
19
100
AcDbEntity
  8
4
100
AcDbLine
 10
650.0
 20
500.0
 30
0.0
 11
1850.0
 21
500.0
 31
0.0
  0
LINE
  5
7F04
330
19
100
AcDbEntity
  8
4
100
AcDbLine
 10
250.0
 20
2669.408754264805
 30
0.0
 11
250.0
 21
2469.408754264805
 31
0.0
  0
TEXT
  5
7F05
330
19
100
AcDbEntity
  8
4
100
AcDbText
 10
312.0071176116453
 20
2376.512390948395
 30
0.0
 40
53.99999999999999
  1
右回転上向
100
AcDbText
  0
TEXT
  5
7F06
330
19
100
AcDbEntity
  8
4
100
AcDbText
 10
1468.96955924929
 20
2706.061081495309
 30
0.0
 40
56.00000000000001
  1
No.
100
AcDbText
  0
TEXT
  5
7F07
330
19
100
AcDbEntity
  8
4
100
AcDbText
 10
1311.296062600013
 20
2383.428841332516
 30
0.0
 40
53.99999999999999
  1
縮尺：1/10
100
AcDbText
  0
LINE
  5
7F08
330
19
100
AcDbEntity
  8
4
100
AcDbLine
 10
1850.0
 20
2669.408754264805
 30
0.0
 11
1850.0
 21
2469.408754264805
 31
0.0
  0
LINE
  5
7F09
330
19
100
AcDbEntity
  8
4
100
AcDbLine
 10
2100.0
 20
2950.0
 30
0.0
 11
2100.0
 21
2950.0
 31
0.0
  0
LINE
  5
7F0A
330
19
100
AcDbEntity
  8
4
100
AcDbLine
 10
1440.617422359864
 20
2681.263583125401
 30
0.0
 11
1440.617422359864
 21
2786.652261549753
 31
0.0
  0
LINE
  5
7F0B
330
19
100
AcDbEntity
  8
4
100
AcDbLine
 10
1440.617422359864
 20
2786.652261549753
 30
0.0
 11
1850.0
 21
2786.652261549753
 31
0.0
  0
LINE
  5
7F0C
330
19
100
AcDbEntity
  8
4
100
AcDbLine
 10
1850.0
 20
2786.652261549753
 30
0.0
 11
1850.0
 21
2681.263583125401
 31
0.0
  0
LINE
  5
7F0D
330
19
100
AcDbEntity
  8
4
100
AcDbLine
 10
1850.0
 20
2681.263583125401
 30
0.0
 11
1440.617422359864
 21
2681.263583125401
 31
0.0
  0
LINE
  5
7F0E
330
19
100
AcDbEntity
  8
4
100
AcDbLine
 10
0.0
 20
0.0
 30
0.0
 11
0.0
 21
2950.0
 31
0.0
  0
LINE
  5
7F0F
330
19
100
AcDbEntity
  8
4
100
AcDbLine
 10
0.0
 20
2950.0
 30
0.0
 11
2100.0
 21
2950.0
 31
0.0
  0
LINE
  5
7F10
330
19
100
AcDbEntity
  8
4
100
AcDbLine
 10
2100.0
 20
2950.0
 30
0.0
 11
2100.0
 21
0.0
 31
0.0
  0
LINE
  5
7F11
330
19
100
AcDbEntity
  8
4
100
AcDbLine
 10
2100.0
 20
0.0
 30
0.0
 11
0.0
 21
0.0
 31
0.0
  0
LINE
  5
80B2
330
19
100
AcDbEntity
  8
1
100
AcDbLine
 10
1368.725498300777
 20
1102.969181109654
 30
0.0
 11
1368.725498300777
 21
1143.723796445237
 31
0.0
  0
LINE
  5
80B7
330
19
100
AcDbEntity
  8
1
100
AcDbLine
 10
277.029177778571
 20
1574.403396724218
 30
0.0
 11
277.029177778571
 21
1649.403396724217
 31
0.0
  0
LINE
  5
80B8
330
19
100
AcDbEntity
  8
1
100
AcDbLine
 10
807.0291777785708
 20
1574.403396724215
 30
0.0
 11
807.029177778571
 21
1649.403396724215
 31
0.0
  0
LINE
  5
811A
330
19
100
AcDbEntity
  8
1
100
AcDbLine
 10
790.4148661329891
 20
1926.644944746571
 30
0.0
 11
785.4148661329896
 21
1926.644944746571
 31
0.0
  0
LINE
  5
8126
330
19
100
AcDbEntity
  8
1
100
AcDbLine
 10
790.4148661329891
 20
1626.644944746571
 30
0.0
 11
290.4148661329891
 21
1626.644944746571
 31
0.0
  0
LINE
  5
8129
330
19
100
AcDbEntity
  8
1
100
AcDbLine
 10
506.4148661329881
 20
1966.644944746571
 30
0.0
 11
250.4148661329896
 21
1966.644944746571
 31
0.0
  0
LINE
  5
812A
330
19
100
AcDbEntity
  8
1
100
AcDbLine
 10
506.4148661329881
 20
1926.644944746571
 30
0.0
 11
290.4148661329891
 21
1926.644944746571
 31
0.0
  0
DIMENSION
  5
8137
330
19
100
AcDbEntity
  8
3
100
AcDbDimension
280
     0
  2
*D14
 10
830.4148661329891
 20
2097.583830319424
 30
0.0
 11
544.482847026662
 21
2097.583830319424
 31
0.0
 70
   160
 71
     5
 42
-1.0
 73
     0
 74
     0
 75
     0
  3
IGA
100
AcDbAlignedDimension
 13
250.4148661329896
 23
1966.644944746571
 33
0.0
 14
830.4148661329891
 24
1966.644944746571
 34
0.0
100
AcDbRotatedDimension
1001
ACAD
1000
DSTYLE
1002
{
1070
    40
1040
10.0
1070
   143
1040
0.039
1070
   172
1070
     1
1070
   271
1070
     0
1070
   279
1070
     0
1070
   288
1070
     1
1002
}
  0
DIMENSION
  5
81E3
330
19
100
AcDbEntity
  8
3
100
AcDbDimension
280
     0
  2
*D15
 10
680.4148661329898
 20
579.9776917905299
 30
0.0
 11
465.4148661329897
 21
604.9776917905299
 31
0.0
 70
    32
 71
     5
 42
430.0000000000001
 73
     0
 74
     0
 75
     0
  3
IGA
100
AcDbAlignedDimension
 13
250.4148661329897
 23
658.7237964452368
 33
0.0
 14
680.4148661329898
 24
658.767826060976
 34
0.0
100
AcDbRotatedDimension
1001
ACAD
1000
DSTYLE
1002
{
1070
    40
1040
10.0
1070
   143
1040
0.039
1070
   172
1070
     1
1070
   271
1070
     0
1070
   279
1070
     0
1002
}
  0
DIMENSION
  5
81FD
330
19
100
AcDbEntity
  8
3
100
AcDbDimension
280
     0
  2
*D16
 10
1684.470548696075
 20
579.9776917905299
 30
0.0
 11
1494.470548696074
 21
604.9776917905299
 31
0.0
 70
    32
 71
     5
 42
380.0000000000005
 73
     0
 74
     0
 75
     0
  3
IGA
100
AcDbAlignedDimension
 13
1304.470548696074
 23
658.7178313591175
 33
0.0
 14
1684.470548696075
 24
658.7178313591174
 34
0.0
100
AcDbRotatedDimension
1001
ACAD
1000
DSTYLE
1002
{
1070
    40
1040
10.0
1070
   143
1040
0.039
1070
   172
1070
     1
1070
   271
1070
     0
1070
   279
1070
     0
1002
}
  0
DIMENSION
  5
820C
330
19
100
AcDbEntity
  8
3
100
AcDbDimension
280
     0
  2
*D17
 10
1709.470548696074
 20
579.9776917905299
 30
0.0
 11
1783.756262981788
 21
604.9776917905299
 31
0.0
 70
    32
 71
     5
 42
24.99999999999955
 73
     0
 74
     0
 75
     0
  3
IGA
100
AcDbAlignedDimension
 13
1684.470548696075
 23
658.7178313591174
 33
0.0
 14
1709.470548696074
 24
658.7178313591174
 34
0.0
100
AcDbRotatedDimension
1001
ACAD
1000
DSTYLE
1002
{
1070
    40
1040
10.0
1070
   143
1040
0.039
1070
   172
1070
     1
1070
   271
1070
     0
1070
   279
1070
     0
1002
}
  0
DIMENSION
  5
8226
330
19
100
AcDbEntity
  8
3
100
AcDbDimension
280
     0
  2
*D18
 10
830.4148661329891
 20
579.9776917905299
 30
0.0
 11
755.4148661329896
 21
604.9776917905299
 31
0.0
 70
    32
 71
     5
 42
149.9999999999994
 73
     0
 74
     0
 75
     0
  3
IGA
100
AcDbAlignedDimension
 13
680.4148661329898
 23
658.767826060976
 33
0.0
 14
830.4148661329891
 24
658.7237964452364
 34
0.0
100
AcDbRotatedDimension
1001
ACAD
1000
DSTYLE
1002
{
1070
    40
1040
10.0
1070
   143
1040
0.039
1070
   172
1070
     1
1070
   271
1070
     0
1070
   279
1070
     0
1002
}
  0
LINE
  5
822C
330
19
100
AcDbEntity
  8
1
100
AcDbLine
 10
1304.470548696074
 20
658.7178313591175
 30
0.0
 11
1684.470548696075
 21
658.7178313591173
 31
0.0
  0
LINE
  5
822D
330
19
100
AcDbEntity
  8
1
100
AcDbLine
 10
1304.470548696074
 20
698.7178313591175
 30
0.0
 11
1684.470548696074
 21
698.7178313591173
 31
0.0
  0
LINE
  5
822E
330
19
100
AcDbEntity
  8
1
100
AcDbLine
 10
1684.470548696075
 20
658.7178313591174
 30
0.0
 11
1684.470548696074
 21
698.7178313591172
 31
0.0
  0
LINE
  5
822F
330
19
100
AcDbEntity
  8
1
100
AcDbLine
 10
1304.470548696074
 20
658.7178313591174
 30
0.0
 11
1304.470548696074
 21
698.7178313591174
 31
0.0
  0
LINE
  5
8230
330
19
100
AcDbEntity
  8
1
100
AcDbLine
 10
830.4148661329891
 20
698.7678260609758
 30
0.0
 11
830.4148661329891
 21
658.7237964452364
 31
0.0
  0
LINE
  5
8231
330
19
100
AcDbEntity
  8
1
100
AcDbLine
 10
830.4148661329888
 20
698.7678260609759
 30
0.0
 11
250.4148661329897
 21
698.7678260609761
 31
0.0
  0
LINE
  5
8232
330
19
100
AcDbEntity
  8
1
100
AcDbLine
 10
830.4148661329891
 20
658.7678260609758
 30
0.0
 11
250.4148661329897
 21
658.7678260609759
 31
0.0
  0
LINE
  5
8233
330
19
100
AcDbEntity
  8
1
100
AcDbLine
 10
250.4148661329897
 20
698.7678260609761
 30
0.0
 11
250.4148661329897
 21
658.7237964452368
 31
0.0
  0
DIMENSION
  5
8243
330
19
100
AcDbEntity
  8
3
100
AcDbDimension
280
     0
  2
*D19
 10
951.6338497769412
 20
658.7678260609758
 30
0.0
 11
926.633849776941
 21
584.4821117752617
 31
0.0
 70
    32
 71
     5
 42
40.0
 73
     0
 74
     0
 75
     0
  3
IGA
100
AcDbAlignedDimension
 13
830.4148661329891
 23
698.7678260609758
 33
0.0
 14
830.4148661329891
 24
658.7678260609758
 34
0.0
 50
90.0
100
AcDbRotatedDimension
1001
ACAD
1000
DSTYLE
1002
{
1070
    40
1040
10.0
1070
   143
1040
0.039
1070
   172
1070
     1
1070
   271
1070
     0
1070
   279
1070
     0
1070
   343
1005
7A5B
1002
}
  0
DIMENSION
  5
826E
330
19
100
AcDbEntity
  8
3
100
AcDbDimension
280
     0
  2
*D20
 10
951.9199380338378
 20
768.7237964452365
 30
0.0
 11
996.6270817801269
 21
735.0681462425909
 31
0.0
 70
   160
 71
     5
 42
69.95597038426058
 73
     0
 74
     0
 75
     0
  3
IGA
100
AcDbAlignedDimension
 13
830.4148661329888
 23
698.7678260609759
 33
0.0
 14
830.4148661329891
 24
768.7237964452365
 34
0.0
 50
90.0
100
AcDbRotatedDimension
1001
ACAD
1000
DSTYLE
1002
{
1070
     3
1000
(<>)
1070
    40
1040
10.0
1070
   143
1040
0.039
1070
   172
1070
     1
1070
   271
1070
     0
1070
   343
1005
7A5B
1002
}
  0
DIMENSION
  5
8280
330
19
100
AcDbEntity
  8
3
100
AcDbDimension
280
     0
  2
*D22
 10
1042.421792114361
 20
658.7678260609758
 30
0.0
 11
1009.564649257217
 21
903.767826060976
 31
0.0
 70
    32
 71
     5
 42
490.0000000000001
 73
     0
 74
     0
 75
     0
  3
IGA
100
AcDbAlignedDimension
 13
708.7148661329897
 23
1148.767826060976
 33
0.0
 14
830.4148661329891
 24
658.7678260609758
 34
0.0
 50
90.0
100
AcDbRotatedDimension
1001
ACAD
1000
DSTYLE
1002
{
1070
   172
1070
     1
1070
    40
1040
10.0
1070
     3
1000
(<>)
1070
   271
1070
     0
1070
   143
1040
0.039
1002
}
  0
ENDSEC
  0
SECTION
  2
OBJECTS
  0
DICTIONARY
  5
C
330
0
100
AcDbDictionary
281
     1
  3
ACAD_CIP_PREVIOUS_PRODUCT_INFO
350
82E2
  3
ACAD_COLOR
350
82C5
  3
ACAD_DETAILVIEWSTYLE
350
82DE
  3
ACAD_GROUP
350
D
  3
ACAD_LAYOUT
350
8285
  3
ACAD_MATERIAL
350
8293
  3
ACAD_MLEADERSTYLE
350
82DA
  3
ACAD_MLINESTYLE
350
E
  3
ACAD_PLOTSETTINGS
350
8286
  3
ACAD_PLOTSTYLENAME
350
8283
  3
ACAD_SCALELIST
350
82C8
  3
ACAD_SECTIONVIEWSTYLE
350
82DC
  3
ACAD_TABLESTYLE
350
82C6
  3
ACAD_VISUALSTYLE
350
82AC
  3
ACDB_RECOMPOSE_DATA
350
8380
  3
AcDbVariableDictionary
350
834B
  0
DICTIONARY
  5
833F
330
2
100
AcDbDictionary
280
     1
281
     1
  3
ACAD_LAYERSTATES
360
8340
  0
DICTIONARY
  5
8332
330
F
100
AcDbDictionary
280
     1
281
     1
  3
ADSK_XREC_LAYER_RECONCILED
360
8333
  0
DICTIONARY
  5
8334
330
31
100
AcDbDictionary
280
     1
281
     1
  3
ADSK_XREC_LAYER_RECONCILED
360
8335
  0
DICTIONARY
  5
8336
330
76D0
100
AcDbDictionary
280
     1
281
     1
  3
ADSK_XREC_LAYER_RECONCILED
360
8337
  0
DICTIONARY
  5
8338
330
76D1
100
AcDbDictionary
280
     1
281
     1
  3
ADSK_XREC_LAYER_RECONCILED
360
8339
  0
DICTIONARY
  5
833A
330
76D2
100
AcDbDictionary
280
     1
281
     1
  3
ADSK_XREC_LAYER_RECONCILED
360
833B
  0
DICTIONARY
  5
82E4
330
19
100
AcDbDictionary
280
     1
281
     1
  3
ACAD_SORTENTS
360
82E5
  0
XRECORD
  5
82E2
102
{ACAD_REACTORS
330
C
102
}
330
C
100
AcDbXrecord
280
     1
300
ACDLT
300
2015
300
INVLTS_F_S
  0
DICTIONARY
  5
82C5
102
{ACAD_REACTORS
330
C
102
}
330
C
100
AcDbDictionary
281
     1
  0
DICTIONARY
  5
82DE
102
{ACAD_REACTORS
330
C
102
}
330
C
100
AcDbDictionary
281
     1
  3
Metric50
350
82DF
  0
DICTIONARY
  5
D
102
{ACAD_REACTORS
330
C
102
}
330
C
100
AcDbDictionary
281
     1
  0
DICTIONARY
  5
8285
102
{ACAD_REACTORS
330
C
102
}
330
C
100
AcDbDictionary
281
     1
  3
Model
350
8287
  3
ﾚｲｱｳﾄ1
350
8288
  0
DICTIONARY
  5
8293
102
{ACAD_REACTORS
330
C
102
}
330
C
100
AcDbDictionary
281
     1
  3
ByBlock
350
829C
  3
ByLayer
350
8294
  3
Global
350
82A4
  0
DICTIONARY
  5
82DA
102
{ACAD_REACTORS
330
C
102
}
330
C
100
AcDbDictionary
281
     1
  3
Standard
350
82DB
  0
DICTIONARY
  5
E
102
{ACAD_REACTORS
330
C
102
}
330
C
100
AcDbDictionary
281
     1
  3
STANDARD
350
1C
  0
DICTIONARY
  5
8286
102
{ACAD_REACTORS
330
C
102
}
330
C
100
AcDbDictionary
281
     1
  0
ACDBDICTIONARYWDFLT
  5
8283
102
{ACAD_REACTORS
330
C
102
}
330
C
100
AcDbDictionary
281
     1
  3
Normal
350
8284
100
AcDbDictionaryWithDefault
340
8284
  0
DICTIONARY
  5
82C8
102
{ACAD_REACTORS
330
C
102
}
330
C
100
AcDbDictionary
281
     1
  3
A0
350
82C9
  3
A1
350
82CA
  3
A2
350
82CB
  3
A3
350
82CC
  3
A4
350
82CD
  3
A5
350
82CE
  3
A6
350
82CF
  3
A7
350
82D0
  3
A8
350
82D1
  3
A9
350
82D2
  3
B0
350
82D3
  3
B1
350
82D4
  3
B2
350
82D5
  3
B3
350
82D6
  3
B4
350
82D7
  3
B5
350
82D8
  3
B6
350
82D9
  0
DICTIONARY
  5
82DC
102
{ACAD_REACTORS
330
C
102
}
330
C
100
AcDbDictionary
281
     1
  3
Metric50
350
82DD
  0
DICTIONARY
  5
82C6
102
{ACAD_REACTORS
330
C
102
}
330
C
100
AcDbDictionary
281
     1
  3
Standard
350
82C7
  0
DICTIONARY
  5
82AC
102
{ACAD_REACTORS
330
C
102
}
330
C
100
AcDbDictionary
281
     1
  3
2dWireframe
350
82B2
  3
Basic
350
82B1
  3
Brighten
350
82B8
  3
ColorChange
350
82BC
  3
Conceptual
350
82B5
  3
Dim
350
82B7
  3
EdgeColorOff
350
82C4
  3
Facepattern
350
82BB
  3
Flat
350
82AD
  3
FlatWithEdges
350
82AE
  3
Gouraud
350
82AF
  3
GouraudWithEdges
350
82B0
  3
Hidden
350
82B4
  3
JitterOff
350
82C2
  3
Linepattern
350
82BA
  3
OverhangOff
350
82C3
  3
Realistic
350
82B6
  3
Shaded
350
82C1
  3
Shaded with edges
350
82C0
  3
Shades of Gray
350
82BD
  3
Sketchy
350
82BE
  3
Thicken
350
82B9
  3
Wireframe
350
82B3
  3
X-Ray
350
82BF
  0
XRECORD
  5
8380
102
{ACAD_REACTORS
330
C
102
}
330
C
100
AcDbXrecord
280
     1
 90
        1
330
82C7
330
82DD
330
82DF
  0
DICTIONARY
  5
834B
102
{ACAD_REACTORS
330
C
102
}
330
C
100
AcDbDictionary
281
     1
  3
CANNOSCALE
350
8351
  3
CMLEADERSTYLE
350
834D
  3
CTABLESTYLE
350
834C
  3
CVIEWDETAILSTYLE
350
834E
  3
CVIEWSECTIONSTYLE
350
834F
  3
LAYEREVAL
350
8353
  3
LAYERNOTIFY
350
8354
  3
LIGHTINGUNITS
350
8352
  3
MSLTSCALE
350
8350
  0
DICTIONARY
  5
8340
102
{ACAD_REACTORS
330
833F
102
}
330
833F
100
AcDbDictionary
281
     1
  0
XRECORD
  5
8333
102
{ACAD_REACTORS
330
8332
102
}
330
8332
100
AcDbXrecord
280
     1
290
     1
  0
XRECORD
  5
8335
102
{ACAD_REACTORS
330
8334
102
}
330
8334
100
AcDbXrecord
280
     1
290
     1
  0
XRECORD
  5
8337
102
{ACAD_REACTORS
330
8336
102
}
330
8336
100
AcDbXrecord
280
     1
290
     1
  0
XRECORD
  5
8339
102
{ACAD_REACTORS
330
8338
102
}
330
8338
100
AcDbXrecord
280
     1
290
     1
  0
XRECORD
  5
833B
102
{ACAD_REACTORS
330
833A
102
}
330
833A
100
AcDbXrecord
280
     1
290
     1
  0
SORTENTSTABLE
  5
82E5
102
{ACAD_REACTORS
330
82E4
102
}
330
82E4
100
AcDbSortentsTable
330
19
331
8137
  5
81E3
331
7C6E
  5
7C6E
331
7C6A
  5
7C6A
331
7C2E
  5
7C2E
331
7C2A
  5
7C2A
331
7CDC
  5
7CDD
331
7C66
  5
7C66
331
7CD8
  5
7CD9
331
7C62
  5
7C62
331
7C26
  5
7C26
331
7D13
  5
7EF3
331
7C22
  5
7C22
331
8231
  5
8232
331
7D0F
  5
7D10
331
7C1E
  5
7C1E
331
7C5A
  5
7C5A
331
7CD0
  5
7CD1
331
7C1A
  5
7C1A
331
7CCC
  5
7CCD
331
7D0B
  5
7D0C
331
7C56
  5
7C56
331
7C95
  5
7C95
331
7CC8
  5
7CCB
331
7C52
  5
7C52
331
7F0F
  5
7F10
331
7F0B
  5
7F0C
331
822D
  5
822E
331
7C16
  5
7C16
331
7D07
  5
7D08
331
7C4E
  5
7C4E
331
7C8D
  5
7C8D
331
7D03
  5
7D04
331
80B7
  5
80B8
331
8280
  5
82E3
331
7CFF
  5
7D00
331
7C4A
  5
7C4A
331
7C89
  5
7C89
331
7CC0
  5
7CC1
331
7CBC
  5
7CBD
331
7CFB
  5
7CFC
331
7F07
  5
7F08
331
7C46
  5
7C46
331
7C85
  5
7C85
331
7C81
  5
7C81
331
7CB8
  5
7CB9
331
7F03
  5
7F04
331
7C42
  5
7C42
331
7EFF
  5
7F00
331
7EFB
  5
7EFC
331
7CF7
  5
7CF8
331
7C3E
  5
7C3E
331
7C7D
  5
7C7D
331
7CB4
  5
7CB5
331
7CF3
  5
7CF4
331
7CEF
  5
7CF0
331
7C3A
  5
7C3A
331
7CB0
  5
7CB1
331
7CAC
  5
7CAD
331
7CEB
  5
7CEC
331
7C36
  5
7C36
331
7C75
  5
7C75
331
7C71
  5
7C71
331
7CA8
  5
7CAB
331
7EF3
  5
7EF4
331
7C32
  5
7C32
331
7CE7
  5
7CE9
331
7C6D
  5
7C6D
331
81FD
  5
820C
331
7C2D
  5
7C2D
331
7CDF
  5
7CE5
331
812A
  5
8137
331
7C69
  5
7C69
331
7C29
  5
7C29
331
7CDB
  5
7CDC
331
7C65
  5
7C65
331
8126
  5
8129
331
7C25
  5
7C25
331
7CD7
  5
7CD8
331
7D12
  5
7D13
331
7C21
  5
7C21
331
7C5D
  5
7C5D
331
7CD3
  5
7CD5
331
811A
  5
8126
331
8230
  5
8231
331
7CCF
  5
7CD0
331
7D0E
  5
7D0F
331
7C59
  5
7C59
331
7C98
  5
7CA7
331
7C1D
  5
7C1D
331
7C19
  5
7C19
331
7CCB
  5
7CCC
331
7D0A
  5
7D0B
331
7C55
  5
7C55
331
7C90
  5
7C90
331
7C51
  5
7C51
331
7F0E
  5
7F0F
331
7F0A
  5
7F0B
331
822C
  5
822D
331
7C15
  5
7C15
331
7CC7
  5
7CC8
331
7D06
  5
7D07
331
7D02
  5
7D03
331
7C4D
  5
7C4D
331
7C8C
  5
7C8C
331
7CC3
  5
7CC5
331
7CFE
  5
7CFF
331
80B2
  5
80B7
331
7C49
  5
7C49
331
7C88
  5
7C88
331
7CBF
  5
7CC0
331
7CBB
  5
7CBC
331
7CFA
  5
7CFB
331
7F06
  5
7F07
331
7C45
  5
7C45
331
7C84
  5
7C84
331
7F02
  5
7F03
331
7C41
  5
7C41
331
7EFA
  5
7EFB
331
7CB7
  5
7CB8
331
820C
  5
8226
331
7C7C
  5
7C7C
331
7CB3
  5
7CB4
331
7CF2
  5
7CF3
331
7CEE
  5
7CEF
331
7C39
  5
7C39
331
7C78
  5
7C78
331
7CAF
  5
7CB0
331
7CAB
  5
7CAC
331
7CEA
  5
7CEB
331
7C35
  5
7C35
331
7C31
  5
7C31
331
7CE6
  5
7CE7
331
7C2C
  5
7C2C
331
7CDE
  5
7CDF
331
8129
  5
812A
331
7C68
  5
7C68
331
7CA7
  5
7CA8
331
7C28
  5
7C28
331
7CDA
  5
7CDB
331
7C64
  5
7C64
331
8243
  5
826E
331
7C24
  5
7C24
331
7CD6
  5
7CD7
331
8233
  5
8243
331
7D11
  5
7D12
331
7C20
  5
7C20
331
7C5C
  5
7C5C
331
7CD2
  5
7CD3
331
7C1C
  5
7C1C
331
7CCE
  5
7CCF
331
7D0D
  5
7D0E
331
7C58
  5
7C58
331
7C97
  5
7C97
331
7C18
  5
7C18
331
7D09
  5
7D0A
331
7C54
  5
7C54
331
7F11
  5
80B2
331
7C50
  5
7C50
331
7F0D
  5
7F0E
331
7F09
  5
7F0A
331
822F
  5
8230
331
7C8F
  5
7C8F
331
7CC6
  5
7CC7
331
7D05
  5
7D06
331
7D01
  5
7D02
331
7C4C
  5
7C4C
331
7C8B
  5
7C8B
331
7CC2
  5
7CC3
331
7CBE
  5
7CBF
331
7CFD
  5
7CFE
331
7C48
  5
7C48
331
7C87
  5
7C87
331
7CBA
  5
7CBB
331
7CF9
  5
7CFA
331
7F05
  5
7F06
331
7C44
  5
7C44
331
7C83
  5
7C83
331
7F01
  5
7F02
331
7C40
  5
7C40
331
7EFD
  5
7EFF
331
7EF9
  5
7EFA
331
7CB6
  5
7CB7
331
7CF5
  5
7CF7
331
7CF1
  5
7CF2
331
7C3C
  5
7C3C
331
7C7B
  5
7C7B
331
7CB2
  5
7CB3
331
7CED
  5
7CEE
331
7C38
  5
7C38
331
7CAE
  5
7CAF
331
7CE9
  5
7CEA
331
7EF5
  5
7EF8
331
7C34
  5
7C34
331
7C30
  5
7C30
331
826E
  5
8280
331
7C6F
  5
7C6F
331
7CE5
  5
7CE6
331
7C6B
  5
7C6B
331
7C2F
  5
7C2F
331
7C2B
  5
7C2B
331
7CDD
  5
7CDE
331
7C67
  5
7C67
331
7CD9
  5
7CDA
331
7C63
  5
7C63
331
7C27
  5
7C27
331
7C23
  5
7C23
331
7CD5
  5
7CD6
331
8232
  5
8233
331
81E3
  5
81FD
331
7D10
  5
7D11
331
7C1F
  5
7C1F
331
7C5B
  5
7C5B
331
7CD1
  5
7CD2
331
7C1B
  5
7C1B
331
7CCD
  5
7CCE
331
7D0C
  5
7D0D
331
7C57
  5
7C57
331
7C96
  5
7C96
331
7D08
  5
7D09
331
7C53
  5
7C53
331
7F10
  5
7F11
331
7F0C
  5
7F0D
331
7F08
  5
7F09
331
822E
  5
822F
331
8226
  5
822C
331
7C4F
  5
7C4F
331
7C8E
  5
7C8E
331
7CC5
  5
7CC6
331
7D04
  5
7D05
331
80B8
  5
811A
331
7D00
  5
7D01
331
7C4B
  5
7C4B
331
7C8A
  5
7C8A
331
7CC1
  5
7CC2
331
7CBD
  5
7CBE
331
7CFC
  5
7CFD
331
7C47
  5
7C47
331
7C86
  5
7C86
331
7C82
  5
7C82
331
7CB9
  5
7CBA
331
7CF8
  5
7CF9
331
7F04
  5
7F05
331
7C43
  5
7C43
331
7F00
  5
7F01
331
7EFC
  5
7EFD
331
7EF8
  5
7EF9
331
7C7E
  5
7C7E
331
7CB5
  5
7CB6
331
7CF4
  5
7CF5
331
7C3F
  5
7C3F
331
7CF0
  5
7CF1
331
7C3B
  5
7C3B
331
7CB1
  5
7CB2
331
7CAD
  5
7CAE
331
7CEC
  5
7CED
331
7C37
  5
7C37
331
7C76
  5
7C76
331
7EF4
  5
7EF5
331
7C33
  5
7C33
331
7C72
  5
7C72
  0
ACDBDETAILVIEWSTYLE
  5
82DF
102
{ACAD_XDICTIONARY
360
8348
102
}
102
{ACAD_REACTORS
330
82DE
102
}
330
82DE
100
AcDbModelDocViewStyle
 70
     0
  3
Metric50
290
     0
100
AcDbDetailViewStyle
 70
     0
 71
     0
 90
        3
 71
     1
340
10
 62
   256
 40
5.0
340
0
 62
   256
 40
5.0
300

 40
0.0
280
     1
 71
     2
340
15
 90
       25
 62
   256
 71
     3
340
10
 62
   256
 40
5.0
 90
        0
 40
15.0
 90
        1
300
%<\AcVar ViewDetailId>% (%<\AcVar ViewScale \f "%sn">%)
 71
     4
340
15
 90
       25
 62
   256
340
15
 90
       25
 62
   256
280
     0
  0
LAYOUT
  5
8287
102
{ACAD_REACTORS
330
8285
102
}
330
8285
100
AcDbPlotSettings
  1

  2
EPSON LP-9300
  4

  6

 40
0.0
 41
0.0
 42
0.0
 43
0.0
 44
0.0
 45
0.0
 46
0.0
 47
0.0
 48
0.0
 49
0.0
140
0.0
141
0.0
142
1.0
143
1.0
 70
  1712
 72
     0
 73
     0
 74
     0
  7

 75
     0
147
1.0
 76
     0
 77
     2
 78
   300
148
0.0
149
0.0
100
AcDbLayout
  1
Model
 70
     1
 71
     0
 10
0.0
 20
0.0
 11
12.0
 21
9.0
 12
0.0
 22
0.0
 32
0.0
 14
0.0
 24
0.0
 34
0.0
 15
0.0
 25
0.0
 35
0.0
146
0.0
 13
0.0
 23
0.0
 33
0.0
 16
1.0
 26
0.0
 36
0.0
 17
0.0
 27
1.0
 37
0.0
 76
     0
330
19
331
8291
  0
LAYOUT
  5
8288
102
{ACAD_REACTORS
330
8285
102
}
330
8285
100
AcDbPlotSettings
  1

  2
EPSON LP-9300
  4

  6

 40
0.0
 41
0.0
 42
0.0
 43
0.0
 44
0.0
 45
0.0
 46
0.0
 47
0.0
 48
0.0
 49
0.0
140
0.0
141
0.0
142
1.0
143
1.0
 70
   688
 72
     0
 73
     0
 74
     5
  7

 75
    16
147
1.0
 76
     0
 77
     2
 78
   300
148
0.0
149
0.0
100
AcDbLayout
  1
ﾚｲｱｳﾄ1
 70
     1
 71
     1
 10
0.0
 20
0.0
 11
12.0
 21
9.0
 12
0.0
 22
0.0
 32
0.0
 14
1.000000000000000E+20
 24
1.000000000000000E+20
 34
1.000000000000000E+20
 15
-1.000000000000000E+20
 25
-1.000000000000000E+20
 35
-1.000000000000000E+20
146
0.0
 13
0.0
 23
0.0
 33
0.0
 16
1.0
 26
0.0
 36
0.0
 17
0.0
 27
1.0
 37
0.0
 76
     0
330
16
  0
MATERIAL
  5
829C
102
{ACAD_XDICTIONARY
360
829D
102
}
102
{ACAD_REACTORS
330
8293
102
}
330
8293
100
AcDbMaterial
  1
ByBlock
 72
     0
 43
0.0208333333333333
 43
0.0
 43
0.0
 43
0.0
 43
0.0
 43
0.0208333333333333
 43
0.0
 43
0.0
 43
0.0
 43
0.0
 43
1.0
 43
0.0
 43
0.0
 43
0.0
 43
0.0
 43
1.0
 77
     0
 47
0.0208333333333333
 47
0.0
 47
0.0
 47
0.0
 47
0.0
 47
0.0208333333333333
 47
0.0
 47
0.0
 47
0.0
 47
0.0
 47
1.0
 47
0.0
 47
0.0
 47
0.0
 47
0.0
 47
1.0
171
     0
 49
0.0208333333333333
 49
0.0
 49
0.0
 49
0.0
 49
0.0
 49
0.0208333333333333
 49
0.0
 49
0.0
 49
0.0
 49
0.0
 49
1.0
 49
0.0
 49
0.0
 49
0.0
 49
0.0
 49
1.0
175
     0
142
0.0208333333333333
142
0.0
142
0.0
142
0.0
142
0.0
142
0.0208333333333333
142
0.0
142
0.0
142
0.0
142
0.0
142
1.0
142
0.0
142
0.0
142
0.0
142
0.0
142
1.0
179
     0
144
0.0208333333333333
144
0.0
144
0.0
144
0.0
144
0.0
144
0.0208333333333333
144
0.0
144
0.0
144
0.0
144
0.0
144
1.0
144
0.0
144
0.0
144
0.0
144
0.0
144
1.0
147
0.0208333333333333
147
0.0
147
0.0
147
0.0
147
0.0
147
0.0208333333333333
147
0.0
147
0.0
147
0.0
147
0.0
147
1.0
147
0.0
147
0.0
147
0.0
147
0.0
147
1.0
  0
MATERIAL
  5
8294
102
{ACAD_XDICTIONARY
360
8295
102
}
102
{ACAD_REACTORS
330
8293
102
}
330
8293
100
AcDbMaterial
  1
ByLayer
 72
     0
 43
0.0208333333333333
 43
0.0
 43
0.0
 43
0.0
 43
0.0
 43
0.0208333333333333
 43
0.0
 43
0.0
 43
0.0
 43
0.0
 43
1.0
 43
0.0
 43
0.0
 43
0.0
 43
0.0
 43
1.0
 77
     0
 47
0.0208333333333333
 47
0.0
 47
0.0
 47
0.0
 47
0.0
 47
0.0208333333333333
 47
0.0
 47
0.0
 47
0.0
 47
0.0
 47
1.0
 47
0.0
 47
0.0
 47
0.0
 47
0.0
 47
1.0
171
     0
 49
0.0208333333333333
 49
0.0
 49
0.0
 49
0.0
 49
0.0
 49
0.0208333333333333
 49
0.0
 49
0.0
 49
0.0
 49
0.0
 49
1.0
 49
0.0
 49
0.0
 49
0.0
 49
0.0
 49
1.0
175
     0
142
0.0208333333333333
142
0.0
142
0.0
142
0.0
142
0.0
142
0.0208333333333333
142
0.0
142
0.0
142
0.0
142
0.0
142
1.0
142
0.0
142
0.0
142
0.0
142
0.0
142
1.0
179
     0
144
0.0208333333333333
144
0.0
144
0.0
144
0.0
144
0.0
144
0.0208333333333333
144
0.0
144
0.0
144
0.0
144
0.0
144
1.0
144
0.0
144
0.0
144
0.0
144
0.0
144
1.0
147
0.0208333333333333
147
0.0
147
0.0
147
0.0
147
0.0
147
0.0208333333333333
147
0.0
147
0.0
147
0.0
147
0.0
147
1.0
147
0.0
147
0.0
147
0.0
147
0.0
147
1.0
  0
MATERIAL
  5
82A4
102
{ACAD_XDICTIONARY
360
82A5
102
}
102
{ACAD_REACTORS
330
8293
102
}
330
8293
100
AcDbMaterial
  1
Global
 72
     0
 43
0.0208333333333333
 43
0.0
 43
0.0
 43
0.0
 43
0.0
 43
0.0208333333333333
 43
0.0
 43
0.0
 43
0.0
 43
0.0
 43
1.0
 43
0.0
 43
0.0
 43
0.0
 43
0.0
 43
1.0
 77
     0
 47
0.0208333333333333
 47
0.0
 47
0.0
 47
0.0
 47
0.0
 47
0.0208333333333333
 47
0.0
 47
0.0
 47
0.0
 47
0.0
 47
1.0
 47
0.0
 47
0.0
 47
0.0
 47
0.0
 47
1.0
171
     0
 49
0.0208333333333333
 49
0.0
 49
0.0
 49
0.0
 49
0.0
 49
0.0208333333333333
 49
0.0
 49
0.0
 49
0.0
 49
0.0
 49
1.0
 49
0.0
 49
0.0
 49
0.0
 49
0.0
 49
1.0
175
     0
142
0.0208333333333333
142
0.0
142
0.0
142
0.0
142
0.0
142
0.0208333333333333
142
0.0
142
0.0
142
0.0
142
0.0
142
1.0
142
0.0
142
0.0
142
0.0
142
0.0
142
1.0
179
     0
144
0.0208333333333333
144
0.0
144
0.0
144
0.0
144
0.0
144
0.0208333333333333
144
0.0
144
0.0
144
0.0
144
0.0
144
1.0
144
0.0
144
0.0
144
0.0
144
0.0
144
1.0
147
0.0208333333333333
147
0.0
147
0.0
147
0.0
147
0.0
147
0.0208333333333333
147
0.0
147
0.0
147
0.0
147
0.0
147
1.0
147
0.0
147
0.0
147
0.0
147
0.0
147
1.0
  0
MLEADERSTYLE
  5
82DB
102
{ACAD_REACTORS
330
82DA
102
}
330
82DA
100
AcDbMLeaderStyle
179
     2
170
     2
171
     1
172
     0
 90
        2
 40
0.0
 41
0.0
173
     1
 91
-1056964608
340
13
 92
       -2
290
     1
 42
2.0
291
     1
 43
0.36
  3
Standard
 44
4.0
300

342
10
174
     1
178
     6
175
     1
176
     0
 93
-1056964608
 45
4.0
292
     0
297
     0
 46
4.0
 94
-1056964608
 47
1.0
 49
1.0
140
1.0
293
     1
141
0.0
294
     1
177
     0
142
1.0
295
     1
296
     0
143
0.125
271
     0
272
     9
273
     9
298
     1
  0
MLINESTYLE
  5
1C
102
{ACAD_REACTORS
330
E
102
}
330
E
100
AcDbMlineStyle
  2
STANDARD
 70
     0
  3

 62
     0
 51
90.0
 52
90.0
 71
     2
 49
0.5
 62
   256
  6
BYLAYER
 49
-0.5
 62
   256
  6
BYLAYER
  0
ACDBPLACEHOLDER
  5
8284
102
{ACAD_REACTORS
330
8283
102
}
330
8283
  0
SCALE
  5
82C9
102
{ACAD_REACTORS
330
82C8
102
}
330
82C8
100
AcDbScale
 70
     0
300
1:1
140
1.0
141
1.0
290
     1
  0
SCALE
  5
82CA
102
{ACAD_REACTORS
330
82C8
102
}
330
82C8
100
AcDbScale
 70
     0
300
1:2
140
1.0
141
2.0
290
     0
  0
SCALE
  5
82CB
102
{ACAD_REACTORS
330
82C8
102
}
330
82C8
100
AcDbScale
 70
     0
300
1:4
140
1.0
141
4.0
290
     0
  0
SCALE
  5
82CC
102
{ACAD_REACTORS
330
82C8
102
}
330
82C8
100
AcDbScale
 70
     0
300
1:5
140
1.0
141
5.0
290
     0
  0
SCALE
  5
82CD
102
{ACAD_REACTORS
330
82C8
102
}
330
82C8
100
AcDbScale
 70
     0
300
1:8
140
1.0
141
8.0
290
     0
  0
SCALE
  5
82CE
102
{ACAD_REACTORS
330
82C8
102
}
330
82C8
100
AcDbScale
 70
     0
300
1:10
140
1.0
141
10.0
290
     0
  0
SCALE
  5
82CF
102
{ACAD_REACTORS
330
82C8
102
}
330
82C8
100
AcDbScale
 70
     0
300
1:16
140
1.0
141
16.0
290
     0
  0
SCALE
  5
82D0
102
{ACAD_REACTORS
330
82C8
102
}
330
82C8
100
AcDbScale
 70
     0
300
1:20
140
1.0
141
20.0
290
     0
  0
SCALE
  5
82D1
102
{ACAD_REACTORS
330
82C8
102
}
330
82C8
100
AcDbScale
 70
     0
300
1:30
140
1.0
141
30.0
290
     0
  0
SCALE
  5
82D2
102
{ACAD_REACTORS
330
82C8
102
}
330
82C8
100
AcDbScale
 70
     0
300
1:40
140
1.0
141
40.0
290
     0
  0
SCALE
  5
82D3
102
{ACAD_REACTORS
330
82C8
102
}
330
82C8
100
AcDbScale
 70
     0
300
1:50
140
1.0
141
50.0
290
     0
  0
SCALE
  5
82D4
102
{ACAD_REACTORS
330
82C8
102
}
330
82C8
100
AcDbScale
 70
     0
300
1:100
140
1.0
141
100.0
290
     0
  0
SCALE
  5
82D5
102
{ACAD_REACTORS
330
82C8
102
}
330
82C8
100
AcDbScale
 70
     0
300
2:1
140
2.0
141
1.0
290
     0
  0
SCALE
  5
82D6
102
{ACAD_REACTORS
330
82C8
102
}
330
82C8
100
AcDbScale
 70
     0
300
4:1
140
4.0
141
1.0
290
     0
  0
SCALE
  5
82D7
102
{ACAD_REACTORS
330
82C8
102
}
330
82C8
100
AcDbScale
 70
     0
300
8:1
140
8.0
141
1.0
290
     0
  0
SCALE
  5
82D8
102
{ACAD_REACTORS
330
82C8
102
}
330
82C8
100
AcDbScale
 70
     0
300
10:1
140
10.0
141
1.0
290
     0
  0
SCALE
  5
82D9
102
{ACAD_REACTORS
330
82C8
102
}
330
82C8
100
AcDbScale
 70
     0
300
100:1
140
100.0
141
1.0
290
     0
  0
ACDBSECTIONVIEWSTYLE
  5
82DD
102
{ACAD_XDICTIONARY
360
8346
102
}
102
{ACAD_REACTORS
330
82DC
102
}
330
82DC
100
AcDbModelDocViewStyle
 70
     0
  3
Metric50
290
     0
100
AcDbSectionViewStyle
 70
     0
 71
     0
 90
      102
 71
     1
340
10
 62
   256
 40
5.0
340
0
340
0
 62
   256
 40
5.0
300
I, O, Q, S, X, Z
 40
10.0
 90
        0
 40
2.5
 90
        0
 71
     2
340
15
 90
       25
 62
   256
340
15
 90
       50
 62
   256
 40
5.0
 40
2.5
 40
5.0
 71
     3
340
10
 62
   256
 40
5.0
 90
        0
 40
15.0
 90
        1
300
%<\AcVar ViewSectionStartId>%-%<\AcVar ViewSectionEndId>% (%<\AcVar ViewScale \f "%sn">%)
 71
     4
 62
   256
 62
   257
300
ANSI31
 40
1.0
 90
        0
290
     0
290
     0
 90
        6
 40
0.0
 40
1.570796326794896
 40
0.2617993877991494
 40
1.308996938995747
 40
-0.2617993877991494
 40
1.832595714594046
  0
TABLESTYLE
  5
82C7
102
{ACAD_XDICTIONARY
360
837C
102
}
102
{ACAD_REACTORS
330
82C6
102
}
330
82C6
100
AcDbTableStyle
280
     0
  3
Standard
 70
     0
 71
     0
 40
1.5
 41
1.5
280
     0
281
     0
  7
STANDARD
140
4.5
170
     2
 62
     0
 63
     7
283
     0
 90
      512
 91
        0
  1

274
    -2
284
     1
 64
     0
275
    -2
285
     1
 65
     0
276
    -2
286
     1
 66
     0
277
    -2
287
     1
 67
     0
278
    -2
288
     1
 68
     0
279
    -2
289
     1
 69
     0
  7
STANDARD
140
6.0
170
     5
 62
     0
 63
     7
283
     0
 90
      512
 91
        0
  1

274
    -2
284
     1
 64
     0
275
    -2
285
     1
 65
     0
276
    -2
286
     1
 66
     0
277
    -2
287
     1
 67
     0
278
    -2
288
     1
 68
     0
279
    -2
289
     1
 69
     0
  7
STANDARD
140
4.5
170
     5
 62
     0
 63
     7
283
     0
 90
      512
 91
        0
  1

274
    -2
284
     1
 64
     0
275
    -2
285
     1
 65
     0
276
    -2
286
     1
 66
     0
277
    -2
287
     1
 67
     0
278
    -2
288
     1
 68
     0
279
    -2
289
     1
 69
     0
  0
VISUALSTYLE
  5
82B2
102
{ACAD_REACTORS
330
82AC
102
}
330
82AC
100
AcDbVisualStyle
  2
2dWireframe
 70
     4
177
     3
291
     0
 70
    58
 90
        0
176
     1
 90
        2
176
     1
 90
        0
176
     1
 90
        0
176
     1
 40
0.6
176
     1
 40
30.0
176
     1
 62
     7
420
 16777215
176
     1
 90
        1
176
     1
 90
        4
176
     1
 62
     7
176
     1
 62
   257
176
     1
 90
        1
176
     1
 90
        1
176
     1
 40
1.0
176
     1
 90
        0
176
     1
 62
   257
176
     1
 40
1.0
176
     1
 90
        1
176
     1
 90
        6
176
     1
 90
        2
176
     1
 62
     7
176
     1
 90
        5
176
     1
 90
        0
176
     1
 90
        0
176
     1
290
     0
176
     1
 90
        1
176
     1
 40
0.0
176
     1
 90
        0
176
     1
290
     1
176
     1
290
     1
176
     1
290
     0
176
     1
290
     0
176
     1
290
     0
176
     1
290
     0
176
     1
290
     0
176
     1
290
     0
176
     1
290
     0
176
     1
 90
       50
176
     1
 40
0.0
176
     1
 40
1.0
176
     1
 90
        0
176
     1
 62
    18
420
        0
176
     1
 90
       50
176
     1
 90
        3
176
     1
 62
     5
420
      255
176
     1
290
     0
176
     1
 90
       50
176
     1
 90
       50
176
     1
 90
       50
176
     1
290
     0
176
     1
 90
       50
176
     1
 62
   256
176
     0
 40
1.0
176
     0
 90
        2
176
     1
  1
strokes_ogs.tif
176
     1
290
     0
176
     1
 40
1.0
176
     1
 40
1.0
176
     1
  0
VISUALSTYLE
  5
82B1
102
{ACAD_REACTORS
330
82AC
102
}
330
82AC
100
AcDbVisualStyle
  2
Basic
 70
     7
177
     3
291
     1
 70
    58
 90
        1
176
     1
 90
        0
176
     1
 90
        1
176
     1
 90
        0
176
     1
 40
0.6
176
     1
 40
30.0
176
     1
 62
     7
420
 16777215
176
     1
 90
        0
176
     1
 90
        4
176
     1
 62
     7
176
     1
 62
   257
176
     1
 90
        1
176
     1
 90
        1
176
     1
 40
1.0
176
     1
 90
        8
176
     1
 62
     7
176
     1
 40
1.0
176
     1
 90
        1
176
     1
 90
        6
176
     1
 90
        2
176
     1
 62
     7
176
     1
 90
        5
176
     1
 90
        0
176
     1
 90
        0
176
     1
290
     0
176
     1
 90
        1
176
     1
 40
0.0
176
     1
 90
        0
176
     1
290
     0
176
     1
290
     1
176
     1
290
     1
176
     1
290
     0
176
     1
290
     0
176
     1
290
     0
176
     1
290
     0
176
     1
290
     0
176
     1
290
     0
176
     1
 90
       50
176
     1
 40
0.0
176
     1
 40
1.0
176
     1
 90
        0
176
     1
 62
    18
420
        0
176
     1
 90
       50
176
     1
 90
        3
176
     1
 62
     5
420
      255
176
     1
290
     0
176
     1
 90
       50
176
     1
 90
       50
176
     1
 90
       50
176
     1
290
     0
176
     1
 90
       50
176
     1
 62
   256
176
     0
 40
1.0
176
     0
 90
        2
176
     1
  1
strokes_ogs.tif
176
     1
290
     0
176
     1
 40
1.0
176
     1
 40
1.0
176
     1
  0
VISUALSTYLE
  5
82B8
102
{ACAD_REACTORS
330
82AC
102
}
330
82AC
100
AcDbVisualStyle
  2
Brighten
 70
    12
177
     3
291
     1
 70
    58
 90
        2
176
     1
 90
        2
176
     1
 90
        0
176
     1
 90
        0
176
     1
 40
0.6
176
     1
 40
30.0
176
     1
 62
     7
420
 16777215
176
     1
 90
        1
176
     1
 90
        4
176
     1
 62
     7
176
     1
 62
   257
176
     1
 90
        1
176
     1
 90
        1
176
     1
 40
1.0
176
     1
 90
        8
176
     1
 62
     7
176
     1
 40
1.0
176
     1
 90
        1
176
     1
 90
        6
176
     1
 90
        2
176
     1
 62
     7
176
     1
 90
        5
176
     1
 90
        0
176
     1
 90
        0
176
     1
290
     0
176
     1
 90
        1
176
     1
 40
50.0
176
     1
 90
        0
176
     1
290
     0
176
     1
290
     1
176
     1
290
     1
176
     1
290
     0
176
     1
290
     0
176
     1
290
     0
176
     1
290
     0
176
     1
290
     0
176
     1
290
     0
176
     1
 90
       50
176
     1
 40
0.0
176
     1
 40
1.0
176
     1
 90
        0
176
     1
 62
    18
420
        0
176
     1
 90
       50
176
     1
 90
        3
176
     1
 62
     5
420
      255
176
     1
290
     0
176
     1
 90
       50
176
     1
 90
       50
176
     1
 90
       50
176
     1
290
     0
176
     1
 90
       50
176
     1
 62
   256
176
     0
 40
1.0
176
     0
 90
        2
176
     1
  1
strokes_ogs.tif
176
     1
290
     0
176
     1
 40
1.0
176
     1
 40
1.0
176
     1
  0
VISUALSTYLE
  5
82BC
102
{ACAD_REACTORS
330
82AC
102
}
330
82AC
100
AcDbVisualStyle
  2
ColorChange
 70
    16
177
     3
291
     1
 70
    58
 90
        2
176
     1
 90
        2
176
     1
 90
        3
176
     1
 90
        0
176
     1
 40
0.6
176
     1
 40
30.0
176
     1
 62
     8
420
  8421504
176
     1
 90
        1
176
     1
 90
        4
176
     1
 62
     7
176
     1
 62
   257
176
     1
 90
        1
176
     1
 90
        1
176
     1
 40
1.0
176
     1
 90
        8
176
     1
 62
     8
420
  8421504
176
     1
 40
1.0
176
     1
 90
        1
176
     1
 90
        6
176
     1
 90
        2
176
     1
 62
     7
176
     1
 90
        5
176
     1
 90
        0
176
     1
 90
        0
176
     1
290
     0
176
     1
 90
        1
176
     1
 40
0.0
176
     1
 90
        0
176
     1
290
     0
176
     1
290
     1
176
     1
290
     1
176
     1
290
     0
176
     1
290
     0
176
     1
290
     0
176
     1
290
     0
176
     1
290
     0
176
     1
290
     0
176
     1
 90
       50
176
     1
 40
0.0
176
     1
 40
1.0
176
     1
 90
        0
176
     1
 62
    18
420
        0
176
     1
 90
       50
176
     1
 90
        3
176
     1
 62
     5
420
      255
176
     1
290
     0
176
     1
 90
       50
176
     1
 90
       50
176
     1
 90
       50
176
     1
290
     0
176
     1
 90
       50
176
     1
 62
   256
176
     0
 40
1.0
176
     0
 90
        2
176
     1
  1
strokes_ogs.tif
176
     1
290
     0
176
     1
 40
1.0
176
     1
 40
1.0
176
     1
  0
VISUALSTYLE
  5
82B5
102
{ACAD_REACTORS
330
82AC
102
}
330
82AC
100
AcDbVisualStyle
  2
Conceptual
 70
     9
177
     3
291
     0
 70
    58
 90
        3
176
     1
 90
        2
176
     1
 90
        0
176
     1
 90
        0
176
     1
 40
0.6
176
     1
 40
30.0
176
     1
 62
     7
420
 16777215
176
     1
 90
        2
176
     1
 90
        2
176
     1
 62
     7
176
     1
 62
   257
176
     1
 90
        1
176
     1
 90
        1
176
     1
 40
179.0
176
     1
 90
        8
176
     1
 62
     7
176
     1
 40
1.0
176
     1
 90
        1
176
     1
 90
        6
176
     1
 90
        2
176
     1
 62
     7
176
     1
 90
        3
176
     1
 90
        0
176
     1
 90
        0
176
     1
290
     0
176
     1
 90
        1
176
     1
 40
0.0
176
     1
 90
        0
176
     1
290
     0
176
     1
290
     1
176
     1
290
     1
176
     1
290
     0
176
     1
290
     0
176
     1
290
     0
176
     1
290
     0
176
     1
290
     0
176
     1
290
     0
176
     1
 90
       50
176
     1
 40
0.0
176
     1
 40
1.0
176
     1
 90
        0
176
     1
 62
    18
420
        0
176
     1
 90
       50
176
     1
 90
        3
176
     1
 62
     5
420
      255
176
     1
290
     0
176
     1
 90
       50
176
     1
 90
       50
176
     1
 90
       50
176
     1
290
     0
176
     1
 90
       50
176
     1
 62
   256
176
     0
 40
1.0
176
     0
 90
        2
176
     1
  1
strokes_ogs.tif
176
     1
290
     0
176
     1
 40
1.0
176
     1
 40
1.0
176
     1
  0
VISUALSTYLE
  5
82B7
102
{ACAD_REACTORS
330
82AC
102
}
330
82AC
100
AcDbVisualStyle
  2
Dim
 70
    11
177
     3
291
     1
 70
    58
 90
        2
176
     1
 90
        2
176
     1
 90
        0
176
     1
 90
        0
176
     1
 40
0.6
176
     1
 40
30.0
176
     1
 62
     7
420
 16777215
176
     1
 90
        1
176
     1
 90
        4
176
     1
 62
     7
176
     1
 62
   257
176
     1
 90
        1
176
     1
 90
        1
176
     1
 40
1.0
176
     1
 90
        8
176
     1
 62
     7
176
     1
 40
1.0
176
     1
 90
        1
176
     1
 90
        6
176
     1
 90
        2
176
     1
 62
     7
176
     1
 90
        5
176
     1
 90
        0
176
     1
 90
        0
176
     1
290
     0
176
     1
 90
        1
176
     1
 40
-50.0
176
     1
 90
        0
176
     1
290
     0
176
     1
290
     1
176
     1
290
     1
176
     1
290
     0
176
     1
290
     0
176
     1
290
     0
176
     1
290
     0
176
     1
290
     0
176
     1
290
     0
176
     1
 90
       50
176
     1
 40
0.0
176
     1
 40
1.0
176
     1
 90
        0
176
     1
 62
    18
420
        0
176
     1
 90
       50
176
     1
 90
        3
176
     1
 62
     5
420
      255
176
     1
290
     0
176
     1
 90
       50
176
     1
 90
       50
176
     1
 90
       50
176
     1
290
     0
176
     1
 90
       50
176
     1
 62
   256
176
     0
 40
1.0
176
     0
 90
        2
176
     1
  1
strokes_ogs.tif
176
     1
290
     0
176
     1
 40
1.0
176
     1
 40
1.0
176
     1
  0
VISUALSTYLE
  5
82C4
102
{ACAD_REACTORS
330
82AC
102
}
330
82AC
100
AcDbVisualStyle
  2
EdgeColorOff
 70
    22
177
     3
291
     1
 70
    58
 90
        2
176
     0
 90
        2
176
     0
 90
        0
176
     0
 90
        0
176
     0
 40
0.6
176
     0
 40
30.0
176
     0
 62
     7
420
 16777215
176
     0
 90
        1
176
     0
 90
        4
176
     0
 62
     7
176
     0
 62
   257
176
     0
 90
        1
176
     0
 90
        1
176
     0
 40
1.0
176
     0
 90
        8
176
     2
 62
     7
176
     0
 40
1.0
176
     0
 90
        1
176
     0
 90
        6
176
     0
 90
        2
176
     0
 62
     7
176
     0
 90
        5
176
     0
 90
        0
176
     0
 90
        0
176
     0
290
     0
176
     0
 90
        1
176
     0
 40
0.0
176
     0
 90
        0
176
     0
290
     0
176
     0
290
     1
176
     0
290
     1
176
     0
290
     0
176
     0
290
     0
176
     0
290
     0
176
     0
290
     0
176
     0
290
     0
176
     0
290
     0
176
     0
 90
       50
176
     0
 40
0.0
176
     0
 40
1.0
176
     0
 90
        0
176
     0
 62
    18
420
        0
176
     0
 90
       50
176
     0
 90
        3
176
     0
 62
     5
420
      255
176
     0
290
     0
176
     0
 90
       50
176
     0
 90
       50
176
     0
 90
       50
176
     0
290
     0
176
     0
 90
       50
176
     0
 62
   256
176
     0
 40
1.0
176
     0
 90
        2
176
     0
  1
strokes_ogs.tif
176
     0
290
     0
176
     0
 40
1.0
176
     0
 40
1.0
176
     0
  0
VISUALSTYLE
  5
82BB
102
{ACAD_REACTORS
330
82AC
102
}
330
82AC
100
AcDbVisualStyle
  2
Facepattern
 70
    15
177
     3
291
     1
 70
    58
 90
        2
176
     1
 90
        2
176
     1
 90
        0
176
     1
 90
        0
176
     1
 40
0.6
176
     1
 40
30.0
176
     1
 62
     7
420
 16777215
176
     1
 90
        1
176
     1
 90
        4
176
     1
 62
     7
176
     1
 62
   257
176
     1
 90
        1
176
     1
 90
        1
176
     1
 40
1.0
176
     1
 90
        8
176
     1
 62
     7
176
     1
 40
1.0
176
     1
 90
        1
176
     1
 90
        6
176
     1
 90
        2
176
     1
 62
     7
176
     1
 90
        5
176
     1
 90
        0
176
     1
 90
        0
176
     1
290
     0
176
     1
 90
        1
176
     1
 40
0.0
176
     1
 90
        0
176
     1
290
     0
176
     1
290
     1
176
     1
290
     1
176
     1
290
     0
176
     1
290
     0
176
     1
290
     0
176
     1
290
     0
176
     1
290
     0
176
     1
290
     0
176
     1
 90
       50
176
     1
 40
0.0
176
     1
 40
1.0
176
     1
 90
        0
176
     1
 62
    18
420
        0
176
     1
 90
       50
176
     1
 90
        3
176
     1
 62
     5
420
      255
176
     1
290
     0
176
     1
 90
       50
176
     1
 90
       50
176
     1
 90
       50
176
     1
290
     0
176
     1
 90
       50
176
     1
 62
   256
176
     0
 40
1.0
176
     0
 90
        2
176
     1
  1
strokes_ogs.tif
176
     1
290
     0
176
     1
 40
1.0
176
     1
 40
1.0
176
     1
  0
VISUALSTYLE
  5
82AD
102
{ACAD_REACTORS
330
82AC
102
}
330
82AC
100
AcDbVisualStyle
  2
Flat
 70
     0
177
     3
291
     1
 70
    58
 90
        2
176
     1
 90
        1
176
     1
 90
        1
176
     1
 90
        2
176
     1
 40
0.6
176
     1
 40
30.0
176
     1
 62
     7
420
 16777215
176
     1
 90
        0
176
     1
 90
        0
176
     1
 62
     7
176
     1
 62
   257
176
     1
 90
        1
176
     1
 90
        1
176
     1
 40
1.0
176
     1
 90
        8
176
     1
 62
     7
176
     1
 40
1.0
176
     1
 90
        1
176
     1
 90
        6
176
     1
 90
        2
176
     1
 62
     7
176
     1
 90
        5
176
     1
 90
        0
176
     1
 90
        0
176
     1
290
     0
176
     1
 90
       13
176
     1
 40
0.0
176
     1
 90
        0
176
     1
290
     0
176
     1
290
     1
176
     1
290
     1
176
     1
290
     0
176
     1
290
     0
176
     1
290
     0
176
     1
290
     0
176
     1
290
     0
176
     1
290
     0
176
     1
 90
       50
176
     1
 40
0.0
176
     1
 40
1.0
176
     1
 90
        0
176
     1
 62
    18
420
        0
176
     1
 90
       50
176
     1
 90
        3
176
     1
 62
     5
420
      255
176
     1
290
     0
176
     1
 90
       50
176
     1
 90
       50
176
     1
 90
       50
176
     1
290
     0
176
     1
 90
       50
176
     1
 62
   256
176
     0
 40
1.0
176
     0
 90
        2
176
     1
  1
strokes_ogs.tif
176
     1
290
     0
176
     1
 40
1.0
176
     1
 40
1.0
176
     1
  0
VISUALSTYLE
  5
82AE
102
{ACAD_REACTORS
330
82AC
102
}
330
82AC
100
AcDbVisualStyle
  2
FlatWithEdges
 70
     1
177
     3
291
     1
 70
    58
 90
        2
176
     1
 90
        1
176
     1
 90
        1
176
     1
 90
        2
176
     1
 40
0.6
176
     1
 40
30.0
176
     1
 62
     7
420
 16777215
176
     1
 90
        1
176
     1
 90
        0
176
     1
 62
     7
176
     1
 62
   257
176
     1
 90
        1
176
     1
 90
        1
176
     1
 40
1.0
176
     1
 90
        0
176
     1
 62
   257
176
     1
 40
1.0
176
     1
 90
        1
176
     1
 90
        6
176
     1
 90
        2
176
     1
 62
     7
176
     1
 90
        5
176
     1
 90
        0
176
     1
 90
        0
176
     1
290
     0
176
     1
 90
       13
176
     1
 40
0.0
176
     1
 90
        0
176
     1
290
     0
176
     1
290
     1
176
     1
290
     1
176
     1
290
     0
176
     1
290
     0
176
     1
290
     0
176
     1
290
     0
176
     1
290
     0
176
     1
290
     0
176
     1
 90
       50
176
     1
 40
0.0
176
     1
 40
1.0
176
     1
 90
        0
176
     1
 62
    18
420
        0
176
     1
 90
       50
176
     1
 90
        3
176
     1
 62
     5
420
      255
176
     1
290
     0
176
     1
 90
       50
176
     1
 90
       50
176
     1
 90
       50
176
     1
290
     0
176
     1
 90
       50
176
     1
 62
   256
176
     0
 40
1.0
176
     0
 90
        2
176
     1
  1
strokes_ogs.tif
176
     1
290
     0
176
     1
 40
1.0
176
     1
 40
1.0
176
     1
  0
VISUALSTYLE
  5
82AF
102
{ACAD_REACTORS
330
82AC
102
}
330
82AC
100
AcDbVisualStyle
  2
Gouraud
 70
     2
177
     3
291
     1
 70
    58
 90
        2
176
     1
 90
        2
176
     1
 90
        1
176
     1
 90
        2
176
     1
 40
0.6
176
     1
 40
30.0
176
     1
 62
     7
420
 16777215
176
     1
 90
        0
176
     1
 90
        0
176
     1
 62
     7
176
     1
 62
   257
176
     1
 90
        1
176
     1
 90
        1
176
     1
 40
1.0
176
     1
 90
        0
176
     1
 62
     7
176
     1
 40
1.0
176
     1
 90
        1
176
     1
 90
        6
176
     1
 90
        2
176
     1
 62
     7
176
     1
 90
        5
176
     1
 90
        0
176
     1
 90
        0
176
     1
290
     0
176
     1
 90
       13
176
     1
 40
0.0
176
     1
 90
        0
176
     1
290
     0
176
     1
290
     1
176
     1
290
     1
176
     1
290
     0
176
     1
290
     0
176
     1
290
     0
176
     1
290
     0
176
     1
290
     0
176
     1
290
     0
176
     1
 90
       50
176
     1
 40
0.0
176
     1
 40
1.0
176
     1
 90
        0
176
     1
 62
    18
420
        0
176
     1
 90
       50
176
     1
 90
        3
176
     1
 62
     5
420
      255
176
     1
290
     0
176
     1
 90
       50
176
     1
 90
       50
176
     1
 90
       50
176
     1
290
     0
176
     1
 90
       50
176
     1
 62
   256
176
     0
 40
1.0
176
     0
 90
        2
176
     1
  1
strokes_ogs.tif
176
     1
290
     0
176
     1
 40
1.0
176
     1
 40
1.0
176
     1
  0
VISUALSTYLE
  5
82B0
102
{ACAD_REACTORS
330
82AC
102
}
330
82AC
100
AcDbVisualStyle
  2
GouraudWithEdges
 70
     3
177
     3
291
     1
 70
    58
 90
        2
176
     1
 90
        2
176
     1
 90
        1
176
     1
 90
        2
176
     1
 40
0.6
176
     1
 40
30.0
176
     1
 62
     7
420
 16777215
176
     1
 90
        1
176
     1
 90
        0
176
     1
 62
     7
176
     1
 62
   257
176
     1
 90
        1
176
     1
 90
        1
176
     1
 40
1.0
176
     1
 90
        0
176
     1
 62
   257
176
     1
 40
1.0
176
     1
 90
        1
176
     1
 90
        6
176
     1
 90
        2
176
     1
 62
     7
176
     1
 90
        5
176
     1
 90
        0
176
     1
 90
        0
176
     1
290
     0
176
     1
 90
       13
176
     1
 40
0.0
176
     1
 90
        0
176
     1
290
     0
176
     1
290
     1
176
     1
290
     1
176
     1
290
     0
176
     1
290
     0
176
     1
290
     0
176
     1
290
     0
176
     1
290
     0
176
     1
290
     0
176
     1
 90
       50
176
     1
 40
0.0
176
     1
 40
1.0
176
     1
 90
        0
176
     1
 62
    18
420
        0
176
     1
 90
       50
176
     1
 90
        3
176
     1
 62
     5
420
      255
176
     1
290
     0
176
     1
 90
       50
176
     1
 90
       50
176
     1
 90
       50
176
     1
290
     0
176
     1
 90
       50
176
     1
 62
   256
176
     0
 40
1.0
176
     0
 90
        2
176
     1
  1
strokes_ogs.tif
176
     1
290
     0
176
     1
 40
1.0
176
     1
 40
1.0
176
     1
  0
VISUALSTYLE
  5
82B4
102
{ACAD_REACTORS
330
82AC
102
}
330
82AC
100
AcDbVisualStyle
  2
Hidden
 70
     6
177
     3
291
     0
 70
    58
 90
        1
176
     1
 90
        2
176
     1
 90
        2
176
     1
 90
        0
176
     1
 40
0.6
176
     1
 40
30.0
176
     1
 62
     7
420
 16777215
176
     1
 90
        2
176
     1
 90
        2
176
     1
 62
     7
176
     1
 62
   257
176
     1
 90
        2
176
     1
 90
        1
176
     1
 40
40.0
176
     1
 90
        0
176
     1
 62
   257
176
     1
 40
1.0
176
     1
 90
        1
176
     1
 90
        6
176
     1
 90
        2
176
     1
 62
     7
176
     1
 90
        3
176
     1
 90
        0
176
     1
 90
        0
176
     1
290
     0
176
     1
 90
        1
176
     1
 40
0.0
176
     1
 90
        0
176
     1
290
     0
176
     1
290
     1
176
     1
290
     1
176
     1
290
     0
176
     1
290
     0
176
     1
290
     0
176
     1
290
     0
176
     1
290
     0
176
     1
290
     0
176
     1
 90
       50
176
     1
 40
0.0
176
     1
 40
1.0
176
     1
 90
        0
176
     1
 62
    18
420
        0
176
     1
 90
       50
176
     1
 90
        3
176
     1
 62
     5
420
      255
176
     1
290
     0
176
     1
 90
       50
176
     1
 90
       50
176
     1
 90
       50
176
     1
290
     0
176
     1
 90
       50
176
     1
 62
   256
176
     0
 40
1.0
176
     0
 90
        2
176
     1
  1
strokes_ogs.tif
176
     1
290
     0
176
     1
 40
1.0
176
     1
 40
1.0
176
     1
  0
VISUALSTYLE
  5
82C2
102
{ACAD_REACTORS
330
82AC
102
}
330
82AC
100
AcDbVisualStyle
  2
JitterOff
 70
    20
177
     3
291
     1
 70
    58
 90
        2
176
     0
 90
        2
176
     0
 90
        0
176
     0
 90
        0
176
     0
 40
0.6
176
     0
 40
30.0
176
     0
 62
     7
420
 16777215
176
     0
 90
        1
176
     0
 90
        4
176
     0
 62
     7
176
     0
 62
   257
176
     0
 90
        1
176
     0
 90
        1
176
     0
 40
1.0
176
     0
 90
       10
176
     2
 62
     7
176
     0
 40
1.0
176
     0
 90
        1
176
     0
 90
        6
176
     0
 90
        2
176
     0
 62
     7
176
     0
 90
        5
176
     0
 90
        0
176
     0
 90
        0
176
     0
290
     0
176
     0
 90
        1
176
     0
 40
0.0
176
     0
 90
        0
176
     0
290
     0
176
     0
290
     1
176
     0
290
     1
176
     0
290
     0
176
     0
290
     0
176
     0
290
     0
176
     0
290
     0
176
     0
290
     0
176
     0
290
     0
176
     0
 90
       50
176
     0
 40
0.0
176
     0
 40
1.0
176
     0
 90
        0
176
     0
 62
    18
420
        0
176
     0
 90
       50
176
     0
 90
        3
176
     0
 62
     5
420
      255
176
     0
290
     0
176
     0
 90
       50
176
     0
 90
       50
176
     0
 90
       50
176
     0
290
     0
176
     0
 90
       50
176
     0
 62
   256
176
     0
 40
1.0
176
     0
 90
        2
176
     0
  1
strokes_ogs.tif
176
     0
290
     0
176
     0
 40
1.0
176
     0
 40
1.0
176
     0
  0
VISUALSTYLE
  5
82BA
102
{ACAD_REACTORS
330
82AC
102
}
330
82AC
100
AcDbVisualStyle
  2
Linepattern
 70
    14
177
     3
291
     1
 70
    58
 90
        2
176
     1
 90
        2
176
     1
 90
        0
176
     1
 90
        0
176
     1
 40
0.6
176
     1
 40
30.0
176
     1
 62
     7
420
 16777215
176
     1
 90
        1
176
     1
 90
        4
176
     1
 62
     7
176
     1
 62
   257
176
     1
 90
        7
176
     1
 90
        7
176
     1
 40
1.0
176
     1
 90
        8
176
     1
 62
     7
176
     1
 40
1.0
176
     1
 90
        1
176
     1
 90
        6
176
     1
 90
        2
176
     1
 62
     7
176
     1
 90
        5
176
     1
 90
        0
176
     1
 90
        0
176
     1
290
     0
176
     1
 90
        1
176
     1
 40
0.0
176
     1
 90
        0
176
     1
290
     0
176
     1
290
     1
176
     1
290
     1
176
     1
290
     0
176
     1
290
     0
176
     1
290
     0
176
     1
290
     0
176
     1
290
     0
176
     1
290
     0
176
     1
 90
       50
176
     1
 40
0.0
176
     1
 40
1.0
176
     1
 90
        0
176
     1
 62
    18
420
        0
176
     1
 90
       50
176
     1
 90
        3
176
     1
 62
     5
420
      255
176
     1
290
     0
176
     1
 90
       50
176
     1
 90
       50
176
     1
 90
       50
176
     1
290
     0
176
     1
 90
       50
176
     1
 62
   256
176
     0
 40
1.0
176
     0
 90
        2
176
     1
  1
strokes_ogs.tif
176
     1
290
     0
176
     1
 40
1.0
176
     1
 40
1.0
176
     1
  0
VISUALSTYLE
  5
82C3
102
{ACAD_REACTORS
330
82AC
102
}
330
82AC
100
AcDbVisualStyle
  2
OverhangOff
 70
    21
177
     3
291
     1
 70
    58
 90
        2
176
     0
 90
        2
176
     0
 90
        0
176
     0
 90
        0
176
     0
 40
0.6
176
     0
 40
30.0
176
     0
 62
     7
420
 16777215
176
     0
 90
        1
176
     0
 90
        4
176
     0
 62
     7
176
     0
 62
   257
176
     0
 90
        1
176
     0
 90
        1
176
     0
 40
1.0
176
     0
 90
        9
176
     2
 62
     7
176
     0
 40
1.0
176
     0
 90
        1
176
     0
 90
        6
176
     0
 90
        2
176
     0
 62
     7
176
     0
 90
        5
176
     0
 90
        0
176
     0
 90
        0
176
     0
290
     0
176
     0
 90
        1
176
     0
 40
0.0
176
     0
 90
        0
176
     0
290
     0
176
     0
290
     1
176
     0
290
     1
176
     0
290
     0
176
     0
290
     0
176
     0
290
     0
176
     0
290
     0
176
     0
290
     0
176
     0
290
     0
176
     0
 90
       50
176
     0
 40
0.0
176
     0
 40
1.0
176
     0
 90
        0
176
     0
 62
    18
420
        0
176
     0
 90
       50
176
     0
 90
        3
176
     0
 62
     5
420
      255
176
     0
290
     0
176
     0
 90
       50
176
     0
 90
       50
176
     0
 90
       50
176
     0
290
     0
176
     0
 90
       50
176
     0
 62
   256
176
     0
 40
1.0
176
     0
 90
        2
176
     0
  1
strokes_ogs.tif
176
     0
290
     0
176
     0
 40
1.0
176
     0
 40
1.0
176
     0
  0
VISUALSTYLE
  5
82B6
102
{ACAD_REACTORS
330
82AC
102
}
330
82AC
100
AcDbVisualStyle
  2
Realistic
 70
     8
177
     3
291
     0
 70
    58
 90
        2
176
     1
 90
        3
176
     1
 90
        0
176
     1
 90
        2
176
     1
 40
0.6
176
     1
 40
30.0
176
     1
 62
     7
420
 16777215
176
     1
 90
        0
176
     1
 90
        0
176
     1
 62
     7
176
     1
 62
   257
176
     1
 90
        1
176
     1
 90
        1
176
     1
 40
1.0
176
     1
 90
        8
176
     1
 62
   257
176
     1
 40
1.0
176
     1
 90
        1
176
     1
 90
        6
176
     1
 90
        2
176
     1
 62
     7
176
     1
 90
        3
176
     1
 90
        0
176
     1
 90
        0
176
     1
290
     0
176
     1
 90
       13
176
     1
 40
0.0
176
     1
 90
        0
176
     1
290
     0
176
     1
290
     1
176
     1
290
     1
176
     1
290
     0
176
     1
290
     0
176
     1
290
     0
176
     1
290
     0
176
     1
290
     0
176
     1
290
     0
176
     1
 90
       50
176
     1
 40
0.0
176
     1
 40
1.0
176
     1
 90
        0
176
     1
 62
    18
420
        0
176
     1
 90
       50
176
     1
 90
        3
176
     1
 62
     5
420
      255
176
     1
290
     0
176
     1
 90
       50
176
     1
 90
       50
176
     1
 90
       50
176
     1
290
     0
176
     1
 90
       50
176
     1
 62
   256
176
     0
 40
1.0
176
     0
 90
        2
176
     1
  1
strokes_ogs.tif
176
     1
290
     0
176
     1
 40
1.0
176
     1
 40
1.0
176
     1
  0
VISUALSTYLE
  5
82C1
102
{ACAD_REACTORS
330
82AC
102
}
330
82AC
100
AcDbVisualStyle
  2
Shaded
 70
    27
177
     3
291
     0
 70
    58
 90
        2
176
     1
 90
        2
176
     1
 90
        1
176
     1
 90
        2
176
     1
 40
0.6
176
     1
 40
30.0
176
     1
 62
     7
420
 16777215
176
     1
 90
        0
176
     1
 90
        4
176
     1
 62
     7
176
     1
 62
   257
176
     1
 90
        1
176
     1
 90
        1
176
     1
 40
1.0
176
     1
 90
        8
176
     1
 62
   257
176
     1
 40
1.0
176
     1
 90
        1
176
     1
 90
        6
176
     1
 90
        2
176
     1
 62
     8
420
  7895160
176
     1
 90
        3
176
     1
 90
        0
176
     1
 90
        0
176
     1
290
     0
176
     1
 90
        5
176
     1
 40
0.0
176
     1
 90
        0
176
     1
290
     0
176
     1
290
     1
176
     1
290
     1
176
     1
290
     0
176
     1
290
     0
176
     1
290
     0
176
     1
290
     0
176
     1
290
     0
176
     1
290
     0
176
     1
 90
       50
176
     1
 40
0.0
176
     1
 40
1.0
176
     1
 90
        0
176
     1
 62
    18
420
        0
176
     1
 90
       50
176
     1
 90
        3
176
     1
 62
     5
420
      255
176
     1
290
     0
176
     1
 90
       50
176
     1
 90
       50
176
     1
 90
       50
176
     1
290
     0
176
     1
 90
       50
176
     1
 62
   256
176
     0
 40
1.0
176
     0
 90
        2
176
     1
  1
strokes_ogs.tif
176
     1
290
     0
176
     1
 40
1.0
176
     1
 40
1.0
176
     1
  0
VISUALSTYLE
  5
82C0
102
{ACAD_REACTORS
330
82AC
102
}
330
82AC
100
AcDbVisualStyle
  2
Shaded with edges
 70
    26
177
     3
291
     0
 70
    58
 90
        2
176
     1
 90
        2
176
     1
 90
        1
176
     1
 90
        2
176
     1
 40
0.6
176
     1
 40
30.0
176
     1
 62
     7
420
 16777215
176
     1
 90
        1
176
     1
 90
       10
176
     1
 62
     7
176
     1
 62
   257
176
     1
 90
        2
176
     1
 90
        1
176
     1
 40
1.0
176
     1
 90
        8
176
     1
 62
   257
176
     1
 40
1.0
176
     1
 90
        1
176
     1
 90
        6
176
     1
 90
        2
176
     1
 62
     7
176
     1
 90
        3
176
     1
 90
        0
176
     1
 90
        0
176
     1
290
     0
176
     1
 90
        5
176
     1
 40
0.0
176
     1
 90
        0
176
     1
290
     0
176
     1
290
     1
176
     1
290
     1
176
     1
290
     0
176
     1
290
     0
176
     1
290
     0
176
     1
290
     0
176
     1
290
     0
176
     1
290
     0
176
     1
 90
       50
176
     1
 40
0.0
176
     1
 40
1.0
176
     1
 90
        0
176
     1
 62
    18
420
        0
176
     1
 90
       50
176
     1
 90
        3
176
     1
 62
     5
420
      255
176
     1
290
     0
176
     1
 90
       50
176
     1
 90
       50
176
     1
 90
       50
176
     1
290
     0
176
     1
 90
       50
176
     1
 62
   256
176
     0
 40
1.0
176
     0
 90
        2
176
     1
  1
strokes_ogs.tif
176
     1
290
     0
176
     1
 40
1.0
176
     1
 40
1.0
176
     1
  0
VISUALSTYLE
  5
82BD
102
{ACAD_REACTORS
330
82AC
102
}
330
82AC
100
AcDbVisualStyle
  2
Shades of Gray
 70
    23
177
     3
291
     0
 70
    58
 90
        2
176
     1
 90
        2
176
     1
 90
        3
176
     1
 90
        0
176
     1
 40
0.6
176
     1
 40
30.0
176
     1
 62
     7
420
 16777215
176
     1
 90
        2
176
     1
 90
        2
176
     1
 62
     7
176
     1
 62
     7
176
     1
 90
        1
176
     1
 90
        1
176
     1
 40
40.0
176
     1
 90
        8
176
     1
 62
     7
176
     1
 40
1.0
176
     1
 90
        1
176
     1
 90
        6
176
     1
 90
        2
176
     1
 62
     7
176
     1
 90
        3
176
     1
 90
        0
176
     1
 90
        0
176
     1
290
     0
176
     1
 90
        1
176
     1
 40
0.0
176
     1
 90
        0
176
     1
290
     0
176
     1
290
     1
176
     1
290
     1
176
     1
290
     0
176
     1
290
     0
176
     1
290
     0
176
     1
290
     0
176
     1
290
     0
176
     1
290
     0
176
     1
 90
       50
176
     1
 40
0.0
176
     1
 40
1.0
176
     1
 90
        0
176
     1
 62
    18
420
        0
176
     1
 90
       50
176
     1
 90
        3
176
     1
 62
     5
420
      255
176
     1
290
     0
176
     1
 90
       50
176
     1
 90
       50
176
     1
 90
       50
176
     1
290
     0
176
     1
 90
       50
176
     1
 62
   256
176
     0
 40
1.0
176
     0
 90
        2
176
     1
  1
strokes_ogs.tif
176
     1
290
     0
176
     1
 40
1.0
176
     1
 40
1.0
176
     1
  0
VISUALSTYLE
  5
82BE
102
{ACAD_REACTORS
330
82AC
102
}
330
82AC
100
AcDbVisualStyle
  2
Sketchy
 70
    24
177
     3
291
     0
 70
    58
 90
        1
176
     1
 90
        2
176
     1
 90
        2
176
     1
 90
        0
176
     1
 40
0.6
176
     1
 40
30.0
176
     1
 62
     7
420
 16777215
176
     1
 90
        2
176
     1
 90
        2
176
     1
 62
     7
176
     1
 62
     7
176
     1
 90
        1
176
     1
 90
        1
176
     1
 40
40.0
176
     1
 90
       11
176
     1
 62
     7
176
     1
 40
1.0
176
     1
 90
        1
176
     1
 90
        6
176
     1
 90
        2
176
     1
 62
     7
176
     1
 90
        6
176
     1
 90
        0
176
     1
 90
        0
176
     1
290
     0
176
     1
 90
        1
176
     1
 40
0.0
176
     1
 90
        0
176
     1
290
     0
176
     1
290
     1
176
     1
290
     1
176
     1
290
     0
176
     1
290
     0
176
     1
290
     0
176
     1
290
     0
176
     1
290
     0
176
     1
290
     0
176
     1
 90
       50
176
     1
 40
0.0
176
     1
 40
1.0
176
     1
 90
        0
176
     1
 62
    18
420
        0
176
     1
 90
       50
176
     1
 90
        3
176
     1
 62
     5
420
      255
176
     1
290
     0
176
     1
 90
       50
176
     1
 90
       50
176
     1
 90
       50
176
     1
290
     0
176
     1
 90
       50
176
     1
 62
   256
176
     0
 40
1.0
176
     0
 90
        2
176
     1
  1
strokes_ogs.tif
176
     1
290
     0
176
     1
 40
1.0
176
     1
 40
1.0
176
     1
  0
VISUALSTYLE
  5
82B9
102
{ACAD_REACTORS
330
82AC
102
}
330
82AC
100
AcDbVisualStyle
  2
Thicken
 70
    13
177
     3
291
     1
 70
    58
 90
        2
176
     1
 90
        2
176
     1
 90
        0
176
     1
 90
        0
176
     1
 40
0.6
176
     1
 40
30.0
176
     1
 62
     7
420
 16777215
176
     1
 90
        1
176
     1
 90
        4
176
     1
 62
     7
176
     1
 62
   257
176
     1
 90
        1
176
     1
 90
        1
176
     1
 40
1.0
176
     1
 90
       12
176
     1
 62
     7
176
     1
 40
1.0
176
     1
 90
        1
176
     1
 90
        6
176
     1
 90
        2
176
     1
 62
     7
176
     1
 90
        5
176
     1
 90
        0
176
     1
 90
        0
176
     1
290
     0
176
     1
 90
        1
176
     1
 40
0.0
176
     1
 90
        0
176
     1
290
     0
176
     1
290
     1
176
     1
290
     1
176
     1
290
     0
176
     1
290
     0
176
     1
290
     0
176
     1
290
     0
176
     1
290
     0
176
     1
290
     0
176
     1
 90
       50
176
     1
 40
0.0
176
     1
 40
1.0
176
     1
 90
        0
176
     1
 62
    18
420
        0
176
     1
 90
       50
176
     1
 90
        3
176
     1
 62
     5
420
      255
176
     1
290
     0
176
     1
 90
       50
176
     1
 90
       50
176
     1
 90
       50
176
     1
290
     0
176
     1
 90
       50
176
     1
 62
   256
176
     0
 40
1.0
176
     0
 90
        2
176
     1
  1
strokes_ogs.tif
176
     1
290
     0
176
     1
 40
1.0
176
     1
 40
1.0
176
     1
  0
VISUALSTYLE
  5
82B3
102
{ACAD_REACTORS
330
82AC
102
}
330
82AC
100
AcDbVisualStyle
  2
Wireframe
 70
     5
177
     3
291
     0
 70
    58
 90
        0
176
     1
 90
        2
176
     1
 90
        0
176
     1
 90
        0
176
     1
 40
0.6
176
     1
 40
30.0
176
     1
 62
     7
420
 16777215
176
     1
 90
        1
176
     1
 90
        4
176
     1
 62
     7
176
     1
 62
   257
176
     1
 90
        1
176
     1
 90
        1
176
     1
 40
1.0
176
     1
 90
        0
176
     1
 62
   257
176
     1
 40
1.0
176
     1
 90
        1
176
     1
 90
        6
176
     1
 90
        2
176
     1
 62
     7
176
     1
 90
        3
176
     1
 90
        0
176
     1
 90
        0
176
     1
290
     0
176
     1
 90
        1
176
     1
 40
0.0
176
     1
 90
        0
176
     1
290
     0
176
     1
290
     1
176
     1
290
     1
176
     1
290
     0
176
     1
290
     0
176
     1
290
     0
176
     1
290
     0
176
     1
290
     0
176
     1
290
     0
176
     1
 90
       50
176
     1
 40
0.0
176
     1
 40
1.0
176
     1
 90
        0
176
     1
 62
    18
420
        0
176
     1
 90
       50
176
     1
 90
        3
176
     1
 62
     5
420
      255
176
     1
290
     0
176
     1
 90
       50
176
     1
 90
       50
176
     1
 90
       50
176
     1
290
     0
176
     1
 90
       50
176
     1
 62
   256
176
     0
 40
1.0
176
     0
 90
        2
176
     1
  1
strokes_ogs.tif
176
     1
290
     0
176
     1
 40
1.0
176
     1
 40
1.0
176
     1
  0
VISUALSTYLE
  5
82BF
102
{ACAD_REACTORS
330
82AC
102
}
330
82AC
100
AcDbVisualStyle
  2
X-Ray
 70
    25
177
     3
291
     0
 70
    58
 90
        2
176
     1
 90
        2
176
     1
 90
        1
176
     1
 90
        1
176
     1
 40
0.5
176
     1
 40
30.0
176
     1
 62
     7
420
 16777215
176
     1
 90
        1
176
     1
 90
        0
176
     1
 62
     7
176
     1
 62
   257
176
     1
 90
        1
176
     1
 90
        1
176
     1
 40
1.0
176
     1
 90
        8
176
     1
 62
     7
176
     1
 40
1.0
176
     1
 90
        1
176
     1
 90
        6
176
     1
 90
        2
176
     1
 62
     7
176
     1
 90
        3
176
     1
 90
        0
176
     1
 90
        0
176
     1
290
     0
176
     1
 90
       13
176
     1
 40
0.0
176
     1
 90
        0
176
     1
290
     0
176
     1
290
     1
176
     1
290
     1
176
     1
290
     0
176
     1
290
     0
176
     1
290
     0
176
     1
290
     0
176
     1
290
     0
176
     1
290
     0
176
     1
 90
       50
176
     1
 40
0.0
176
     1
 40
1.0
176
     1
 90
        0
176
     1
 62
    18
420
        0
176
     1
 90
       50
176
     1
 90
        3
176
     1
 62
     5
420
      255
176
     1
290
     0
176
     1
 90
       50
176
     1
 90
       50
176
     1
 90
       50
176
     1
290
     0
176
     1
 90
       50
176
     1
 62
   256
176
     0
 40
1.0
176
     0
 90
        2
176
     1
  1
strokes_ogs.tif
176
     1
290
     0
176
     1
 40
1.0
176
     1
 40
1.0
176
     1
  0
DICTIONARYVAR
  5
8351
102
{ACAD_REACTORS
330
834B
102
}
330
834B
100
DictionaryVariables
280
     0
  1
1:1
  0
DICTIONARYVAR
  5
834D
102
{ACAD_REACTORS
330
834B
102
}
330
834B
100
DictionaryVariables
280
     0
  1
STANDARD
  0
DICTIONARYVAR
  5
834C
102
{ACAD_REACTORS
330
834B
102
}
330
834B
100
DictionaryVariables
280
     0
  1
STANDARD
  0
DICTIONARYVAR
  5
834E
102
{ACAD_REACTORS
330
834B
102
}
330
834B
100
DictionaryVariables
280
     0
  1
Metric50
  0
DICTIONARYVAR
  5
834F
102
{ACAD_REACTORS
330
834B
102
}
330
834B
100
DictionaryVariables
280
     0
  1
Metric50
  0
DICTIONARYVAR
  5
8353
102
{ACAD_REACTORS
330
834B
102
}
330
834B
100
DictionaryVariables
280
     0
  1
1
  0
DICTIONARYVAR
  5
8354
102
{ACAD_REACTORS
330
834B
102
}
330
834B
100
DictionaryVariables
280
     0
  1
15
  0
DICTIONARYVAR
  5
8352
102
{ACAD_REACTORS
330
834B
102
}
330
834B
100
DictionaryVariables
280
     0
  1
0
  0
DICTIONARYVAR
  5
8350
102
{ACAD_REACTORS
330
834B
102
}
330
834B
100
DictionaryVariables
280
     0
  1
0
  0
DICTIONARY
  5
8348
330
82DF
100
AcDbDictionary
280
     1
281
     1
  3
ACAD_XREC_ROUNDTRIP
360
837F
  0
DICTIONARY
  5
829D
330
829C
100
AcDbDictionary
280
     1
281
     1
  3
BUMPTILE
360
829F
  3
DIFFUSETILE
360
829E
  3
OPACITYTILE
360
82A2
  3
REFLECTIONTILE
360
82A1
  3
REFRACTIONTILE
360
82A3
  3
SPECULARTILE
360
82A0
  0
DICTIONARY
  5
8295
330
8294
100
AcDbDictionary
280
     1
281
     1
  3
BUMPTILE
360
8297
  3
DIFFUSETILE
360
8296
  3
OPACITYTILE
360
829A
  3
REFLECTIONTILE
360
8299
  3
REFRACTIONTILE
360
829B
  3
SPECULARTILE
360
8298
  0
DICTIONARY
  5
82A5
330
82A4
100
AcDbDictionary
280
     1
281
     1
  3
BUMPTILE
360
82A7
  3
DIFFUSETILE
360
82A6
  3
OPACITYTILE
360
82AA
  3
REFLECTIONTILE
360
82A9
  3
REFRACTIONTILE
360
82AB
  3
SPECULARTILE
360
82A8
  0
DICTIONARY
  5
8346
330
82DD
100
AcDbDictionary
280
     1
281
     1
  3
ACAD_XREC_ROUNDTRIP
360
837E
  0
DICTIONARY
  5
837C
330
82C7
100
AcDbDictionary
280
     1
281
     1
  3
ACAD_ROUNDTRIP_2008_TABLESTYLE_CELLSTYLEMAP
360
837D
  0
XRECORD
  5
837F
102
{ACAD_REACTORS
330
8348
102
}
330
8348
100
AcDbXrecord
280
     1
102
DISPLAYNAME
  1
Metric50
102
FLAGS
 90
        0
  0
XRECORD
  5
829F
102
{ACAD_REACTORS
330
829D
102
}
330
829D
100
AcDbXrecord
280
     1
270
     1
271
     1
  0
XRECORD
  5
829E
102
{ACAD_REACTORS
330
829D
102
}
330
829D
100
AcDbXrecord
280
     1
270
     1
271
     1
  0
XRECORD
  5
82A2
102
{ACAD_REACTORS
330
829D
102
}
330
829D
100
AcDbXrecord
280
     1
270
     1
271
     1
  0
XRECORD
  5
82A1
102
{ACAD_REACTORS
330
829D
102
}
330
829D
100
AcDbXrecord
280
     1
270
     1
271
     1
  0
XRECORD
  5
82A3
102
{ACAD_REACTORS
330
829D
102
}
330
829D
100
AcDbXrecord
280
     1
270
     1
271
     1
  0
XRECORD
  5
82A0
102
{ACAD_REACTORS
330
829D
102
}
330
829D
100
AcDbXrecord
280
     1
270
     1
271
     1
  0
XRECORD
  5
8297
102
{ACAD_REACTORS
330
8295
102
}
330
8295
100
AcDbXrecord
280
     1
270
     1
271
     1
  0
XRECORD
  5
8296
102
{ACAD_REACTORS
330
8295
102
}
330
8295
100
AcDbXrecord
280
     1
270
     1
271
     1
  0
XRECORD
  5
829A
102
{ACAD_REACTORS
330
8295
102
}
330
8295
100
AcDbXrecord
280
     1
270
     1
271
     1
  0
XRECORD
  5
8299
102
{ACAD_REACTORS
330
8295
102
}
330
8295
100
AcDbXrecord
280
     1
270
     1
271
     1
  0
XRECORD
  5
829B
102
{ACAD_REACTORS
330
8295
102
}
330
8295
100
AcDbXrecord
280
     1
270
     1
271
     1
  0
XRECORD
  5
8298
102
{ACAD_REACTORS
330
8295
102
}
330
8295
100
AcDbXrecord
280
     1
270
     1
271
     1
  0
XRECORD
  5
82A7
102
{ACAD_REACTORS
330
82A5
102
}
330
82A5
100
AcDbXrecord
280
     1
270
     1
271
     1
  0
XRECORD
  5
82A6
102
{ACAD_REACTORS
330
82A5
102
}
330
82A5
100
AcDbXrecord
280
     1
270
     1
271
     1
  0
XRECORD
  5
82AA
102
{ACAD_REACTORS
330
82A5
102
}
330
82A5
100
AcDbXrecord
280
     1
270
     1
271
     1
  0
XRECORD
  5
82A9
102
{ACAD_REACTORS
330
82A5
102
}
330
82A5
100
AcDbXrecord
280
     1
270
     1
271
     1
  0
XRECORD
  5
82AB
102
{ACAD_REACTORS
330
82A5
102
}
330
82A5
100
AcDbXrecord
280
     1
270
     1
271
     1
  0
XRECORD
  5
82A8
102
{ACAD_REACTORS
330
82A5
102
}
330
82A5
100
AcDbXrecord
280
     1
270
     1
271
     1
  0
XRECORD
  5
837E
102
{ACAD_REACTORS
330
8346
102
}
330
8346
100
AcDbXrecord
280
     1
102
DISPLAYNAME
  1
Metric50
102
FLAGS
 90
        0
  0
CELLSTYLEMAP
  5
837D
102
{ACAD_REACTORS
330
837C
102
}
330
837C
100
AcDbCellStyleMap
 90
        3
300
CELLSTYLE
  1
TABLEFORMAT_BEGIN
 90
        5
170
     1
 91
        0
 92
    32768
 62
   257
 93
        1
300
CONTENTFORMAT
  1
CONTENTFORMAT_BEGIN
 90
        0
 91
        0
 92
      512
 93
        0
300

 40
0.0
140
1.0
 94
        5
 62
     0
340
10
144
6.0
309
CONTENTFORMAT_END
171
     1
301
MARGIN
  1
CELLMARGIN_BEGIN
 40
1.5
 40
1.5
 40
1.5
 40
1.5
 40
4.5
 40
4.5
309
CELLMARGIN_END
 94
        6
 95
        1
302
GRIDFORMAT
  1
GRIDFORMAT_BEGIN
 90
        0
 91
        1
 62
     0
 92
       -2
340
0
 93
        0
 40
1.125
309
GRIDFORMAT_END
 95
        2
302
GRIDFORMAT
  1
GRIDFORMAT_BEGIN
 90
        0
 91
        1
 62
     0
 92
       -2
340
0
 93
        0
 40
1.125
309
GRIDFORMAT_END
 95
        4
302
GRIDFORMAT
  1
GRIDFORMAT_BEGIN
 90
        0
 91
        1
 62
     0
 92
       -2
340
0
 93
        0
 40
1.125
309
GRIDFORMAT_END
 95
        8
302
GRIDFORMAT
  1
GRIDFORMAT_BEGIN
 90
        0
 91
        1
 62
     0
 92
       -2
340
0
 93
        0
 40
1.125
309
GRIDFORMAT_END
 95
       16
302
GRIDFORMAT
  1
GRIDFORMAT_BEGIN
 90
        0
 91
        1
 62
     0
 92
       -2
340
0
 93
        0
 40
1.125
309
GRIDFORMAT_END
 95
       32
302
GRIDFORMAT
  1
GRIDFORMAT_BEGIN
 90
        0
 91
        1
 62
     0
 92
       -2
340
0
 93
        0
 40
1.125
309
GRIDFORMAT_END
309
TABLEFORMAT_END
  1
CELLSTYLE_BEGIN
 90
        1
 91
        1
300
_TITLE
309
CELLSTYLE_END
300
CELLSTYLE
  1
TABLEFORMAT_BEGIN
 90
        5
170
     1
 91
        0
 92
        0
 62
   257
 93
        1
300
CONTENTFORMAT
  1
CONTENTFORMAT_BEGIN
 90
        0
 91
        0
 92
      512
 93
        0
300

 40
0.0
140
1.0
 94
        5
 62
     0
340
10
144
4.5
309
CONTENTFORMAT_END
171
     1
301
MARGIN
  1
CELLMARGIN_BEGIN
 40
1.5
 40
1.5
 40
1.5
 40
1.5
 40
4.5
 40
4.5
309
CELLMARGIN_END
 94
        6
 95
        1
302
GRIDFORMAT
  1
GRIDFORMAT_BEGIN
 90
        0
 91
        1
 62
     0
 92
       -2
340
0
 93
        0
 40
1.125
309
GRIDFORMAT_END
 95
        2
302
GRIDFORMAT
  1
GRIDFORMAT_BEGIN
 90
        0
 91
        1
 62
     0
 92
       -2
340
0
 93
        0
 40
1.125
309
GRIDFORMAT_END
 95
        4
302
GRIDFORMAT
  1
GRIDFORMAT_BEGIN
 90
        0
 91
        1
 62
     0
 92
       -2
340
0
 93
        0
 40
1.125
309
GRIDFORMAT_END
 95
        8
302
GRIDFORMAT
  1
GRIDFORMAT_BEGIN
 90
        0
 91
        1
 62
     0
 92
       -2
340
0
 93
        0
 40
1.125
309
GRIDFORMAT_END
 95
       16
302
GRIDFORMAT
  1
GRIDFORMAT_BEGIN
 90
        0
 91
        1
 62
     0
 92
       -2
340
0
 93
        0
 40
1.125
309
GRIDFORMAT_END
 95
       32
302
GRIDFORMAT
  1
GRIDFORMAT_BEGIN
 90
        0
 91
        1
 62
     0
 92
       -2
340
0
 93
        0
 40
1.125
309
GRIDFORMAT_END
309
TABLEFORMAT_END
  1
CELLSTYLE_BEGIN
 90
        2
 91
        1
300
_HEADER
309
CELLSTYLE_END
300
CELLSTYLE
  1
TABLEFORMAT_BEGIN
 90
        5
170
     1
 91
        0
 92
        0
 62
   257
 93
        1
300
CONTENTFORMAT
  1
CONTENTFORMAT_BEGIN
 90
        0
 91
        0
 92
      512
 93
        0
300

 40
0.0
140
1.0
 94
        2
 62
     0
340
10
144
4.5
309
CONTENTFORMAT_END
171
     1
301
MARGIN
  1
CELLMARGIN_BEGIN
 40
1.5
 40
1.5
 40
1.5
 40
1.5
 40
4.5
 40
4.5
309
CELLMARGIN_END
 94
        6
 95
        1
302
GRIDFORMAT
  1
GRIDFORMAT_BEGIN
 90
        0
 91
        1
 62
     0
 92
       -2
340
0
 93
        0
 40
1.125
309
GRIDFORMAT_END
 95
        2
302
GRIDFORMAT
  1
GRIDFORMAT_BEGIN
 90
        0
 91
        1
 62
     0
 92
       -2
340
0
 93
        0
 40
1.125
309
GRIDFORMAT_END
 95
        4
302
GRIDFORMAT
  1
GRIDFORMAT_BEGIN
 90
        0
 91
        1
 62
     0
 92
       -2
340
0
 93
        0
 40
1.125
309
GRIDFORMAT_END
 95
        8
302
GRIDFORMAT
  1
GRIDFORMAT_BEGIN
 90
        0
 91
        1
 62
     0
 92
       -2
340
0
 93
        0
 40
1.125
309
GRIDFORMAT_END
 95
       16
302
GRIDFORMAT
  1
GRIDFORMAT_BEGIN
 90
        0
 91
        1
 62
     0
 92
       -2
340
0
 93
        0
 40
1.125
309
GRIDFORMAT_END
 95
       32
302
GRIDFORMAT
  1
GRIDFORMAT_BEGIN
 90
        0
 91
        1
 62
     0
 92
       -2
340
0
 93
        0
 40
1.125
309
GRIDFORMAT_END
309
TABLEFORMAT_END
  1
CELLSTYLE_BEGIN
 90
        3
 91
        2
300
_DATA
309
CELLSTYLE_END
  0
ENDSEC
  0
SECTION
  2
ACDSDATA
 70
     2
 71
     8
  0
ACDSSCHEMA
 90
        0
  1
AcDb_Thumbnail_Schema
  2
AcDbDs::ID
280
    10
 91
        8
  2
Thumbnail_Data
280
    15
 91
        0
101
ACDSRECORD
 95
        0
 90
        1
  2
AcDbDs::TreatedAsObjectData
280
     1
291
     1
101
ACDSRECORD
 95
        0
 90
        2
  2
AcDbDs::Legacy
280
     1
291
     1
101
ACDSRECORD
  1
AcDbDs::ID
 90
        3
  2
AcDs:Indexable
280
     1
291
     1
101
ACDSRECORD
  1
AcDbDs::ID
 90
        4
  2
AcDbDs::HandleAttribute
280
     7
282
     1
  0
ACDSSCHEMA
 90
        1
  1
AcDbDs::TreatedAsObjectDataSchema
  2
AcDbDs::TreatedAsObjectData
280
     1
 91
        0
  0
ACDSSCHEMA
 90
        2
  1
AcDbDs::LegacySchema
  2
AcDbDs::Legacy
280
     1
 91
        0
  0
ACDSSCHEMA
 90
        3
  1
AcDbDs::IndexedPropertySchema
  2
AcDs:Indexable
280
     1
 91
        0
  0
ACDSSCHEMA
 90
        4
  1
AcDbDs::HandleAttributeSchema
  2
AcDbDs::HandleAttribute
280
     7
 91
        1
284
     1
  0
ACDSRECORD
 90
        0
  2
AcDbDs::ID
280
    10
320
8287
  2
Thumbnail_Data
280
    15
 94
     1686
310
89504E470D0A1A0A0000000D49484452000001000000007C0803000000B13B9E5A00000300504C5445000000000000C8C8C80000000000000000000000000000000000000000000000000000330000660000990000CC0000FF0033000033330033660033990033CC0033FF0066000066330066660066990066CC0066FF0099
310
000099330099660099990099CC0099FF00CC0000CC3300CC6600CC9900CCCC00CCFF00FF0000FF3300FF6600FF9900FFCC00FFFF3300003300333300663300993300CC3300FF3333003333333333663333993333CC3333FF3366003366333366663366993366CC3366FF3399003399333399663399993399CC3399FF33CC00
310
33CC3333CC6633CC9933CCCC33CCFF33FF0033FF3333FF6633FF9933FFCC33FFFF6600006600336600666600996600CC6600FF6633006633336633666633996633CC6633FF6666006666336666666666996666CC6666FF6699006699336699666699996699CC6699FF66CC0066CC3366CC6666CC9966CCCC66CCFF66FF0066
310
FF3366FF6666FF9966FFCC66FFFF9900009900339900669900999900CC9900FF9933009933339933669933999933CC9933FF9966009966339966669966999966CC9966FF9999009999339999669999999999CC9999FF99CC0099CC3399CC6699CC9999CCCC99CCFF99FF0099FF3399FF6699FF9999FFCC99FFFFCC0000CC00
310
33CC0066CC0099CC00CCCC00FFCC3300CC3333CC3366CC3399CC33CCCC33FFCC6600CC6633CC6666CC6699CC66CCCC66FFCC9900CC9933CC9966CC9999CC99CCCC99FFCCCC00CCCC33CCCC66CCCC99CCCCCCCCCCFFCCFF00CCFF33CCFF66CCFF99CCFFCCCCFFFFFF0000FF0033FF0066FF0099FF00CCFF00FFFF3300FF3333
310
FF3366FF3399FF33CCFF33FFFF6600FF6633FF6666FF6699FF66CCFF66FFFF9900FF9933FF9966FF9999FF99CCFF99FFFFCC00FFCC33FFCC66FFCC99FFCCCCFFCCFFFFFF00FFFF33FFFF66FFFF99FFFFCCFFFFFF0000000D0D0D1A1A1A2828283535354343435050505D5D5D6B6B6B787878868686939393A1A1A1AEAEAEBB
310
BBBBC9C9C9D6D6D6E4E4E4F1F1F1FFFFFF00000000000000000000000000000000000000000000000000000000000008F1915C0000031C4944415478DAED9D497203210C45751C36DCFF325C837D9AA11905EE72EC4A903E2EB7939ECA7AFE88413226FA42F15F2A744AF147DD1600000000000000FECF3BDD347E5A000C97
310
7B950A500D807A02EA00AC779C08E0A323802301FCB39B01C01F00C83AAE2FF9498CD03D63A40400943D7B31B68028D64724C40DF96528A0D74127065F042119802F9D3C4FBD08E2293BF3E004D10FD0381CF68286C39DEB1F659176F9E6CCD4147ACF38C4E301F819406D003A00E380480400CF01482D5FDD4DCD430A80CF
310
5D8F394100000000000000000000381480BB8A3E006E01C0A901B02A0A1560EFA24B010C80509402A85B85008CB5263EAC3146118056F7949E5101EF78C213015C06B355E02D4F782800BEA801D01A1CD55065A00440F07F440000003300A71C80030000800F402B00006A7A82EABBC2DA0174FFAB1A0D2E8A9AF980136E0B
310
0000000000000000000000F0E577FAFBFC0851F901EB6BDBE3C3798747876F113C07309E783A80570A782915290056B3816E0642B20054939E0210A980A700045681BA7D04204CA69E0FA09D056AE6823837E79AA9B33297743E806A510660AB185C9F4545241A40B22E19E54A376709E0FADBF43B64004856AD00D004C036
310
95E47C00394C94D304B70082504C9A3F9704E00E0BF000EC404B8802EE0CC1F47A5965EF44D1D109F6A12329002E4B4C0A91C63C513261EB4CE915AF00C48C5223420197E9392EDC870673DF58BE0282EA3B00B40630FB003A1D8089C51A6A7D80CD2EA0071012A9253AC190289E63C2B16D2BD1F1270A103016B89D60AD04
310
F40C8090AE70EBF68255660DA0FDC0734788248D06D90C914D33682500B0B9FB5F8BA9FB87198F612C4032006C3344DCA61F2044017331C3A4D7B353A50220F100D45781D700DCFA5C27A1199C8EB573C38E39D2D51039009A8067F17DCE7168A8090D0E29F5674687077FDF087F02D08744E7E0A0B4AFCF3B3614B4098F8A
310
CB1041AAAC4600EA57945C58969658658F2A02C07FF0D20010F3B349FE5E5D57990274FA005E0175F96561BF2FF0D00794A5B6B72B894A03B0A8178A148095A5D1150600000000000000000000000000001006E0A09FDEFE014E749367FF11B6700000000049454E44AE4260827D4437006CAF6FBC290C0000000000000000
310
000000000000A018C057D3EB5FF70F71FF12E7779B67240000000049454E44AE426082
  0
ENDSEC
  0
EOF
