  0
SECTION
  2
HEADER
  9
$ACADVER
  1
AC1027
  9
$ACADMAINTVER
 70
    81
  9
$DWGCODEPAGE
  3
ANSI_932
  9
$LASTSAVEDBY
  1
reiko.miyawaki
  9
$REQUIREDVERSIONS
160
                 0
  9
$INSBASE
 10
0.0
 20
0.0
 30
0.0
  9
$EXTMIN
 10
-0.0961049442194053
 20
-0.1350045644985585
 30
-0.0000000000000058
  9
$EXTMAX
 10
2100.096144061856
 20
2950.135059515466
 30
0.0000000000000104
  9
$LIMMIN
 10
0.0
 20
0.0
  9
$LIMMAX
 10
297.0
 20
210.0
  9
$ORTHOMODE
 70
     0
  9
$REGENMODE
 70
     1
  9
$FILLMODE
 70
     0
  9
$QTEXTMODE
 70
     0
  9
$MIRRTEXT
 70
     1
  9
$LTSCALE
 40
100.0
  9
$ATTMODE
 70
     1
  9
$TEXTSIZE
 40
180.0
  9
$TRACEWID
 40
0.05
  9
$TEXTSTYLE
  7
STANDARD
  9
$CLAYER
  8
3
  9
$CELTYPE
  6
BYLAYER
  9
$CECOLOR
 62
   256
  9
$CELTSCALE
 40
1.0
  9
$DISPSILH
 70
     0
  9
$DIMSCALE
 40
10.0
  9
$DIMASZ
 40
2.0
  9
$DIMEXO
 40
0.5
  9
$DIMDLI
 40
10.0
  9
$DIMRND
 40
0.0
  9
$DIMDLE
 40
0.0
  9
$DIMEXE
 40
1.0
  9
$DIMTP
 40
1.0
  9
$DIMTM
 40
1.0
  9
$DIMTXT
 40
3.0
  9
$DIMCEN
 40
0.0
  9
$DIMTSZ
 40
0.0
  9
$DIMTOL
 70
     0
  9
$DIMLIM
 70
     0
  9
$DIMTIH
 70
     0
  9
$DIMTOH
 70
     0
  9
$DIMSE1
 70
     0
  9
$DIMSE2
 70
     0
  9
$DIMTAD
 70
     1
  9
$DIMZIN
 70
     8
  9
$DIMBLK
  1

  9
$DIMASO
 70
     1
  9
$DIMSHO
 70
     1
  9
$DIMPOST
  1
(<>)
  9
$DIMAPOST
  1

  9
$DIMALT
 70
     0
  9
$DIMALTD
 70
     2
  9
$DIMALTF
 40
0.039
  9
$DIMLFAC
 40
1.0
  9
$DIMTOFL
 70
     1
  9
$DIMTVP
 40
0.0
  9
$DIMTIX
 70
     0
  9
$DIMSOXD
 70
     0
  9
$DIMSAH
 70
     1
  9
$DIMBLK1
  1
OPEN
  9
$DIMBLK2
  1
OPEN
  9
$DIMSTYLE
  2
IGA
  9
$DIMCLRD
 70
     0
  9
$DIMCLRE
 70
     0
  9
$DIMCLRT
 70
     0
  9
$DIMTFAC
 40
10.0
  9
$DIMGAP
 40
1.0
  9
$DIMJUST
 70
     0
  9
$DIMSD1
 70
     0
  9
$DIMSD2
 70
     0
  9
$DIMTOLJ
 70
     1
  9
$DIMTZIN
 70
     8
  9
$DIMALTZ
 70
     0
  9
$DIMALTTZ
 70
     0
  9
$DIMUPT
 70
     0
  9
$DIMDEC
 70
     0
  9
$DIMTDEC
 70
     0
  9
$DIMALTU
 70
     2
  9
$DIMALTTD
 70
     2
  9
$DIMTXSTY
  7
STANDARD
  9
$DIMAUNIT
 70
     0
  9
$DIMADEC
 70
     0
  9
$DIMALTRND
 40
0.0
  9
$DIMAZIN
 70
     0
  9
$DIMDSEP
 70
    46
  9
$DIMATFIT
 70
     3
  9
$DIMFRAC
 70
     0
  9
$DIMLDRBLK
  1
OPEN
  9
$DIMLUNIT
 70
     2
  9
$DIMLWD
 70
    -2
  9
$DIMLWE
 70
    -2
  9
$DIMTMOVE
 70
     2
  9
$DIMFXL
 40
1.0
  9
$DIMFXLON
 70
     0
  9
$DIMJOGANG
 40
0.7853981633974483
  9
$DIMTFILL
 70
     0
  9
$DIMTFILLCLR
 70
     0
  9
$DIMARCSYM
 70
     0
  9
$DIMLTYPE
  6

  9
$DIMLTEX1
  6

  9
$DIMLTEX2
  6

  9
$DIMTXTDIRECTION
 70
     0
  9
$LUNITS
 70
     2
  9
$LUPREC
 70
     3
  9
$SKETCHINC
 40
0.1
  9
$FILLETRAD
 40
50.0
  9
$AUNITS
 70
     0
  9
$AUPREC
 70
     0
  9
$MENU
  1
acad
  9
$ELEVATION
 40
0.0
  9
$PELEVATION
 40
0.0
  9
$THICKNESS
 40
0.0
  9
$LIMCHECK
 70
     0
  9
$CHAMFERA
 40
0.5
  9
$CHAMFERB
 40
0.5
  9
$CHAMFERC
 40
20.0
  9
$CHAMFERD
 40
0.0
  9
$SKPOLY
 70
     0
  9
$TDCREATE
 40
2451935.497253704
  9
$TDUCREATE
 40
2451935.122253704
  9
$TDUPDATE
 40
2459024.483744479
  9
$TDUUPDATE
 40
2459024.108744479
  9
$TDINDWG
 40
0.2633017940
  9
$TDUSRTIMER
 40
0.2633017940
  9
$USRTIMER
 70
     1
  9
$ANGBASE
 50
0.0
  9
$ANGDIR
 70
     0
  9
$PDMODE
 70
     0
  9
$PDSIZE
 40
0.0
  9
$PLINEWID
 40
0.0
  9
$SPLFRAME
 70
     0
  9
$SPLINETYPE
 70
     6
  9
$SPLINESEGS
 70
     8
  9
$HANDSEED
  5
8685
  9
$SURFTAB1
 70
     6
  9
$SURFTAB2
 70
     6
  9
$SURFTYPE
 70
     6
  9
$SURFU
 70
     6
  9
$SURFV
 70
     6
  9
$UCSBASE
  2

  9
$UCSNAME
  2

  9
$UCSORG
 10
0.0
 20
0.0
 30
0.0
  9
$UCSXDIR
 10
1.0
 20
0.0
 30
0.0
  9
$UCSYDIR
 10
0.0
 20
1.0
 30
0.0
  9
$UCSORTHOREF
  2

  9
$UCSORTHOVIEW
 70
     0
  9
$UCSORGTOP
 10
0.0
 20
0.0
 30
0.0
  9
$UCSORGBOTTOM
 10
0.0
 20
0.0
 30
0.0
  9
$UCSORGLEFT
 10
0.0
 20
0.0
 30
0.0
  9
$UCSORGRIGHT
 10
0.0
 20
0.0
 30
0.0
  9
$UCSORGFRONT
 10
0.0
 20
0.0
 30
0.0
  9
$UCSORGBACK
 10
0.0
 20
0.0
 30
0.0
  9
$PUCSBASE
  2

  9
$PUCSNAME
  2

  9
$PUCSORG
 10
0.0
 20
0.0
 30
0.0
  9
$PUCSXDIR
 10
1.0
 20
0.0
 30
0.0
  9
$PUCSYDIR
 10
0.0
 20
1.0
 30
0.0
  9
$PUCSORTHOREF
  2

  9
$PUCSORTHOVIEW
 70
     0
  9
$PUCSORGTOP
 10
0.0
 20
0.0
 30
0.0
  9
$PUCSORGBOTTOM
 10
0.0
 20
0.0
 30
0.0
  9
$PUCSORGLEFT
 10
0.0
 20
0.0
 30
0.0
  9
$PUCSORGRIGHT
 10
0.0
 20
0.0
 30
0.0
  9
$PUCSORGFRONT
 10
0.0
 20
0.0
 30
0.0
  9
$PUCSORGBACK
 10
0.0
 20
0.0
 30
0.0
  9
$USERI1
 70
     0
  9
$USERI2
 70
     0
  9
$USERI3
 70
     0
  9
$USERI4
 70
     0
  9
$USERI5
 70
     0
  9
$USERR1
 40
0.0
  9
$USERR2
 40
0.0
  9
$USERR3
 40
0.0
  9
$USERR4
 40
0.0
  9
$USERR5
 40
0.0
  9
$WORLDVIEW
 70
     1
  9
$SHADEDGE
 70
     3
  9
$SHADEDIF
 70
    70
  9
$TILEMODE
 70
     1
  9
$MAXACTVP
 70
    16
  9
$PINSBASE
 10
0.0
 20
0.0
 30
0.0
  9
$PLIMCHECK
 70
     0
  9
$PEXTMIN
 10
1.000000000000000E+20
 20
1.000000000000000E+20
 30
1.000000000000000E+20
  9
$PEXTMAX
 10
-1.000000000000000E+20
 20
-1.000000000000000E+20
 30
-1.000000000000000E+20
  9
$PLIMMIN
 10
0.0
 20
0.0
  9
$PLIMMAX
 10
12.0
 20
9.0
  9
$UNITMODE
 70
     0
  9
$VISRETAIN
 70
     0
  9
$PLINEGEN
 70
     0
  9
$PSLTSCALE
 70
     1
  9
$TREEDEPTH
 70
  3020
  9
$CMLSTYLE
  2
STANDARD
  9
$CMLJUST
 70
     0
  9
$CMLSCALE
 40
20.0
  9
$PROXYGRAPHICS
 70
     1
  9
$MEASUREMENT
 70
     1
  9
$CELWEIGHT
370
    -1
  9
$ENDCAPS
280
     0
  9
$JOINSTYLE
280
     0
  9
$LWDISPLAY
290
     0
  9
$INSUNITS
 70
     0
  9
$HYPERLINKBASE
  1

  9
$STYLESHEET
  1

  9
$XEDIT
290
     1
  9
$CEPSNTYPE
380
     0
  9
$PSTYLEMODE
290
     1
  9
$FINGERPRINTGUID
  2
{69954193-3121-44F2-A773-077770E165A0}
  9
$VERSIONGUID
  2
{E7E2FCFC-389D-4FD6-9401-AED653460DDA}
  9
$EXTNAMES
290
     1
  9
$PSVPSCALE
 40
0.0
  9
$OLESTARTUP
290
     0
  9
$SORTENTS
280
   127
  9
$INDEXCTL
280
     0
  9
$HIDETEXT
280
     0
  9
$XCLIPFRAME
280
     2
  9
$HALOGAP
280
     0
  9
$OBSCOLOR
 70
   257
  9
$OBSLTYPE
280
     0
  9
$INTERSECTIONDISPLAY
280
     0
  9
$INTERSECTIONCOLOR
 70
   257
  9
$DIMASSOC
280
     1
  9
$PROJECTNAME
  1

  9
$CAMERADISPLAY
290
     0
  9
$LENSLENGTH
 40
50.0
  9
$CAMERAHEIGHT
 40
0.0
  9
$STEPSPERSEC
 40
2.0
  9
$STEPSIZE
 40
6.0
  9
$3DDWFPREC
 40
2.0
  9
$PSOLWIDTH
 40
0.25
  9
$PSOLHEIGHT
 40
4.0
  9
$LOFTANG1
 40
1.570796326794896
  9
$LOFTANG2
 40
1.570796326794896
  9
$LOFTMAG1
 40
0.0
  9
$LOFTMAG2
 40
0.0
  9
$LOFTPARAM
 70
     7
  9
$LOFTNORMALS
280
     1
  9
$LATITUDE
 40
37.795
  9
$LONGITUDE
 40
-122.394
  9
$NORTHDIRECTION
 40
0.0
  9
$TIMEZONE
 70
 -8000
  9
$LIGHTGLYPHDISPLAY
280
     1
  9
$TILEMODELIGHTSYNCH
280
     1
  9
$CMATERIAL
347
8584
  9
$SOLIDHIST
280
     0
  9
$SHOWHIST
280
     1
  9
$DWFFRAME
280
     2
  9
$DGNFRAME
280
     0
  9
$REALWORLDSCALE
290
     1
  9
$INTERFERECOLOR
 62
     1
  9
$INTERFEREOBJVS
345
85A6
  9
$INTERFEREVPVS
346
85A3
  9
$CSHADOW
280
     0
  9
$SHADOWPLANELOCATION
 40
0.0
  0
ENDSEC
  0
SECTION
  2
CLASSES
  0
CLASS
  1
ACDBDICTIONARYWDFLT
  2
AcDbDictionaryWithDefault
  3
ObjectDBX Classes
 90
        0
 91
        1
280
     0
281
     0
  0
CLASS
  1
MATERIAL
  2
AcDbMaterial
  3
ObjectDBX Classes
 90
     1153
 91
        3
280
     0
281
     0
  0
CLASS
  1
VISUALSTYLE
  2
AcDbVisualStyle
  3
ObjectDBX Classes
 90
     4095
 91
       24
280
     0
281
     0
  0
CLASS
  1
TABLESTYLE
  2
AcDbTableStyle
  3
ObjectDBX Classes
 90
     4095
 91
        1
280
     0
281
     0
  0
CLASS
  1
SCALE
  2
AcDbScale
  3
ObjectDBX Classes
 90
     1153
 91
       17
280
     0
281
     0
  0
CLASS
  1
MLEADERSTYLE
  2
AcDbMLeaderStyle
  3
ACDB_MLEADERSTYLE_CLASS
 90
     4095
 91
        1
280
     0
281
     0
  0
CLASS
  1
ACDBSECTIONVIEWSTYLE
  2
AcDbSectionViewStyle
  3
ObjectDBX Classes
 90
     1025
 91
        1
280
     0
281
     0
  0
CLASS
  1
ACDBDETAILVIEWSTYLE
  2
AcDbDetailViewStyle
  3
ObjectDBX Classes
 90
     1025
 91
        1
280
     0
281
     0
  0
CLASS
  1
SORTENTSTABLE
  2
AcDbSortentsTable
  3
ObjectDBX Classes
 90
        0
 91
        1
280
     0
281
     0
  0
CLASS
  1
DICTIONARYVAR
  2
AcDbDictionaryVar
  3
ObjectDBX Classes
 90
        0
 91
        9
280
     0
281
     0
  0
CLASS
  1
CELLSTYLEMAP
  2
AcDbCellStyleMap
  3
ObjectDBX Classes
 90
     1152
 91
        1
280
     0
281
     0
  0
ENDSEC
  0
SECTION
  2
TABLES
  0
TABLE
  2
VPORT
  5
8
330
0
100
AcDbSymbolTable
 70
     1
  0
VPORT
  5
8581
330
8
100
AcDbSymbolTableRecord
100
AcDbViewportTableRecord
  2
*Active
 70
     0
 10
0.0
 20
0.0
 11
1.0
 21
1.0
 12
1050.000019558818
 22
1475.000027475483
 13
0.0
 23
0.0
 14
10.0
 24
10.0
 15
10.0
 25
10.0
 16
0.0
 26
0.0
 36
1.0
 17
0.0
 27
0.0
 37
0.0
 40
2971.936674097688
 41
1.957107843137254
 42
50.0
 43
0.0
 44
0.0
 50
0.0
 51
0.0
 71
     0
 72
   100
 73
     1
 74
     0
 75
     0
 76
     0
 77
     0
 78
     0
281
     0
 65
     1
110
0.0
120
0.0
130
0.0
111
1.0
121
0.0
131
0.0
112
0.0
122
1.0
132
0.0
 79
     0
146
0.0
348
85A2
 60
     3
 61
     5
292
     1
282
     1
141
0.0
142
0.0
 63
   250
421
  3355443
1001
ACAD_NAV_VCDISPLAY
1070
     3
  0
ENDTAB
  0
TABLE
  2
LTYPE
  5
5
330
0
100
AcDbSymbolTable
 70
     2
  0
LTYPE
  5
13
330
5
100
AcDbSymbolTableRecord
100
AcDbLinetypeTableRecord
  2
BYBLOCK
 70
     0
  3

 72
    65
 73
     0
 40
0.0
  0
LTYPE
  5
14
330
5
100
AcDbSymbolTableRecord
100
AcDbLinetypeTableRecord
  2
BYLAYER
 70
     0
  3

 72
    65
 73
     0
 40
0.0
  0
LTYPE
  5
15
330
5
100
AcDbSymbolTableRecord
100
AcDbLinetypeTableRecord
  2
CONTINUOUS
 70
     0
  3
Solid line
 72
    65
 73
     0
 40
0.0
  0
LTYPE
  5
1F
330
5
100
AcDbSymbolTableRecord
100
AcDbLinetypeTableRecord
  2
CENTER
 70
     0
  3
____ _ ____ _ ____ _ ____ _ ____ _ ____ _ ____ 
 72
    65
 73
     4
 40
2.0
 49
1.25
 74
     0
 49
-0.25
 74
     0
 49
0.25
 74
     0
 49
-0.25
 74
     0
  0
ENDTAB
  0
TABLE
  2
LAYER
  5
2
102
{ACAD_XDICTIONARY
360
862F
102
}
330
0
100
AcDbSymbolTable
 70
     6
  0
LAYER
  5
F
102
{ACAD_XDICTIONARY
360
8622
102
}
330
2
100
AcDbSymbolTableRecord
100
AcDbLayerTableRecord
  2
0
 70
     0
 62
     7
  6
CONTINUOUS
370
    -3
390
8573
347
8594
348
0
  0
LAYER
  5
31
102
{ACAD_XDICTIONARY
360
8624
102
}
330
2
100
AcDbSymbolTableRecord
100
AcDbLayerTableRecord
  2
3
 70
     0
 62
     2
  6
CONTINUOUS
370
    -3
390
8573
347
8594
348
0
  0
LAYER
  5
76D0
102
{ACAD_XDICTIONARY
360
8626
102
}
330
2
100
AcDbSymbolTableRecord
100
AcDbLayerTableRecord
  2
2
 70
     0
 62
     3
  6
CENTER
370
    -3
390
8573
347
8594
348
0
  0
LAYER
  5
76D1
102
{ACAD_XDICTIONARY
360
8628
102
}
330
2
100
AcDbSymbolTableRecord
100
AcDbLayerTableRecord
  2
1
 70
     0
 62
     4
  6
CONTINUOUS
370
    -3
390
8573
347
8594
348
0
  0
LAYER
  5
76D2
102
{ACAD_XDICTIONARY
360
862A
102
}
330
2
100
AcDbSymbolTableRecord
100
AcDbLayerTableRecord
  2
4
 70
     0
 62
     7
  6
CONTINUOUS
370
    -3
390
8573
347
8594
348
0
  0
LAYER
  5
7B0F
330
2
100
AcDbSymbolTableRecord
100
AcDbLayerTableRecord
  2
DEFPOINTS
 70
     0
 62
     7
  6
CONTINUOUS
290
     0
370
    -3
390
8573
347
8594
348
0
  0
ENDTAB
  0
TABLE
  2
STYLE
  5
3
330
0
100
AcDbSymbolTable
 70
     1
  0
STYLE
  5
10
330
3
100
AcDbSymbolTableRecord
100
AcDbTextStyleTableRecord
  2
STANDARD
 70
     0
 40
0.0
 41
1.0
 50
0.0
 71
     0
 42
180.0
  3
simplex.shx
  4
extfont.shx
  0
ENDTAB
  0
TABLE
  2
VIEW
  5
6
330
0
100
AcDbSymbolTable
 70
     0
  0
ENDTAB
  0
TABLE
  2
UCS
  5
7
330
0
100
AcDbSymbolTable
 70
     0
  0
ENDTAB
  0
TABLE
  2
APPID
  5
9
330
0
100
AcDbSymbolTable
 70
     4
  0
APPID
  5
11
330
9
100
AcDbSymbolTableRecord
100
AcDbRegAppTableRecord
  2
ACAD
 70
     0
  0
APPID
  5
8635
330
9
100
AcDbSymbolTableRecord
100
AcDbRegAppTableRecord
  2
ACAD_NAV_VCDISPLAY
 70
     0
  0
APPID
  5
8653
330
9
100
AcDbSymbolTableRecord
100
AcDbRegAppTableRecord
  2
AcadAnnoMonitorAlertIconDisabled
 70
     0
  0
APPID
  5
8654
330
9
100
AcDbSymbolTableRecord
100
AcDbRegAppTableRecord
  2
ACAD_EXEMPT_FROM_CAD_STANDARDS
 70
     0
  0
ENDTAB
  0
TABLE
  2
DIMSTYLE
  5
A
330
0
100
AcDbSymbolTable
 70
     1
100
AcDbDimStyleTable
 71
     1
340
1D
  0
DIMSTYLE
105
1D
102
{ACAD_REACTORS
330
7C89
330
7C8A
330
7C8F
330
7CB3
330
7CB4
330
7CB5
330
7CB6
330
7CB7
330
7CB8
330
7CB9
330
846F
330
847C
330
84DF
330
84EC
330
84F9
330
8508
330
8537
330
8562
330
856F
102
}
330
A
100
AcDbSymbolTableRecord
100
AcDbDimStyleTableRecord
  2
IGA
 70
     0
 40
2.0
 41
2.0
 42
0.5
 43
10.0
 44
1.0
 47
1.0
 48
1.0
 73
     0
 74
     0
 77
     1
 78
     8
140
3.0
141
0.0
143
0.03937
146
10.0
147
1.0
173
     1
271
     1
272
     0
279
     2
284
     8
340
10
341
79FC
343
79FC
344
79FC
  0
ENDTAB
  0
TABLE
  2
BLOCK_RECORD
  5
1
330
0
100
AcDbSymbolTable
 70
    22
  0
BLOCK_RECORD
  5
19
102
{ACAD_XDICTIONARY
360
85D4
102
}
330
1
100
AcDbSymbolTableRecord
100
AcDbBlockTableRecord
  2
*MODEL_SPACE
340
8576
 70
     0
280
     1
281
     0
  0
BLOCK_RECORD
  5
16
330
1
100
AcDbSymbolTableRecord
100
AcDbBlockTableRecord
  2
*PAPER_SPACE
340
8577
 70
     0
280
     1
281
     0
  0
BLOCK_RECORD
  5
79FC
330
1
100
AcDbSymbolTableRecord
100
AcDbBlockTableRecord
  2
_OPEN
340
0
102
{BLKREFS
331
85D9
331
85DA
331
85E2
331
85E3
331
85EB
331
85EC
331
85F6
331
85F7
331
8602
331
8613
331
8614
331
861E
331
8662
331
8663
331
8468
331
8469
331
8475
331
8476
331
8228
331
8229
331
8233
331
8234
331
823E
331
823F
331
82D4
331
82D5
331
82DF
331
82E0
331
82EA
331
82EB
331
8319
331
831A
331
832F
331
8330
331
83B9
331
83BA
102
}
 70
     0
280
     1
281
     0
  0
BLOCK_RECORD
  5
7A02
330
1
100
AcDbSymbolTableRecord
100
AcDbBlockTableRecord
  2
YA_N
340
0
102
{BLKREFS
331
7C06
331
7C07
102
}
 70
     0
280
     1
281
     0
  0
BLOCK_RECORD
  5
7CF6
330
1
100
AcDbSymbolTableRecord
100
AcDbBlockTableRecord
  2
*D2
340
0
 70
     0
280
     1
281
     0
  0
BLOCK_RECORD
  5
7D02
330
1
100
AcDbSymbolTableRecord
100
AcDbBlockTableRecord
  2
*D3
340
0
 70
     0
280
     1
281
     0
  0
BLOCK_RECORD
  5
7D0E
330
1
100
AcDbSymbolTableRecord
100
AcDbBlockTableRecord
  2
*D4
340
0
 70
     0
280
     1
281
     0
  0
BLOCK_RECORD
  5
7D7A
330
1
100
AcDbSymbolTableRecord
100
AcDbBlockTableRecord
  2
*D5
340
0
 70
     0
280
     1
281
     0
  0
BLOCK_RECORD
  5
7D86
330
1
100
AcDbSymbolTableRecord
100
AcDbBlockTableRecord
  2
*D6
340
0
 70
     0
280
     1
281
     0
  0
BLOCK_RECORD
  5
7D92
330
1
100
AcDbSymbolTableRecord
100
AcDbBlockTableRecord
  2
*D7
340
0
 70
     0
280
     1
281
     0
  0
BLOCK_RECORD
  5
7D9E
330
1
100
AcDbSymbolTableRecord
100
AcDbBlockTableRecord
  2
*D8
340
0
 70
     0
280
     1
281
     0
  0
BLOCK_RECORD
  5
7DA9
330
1
100
AcDbSymbolTableRecord
100
AcDbBlockTableRecord
  2
*D9
340
0
 70
     0
280
     1
281
     0
  0
BLOCK_RECORD
  5
7DB5
330
1
100
AcDbSymbolTableRecord
100
AcDbBlockTableRecord
  2
*D10
340
0
 70
     0
280
     1
281
     0
  0
BLOCK_RECORD
  5
7DC0
330
1
100
AcDbSymbolTableRecord
100
AcDbBlockTableRecord
  2
*D11
340
0
 70
     0
280
     1
281
     0
  0
BLOCK_RECORD
  5
8383
330
1
100
AcDbSymbolTableRecord
100
AcDbBlockTableRecord
  2
_DOT
340
0
102
{BLKREFS
331
8601
331
861D
102
}
 70
     0
280
     1
281
     0
  0
BLOCK_RECORD
  5
8463
330
1
100
AcDbSymbolTableRecord
100
AcDbBlockTableRecord
  2
*D13
340
0
 70
     0
280
     1
281
     0
  0
BLOCK_RECORD
  5
8470
330
1
100
AcDbSymbolTableRecord
100
AcDbBlockTableRecord
  2
*D14
340
0
 70
     0
280
     1
281
     0
  0
BLOCK_RECORD
  5
84D3
330
1
100
AcDbSymbolTableRecord
100
AcDbBlockTableRecord
  2
*D15
340
0
 70
     0
280
     1
281
     0
  0
BLOCK_RECORD
  5
84E0
330
1
100
AcDbSymbolTableRecord
100
AcDbBlockTableRecord
  2
*D16
340
0
 70
     0
280
     1
281
     0
  0
BLOCK_RECORD
  5
84ED
330
1
100
AcDbSymbolTableRecord
100
AcDbBlockTableRecord
  2
*D17
340
0
 70
     0
280
     1
281
     0
  0
BLOCK_RECORD
  5
84FA
330
1
100
AcDbSymbolTableRecord
100
AcDbBlockTableRecord
  2
*D18
340
0
 70
     0
280
     1
281
     0
  0
BLOCK_RECORD
  5
8529
330
1
100
AcDbSymbolTableRecord
100
AcDbBlockTableRecord
  2
*D19
340
0
 70
     0
280
     1
281
     0
  0
BLOCK_RECORD
  5
8556
330
1
100
AcDbSymbolTableRecord
100
AcDbBlockTableRecord
  2
*D20
340
0
 70
     0
280
     1
281
     0
  0
BLOCK_RECORD
  5
8563
330
1
100
AcDbSymbolTableRecord
100
AcDbBlockTableRecord
  2
*D21
340
0
 70
     0
280
     1
281
     0
  0
ENDTAB
  0
ENDSEC
  0
SECTION
  2
BLOCKS
  0
BLOCK
  5
1A
330
19
100
AcDbEntity
  8
0
100
AcDbBlockBegin
  2
*MODEL_SPACE
 70
     0
 10
0.0
 20
0.0
 30
0.0
  3
*MODEL_SPACE
  1

  0
ENDBLK
  5
1B
330
19
100
AcDbEntity
  8
0
100
AcDbBlockEnd
  0
BLOCK
  5
17
330
16
100
AcDbEntity
 67
     1
  8
0
100
AcDbBlockBegin
  2
*PAPER_SPACE
 70
     0
 10
0.0
 20
0.0
 30
0.0
  3
*PAPER_SPACE
  1

  0
ENDBLK
  5
18
330
16
100
AcDbEntity
 67
     1
  8
0
100
AcDbBlockEnd
  0
BLOCK
  5
7A00
330
79FC
100
AcDbEntity
  8
0
100
AcDbBlockBegin
  2
_OPEN
 70
     0
 10
0.0
 20
0.0
 30
0.0
  3
_OPEN
  1

  0
LINE
  5
79FD
330
79FC
100
AcDbEntity
  8
0
  6
ByBlock
 62
     0
100
AcDbLine
 10
-1.0
 20
0.1666666666666666
 30
0.0
 11
0.0
 21
0.0
 31
0.0
  0
LINE
  5
79FE
330
79FC
100
AcDbEntity
  8
0
  6
ByBlock
 62
     0
100
AcDbLine
 10
0.0
 20
0.0
 30
0.0
 11
-1.0
 21
-0.1666666666666666
 31
0.0
  0
LINE
  5
79FF
330
79FC
100
AcDbEntity
  8
0
  6
ByBlock
 62
     0
100
AcDbLine
 10
0.0
 20
0.0
 30
0.0
 11
-1.0
 21
0.0
 31
0.0
  0
ENDBLK
  5
7A01
330
79FC
100
AcDbEntity
  8
0
100
AcDbBlockEnd
  0
BLOCK
  5
7A03
330
7A02
100
AcDbEntity
  8
0
100
AcDbBlockBegin
  2
YA_N
 70
     0
 10
0.0
 20
0.0
 30
0.0
  3
YA_N
  1

  0
ENDBLK
  5
7A04
330
7A02
100
AcDbEntity
  8
0
100
AcDbBlockEnd
  0
BLOCK
  5
82E6
330
7CF6
100
AcDbEntity
  8
0
100
AcDbBlockBegin
  2
*D2
 70
     1
 10
0.0
 20
0.0
 30
0.0
  3
*D2
  1

  0
LINE
  5
82E7
330
7CF6
100
AcDbEntity
  8
0
  6
ByBlock
 62
     0
440
 16777216
100
AcDbLine
 10
802.1674892652377
 20
1165.996172452768
 30
0.0
 11
882.0097674825074
 21
1165.996172452768
 31
0.0
  0
LINE
  5
82E8
330
7CF6
100
AcDbEntity
  8
0
  6
ByBlock
 62
     0
440
 16777216
100
AcDbLine
 10
802.1674892652377
 20
1005.996172452768
 30
0.0
 11
882.0097674825074
 21
1005.996172452768
 31
0.0
  0
LINE
  5
82E9
330
7CF6
100
AcDbEntity
  8
0
  6
ByBlock
 62
     0
440
 16777216
100
AcDbLine
 10
872.0097674825074
 20
1145.996172452768
 30
0.0
 11
872.0097674825074
 21
1025.996172452768
 31
0.0
  0
INSERT
  5
82EA
330
7CF6
100
AcDbEntity
  8
0
  6
ByBlock
 62
     0
440
 16777216
100
AcDbBlockReference
  2
_OPEN
 10
872.0097674825074
 20
1165.996172452768
 30
0.0
 41
20.0
 42
20.0
 43
20.0
 50
90.0
  0
INSERT
  5
82EB
330
7CF6
100
AcDbEntity
  8
0
  6
ByBlock
 62
     0
440
 16777216
100
AcDbBlockReference
  2
_OPEN
 10
872.0097674825074
 20
1005.996172452768
 30
0.0
 41
20.0
 42
20.0
 43
20.0
 50
270.0
  0
MTEXT
  5
82EC
330
7CF6
100
AcDbEntity
  8
0
  6
ByBlock
 62
     0
440
 16777216
100
AcDbMText
 10
847.0097674825074
 20
1085.996172452768
 30
0.0
 40
30.0
 41
0.0
 46
0.0
 71
     5
 72
     5
  1
\A1;160
 11
0.0
 21
1.0
 31
0.0
 73
     1
 44
1.0
  0
POINT
  5
82ED
330
7CF6
100
AcDbEntity
  8
DEFPOINTS
  6
ByBlock
 62
     0
440
 16777216
100
AcDbPoint
 10
797.1674892652377
 20
1165.996172452768
 30
0.0
  0
POINT
  5
82EE
330
7CF6
100
AcDbEntity
  8
DEFPOINTS
  6
ByBlock
 62
     0
440
 16777216
100
AcDbPoint
 10
797.1674892652377
 20
1005.996172452768
 30
0.0
  0
POINT
  5
82EF
330
7CF6
100
AcDbEntity
  8
DEFPOINTS
  6
ByBlock
 62
     0
440
 16777216
100
AcDbPoint
 10
872.0097674825074
 20
1005.996172452768
 30
0.0
  0
ENDBLK
  5
82F0
330
7CF6
100
AcDbEntity
  8
0
100
AcDbBlockEnd
  0
BLOCK
  5
82DB
330
7D02
100
AcDbEntity
  8
0
100
AcDbBlockBegin
  2
*D3
 70
     1
 10
0.0
 20
0.0
 30
0.0
  3
*D3
  1

  0
LINE
  5
82DC
330
7D02
100
AcDbEntity
  8
0
  6
ByBlock
 62
     0
440
 16777216
100
AcDbLine
 10
802.1674892652377
 20
1165.996172452768
 30
0.0
 11
937.8832131911668
 21
1165.996172452768
 31
0.0
  0
LINE
  5
82DD
330
7D02
100
AcDbEntity
  8
0
  6
ByBlock
 62
     0
440
 16777216
100
AcDbLine
 10
838.9137332625791
 20
1011.996172452768
 30
0.0
 11
937.8832131911668
 21
1011.996172452768
 31
0.0
  0
LINE
  5
82DE
330
7D02
100
AcDbEntity
  8
0
  6
ByBlock
 62
     0
440
 16777216
100
AcDbLine
 10
927.8832131911668
 20
1145.996172452768
 30
0.0
 11
927.8832131911668
 21
1031.996172452768
 31
0.0
  0
INSERT
  5
82DF
330
7D02
100
AcDbEntity
  8
0
  6
ByBlock
 62
     0
440
 16777216
100
AcDbBlockReference
  2
_OPEN
 10
927.8832131911668
 20
1165.996172452768
 30
0.0
 41
20.0
 42
20.0
 43
20.0
 50
90.0
  0
INSERT
  5
82E0
330
7D02
100
AcDbEntity
  8
0
  6
ByBlock
 62
     0
440
 16777216
100
AcDbBlockReference
  2
_OPEN
 10
927.8832131911668
 20
1011.996172452768
 30
0.0
 41
20.0
 42
20.0
 43
20.0
 50
270.0
  0
MTEXT
  5
82E1
330
7D02
100
AcDbEntity
  8
0
  6
ByBlock
 62
     0
440
 16777216
100
AcDbMText
 10
902.8832131911668
 20
1088.996172452768
 30
0.0
 40
30.0
 41
0.0
 46
0.0
 71
     5
 72
     5
  1
\A1;154
 11
0.0
 21
1.0
 31
0.0
 73
     1
 44
1.0
  0
POINT
  5
82E2
330
7D02
100
AcDbEntity
  8
DEFPOINTS
  6
ByBlock
 62
     0
440
 16777216
100
AcDbPoint
 10
797.1674892652377
 20
1165.996172452768
 30
0.0
  0
POINT
  5
82E3
330
7D02
100
AcDbEntity
  8
DEFPOINTS
  6
ByBlock
 62
     0
440
 16777216
100
AcDbPoint
 10
833.9137332625792
 20
1011.996172452768
 30
0.0
  0
POINT
  5
82E4
330
7D02
100
AcDbEntity
  8
DEFPOINTS
  6
ByBlock
 62
     0
440
 16777216
100
AcDbPoint
 10
927.8832131911668
 20
1011.996172452768
 30
0.0
  0
ENDBLK
  5
82E5
330
7D02
100
AcDbEntity
  8
0
100
AcDbBlockEnd
  0
BLOCK
  5
82D0
330
7D0E
100
AcDbEntity
  8
0
100
AcDbBlockBegin
  2
*D4
 70
     1
 10
0.0
 20
0.0
 30
0.0
  3
*D4
  1

  0
LINE
  5
82D1
330
7D0E
100
AcDbEntity
  8
0
  6
ByBlock
 62
     0
440
 16777216
100
AcDbLine
 10
838.9137332625791
 20
1011.996172452768
 30
0.0
 11
937.8832131911668
 21
1011.996172452768
 31
0.0
  0
LINE
  5
82D2
330
7D0E
100
AcDbEntity
  8
0
  6
ByBlock
 62
     0
440
 16777216
100
AcDbLine
 10
812.1674892652372
 20
791.9961724527679
 30
0.0
 11
937.8832131911668
 21
791.9961724527679
 31
0.0
  0
LINE
  5
82D3
330
7D0E
100
AcDbEntity
  8
0
  6
ByBlock
 62
     0
440
 16777216
100
AcDbLine
 10
927.8832131911668
 20
991.9961724527681
 30
0.0
 11
927.8832131911668
 21
811.996172452768
 31
0.0
  0
INSERT
  5
82D4
330
7D0E
100
AcDbEntity
  8
0
  6
ByBlock
 62
     0
440
 16777216
100
AcDbBlockReference
  2
_OPEN
 10
927.8832131911668
 20
1011.996172452768
 30
0.0
 41
20.0
 42
20.0
 43
20.0
 50
90.0
  0
INSERT
  5
82D5
330
7D0E
100
AcDbEntity
  8
0
  6
ByBlock
 62
     0
440
 16777216
100
AcDbBlockReference
  2
_OPEN
 10
927.8832131911668
 20
791.9961724527679
 30
0.0
 41
20.0
 42
20.0
 43
20.0
 50
270.0
  0
MTEXT
  5
82D6
330
7D0E
100
AcDbEntity
  8
0
  6
ByBlock
 62
     0
440
 16777216
100
AcDbMText
 10
902.8832131911668
 20
901.9961724527679
 30
0.0
 40
30.0
 41
0.0
 46
0.0
 71
     5
 72
     5
  1
\A1;220
 11
0.0
 21
1.0
 31
0.0
 73
     1
 44
1.0
  0
POINT
  5
82D7
330
7D0E
100
AcDbEntity
  8
DEFPOINTS
  6
ByBlock
 62
     0
440
 16777216
100
AcDbPoint
 10
833.9137332625792
 20
1011.996172452768
 30
0.0
  0
POINT
  5
82D8
330
7D0E
100
AcDbEntity
  8
DEFPOINTS
  6
ByBlock
 62
     0
440
 16777216
100
AcDbPoint
 10
807.1674892652373
 20
791.9961724527679
 30
0.0
  0
POINT
  5
82D9
330
7D0E
100
AcDbEntity
  8
DEFPOINTS
  6
ByBlock
 62
     0
440
 16777216
100
AcDbPoint
 10
927.8832131911668
 20
791.9961724527679
 30
0.0
  0
ENDBLK
  5
82DA
330
7D0E
100
AcDbEntity
  8
0
100
AcDbBlockEnd
  0
BLOCK
  5
83B5
330
7D7A
100
AcDbEntity
  8
0
100
AcDbBlockBegin
  2
*D5
 70
     1
 10
0.0
 20
0.0
 30
0.0
  3
*D5
  1

  0
LINE
  5
83B6
330
7D7A
100
AcDbEntity
  8
0
  6
ByBlock
 62
     0
440
 16777216
100
AcDbLine
 10
1753.523171828323
 20
1099.946177750906
 30
0.0
 11
1860.86383563786
 21
1099.946177750906
 31
0.0
  0
LINE
  5
83B7
330
7D7A
100
AcDbEntity
  8
0
  6
ByBlock
 62
     0
440
 16777216
100
AcDbLine
 10
1755.223171828323
 20
923.9461777509097
 30
0.0
 11
1860.86383563786
 21
923.9461777509097
 31
0.0
  0
LINE
  5
83B8
330
7D7A
100
AcDbEntity
  8
0
  6
ByBlock
 62
     0
440
 16777216
100
AcDbLine
 10
1850.863835637859
 20
1079.946177750906
 30
0.0
 11
1850.863835637859
 21
943.9461777509096
 31
0.0
  0
INSERT
  5
83B9
330
7D7A
100
AcDbEntity
  8
0
  6
ByBlock
 62
     0
440
 16777216
100
AcDbBlockReference
  2
_OPEN
 10
1850.863835637859
 20
1099.946177750906
 30
0.0
 41
20.0
 42
20.0
 43
20.0
 50
90.0
  0
INSERT
  5
83BA
330
7D7A
100
AcDbEntity
  8
0
  6
ByBlock
 62
     0
440
 16777216
100
AcDbBlockReference
  2
_OPEN
 10
1850.863835637859
 20
923.9461777509097
 30
0.0
 41
20.0
 42
20.0
 43
20.0
 50
270.0
  0
MTEXT
  5
83BB
330
7D7A
100
AcDbEntity
  8
0
  6
ByBlock
 62
     0
440
 16777216
100
AcDbMText
 10
1825.86383563786
 20
1011.946177750908
 30
0.0
 40
30.0
 41
0.0
 46
0.0
 71
     5
 72
     5
  1
\A1;φ176
 11
0.0
 21
1.0
 31
0.0
 73
     1
 44
1.0
  0
POINT
  5
83BC
330
7D7A
100
AcDbEntity
  8
DEFPOINTS
  6
ByBlock
 62
     0
440
 16777216
100
AcDbPoint
 10
1748.523171828323
 20
1099.946177750906
 30
0.0
  0
POINT
  5
83BD
330
7D7A
100
AcDbEntity
  8
DEFPOINTS
  6
ByBlock
 62
     0
440
 16777216
100
AcDbPoint
 10
1750.223171828323
 20
923.9461777509097
 30
0.0
  0
POINT
  5
83BE
330
7D7A
100
AcDbEntity
  8
DEFPOINTS
  6
ByBlock
 62
     0
440
 16777216
100
AcDbPoint
 10
1850.863835637859
 20
923.9461777509097
 30
0.0
  0
ENDBLK
  5
83BF
330
7D7A
100
AcDbEntity
  8
0
100
AcDbBlockEnd
  0
BLOCK
  5
832A
330
7D86
100
AcDbEntity
  8
0
100
AcDbBlockBegin
  2
*D6
 70
     1
 10
0.0
 20
0.0
 30
0.0
  3
*D6
  1

  0
LINE
  5
832B
330
7D86
100
AcDbEntity
  8
0
  6
ByBlock
 62
     0
440
 16777216
100
AcDbLine
 10
1626.223171828322
 20
1170.946177750909
 30
0.0
 11
1626.223171828322
 21
1229.326170756605
 31
0.0
  0
LINE
  5
832C
330
7D86
100
AcDbEntity
  8
0
  6
ByBlock
 62
     0
440
 16777216
100
AcDbLine
 10
1746.223171828322
 20
1170.94617775091
 30
0.0
 11
1746.223171828322
 21
1229.326170756605
 31
0.0
  0
LINE
  5
832D
330
7D86
100
AcDbEntity
  8
0
  6
ByBlock
 62
     0
440
 16777216
100
AcDbLine
 10
1646.223171828322
 20
1219.326170756605
 30
0.0
 11
1726.223171828322
 21
1219.326170756605
 31
0.0
  0
MTEXT
  5
832E
330
7D86
100
AcDbEntity
  8
0
  6
ByBlock
 62
     0
440
 16777216
100
AcDbMText
 10
1686.223171828322
 20
1246.740344196313
 30
0.0
 40
30.0
 41
0.0
 46
0.0
 71
     5
 72
     5
  1
\A1;120
 73
     1
 44
1.0
  0
INSERT
  5
832F
330
7D86
100
AcDbEntity
  8
0
  6
ByBlock
 62
     0
440
 16777216
100
AcDbBlockReference
  2
_OPEN
 10
1626.223171828322
 20
1219.326170756605
 30
0.0
 41
20.0
 42
20.0
 43
20.0
 50
180.0
  0
INSERT
  5
8330
330
7D86
100
AcDbEntity
  8
0
  6
ByBlock
 62
     0
440
 16777216
100
AcDbBlockReference
  2
_OPEN
 10
1746.223171828322
 20
1219.326170756605
 30
0.0
 41
20.0
 42
20.0
 43
20.0
  0
POINT
  5
8331
330
7D86
100
AcDbEntity
  8
DEFPOINTS
  6
ByBlock
 62
     0
440
 16777216
100
AcDbPoint
 10
1626.223171828322
 20
1165.946177750909
 30
0.0
  0
POINT
  5
8332
330
7D86
100
AcDbEntity
  8
DEFPOINTS
  6
ByBlock
 62
     0
440
 16777216
100
AcDbPoint
 10
1746.223171828322
 20
1165.94617775091
 30
0.0
  0
POINT
  5
8333
330
7D86
100
AcDbEntity
  8
DEFPOINTS
  6
ByBlock
 62
     0
440
 16777216
100
AcDbPoint
 10
1746.223171828322
 20
1219.326170756605
 30
0.0
  0
ENDBLK
  5
8334
330
7D86
100
AcDbEntity
  8
0
100
AcDbBlockEnd
  0
BLOCK
  5
8314
330
7D92
100
AcDbEntity
  8
0
100
AcDbBlockBegin
  2
*D7
 70
     1
 10
0.0
 20
0.0
 30
0.0
  3
*D7
  1

  0
LINE
  5
8315
330
7D92
100
AcDbEntity
  8
0
  6
ByBlock
 62
     0
440
 16777216
100
AcDbLine
 10
1750.223171828323
 20
988.6961724527678
 30
0.0
 11
1750.223171828323
 21
1297.435661688887
 31
0.0
  0
LINE
  5
8316
330
7D92
100
AcDbEntity
  8
0
  6
ByBlock
 62
     0
440
 16777216
100
AcDbLine
 10
1686.223171828323
 20
1273.621211417856
 30
0.0
 11
1686.223171828323
 21
1297.435661688887
 31
0.0
  0
LINE
  5
8317
330
7D92
100
AcDbEntity
  8
0
  6
ByBlock
 62
     0
440
 16777216
100
AcDbLine
 10
1730.223171828323
 20
1287.435661688887
 30
0.0
 11
1706.223171828323
 21
1287.435661688887
 31
0.0
  0
MTEXT
  5
8318
330
7D92
100
AcDbEntity
  8
0
  6
ByBlock
 62
     0
440
 16777216
100
AcDbMText
 10
1718.223171828323
 20
1311.715705130914
 30
0.0
 40
30.0
 41
0.0
 46
0.0
 71
     5
 72
     5
  1
\A1;64
 73
     1
 44
1.0
  0
INSERT
  5
8319
330
7D92
100
AcDbEntity
  8
0
  6
ByBlock
 62
     0
440
 16777216
100
AcDbBlockReference
  2
_OPEN
 10
1750.223171828323
 20
1287.435661688887
 30
0.0
 41
20.0
 42
20.0
 43
20.0
  0
INSERT
  5
831A
330
7D92
100
AcDbEntity
  8
0
  6
ByBlock
 62
     0
440
 16777216
100
AcDbBlockReference
  2
_OPEN
 10
1686.223171828323
 20
1287.435661688887
 30
0.0
 41
20.0
 42
20.0
 43
20.0
 50
180.0
  0
POINT
  5
831B
330
7D92
100
AcDbEntity
  8
DEFPOINTS
  6
ByBlock
 62
     0
440
 16777216
100
AcDbPoint
 10
1750.223171828323
 20
983.6961724527679
 30
0.0
  0
POINT
  5
831C
330
7D92
100
AcDbEntity
  8
DEFPOINTS
  6
ByBlock
 62
     0
440
 16777216
100
AcDbPoint
 10
1686.223171828323
 20
1268.621211417856
 30
0.0
  0
POINT
  5
831D
330
7D92
100
AcDbEntity
  8
DEFPOINTS
  6
ByBlock
 62
     0
440
 16777216
100
AcDbPoint
 10
1686.223171828323
 20
1287.435661688887
 30
0.0
  0
ENDBLK
  5
831E
330
7D92
100
AcDbEntity
  8
0
100
AcDbBlockEnd
  0
BLOCK
  5
83AA
330
7D9E
100
AcDbEntity
  8
0
100
AcDbBlockBegin
  2
*D8
 70
     1
 10
0.0
 20
0.0
 30
0.0
  3
*D8
  1

  0
LINE
  5
865F
330
7D9E
100
AcDbEntity
  8
3
 62
     0
440
 16777216
370
    -2
100
AcDbLine
 10
1686.223171828323
 20
1273.621211417856
 30
0.0
 11
1686.223171828323
 21
1297.435661688887
 31
0.0
  0
LINE
  5
8660
330
7D9E
100
AcDbEntity
  8
3
 62
     0
440
 16777216
370
    -2
100
AcDbLine
 10
1270.478121433025
 20
1171.952142837029
 30
0.0
 11
1270.478121433025
 21
1297.435661688887
 31
0.0
  0
LINE
  5
8661
330
7D9E
100
AcDbEntity
  8
3
 62
     0
440
 16777216
370
    -2
100
AcDbLine
 10
1666.223171828323
 20
1287.435661688887
 30
0.0
 11
1290.478121433025
 21
1287.435661688887
 31
0.0
  0
INSERT
  5
8662
330
7D9E
100
AcDbEntity
  8
3
 62
     0
440
 16777216
370
    -2
100
AcDbBlockReference
  2
_OPEN
 10
1686.223171828323
 20
1287.435661688887
 30
0.0
 41
20.0
 42
20.0
 43
20.0
  0
INSERT
  5
8663
330
7D9E
100
AcDbEntity
  8
3
 62
     0
440
 16777216
370
    -2
100
AcDbBlockReference
  2
_OPEN
 10
1270.478121433025
 20
1287.435661688887
 30
0.0
 41
20.0
 42
20.0
 43
20.0
 50
180.0
  0
MTEXT
  5
8664
330
7D9E
100
AcDbEntity
  8
3
 62
     0
440
 16777216
100
AcDbMText
 10
1478.350646630674
 20
1345.29280454603
 30
0.0
 40
30.0
 41
0.0
 46
0.0
 71
     5
 72
     1
  1
\A1;\P(500)
 73
     1
 44
1.0
  0
POINT
  5
8665
330
7D9E
100
AcDbEntity
  8
DEFPOINTS
 62
     0
440
 16777216
100
AcDbPoint
 10
1686.223171828323
 20
1268.621211417856
 30
0.0
  0
POINT
  5
8666
330
7D9E
100
AcDbEntity
  8
DEFPOINTS
 62
     0
440
 16777216
100
AcDbPoint
 10
1270.478121433025
 20
1166.952142837029
 30
0.0
  0
POINT
  5
8667
330
7D9E
100
AcDbEntity
  8
DEFPOINTS
 62
     0
440
 16777216
100
AcDbPoint
 10
1270.478121433025
 20
1287.435661688887
 30
0.0
  0
ENDBLK
  5
83B4
330
7D9E
100
AcDbEntity
  8
0
100
AcDbBlockEnd
  0
BLOCK
  5
823A
330
7DA9
100
AcDbEntity
  8
0
100
AcDbBlockBegin
  2
*D9
 70
     1
 10
0.0
 20
0.0
 30
0.0
  3
*D9
  1

  0
LINE
  5
823B
330
7DA9
100
AcDbEntity
  8
0
  6
ByBlock
 62
     0
440
 16777216
100
AcDbLine
 10
817.1674892652376
 20
1193.295863458341
 30
0.0
 11
817.1674892652376
 21
1246.815104941575
 31
0.0
  0
LINE
  5
823C
330
7DA9
100
AcDbEntity
  8
0
  6
ByBlock
 62
     0
440
 16777216
100
AcDbLine
 10
657.1674892652376
 20
1195.552236248001
 30
0.0
 11
657.1674892652376
 21
1246.815104941575
 31
0.0
  0
LINE
  5
823D
330
7DA9
100
AcDbEntity
  8
0
  6
ByBlock
 62
     0
440
 16777216
100
AcDbLine
 10
797.1674892652377
 20
1236.815104941575
 30
0.0
 11
677.1674892652376
 21
1236.815104941575
 31
0.0
  0
INSERT
  5
823E
330
7DA9
100
AcDbEntity
  8
0
  6
ByBlock
 62
     0
440
 16777216
100
AcDbBlockReference
  2
_OPEN
 10
817.1674892652376
 20
1236.815104941575
 30
0.0
 41
20.0
 42
20.0
 43
20.0
  0
INSERT
  5
823F
330
7DA9
100
AcDbEntity
  8
0
  6
ByBlock
 62
     0
440
 16777216
100
AcDbBlockReference
  2
_OPEN
 10
657.1674892652376
 20
1236.815104941575
 30
0.0
 41
20.0
 42
20.0
 43
20.0
 50
180.0
  0
MTEXT
  5
8240
330
7DA9
100
AcDbEntity
  8
0
  6
ByBlock
 62
     0
440
 16777216
100
AcDbMText
 10
737.1674892652377
 20
1261.815104941576
 30
0.0
 40
30.0
 41
0.0
 46
0.0
 71
     5
 72
     5
  1
\A1;160
 73
     1
 44
1.0
  0
POINT
  5
8241
330
7DA9
100
AcDbEntity
  8
DEFPOINTS
  6
ByBlock
 62
     0
440
 16777216
100
AcDbPoint
 10
817.1674892652376
 20
1188.295863458341
 30
0.0
  0
POINT
  5
8242
330
7DA9
100
AcDbEntity
  8
DEFPOINTS
  6
ByBlock
 62
     0
440
 16777216
100
AcDbPoint
 10
657.1674892652376
 20
1190.552236248001
 30
0.0
  0
POINT
  5
8243
330
7DA9
100
AcDbEntity
  8
DEFPOINTS
  6
ByBlock
 62
     0
440
 16777216
100
AcDbPoint
 10
657.1674892652376
 20
1236.815104941575
 30
0.0
  0
ENDBLK
  5
8244
330
7DA9
100
AcDbEntity
  8
0
100
AcDbBlockEnd
  0
BLOCK
  5
822F
330
7DB5
100
AcDbEntity
  8
0
100
AcDbBlockBegin
  2
*D10
 70
     1
 10
0.0
 20
0.0
 30
0.0
  3
*D10
  1

  0
LINE
  5
8230
330
7DB5
100
AcDbEntity
  8
0
  6
ByBlock
 62
     0
440
 16777216
100
AcDbLine
 10
657.1674892652376
 20
1195.552236248001
 30
0.0
 11
657.1674892652376
 21
1246.815104941575
 31
0.0
  0
LINE
  5
8231
330
7DB5
100
AcDbEntity
  8
0
  6
ByBlock
 62
     0
440
 16777216
100
AcDbLine
 10
520.6674892652377
 20
1024.496172452767
 30
0.0
 11
520.6674892652377
 21
1246.815104941575
 31
0.0
  0
LINE
  5
8232
330
7DB5
100
AcDbEntity
  8
0
  6
ByBlock
 62
     0
440
 16777216
100
AcDbLine
 10
637.1674892652377
 20
1236.815104941575
 30
0.0
 11
540.6674892652376
 21
1236.815104941575
 31
0.0
  0
INSERT
  5
8233
330
7DB5
100
AcDbEntity
  8
0
  6
ByBlock
 62
     0
440
 16777216
100
AcDbBlockReference
  2
_OPEN
 10
657.1674892652376
 20
1236.815104941575
 30
0.0
 41
20.0
 42
20.0
 43
20.0
  0
INSERT
  5
8234
330
7DB5
100
AcDbEntity
  8
0
  6
ByBlock
 62
     0
440
 16777216
100
AcDbBlockReference
  2
_OPEN
 10
520.6674892652377
 20
1236.815104941575
 30
0.0
 41
20.0
 42
20.0
 43
20.0
 50
180.0
  0
MTEXT
  5
8235
330
7DB5
100
AcDbEntity
  8
0
  6
ByBlock
 62
     0
440
 16777216
100
AcDbMText
 10
588.9174892652376
 20
1261.815104941576
 30
0.0
 40
30.0
 41
0.0
 46
0.0
 71
     5
 72
     5
  1
\A1;136
 73
     1
 44
1.0
  0
POINT
  5
8236
330
7DB5
100
AcDbEntity
  8
DEFPOINTS
  6
ByBlock
 62
     0
440
 16777216
100
AcDbPoint
 10
657.1674892652376
 20
1190.552236248001
 30
0.0
  0
POINT
  5
8237
330
7DB5
100
AcDbEntity
  8
DEFPOINTS
  6
ByBlock
 62
     0
440
 16777216
100
AcDbPoint
 10
520.6674892652377
 20
1019.496172452767
 30
0.0
  0
POINT
  5
8238
330
7DB5
100
AcDbEntity
  8
DEFPOINTS
  6
ByBlock
 62
     0
440
 16777216
100
AcDbPoint
 10
520.6674892652377
 20
1236.815104941575
 30
0.0
  0
ENDBLK
  5
8239
330
7DB5
100
AcDbEntity
  8
0
100
AcDbBlockEnd
  0
BLOCK
  5
8224
330
7DC0
100
AcDbEntity
  8
0
100
AcDbBlockBegin
  2
*D11
 70
     1
 10
0.0
 20
0.0
 30
0.0
  3
*D11
  1

  0
LINE
  5
8225
330
7DC0
100
AcDbEntity
  8
0
  6
ByBlock
 62
     0
440
 16777216
100
AcDbLine
 10
817.1674892652376
 20
1193.295863458341
 30
0.0
 11
817.1674892652376
 21
1304.208042797074
 31
0.0
  0
LINE
  5
8226
330
7DC0
100
AcDbEntity
  8
0
  6
ByBlock
 62
     0
440
 16777216
100
AcDbLine
 10
227.1674892652377
 20
836.9961724527682
 30
0.0
 11
227.1674892652377
 21
1304.208042797074
 31
0.0
  0
LINE
  5
8227
330
7DC0
100
AcDbEntity
  8
0
  6
ByBlock
 62
     0
440
 16777216
100
AcDbLine
 10
797.1674892652377
 20
1294.208042797074
 30
0.0
 11
247.1674892652377
 21
1294.208042797074
 31
0.0
  0
INSERT
  5
8228
330
7DC0
100
AcDbEntity
  8
0
  6
ByBlock
 62
     0
440
 16777216
100
AcDbBlockReference
  2
_OPEN
 10
817.1674892652376
 20
1294.208042797074
 30
0.0
 41
20.0
 42
20.0
 43
20.0
  0
INSERT
  5
8229
330
7DC0
100
AcDbEntity
  8
0
  6
ByBlock
 62
     0
440
 16777216
100
AcDbBlockReference
  2
_OPEN
 10
227.1674892652377
 20
1294.208042797074
 30
0.0
 41
20.0
 42
20.0
 43
20.0
 50
180.0
  0
MTEXT
  5
822A
330
7DC0
100
AcDbEntity
  8
0
  6
ByBlock
 62
     0
440
 16777216
100
AcDbMText
 10
522.1674892652377
 20
1319.208042797074
 30
0.0
 40
30.0
 41
0.0
 46
0.0
 71
     5
 72
     5
  1
\A1;590
 73
     1
 44
1.0
  0
POINT
  5
822B
330
7DC0
100
AcDbEntity
  8
DEFPOINTS
  6
ByBlock
 62
     0
440
 16777216
100
AcDbPoint
 10
817.1674892652376
 20
1188.295863458341
 30
0.0
  0
POINT
  5
822C
330
7DC0
100
AcDbEntity
  8
DEFPOINTS
  6
ByBlock
 62
     0
440
 16777216
100
AcDbPoint
 10
227.1674892652377
 20
831.9961724527681
 30
0.0
  0
POINT
  5
822D
330
7DC0
100
AcDbEntity
  8
DEFPOINTS
  6
ByBlock
 62
     0
440
 16777216
100
AcDbPoint
 10
227.1674892652377
 20
1294.208042797074
 30
0.0
  0
ENDBLK
  5
822E
330
7DC0
100
AcDbEntity
  8
0
100
AcDbBlockEnd
  0
BLOCK
  5
8384
330
8383
100
AcDbEntity
  8
0
100
AcDbBlockBegin
  2
_DOT
 70
     0
 10
0.0
 20
0.0
 30
0.0
  3
_DOT
  1

  0
LINE
  5
83C4
330
8383
100
AcDbEntity
  8
0
  6
ByBlock
 62
     0
100
AcDbLine
 10
0.0
 20
0.0
 30
0.0
 11
-1.0
 21
-0.0000000000000284
 31
0.0
  0
LWPOLYLINE
  5
83C5
330
8383
100
AcDbEntity
  8
0
  6
ByBlock
 62
     0
100
AcDbPolyline
 90
        2
 70
     1
 43
0.1666666666666666
 10
-0.0833333333333286
 20
-0.0000000000000284
 42
1.0
 10
0.0833333333333286
 20
-0.0000000000000284
 42
1.0
  0
ENDBLK
  5
838A
330
8383
100
AcDbEntity
  8
0
100
AcDbBlockEnd
  0
BLOCK
  5
8464
330
8463
100
AcDbEntity
  8
0
100
AcDbBlockBegin
  2
*D13
 70
     1
 10
0.0
 20
0.0
 30
0.0
  3
*D13
  1

  0
LINE
  5
8465
330
8463
100
AcDbEntity
  8
0
  6
ByBlock
 62
     0
440
 16777216
100
AcDbLine
 10
222.1674892652376
 20
1966.644944746569
 30
0.0
 11
151.2791011704048
 21
1966.644944746569
 31
0.0
  0
LINE
  5
8466
330
8463
100
AcDbEntity
  8
0
  6
ByBlock
 62
     0
440
 16777216
100
AcDbLine
 10
222.1674892652373
 20
1586.644944746569
 30
0.0
 11
151.2791011704048
 21
1586.644944746569
 31
0.0
  0
LINE
  5
8467
330
8463
100
AcDbEntity
  8
0
  6
ByBlock
 62
     0
440
 16777216
100
AcDbLine
 10
161.2791011704048
 20
1946.644944746569
 30
0.0
 11
161.2791011704048
 21
1606.644944746569
 31
0.0
  0
INSERT
  5
8468
330
8463
100
AcDbEntity
  8
0
  6
ByBlock
 62
     0
440
 16777216
100
AcDbBlockReference
  2
_OPEN
 10
161.2791011704048
 20
1966.644944746569
 30
0.0
 41
20.0
 42
20.0
 43
20.0
 50
90.0
  0
INSERT
  5
8469
330
8463
100
AcDbEntity
  8
0
  6
ByBlock
 62
     0
440
 16777216
100
AcDbBlockReference
  2
_OPEN
 10
161.2791011704048
 20
1586.644944746569
 30
0.0
 41
20.0
 42
20.0
 43
20.0
 50
270.0
  0
MTEXT
  5
846A
330
8463
100
AcDbEntity
  8
0
  6
ByBlock
 62
     0
440
 16777216
100
AcDbMText
 10
136.2791011704048
 20
1770.953688894821
 30
0.0
 40
30.0
 41
0.0
 46
0.0
 71
     5
 72
     5
  1
\A1;380
 11
0.0
 21
1.0
 31
0.0
 73
     1
 44
1.0
  0
POINT
  5
846B
330
8463
100
AcDbEntity
  8
DEFPOINTS
  6
ByBlock
 62
     0
440
 16777216
100
AcDbPoint
 10
227.1674892652376
 20
1966.644944746569
 30
0.0
  0
POINT
  5
846C
330
8463
100
AcDbEntity
  8
DEFPOINTS
  6
ByBlock
 62
     0
440
 16777216
100
AcDbPoint
 10
227.1674892652372
 20
1586.644944746569
 30
0.0
  0
POINT
  5
846D
330
8463
100
AcDbEntity
  8
DEFPOINTS
  6
ByBlock
 62
     0
440
 16777216
100
AcDbPoint
 10
161.2791011704048
 20
1586.644944746569
 30
0.0
  0
ENDBLK
  5
846E
330
8463
100
AcDbEntity
  8
0
100
AcDbBlockEnd
  0
BLOCK
  5
8471
330
8470
100
AcDbEntity
  8
0
100
AcDbBlockBegin
  2
*D14
 70
     1
 10
0.0
 20
0.0
 30
0.0
  3
*D14
  1

  0
LINE
  5
8472
330
8470
100
AcDbEntity
  8
0
  6
ByBlock
 62
     0
440
 16777216
100
AcDbLine
 10
227.1674892652372
 20
1581.644944746569
 30
0.0
 11
227.1674892652372
 21
1480.699727649986
 31
0.0
  0
LINE
  5
8473
330
8470
100
AcDbEntity
  8
0
  6
ByBlock
 62
     0
440
 16777216
100
AcDbLine
 10
807.1674892652373
 20
1581.644944746569
 30
0.0
 11
807.1674892652373
 21
1480.699727649986
 31
0.0
  0
LINE
  5
8474
330
8470
100
AcDbEntity
  8
0
  6
ByBlock
 62
     0
440
 16777216
100
AcDbLine
 10
247.1674892652373
 20
1490.699727649986
 30
0.0
 11
787.1674892652372
 21
1490.699727649986
 31
0.0
  0
INSERT
  5
8475
330
8470
100
AcDbEntity
  8
0
  6
ByBlock
 62
     0
440
 16777216
100
AcDbBlockReference
  2
_OPEN
 10
227.1674892652372
 20
1490.699727649986
 30
0.0
 41
20.0
 42
20.0
 43
20.0
 50
180.0
  0
INSERT
  5
8476
330
8470
100
AcDbEntity
  8
0
  6
ByBlock
 62
     0
440
 16777216
100
AcDbBlockReference
  2
_OPEN
 10
807.1674892652373
 20
1490.699727649986
 30
0.0
 41
20.0
 42
20.0
 43
20.0
  0
MTEXT
  5
8477
330
8470
100
AcDbEntity
  8
0
  6
ByBlock
 62
     0
440
 16777216
100
AcDbMText
 10
492.7618810906242
 20
1515.699727649986
 30
0.0
 40
30.0
 41
0.0
 46
0.0
 71
     5
 72
     5
  1
\A1;580
 73
     1
 44
1.0
  0
POINT
  5
8478
330
8470
100
AcDbEntity
  8
DEFPOINTS
  6
ByBlock
 62
     0
440
 16777216
100
AcDbPoint
 10
227.1674892652372
 20
1586.644944746569
 30
0.0
  0
POINT
  5
8479
330
8470
100
AcDbEntity
  8
DEFPOINTS
  6
ByBlock
 62
     0
440
 16777216
100
AcDbPoint
 10
807.1674892652373
 20
1586.644944746569
 30
0.0
  0
POINT
  5
847A
330
8470
100
AcDbEntity
  8
DEFPOINTS
  6
ByBlock
 62
     0
440
 16777216
100
AcDbPoint
 10
807.1674892652373
 20
1490.699727649986
 30
0.0
  0
ENDBLK
  5
847B
330
8470
100
AcDbEntity
  8
0
100
AcDbBlockEnd
  0
BLOCK
  5
84D4
330
84D3
100
AcDbEntity
  8
0
100
AcDbBlockBegin
  2
*D15
 70
     1
 10
0.0
 20
0.0
 30
0.0
  3
*D15
  1

  0
LINE
  5
85D6
330
84D3
100
AcDbEntity
  8
3
 62
     0
440
 16777216
370
    -2
100
AcDbLine
 10
361.1044471972332
 20
676.9521428370289
 30
0.0
 11
361.1044471972332
 21
604.9281636554979
 31
0.0
  0
LINE
  5
85D7
330
84D3
100
AcDbEntity
  8
3
 62
     0
440
 16777216
370
    -2
100
AcDbLine
 10
791.1044471972331
 20
676.9961724527679
 30
0.0
 11
791.1044471972331
 21
604.9281636554979
 31
0.0
  0
LINE
  5
85D8
330
84D3
100
AcDbEntity
  8
3
 62
     0
440
 16777216
370
    -2
100
AcDbLine
 10
381.1044471972332
 20
614.9281636554978
 30
0.0
 11
771.1044471972331
 21
614.9281636554978
 31
0.0
  0
INSERT
  5
85D9
330
84D3
100
AcDbEntity
  8
3
 62
     0
440
 16777216
370
    -2
100
AcDbBlockReference
  2
_OPEN
 10
361.1044471972332
 20
614.9281636554978
 30
0.0
 41
20.0
 42
20.0
 43
20.0
 50
180.0
  0
INSERT
  5
85DA
330
84D3
100
AcDbEntity
  8
3
 62
     0
440
 16777216
370
    -2
100
AcDbBlockReference
  2
_OPEN
 10
791.1044471972331
 20
614.9281636554978
 30
0.0
 41
20.0
 42
20.0
 43
20.0
  0
MTEXT
  5
85DB
330
84D3
100
AcDbEntity
  8
3
 62
     0
440
 16777216
100
AcDbMText
 10
576.1044471972332
 20
639.9281636554978
 30
0.0
 40
30.0
 41
0.0
 46
0.0
 71
     5
 72
     1
  1
\A1;430
 73
     1
 44
1.0
  0
POINT
  5
85DC
330
84D3
100
AcDbEntity
  8
DEFPOINTS
 62
     0
440
 16777216
100
AcDbPoint
 10
361.1044471972332
 20
681.952142837029
 30
0.0
  0
POINT
  5
85DD
330
84D3
100
AcDbEntity
  8
DEFPOINTS
 62
     0
440
 16777216
100
AcDbPoint
 10
791.1044471972331
 20
681.9961724527679
 30
0.0
  0
POINT
  5
85DE
330
84D3
100
AcDbEntity
  8
DEFPOINTS
 62
     0
440
 16777216
100
AcDbPoint
 10
791.1044471972331
 20
614.9281636554978
 30
0.0
  0
ENDBLK
  5
84DE
330
84D3
100
AcDbEntity
  8
0
100
AcDbBlockEnd
  0
BLOCK
  5
84E1
330
84E0
100
AcDbEntity
  8
0
100
AcDbBlockBegin
  2
*D16
 70
     1
 10
0.0
 20
0.0
 30
0.0
  3
*D16
  1

  0
LINE
  5
85DF
330
84E0
100
AcDbEntity
  8
3
 62
     0
440
 16777216
370
    -2
100
AcDbLine
 10
791.1044471972331
 20
676.9961724527679
 30
0.0
 11
791.1044471972331
 21
604.9281636554979
 31
0.0
  0
LINE
  5
85E0
330
84E0
100
AcDbEntity
  8
3
 62
     0
440
 16777216
370
    -2
100
AcDbLine
 10
941.1044471972328
 20
676.9521428370285
 30
0.0
 11
941.1044471972328
 21
604.9281636554979
 31
0.0
  0
LINE
  5
85E1
330
84E0
100
AcDbEntity
  8
3
 62
     0
440
 16777216
370
    -2
100
AcDbLine
 10
811.1044471972331
 20
614.9281636554978
 30
0.0
 11
921.1044471972327
 21
614.9281636554978
 31
0.0
  0
INSERT
  5
85E2
330
84E0
100
AcDbEntity
  8
3
 62
     0
440
 16777216
370
    -2
100
AcDbBlockReference
  2
_OPEN
 10
791.1044471972331
 20
614.9281636554978
 30
0.0
 41
20.0
 42
20.0
 43
20.0
 50
180.0
  0
INSERT
  5
85E3
330
84E0
100
AcDbEntity
  8
3
 62
     0
440
 16777216
370
    -2
100
AcDbBlockReference
  2
_OPEN
 10
941.1044471972328
 20
614.9281636554978
 30
0.0
 41
20.0
 42
20.0
 43
20.0
  0
MTEXT
  5
85E4
330
84E0
100
AcDbEntity
  8
3
 62
     0
440
 16777216
100
AcDbMText
 10
866.104447197233
 20
639.9281636554978
 30
0.0
 40
30.0
 41
0.0
 46
0.0
 71
     5
 72
     1
  1
\A1;150
 73
     1
 44
1.0
  0
POINT
  5
85E5
330
84E0
100
AcDbEntity
  8
DEFPOINTS
 62
     0
440
 16777216
100
AcDbPoint
 10
791.1044471972331
 20
681.9961724527679
 30
0.0
  0
POINT
  5
85E6
330
84E0
100
AcDbEntity
  8
DEFPOINTS
 62
     0
440
 16777216
100
AcDbPoint
 10
941.1044471972328
 20
681.9521428370285
 30
0.0
  0
POINT
  5
85E7
330
84E0
100
AcDbEntity
  8
DEFPOINTS
 62
     0
440
 16777216
100
AcDbPoint
 10
941.1044471972328
 20
614.9281636554978
 30
0.0
  0
ENDBLK
  5
84EB
330
84E0
100
AcDbEntity
  8
0
100
AcDbBlockEnd
  0
BLOCK
  5
84EE
330
84ED
100
AcDbEntity
  8
0
100
AcDbBlockBegin
  2
*D17
 70
     1
 10
0.0
 20
0.0
 30
0.0
  3
*D17
  1

  0
LINE
  5
85E8
330
84ED
100
AcDbEntity
  8
3
 62
     0
440
 16777216
370
    -2
100
AcDbLine
 10
1281.223171828322
 20
676.9461777509095
 30
0.0
 11
1281.223171828322
 21
604.9281636554979
 31
0.0
  0
LINE
  5
85E9
330
84ED
100
AcDbEntity
  8
3
 62
     0
440
 16777216
370
    -2
100
AcDbLine
 10
1661.223171828323
 20
676.9461777509095
 30
0.0
 11
1661.223171828323
 21
604.9281636554979
 31
0.0
  0
LINE
  5
85EA
330
84ED
100
AcDbEntity
  8
3
 62
     0
440
 16777216
370
    -2
100
AcDbLine
 10
1301.223171828322
 20
614.9281636554978
 30
0.0
 11
1641.223171828323
 21
614.9281636554978
 31
0.0
  0
INSERT
  5
85EB
330
84ED
100
AcDbEntity
  8
3
 62
     0
440
 16777216
370
    -2
100
AcDbBlockReference
  2
_OPEN
 10
1281.223171828322
 20
614.9281636554978
 30
0.0
 41
20.0
 42
20.0
 43
20.0
 50
180.0
  0
INSERT
  5
85EC
330
84ED
100
AcDbEntity
  8
3
 62
     0
440
 16777216
370
    -2
100
AcDbBlockReference
  2
_OPEN
 10
1661.223171828323
 20
614.9281636554978
 30
0.0
 41
20.0
 42
20.0
 43
20.0
  0
MTEXT
  5
85ED
330
84ED
100
AcDbEntity
  8
3
 62
     0
440
 16777216
100
AcDbMText
 10
1471.223171828322
 20
639.9281636554978
 30
0.0
 40
30.0
 41
0.0
 46
0.0
 71
     5
 72
     1
  1
\A1;380
 73
     1
 44
1.0
  0
POINT
  5
85EE
330
84ED
100
AcDbEntity
  8
DEFPOINTS
 62
     0
440
 16777216
100
AcDbPoint
 10
1281.223171828322
 20
681.9461777509095
 30
0.0
  0
POINT
  5
85EF
330
84ED
100
AcDbEntity
  8
DEFPOINTS
 62
     0
440
 16777216
100
AcDbPoint
 10
1661.223171828323
 20
681.9461777509095
 30
0.0
  0
POINT
  5
85F0
330
84ED
100
AcDbEntity
  8
DEFPOINTS
 62
     0
440
 16777216
100
AcDbPoint
 10
1661.223171828323
 20
614.9281636554978
 30
0.0
  0
ENDBLK
  5
84F8
330
84ED
100
AcDbEntity
  8
0
100
AcDbBlockEnd
  0
BLOCK
  5
84FB
330
84FA
100
AcDbEntity
  8
0
100
AcDbBlockBegin
  2
*D18
 70
     1
 10
0.0
 20
0.0
 30
0.0
  3
*D18
  1

  0
LINE
  5
85F1
330
84FA
100
AcDbEntity
  8
3
 62
     0
440
 16777216
370
    -2
100
AcDbLine
 10
1661.223171828323
 20
676.9461777509095
 30
0.0
 11
1661.223171828323
 21
604.9281636554979
 31
0.0
  0
LINE
  5
85F2
330
84FA
100
AcDbEntity
  8
3
 62
     0
440
 16777216
370
    -2
100
AcDbLine
 10
1686.223171828322
 20
676.9461777509095
 30
0.0
 11
1686.223171828322
 21
604.9281636554979
 31
0.0
  0
LINE
  5
85F3
330
84FA
100
AcDbEntity
  8
3
 62
     0
440
 16777216
370
    -2
100
AcDbLine
 10
1641.223171828323
 20
614.9281636554978
 30
0.0
 11
1621.223171828322
 21
614.9281636554978
 31
0.0
  0
LINE
  5
85F4
330
84FA
100
AcDbEntity
  8
3
 62
     0
440
 16777216
370
    -2
100
AcDbLine
 10
1706.223171828322
 20
614.9281636554978
 30
0.0
 11
1794.79460039975
 21
614.9281636554978
 31
0.0
  0
LINE
  5
85F5
330
84FA
100
AcDbEntity
  8
3
 62
     0
440
 16777216
370
    -2
100
AcDbLine
 10
1661.223171828323
 20
614.9281636554978
 30
0.0
 11
1686.223171828322
 21
614.9281636554978
 31
0.0
  0
INSERT
  5
85F6
330
84FA
100
AcDbEntity
  8
3
 62
     0
440
 16777216
370
    -2
100
AcDbBlockReference
  2
_OPEN
 10
1661.223171828323
 20
614.9281636554978
 30
0.0
 41
20.0
 42
20.0
 43
20.0
  0
INSERT
  5
85F7
330
84FA
100
AcDbEntity
  8
3
 62
     0
440
 16777216
370
    -2
100
AcDbBlockReference
  2
_OPEN
 10
1686.223171828322
 20
614.9281636554978
 30
0.0
 41
20.0
 42
20.0
 43
20.0
 50
180.0
  0
MTEXT
  5
85F8
330
84FA
100
AcDbEntity
  8
3
 62
     0
440
 16777216
100
AcDbMText
 10
1760.508886114036
 20
639.9281636554978
 30
0.0
 40
30.0
 41
0.0
 46
0.0
 71
     5
 72
     1
  1
\A1;25
 73
     1
 44
1.0
  0
POINT
  5
85F9
330
84FA
100
AcDbEntity
  8
DEFPOINTS
 62
     0
440
 16777216
100
AcDbPoint
 10
1661.223171828323
 20
681.9461777509095
 30
0.0
  0
POINT
  5
85FA
330
84FA
100
AcDbEntity
  8
DEFPOINTS
 62
     0
440
 16777216
100
AcDbPoint
 10
1686.223171828322
 20
681.9461777509095
 30
0.0
  0
POINT
  5
85FB
330
84FA
100
AcDbEntity
  8
DEFPOINTS
 62
     0
440
 16777216
100
AcDbPoint
 10
1686.223171828322
 20
614.9281636554978
 30
0.0
  0
ENDBLK
  5
8507
330
84FA
100
AcDbEntity
  8
0
100
AcDbBlockEnd
  0
BLOCK
  5
852A
330
8529
100
AcDbEntity
  8
0
100
AcDbBlockBegin
  2
*D19
 70
     1
 10
0.0
 20
0.0
 30
0.0
  3
*D19
  1

  0
LINE
  5
85FC
330
8529
100
AcDbEntity
  8
3
 62
     0
440
 16777216
370
    -2
100
AcDbLine
 10
946.1044471972327
 20
721.9961724527679
 30
0.0
 11
1071.347417240515
 21
721.9961724527679
 31
0.0
  0
LINE
  5
85FD
330
8529
100
AcDbEntity
  8
3
 62
     0
440
 16777216
370
    -2
100
AcDbLine
 10
946.1044471972327
 20
681.9961724527679
 30
0.0
 11
1071.347417240515
 21
681.9961724527679
 31
0.0
  0
LINE
  5
85FE
330
8529
100
AcDbEntity
  8
3
 62
     0
440
 16777216
370
    -2
100
AcDbLine
 10
1061.347417240515
 20
741.9961724527679
 30
0.0
 11
1061.347417240515
 21
761.9961724527679
 31
0.0
  0
LINE
  5
85FF
330
8529
100
AcDbEntity
  8
3
 62
     0
440
 16777216
370
    -2
100
AcDbLine
 10
1061.347417240515
 20
661.9961724527679
 30
0.0
 11
1061.347417240515
 21
573.4247438813394
 31
0.0
  0
LINE
  5
8600
330
8529
100
AcDbEntity
  8
3
 62
     0
440
 16777216
370
    -2
100
AcDbLine
 10
1061.347417240515
 20
721.9961724527679
 30
0.0
 11
1061.347417240515
 21
681.9961724527679
 31
0.0
  0
INSERT
  5
8601
330
8529
100
AcDbEntity
  8
3
 62
     0
440
 16777216
370
    -2
100
AcDbBlockReference
  2
_DOT
 10
1061.347417240515
 20
721.9961724527679
 30
0.0
 41
20.0
 42
20.0
 43
20.0
 50
270.0
  0
INSERT
  5
8602
330
8529
100
AcDbEntity
  8
3
 62
     0
440
 16777216
370
    -2
100
AcDbBlockReference
  2
_OPEN
 10
1061.347417240515
 20
681.9961724527679
 30
0.0
 41
20.0
 42
20.0
 43
20.0
 50
90.0
  0
MTEXT
  5
8603
330
8529
100
AcDbEntity
  8
3
 62
     0
440
 16777216
100
AcDbMText
 10
1036.347417240514
 20
607.7104581670538
 30
0.0
 40
30.0
 41
0.0
 46
0.0
 71
     5
 72
     1
  1
\A1;40
 11
0.0000000000000001
 21
1.0
 31
0.0
 73
     1
 44
1.0
  0
POINT
  5
8604
330
8529
100
AcDbEntity
  8
DEFPOINTS
 62
     0
440
 16777216
100
AcDbPoint
 10
941.1044471972328
 20
721.9961724527679
 30
0.0
  0
POINT
  5
8605
330
8529
100
AcDbEntity
  8
DEFPOINTS
 62
     0
440
 16777216
100
AcDbPoint
 10
941.1044471972328
 20
681.9961724527679
 30
0.0
  0
POINT
  5
8606
330
8529
100
AcDbEntity
  8
DEFPOINTS
 62
     0
440
 16777216
100
AcDbPoint
 10
1061.347417240515
 20
681.9961724527679
 30
0.0
  0
ENDBLK
  5
8536
330
8529
100
AcDbEntity
  8
0
100
AcDbBlockEnd
  0
BLOCK
  5
8557
330
8556
100
AcDbEntity
  8
0
100
AcDbBlockBegin
  2
*D20
 70
     1
 10
0.0
 20
0.0
 30
0.0
  3
*D20
  1

  0
LINE
  5
8619
330
8556
100
AcDbEntity
  8
3
 62
     0
440
 16777216
370
    -2
100
AcDbLine
 10
946.1044471972323
 20
721.9961724527681
 30
0.0
 11
1070.945793572369
 21
721.9961724527681
 31
0.0
  0
LINE
  5
861A
330
8556
100
AcDbEntity
  8
3
 62
     0
440
 16777216
370
    -2
100
AcDbLine
 10
946.1044471972327
 20
791.9521428370285
 30
0.0
 11
1070.945793572369
 21
791.9521428370285
 31
0.0
  0
LINE
  5
861B
330
8556
100
AcDbEntity
  8
3
 62
     0
440
 16777216
370
    -2
100
AcDbLine
 10
1060.945793572369
 20
741.9961724527681
 30
0.0
 11
1060.945793572369
 21
771.9521428370285
 31
0.0
  0
MTEXT
  5
861C
330
8556
100
AcDbEntity
  8
3
 62
     0
440
 16777216
100
AcDbMText
 10
1104.128025614551
 20
754.2563311071244
 30
0.0
 40
30.0
 41
0.0
 46
0.0
 71
     5
 72
     1
  1
\A1;(70)
 11
0.0000000000000001
 21
1.0
 31
0.0
 73
     1
 44
1.0
  0
INSERT
  5
861D
330
8556
100
AcDbEntity
  8
3
 62
     0
440
 16777216
370
    -2
100
AcDbBlockReference
  2
_DOT
 10
1060.945793572369
 20
721.9961724527681
 30
0.0
 41
20.0
 42
20.0
 43
20.0
 50
270.0
  0
INSERT
  5
861E
330
8556
100
AcDbEntity
  8
3
 62
     0
440
 16777216
370
    -2
100
AcDbBlockReference
  2
_OPEN
 10
1060.945793572369
 20
791.9521428370285
 30
0.0
 41
20.0
 42
20.0
 43
20.0
 50
90.0
  0
POINT
  5
861F
330
8556
100
AcDbEntity
  8
DEFPOINTS
 62
     0
440
 16777216
100
AcDbPoint
 10
941.1044471972322
 20
721.9961724527681
 30
0.0
  0
POINT
  5
8620
330
8556
100
AcDbEntity
  8
DEFPOINTS
 62
     0
440
 16777216
100
AcDbPoint
 10
941.1044471972328
 20
791.9521428370285
 30
0.0
  0
POINT
  5
8621
330
8556
100
AcDbEntity
  8
DEFPOINTS
 62
     0
440
 16777216
100
AcDbPoint
 10
1060.945793572369
 20
791.9521428370285
 30
0.0
  0
ENDBLK
  5
8561
330
8556
100
AcDbEntity
  8
0
100
AcDbBlockEnd
  0
BLOCK
  5
8564
330
8563
100
AcDbEntity
  8
0
100
AcDbBlockBegin
  2
*D21
 70
     1
 10
0.0
 20
0.0
 30
0.0
  3
*D21
  1

  0
LINE
  5
8610
330
8563
100
AcDbEntity
  8
3
 62
     0
440
 16777216
370
    -2
100
AcDbLine
 10
956.1044471972332
 20
1188.295863458341
 30
0.0
 11
1151.753770272276
 21
1188.295863458341
 31
0.0
  0
LINE
  5
8611
330
8563
100
AcDbEntity
  8
3
 62
     0
440
 16777216
370
    -2
100
AcDbLine
 10
946.1044471972327
 20
681.9961724527679
 30
0.0
 11
1151.753770272276
 21
681.9961724527679
 31
0.0
  0
LINE
  5
8612
330
8563
100
AcDbEntity
  8
3
 62
     0
440
 16777216
370
    -2
100
AcDbLine
 10
1141.753770272276
 20
1168.295863458341
 30
0.0
 11
1141.753770272276
 21
701.9961724527679
 31
0.0
  0
INSERT
  5
8613
330
8563
100
AcDbEntity
  8
3
 62
     0
440
 16777216
370
    -2
100
AcDbBlockReference
  2
_OPEN
 10
1141.753770272276
 20
1188.295863458341
 30
0.0
 41
20.0
 42
20.0
 43
20.0
 50
90.0
  0
INSERT
  5
8614
330
8563
100
AcDbEntity
  8
3
 62
     0
440
 16777216
370
    -2
100
AcDbBlockReference
  2
_OPEN
 10
1141.753770272276
 20
681.9961724527679
 30
0.0
 41
20.0
 42
20.0
 43
20.0
 50
270.0
  0
MTEXT
  5
8615
330
8563
100
AcDbEntity
  8
3
 62
     0
440
 16777216
100
AcDbMText
 10
1108.896627415133
 20
935.1460179555548
 30
0.0
 40
30.0
 41
0.0
 46
0.0
 71
     5
 72
     1
  1
\A1;(506)
 11
0.0000000000000001
 21
1.0
 31
0.0
 73
     1
 44
1.0
  0
POINT
  5
8616
330
8563
100
AcDbEntity
  8
DEFPOINTS
 62
     0
440
 16777216
100
AcDbPoint
 10
951.1044471972331
 20
1188.295863458341
 30
0.0
  0
POINT
  5
8617
330
8563
100
AcDbEntity
  8
DEFPOINTS
 62
     0
440
 16777216
100
AcDbPoint
 10
941.1044471972328
 20
681.9961724527679
 30
0.0
  0
POINT
  5
8618
330
8563
100
AcDbEntity
  8
DEFPOINTS
 62
     0
440
 16777216
100
AcDbPoint
 10
1141.753770272276
 20
681.9961724527679
 30
0.0
  0
ENDBLK
  5
856E
330
8563
100
AcDbEntity
  8
0
100
AcDbBlockEnd
  0
ENDSEC
  0
SECTION
  2
ENTITIES
  0
INSERT
  5
7C06
330
19
100
AcDbEntity
  8
0
100
AcDbBlockReference
  2
YA_N
 10
2724.161206490659
 20
327.0207551769345
 30
0.0
  0
INSERT
  5
7C07
330
19
100
AcDbEntity
  8
0
100
AcDbBlockReference
  2
YA_N
 10
2724.161206490659
 20
327.0207551769345
 30
0.0
  0
LINE
  5
7C09
330
19
100
AcDbEntity
  8
1
100
AcDbLine
 10
1523.923171828323
 20
831.9461777509095
 30
0.0
 11
1323.923171828323
 21
831.9461777509095
 31
0.0
  0
LINE
  5
7C0A
330
19
100
AcDbEntity
  8
1
100
AcDbLine
 10
1281.223171828322
 20
831.9461777509097
 30
0.0
 11
1661.223171828322
 21
831.9461777509093
 31
0.0
  0
LINE
  5
7C0B
330
19
100
AcDbEntity
  8
1
100
AcDbLine
 10
1281.223171828322
 20
791.9461777509095
 30
0.0
 11
1661.223171828323
 21
791.9461777509095
 31
0.0
  0
LINE
  5
7C0C
330
19
100
AcDbEntity
  8
1
100
AcDbLine
 10
1348.923171828322
 20
973.1461777509091
 30
0.0
 11
1598.923171828323
 21
973.1461777509094
 31
0.0
  0
LINE
  5
7C0D
330
19
100
AcDbEntity
  8
1
100
AcDbLine
 10
1348.923171828322
 20
975.4461777509096
 30
0.0
 11
1598.923171828323
 21
975.4461777509096
 31
0.0
  0
LINE
  5
7C0E
330
19
100
AcDbEntity
  8
2
100
AcDbLine
 10
1287.969664107779
 20
1011.94617775091
 30
0.0
 11
1782.70469580815
 21
1011.94617775091
 31
0.0
  0
LINE
  5
7C0F
330
19
100
AcDbEntity
  8
1
100
AcDbLine
 10
917.7187588428147
 20
1166.952142837029
 30
0.0
 11
387.7187588428146
 21
1166.952142837029
 31
0.0
  0
LINE
  5
7C10
330
19
100
AcDbEntity
  8
1
100
AcDbLine
 10
803.216087774564
 20
968.6567197275021
 30
0.0
 11
485.9075634584153
 21
889.0257302329986
 31
0.0
  0
LINE
  5
7C11
330
19
100
AcDbEntity
  8
1
100
AcDbLine
 10
781.6435697236333
 20
1055.99039704452
 30
0.0
 11
459.5411525072779
 21
995.7668913982429
 31
0.0
  0
LINE
  5
7C12
330
19
100
AcDbEntity
  8
1
100
AcDbLine
 10
387.7187588428146
 20
1166.952142837029
 30
0.0
 11
387.7187588428146
 21
831.952142837029
 31
0.0
  0
LINE
  5
7C13
330
19
100
AcDbEntity
  8
1
100
AcDbLine
 10
376.1044471972334
 20
831.9961724527681
 30
0.0
 11
566.1044471972338
 21
831.9961724527681
 31
0.0
  0
LINE
  5
7C14
330
19
100
AcDbEntity
  8
1
100
AcDbLine
 10
361.1044471972332
 20
831.9961724527681
 30
0.0
 11
361.1044471972332
 21
791.9521428370289
 31
0.0
  0
CIRCLE
  5
7C15
330
19
100
AcDbEntity
  8
1
100
AcDbCircle
 10
471.1044471972334
 20
941.9961724527681
 30
0.0
 40
55.0
  0
LINE
  5
7C16
330
19
100
AcDbEntity
  8
2
100
AcDbLine
 10
568.2629926728802
 20
941.9961724527681
 30
0.0
 11
363.5903226271794
 21
941.9961724527681
 31
0.0
  0
LINE
  5
7C17
330
19
100
AcDbEntity
  8
2
100
AcDbLine
 10
471.1044471972334
 20
1051.626594534445
 30
0.0
 11
471.1044471972334
 21
814.0017742932585
 31
0.0
  0
LINE
  5
7C18
330
19
100
AcDbEntity
  8
1
100
AcDbLine
 10
1355.923171828323
 20
973.1461777509091
 30
0.0
 11
1355.923171828322
 21
831.9461777509095
 31
0.0
  0
LINE
  5
7C19
330
19
100
AcDbEntity
  8
2
100
AcDbLine
 10
791.1044471972331
 20
1190.552236248001
 30
0.0
 11
791.1044471972332
 21
681.9961724527679
 31
0.0
  0
LINE
  5
7C1A
330
19
100
AcDbEntity
  8
1
100
AcDbLine
 10
691.1044471972331
 20
972.2961724527682
 30
0.0
 11
691.1044471972331
 21
831.9521428370288
 31
0.0
  0
LINE
  5
7C1B
330
19
100
AcDbEntity
  8
1
100
AcDbLine
 10
917.7187588428147
 20
831.952142837029
 30
0.0
 11
917.7187588428147
 21
1166.952142837029
 31
0.0
  0
LINE
  5
7C1C
330
19
100
AcDbEntity
  8
1
100
AcDbLine
 10
891.1044471972331
 20
972.2961724527682
 30
0.0
 11
891.1044471972331
 21
831.9521428370284
 31
0.0
  0
LINE
  5
7C1D
330
19
100
AcDbEntity
  8
1
100
AcDbLine
 10
1345.478121433025
 20
840.9461777509097
 30
0.0
 11
1345.478121433025
 21
873.9229667572489
 31
0.0
  0
LINE
  5
7C1E
330
19
100
AcDbEntity
  8
1
100
AcDbLine
 10
1270.478121433025
 20
840.9461777509097
 30
0.0
 11
1270.478121433025
 21
1166.952142837029
 31
0.0
  0
LINE
  5
7C1F
330
19
100
AcDbEntity
  8
1
100
AcDbLine
 10
1345.478121433025
 20
840.9461777509095
 30
0.0
 11
1270.478121433025
 21
840.9461777509095
 31
0.0
  0
LINE
  5
7C20
330
19
100
AcDbEntity
  8
1
100
AcDbLine
 10
941.1044471972328
 20
831.9961724527679
 30
0.0
 11
941.1044471972328
 21
791.9521428370285
 31
0.0
  0
POINT
  5
7C21
330
19
100
AcDbEntity
  8
1
100
AcDbPoint
 10
1321.223171828322
 20
791.9461777509095
 30
0.0
  0
POINT
  5
7C22
330
19
100
AcDbEntity
  8
1
100
AcDbPoint
 10
1353.623171828322
 20
831.9461777509095
 30
0.0
  0
POINT
  5
7C23
330
19
100
AcDbEntity
  8
1
100
AcDbPoint
 10
1353.623171828322
 20
831.9461777509095
 30
0.0
  0
ARC
  5
7C24
330
19
100
AcDbEntity
  8
1
100
AcDbCircle
 10
783.6044471972331
 20
1019.496172452767
 30
0.0
 40
129.0
100
AcDbArc
 50
180.0
 51
270.0
  0
ARC
  5
7C25
330
19
100
AcDbEntity
  8
1
100
AcDbCircle
 10
783.6044471972331
 20
1004.496172452768
 30
0.0
 40
114.0
100
AcDbArc
 50
270.0
 51
0.0
  0
LINE
  5
7C26
330
19
100
AcDbEntity
  8
2
100
AcDbLine
 10
967.8506911945746
 20
1011.996172452768
 30
0.0
 11
614.9321344339928
 21
1011.996172452768
 31
0.0
  0
LINE
  5
7C27
330
19
100
AcDbEntity
  8
1
100
AcDbLine
 10
698.804447197233
 20
1075.496177750909
 30
0.0
 11
698.804447197233
 21
975.496172452768
 31
0.0
  0
LINE
  5
7C28
330
19
100
AcDbEntity
  8
1
100
AcDbLine
 10
692.804447197233
 20
1075.496177750909
 30
0.0
 11
692.804447197233
 21
975.496172452768
 31
0.0
  0
LINE
  5
7C29
330
19
100
AcDbEntity
  8
1
100
AcDbLine
 10
889.4044471972328
 20
1075.496177750909
 30
0.0
 11
889.4044471972334
 21
975.496172452768
 31
0.0
  0
LINE
  5
7C2A
330
19
100
AcDbEntity
  8
1
100
AcDbLine
 10
883.404447197233
 20
1075.496177750909
 30
0.0
 11
883.4044471972333
 21
975.496172452768
 31
0.0
  0
LINE
  5
7C2B
330
19
100
AcDbEntity
  8
1
100
AcDbLine
 10
931.1044471972326
 20
1165.996172452768
 30
0.0
 11
793.8844042095979
 21
1163.418794698872
 31
0.0
  0
ARC
  5
7C2C
330
19
100
AcDbEntity
  8
1
100
AcDbCircle
 10
798.6044471972332
 20
1019.496172452767
 30
0.0
 40
144.0
100
AcDbArc
 50
90.00000000000184
 51
180.0
  0
CIRCLE
  5
7C2D
330
19
100
AcDbEntity
  8
1
100
AcDbCircle
 10
791.1044471972331
 20
901.9521428370287
 30
0.0
 40
60.0
  0
LINE
  5
7C2F
330
19
100
AcDbEntity
  8
1
100
AcDbLine
 10
896.1044471972332
 20
972.2961724527682
 30
0.0
 11
686.1044471972332
 21
972.2961724527682
 31
0.0
  0
LINE
  5
7C30
330
19
100
AcDbEntity
  8
1
100
AcDbLine
 10
896.1044471972332
 20
975.496172452768
 30
0.0
 11
686.1044471972332
 21
975.496172452768
 31
0.0
  0
CIRCLE
  5
7C31
330
19
100
AcDbEntity
  8
1
100
AcDbCircle
 10
791.1044471972331
 20
1011.996172452768
 30
0.0
 40
45.0
  0
LINE
  5
7C32
330
19
100
AcDbEntity
  8
1
100
AcDbLine
 10
716.1044471972331
 20
978.696172452768
 30
0.0
 11
866.1044471972331
 21
978.696172452768
 31
0.0
  0
LINE
  5
7C33
330
19
100
AcDbEntity
  8
1
100
AcDbLine
 10
866.1044471972331
 20
975.496172452768
 30
0.0
 11
716.1044471972331
 21
975.496172452768
 31
0.0
  0
LINE
  5
7C34
330
19
100
AcDbEntity
  8
1
100
AcDbLine
 10
686.1044471972332
 20
975.496172452768
 30
0.0
 11
686.1044471972332
 21
972.2961724527682
 31
0.0
  0
LINE
  5
7C35
330
19
100
AcDbEntity
  8
1
100
AcDbLine
 10
716.1044471972331
 20
975.496172452768
 30
0.0
 11
716.1044471972331
 21
978.696172452768
 31
0.0
  0
LINE
  5
7C36
330
19
100
AcDbEntity
  8
1
100
AcDbLine
 10
866.1044471972331
 20
978.696172452768
 30
0.0
 11
866.1044471972331
 21
975.496172452768
 31
0.0
  0
LINE
  5
7C37
330
19
100
AcDbEntity
  8
1
100
AcDbLine
 10
896.1044471972332
 20
975.496172452768
 30
0.0
 11
896.1044471972332
 21
972.2961724527682
 31
0.0
  0
LINE
  5
7C38
330
19
100
AcDbEntity
  8
1
100
AcDbLine
 10
931.1044471972332
 20
1188.295863458341
 30
0.0
 11
931.1044471972332
 21
983.6961724527677
 31
0.0
  0
LINE
  5
7C39
330
19
100
AcDbEntity
  8
1
100
AcDbLine
 10
951.1044471972331
 20
1188.295863458341
 30
0.0
 11
951.1044471972331
 21
983.6961724527677
 31
0.0
  0
LINE
  5
7C3A
330
19
100
AcDbEntity
  8
1
100
AcDbLine
 10
931.1044471972332
 20
1188.295863458341
 30
0.0
 11
951.1044471972331
 21
1188.295863458341
 31
0.0
  0
LINE
  5
7C3B
330
19
100
AcDbEntity
  8
1
100
AcDbLine
 10
698.804447197233
 20
1075.496177750909
 30
0.0
 11
692.804447197233
 21
1075.496177750909
 31
0.0
  0
CIRCLE
  5
7C3C
330
19
100
AcDbEntity
  8
1
100
AcDbCircle
 10
899.0770802870452
 20
1034.996172452767
 30
0.0
 40
6.0
  0
LINE
  5
7C3D
330
19
100
AcDbEntity
  8
1
100
AcDbLine
 10
931.1044471972332
 20
1005.996172452768
 30
0.0
 11
897.5930829086115
 21
1005.996172452768
 31
0.0
  0
ARC
  5
7C3E
330
19
100
AcDbEntity
  8
1
100
AcDbCircle
 10
798.6044471972332
 20
1004.496172452768
 30
0.0
 40
99.0
100
AcDbArc
 50
0.0
 51
16.88646699756153
  0
LINE
  5
7C3F
330
19
100
AcDbEntity
  8
1
100
AcDbLine
 10
951.1044471972331
 20
983.6961724527677
 30
0.0
 11
931.1044471972332
 21
983.6961724527677
 31
0.0
  0
LINE
  5
7C40
330
19
100
AcDbEntity
  8
1
100
AcDbLine
 10
889.4044471972328
 20
1075.496177750909
 30
0.0
 11
883.404447197233
 21
1075.496177750909
 31
0.0
  0
LINE
  5
7C41
330
19
100
AcDbEntity
  8
1
100
AcDbLine
 10
1322.978121433025
 20
1056.946177750909
 30
0.0
 11
1322.978121433025
 21
887.9461777509096
 31
0.0
  0
LINE
  5
7C42
330
19
100
AcDbEntity
  8
1
100
AcDbLine
 10
1292.978121433025
 20
1056.946177750909
 30
0.0
 11
1292.978121433025
 21
887.9461777509096
 31
0.0
  0
LINE
  5
7C43
330
19
100
AcDbEntity
  8
2
100
AcDbLine
 10
1289.585873223855
 20
941.9521428370289
 30
0.0
 11
1361.625370129815
 21
941.9521428370289
 31
0.0
  0
LINE
  5
7C44
330
19
100
AcDbEntity
  8
1
100
AcDbLine
 10
1322.978121433025
 20
887.9461777509096
 30
0.0
 11
1292.978121433025
 21
887.9461777509096
 31
0.0
  0
LINE
  5
7C45
330
19
100
AcDbEntity
  8
1
100
AcDbLine
 10
1332.978121433025
 20
1001.946177750909
 30
0.0
 11
1598.923171828322
 21
1001.946177750909
 31
0.0
  0
LINE
  5
7C46
330
19
100
AcDbEntity
  8
1
100
AcDbLine
 10
1332.978121433025
 20
1021.946177750909
 30
0.0
 11
1598.923171828323
 21
1021.946177750909
 31
0.0
  0
LINE
  5
7C47
330
19
100
AcDbEntity
  8
1
100
AcDbLine
 10
1332.978121433025
 20
1021.946177750909
 30
0.0
 11
1332.978121433025
 21
1001.946177750909
 31
0.0
  0
LINE
  5
7C48
330
19
100
AcDbEntity
  8
1
100
AcDbLine
 10
1322.978121433025
 20
997.9461777509095
 30
0.0
 11
1292.978121433025
 21
997.9461777509095
 31
0.0
  0
LINE
  5
7C49
330
19
100
AcDbEntity
  8
1
100
AcDbLine
 10
1292.978121433025
 20
966.9461777509097
 30
0.0
 11
1322.978121433025
 21
966.9461777509097
 31
0.0
  0
LINE
  5
7C4A
330
19
100
AcDbEntity
  8
1
100
AcDbLine
 10
1348.923171828322
 20
975.4461777509096
 30
0.0
 11
1348.923171828322
 21
973.1461777509091
 31
0.0
  0
LINE
  5
7C4B
330
19
100
AcDbEntity
  8
1
100
AcDbLine
 10
1322.978121433025
 20
1002.446177750909
 30
0.0
 11
1332.978121433025
 21
1002.446177750909
 31
0.0
  0
LINE
  5
7C4C
330
19
100
AcDbEntity
  8
1
100
AcDbLine
 10
1292.978121433025
 20
1056.946177750909
 30
0.0
 11
1322.978121433025
 21
1056.946177750909
 31
0.0
  0
LINE
  5
7C4D
330
19
100
AcDbEntity
  8
1
100
AcDbLine
 10
1322.978121433025
 20
1021.446177750909
 30
0.0
 11
1332.978121433025
 21
1021.446177750909
 31
0.0
  0
LINE
  5
7C4E
330
19
100
AcDbEntity
  8
1
100
AcDbLine
 10
1270.478121433025
 20
1166.952142837029
 30
0.0
 11
1345.478121433025
 21
1166.952142837029
 31
0.0
  0
LINE
  5
7C53
330
19
100
AcDbEntity
  8
1
100
AcDbLine
 10
401.1044471972327
 20
1586.64494474657
 30
0.0
 11
401.1044471972327
 21
1658.64844711951
 31
0.0
  0
LINE
  5
7C54
330
19
100
AcDbEntity
  8
1
100
AcDbLine
 10
361.1044471972328
 20
1626.64494474657
 30
0.0
 11
361.1044471972326
 21
1926.644944746569
 31
0.0
  0
LINE
  5
7C55
330
19
100
AcDbEntity
  8
2
100
AcDbLine
 10
471.1044471972331
 20
1590.699438078514
 30
0.0
 11
471.1044471972336
 21
1932.974072343441
 31
0.0
  0
LINE
  5
7C56
330
19
100
AcDbEntity
  8
1
100
AcDbLine
 10
361.1044471972328
 20
1586.64494474657
 30
0.0
 11
361.1044471972328
 21
1626.644944746569
 31
0.0
  0
LINE
  5
7C57
330
19
100
AcDbEntity
  8
1
100
AcDbLine
 10
361.1044471972326
 20
1926.644944746569
 30
0.0
 11
361.1044471972331
 21
1966.644944746569
 31
0.0
  0
LINE
  5
7C58
330
19
100
AcDbEntity
  8
2
100
AcDbLine
 10
791.1044471972331
 20
1593.275342240138
 30
0.0
 11
791.104447197234
 21
2073.389675861129
 31
0.0
  0
LINE
  5
7C59
330
19
100
AcDbEntity
  8
1
100
AcDbLine
 10
941.1044471972328
 20
1586.644944746569
 30
0.0
 11
941.1044471972328
 21
1910.14844711951
 31
0.0
  0
LINE
  5
7C5A
330
19
100
AcDbEntity
  8
1
100
AcDbLine
 10
901.1044471972327
 20
1586.644944746569
 30
0.0
 11
901.1044471972327
 21
1930.14844711951
 31
0.0
  0
LINE
  5
7C5D
330
19
100
AcDbEntity
  8
1
100
AcDbLine
 10
1623.923171828323
 20
875.9461777509095
 30
0.0
 11
1623.923171828323
 21
831.8633681800724
 31
0.0
  0
LINE
  5
7C5E
330
19
100
AcDbEntity
  8
2
100
AcDbLine
 10
1686.223171828323
 20
1227.231135270213
 30
0.0
 11
1686.223171828321
 21
681.9461777509096
 31
0.0
  0
LINE
  5
7C5F
330
19
100
AcDbEntity
  8
1
100
AcDbLine
 10
1770.223171828323
 20
923.9461777509097
 30
0.0
 11
1750.223171828323
 21
923.9461777509097
 31
0.0
  0
LINE
  5
7C60
330
19
100
AcDbEntity
  8
1
100
AcDbLine
 10
1603.923171828322
 20
1075.496177750909
 30
0.0
 11
1603.923171828322
 21
1011.94617775091
 31
0.0
  0
LINE
  5
7C61
330
19
100
AcDbEntity
  8
1
100
AcDbLine
 10
1750.223171828323
 20
983.6961724527679
 30
0.0
 11
1750.223171828323
 21
900.9461777509098
 31
0.0
  0
LINE
  5
7C63
330
19
100
AcDbEntity
  8
1
100
AcDbLine
 10
1746.223171828322
 20
1165.946177750909
 30
0.0
 11
1746.223171828322
 21
1020.296172452769
 31
0.0
  0
LINE
  5
7C64
330
19
100
AcDbEntity
  8
1
100
AcDbLine
 10
1626.223171828322
 20
1165.946177750909
 30
0.0
 11
1626.223171828322
 21
1020.296172452768
 31
0.0
  0
LINE
  5
7C67
330
19
100
AcDbEntity
  8
1
100
AcDbLine
 10
1746.223171828322
 20
1020.296172452768
 30
0.0
 11
1746.223171828322
 21
1005.946177750909
 31
0.0
  0
LINE
  5
7C68
330
19
100
AcDbEntity
  8
1
100
AcDbLine
 10
1626.223171828322
 20
1020.296172452768
 30
0.0
 11
1626.223171828321
 21
1005.946177750909
 31
0.0
  0
LINE
  5
7C6A
330
19
100
AcDbEntity
  8
1
100
AcDbLine
 10
1623.923171828323
 20
875.9961724527682
 30
0.0
 11
1748.523171828323
 21
875.9961724527684
 31
0.0
  0
LINE
  5
7C6B
330
19
100
AcDbEntity
  8
1
100
AcDbLine
 10
1623.923171828323
 20
875.9461777509097
 30
0.0
 11
1626.223171828322
 21
875.9461777509098
 31
0.0
  0
LINE
  5
7C6C
330
19
100
AcDbEntity
  8
1
100
AcDbLine
 10
1746.223171828322
 20
875.9461777509098
 30
0.0
 11
1748.523171828323
 21
875.94617775091
 31
0.0
  0
LINE
  5
7C6D
330
19
100
AcDbEntity
  8
1
100
AcDbLine
 10
1750.223171828323
 20
923.9461777509097
 30
0.0
 11
1750.223171828323
 21
903.9461777509096
 31
0.0
  0
LINE
  5
7C6E
330
19
100
AcDbEntity
  8
1
100
AcDbLine
 10
1748.523171828323
 20
900.9461777509097
 30
0.0
 11
1750.223171828323
 21
900.9461777509095
 31
0.0
  0
LINE
  5
7C6F
330
19
100
AcDbEntity
  8
1
100
AcDbLine
 10
1603.923171828322
 20
1011.94617775091
 30
0.0
 11
1603.923171828322
 21
1011.94617775091
 31
0.0
  0
LINE
  5
7C70
330
19
100
AcDbEntity
  8
1
100
AcDbLine
 10
1626.223171828322
 20
1020.296172452768
 30
0.0
 11
1626.223171828322
 21
1015.930200643512
 31
0.0
  0
LINE
  5
7C71
330
19
100
AcDbEntity
  8
1
100
AcDbLine
 10
1746.223171828322
 20
1020.296172452768
 30
0.0
 11
1746.223171828322
 21
1019.333585208535
 31
0.0
  0
LINE
  5
7C73
330
19
100
AcDbEntity
  8
1
100
AcDbLine
 10
1598.923171828323
 20
1075.496177750909
 30
0.0
 11
1603.923171828322
 21
1075.496177750909
 31
0.0
  0
LINE
  5
7C74
330
19
100
AcDbEntity
  8
1
100
AcDbLine
 10
1603.923171828322
 20
1188.295863458341
 30
0.0
 11
1603.923171828322
 21
983.6961724527681
 31
0.0
  0
POINT
  5
7C75
330
19
100
AcDbEntity
  8
1
100
AcDbPoint
 10
1686.223171828323
 20
1164.062810176941
 30
0.0
  0
LINE
  5
7C76
330
19
100
AcDbEntity
  8
1
100
AcDbLine
 10
1753.223171828322
 20
983.6961724527679
 30
0.0
 11
1753.223171828323
 21
923.9461777509097
 31
0.0
  0
LINE
  5
7C77
330
19
100
AcDbEntity
  8
1
100
AcDbLine
 10
1768.523171828323
 20
1188.295863458341
 30
0.0
 11
1768.523171828325
 21
983.6961724527677
 31
0.0
  0
ARC
  5
7C78
330
19
100
AcDbEntity
  8
1
100
AcDbCircle
 10
471.1044471972334
 20
941.9961724527681
 30
0.0
 40
85.000008
100
AcDbArc
 50
180.0
 51
244.082274
  0
ARC
  5
7C79
330
19
100
AcDbEntity
  8
1
100
AcDbCircle
 10
471.1044471972334
 20
941.9961724527681
 30
0.0
 40
85.0
100
AcDbArc
 50
295.875534
 51
180.0
  0
LINE
  5
7C7A
330
19
100
AcDbEntity
  8
1
100
AcDbLine
 10
508.1999461972334
 20
865.5452444527682
 30
0.0
 11
433.9526381972334
 21
865.5452444527682
 31
0.0
  0
LINE
  5
7C7B
330
19
100
AcDbEntity
  8
1
100
AcDbLine
 10
552.8790447629973
 20
861.996172452768
 30
0.0
 11
533.4276151972333
 21
884.1776684527681
 31
0.0
  0
LINE
  5
7C7C
330
19
100
AcDbEntity
  8
1
100
AcDbLine
 10
548.6044471972333
 20
861.9961724527682
 30
0.0
 11
513.6044471972334
 21
861.9961724527682
 31
0.0
  0
LINE
  5
7C7D
330
19
100
AcDbEntity
  8
1
100
AcDbLine
 10
389.3299385226387
 20
861.9961724527682
 30
0.0
 11
408.7831391972334
 21
884.1798104527681
 31
0.0
  0
LINE
  5
7C7E
330
19
100
AcDbEntity
  8
1
100
AcDbLine
 10
393.6044471972334
 20
861.9961724527682
 30
0.0
 11
428.6044471972334
 21
861.9961724527682
 31
0.0
  0
LINE
  5
7C7F
330
19
100
AcDbEntity
  8
1
100
AcDbLine
 10
368.6044471972334
 20
861.9961724527682
 30
0.0
 11
471.1044471972334
 21
861.9961724527682
 31
0.0
  0
LINE
  5
7C80
330
19
100
AcDbEntity
  8
1
100
AcDbLine
 10
368.6044471972334
 20
861.9961724527682
 30
0.0
 11
363.6044471972334
 21
831.9961724527681
 31
0.0
  0
LINE
  5
7C81
330
19
100
AcDbEntity
  8
1
100
AcDbLine
 10
573.6044471972333
 20
861.996172452768
 30
0.0
 11
578.6044471972334
 21
831.9961724527679
 31
0.0
  0
LINE
  5
7C82
330
19
100
AcDbEntity
  8
1
100
AcDbLine
 10
471.1044471972334
 20
861.9961724527682
 30
0.0
 11
573.6044471972333
 21
861.996172452768
 31
0.0
  0
LINE
  5
7C83
330
19
100
AcDbEntity
  8
1
100
AcDbLine
 10
655.1044471972334
 20
1966.644944746569
 30
0.0
 11
361.1044471972331
 21
1966.644944746569
 31
0.0
  0
LINE
  5
7C84
330
19
100
AcDbEntity
  8
1
100
AcDbLine
 10
941.1044471972328
 20
1586.644944746569
 30
0.0
 11
361.1044471972328
 21
1586.644944746569
 31
0.0
  0
DIMENSION
  5
7C89
330
19
100
AcDbEntity
  8
3
100
AcDbDimension
280
     0
  2
*D2
 10
1005.946725414503
 20
1005.996172452768
 30
0.0
 11
980.946725414503
 21
1085.996172452768
 31
0.0
 12
133.9369579319955
 22
0.0
 32
0.0
 70
    32
 71
     5
 42
-1.0
 73
     0
 74
     0
 75
     0
  3
IGA
100
AcDbAlignedDimension
 13
931.1044471972332
 23
1165.996172452768
 33
0.0
 14
931.1044471972332
 24
1005.996172452768
 34
0.0
 50
90.0
100
AcDbRotatedDimension
1001
ACAD
1000
DSTYLE
1002
{
1070
    40
1040
10.0
1070
   143
1040
0.039
1070
   172
1070
     1
1070
   271
1070
     0
1070
   279
1070
     0
1070
   288
1070
     1
1002
}
  0
DIMENSION
  5
7C8A
330
19
100
AcDbEntity
  8
3
100
AcDbDimension
280
     0
  2
*D3
 10
1061.820171123162
 20
1011.996172452768
 30
0.0
 11
1036.820171123162
 21
1088.996172452768
 31
0.0
 12
133.9369579319955
 22
0.0
 32
0.0
 70
    32
 71
     5
 42
-1.0
 73
     0
 74
     0
 75
     0
  3
IGA
100
AcDbAlignedDimension
 13
931.1044471972332
 23
1165.996172452768
 33
0.0
 14
967.8506911945746
 24
1011.996172452768
 34
0.0
 50
90.0
100
AcDbRotatedDimension
1001
ACAD
1000
DSTYLE
1002
{
1070
    40
1040
10.0
1070
   143
1040
0.039
1070
   172
1070
     1
1070
   271
1070
     0
1070
   279
1070
     0
1070
   288
1070
     1
1002
}
  0
LINE
  5
7C8B
330
19
100
AcDbEntity
  8
1
100
AcDbLine
 10
941.1044471972328
 20
791.9961724527679
 30
0.0
 11
361.1044471972332
 21
791.9961724527679
 31
0.0
  0
LINE
  5
7C8C
330
19
100
AcDbEntity
  8
1
100
AcDbLine
 10
941.1044471972322
 20
831.9961724527681
 30
0.0
 11
361.1044471972332
 21
831.9961724527681
 31
0.0
  0
DIMENSION
  5
7C8F
330
19
100
AcDbEntity
  8
3
100
AcDbDimension
280
     0
  2
*D4
 10
1061.820171123162
 20
791.9961724527679
 30
0.0
 11
1036.820171123162
 21
901.9961724527679
 31
0.0
 12
133.9369579319955
 22
0.0
 32
0.0
 70
    32
 71
     5
 42
-1.0
 73
     0
 74
     0
 75
     0
  3
IGA
100
AcDbAlignedDimension
 13
967.8506911945746
 23
1011.996172452768
 33
0.0
 14
941.1044471972328
 24
791.9961724527679
 34
0.0
 50
90.0
100
AcDbRotatedDimension
1001
ACAD
1000
DSTYLE
1002
{
1070
    40
1040
10.0
1070
   143
1040
0.039
1070
   172
1070
     1
1070
   271
1070
     0
1070
   279
1070
     0
1070
   288
1070
     1
1002
}
  0
LINE
  5
7C9C
330
19
100
AcDbEntity
  8
1
100
AcDbLine
 10
1626.223171828321
 20
1005.946177750909
 30
0.0
 11
1746.223171828322
 21
1005.946177750909
 31
0.0
  0
LINE
  5
7C9D
330
19
100
AcDbEntity
  8
1
100
AcDbLine
 10
1603.923171828322
 20
1188.295863458341
 30
0.0
 11
1768.523171828322
 21
1188.295863458341
 31
0.0
  0
LINE
  5
7C9E
330
19
100
AcDbEntity
  8
1
100
AcDbLine
 10
1626.223171828323
 20
1165.946177750909
 30
0.0
 11
1746.223171828322
 21
1165.94617775091
 31
0.0
  0
LINE
  5
7C9F
330
19
100
AcDbEntity
  8
1
100
AcDbLine
 10
1603.923171828323
 20
983.6961724527681
 30
0.0
 11
1768.523171828325
 21
983.6961724527679
 31
0.0
  0
LINE
  5
7CA4
330
19
100
AcDbEntity
  8
1
100
AcDbLine
 10
1623.923171828323
 20
983.6961724527681
 30
0.0
 11
1623.923171828323
 21
875.9961724527682
 31
0.0
  0
LINE
  5
7CA5
330
19
100
AcDbEntity
  8
1
100
AcDbLine
 10
1748.523171828323
 20
983.6961724527681
 30
0.0
 11
1748.523171828323
 21
875.9961724527684
 31
0.0
  0
LINE
  5
7CA6
330
19
100
AcDbEntity
  8
1
100
AcDbLine
 10
1770.223171828323
 20
1099.94617775091
 30
0.0
 11
1770.223171828323
 21
923.9461777509095
 31
0.0
  0
LINE
  5
7CA7
330
19
100
AcDbEntity
  8
1
100
AcDbLine
 10
1770.223171828323
 20
1099.946177750909
 30
0.0
 11
1768.523171828323
 21
1099.946177750909
 31
0.0
  0
ARC
  5
7CA8
330
19
100
AcDbEntity
  8
1
100
AcDbCircle
 10
1768.223171828323
 20
1100.946177750909
 30
0.0
 40
2.0
100
AcDbArc
 50
0.0
 51
90.0
  0
LINE
  5
7CA9
330
19
100
AcDbEntity
  8
1
100
AcDbLine
 10
1770.223171828323
 20
1100.946177750909
 30
0.0
 11
1770.223171828323
 21
1099.946177750909
 31
0.0
  0
LINE
  5
7CAA
330
19
100
AcDbEntity
  8
1
100
AcDbLine
 10
1753.223171828323
 20
905.9461777509097
 30
0.0
 11
1753.223171828323
 21
916.9461777509097
 31
0.0
  0
LINE
  5
7CAB
330
19
100
AcDbEntity
  8
1
100
AcDbLine
 10
1750.223171828323
 20
903.9461777509096
 30
0.0
 11
1750.223171828323
 21
923.9461777509097
 31
0.0
  0
LINE
  5
7CAC
330
19
100
AcDbEntity
  8
1
100
AcDbLine
 10
1757.223171828323
 20
920.9461777509096
 30
0.0
 11
1768.223171828323
 21
920.9461777509096
 31
0.0
  0
LINE
  5
7CAD
330
19
100
AcDbEntity
  8
1
100
AcDbLine
 10
1750.223171828323
 20
923.9461777509097
 30
0.0
 11
1770.223171828323
 21
923.9461777509097
 31
0.0
  0
ARC
  5
7CAE
330
19
100
AcDbEntity
  8
1
100
AcDbCircle
 10
1757.223171828323
 20
916.9461777509097
 30
0.0
 40
4.0
100
AcDbArc
 50
90.0
 51
180.0
  0
LINE
  5
7CAF
330
19
100
AcDbEntity
  8
1
100
AcDbLine
 10
1770.223171828323
 20
923.9461777509097
 30
0.0
 11
1770.223171828323
 21
922.9461777509097
 31
0.0
  0
ARC
  5
7CB0
330
19
100
AcDbEntity
  8
1
100
AcDbCircle
 10
1768.223171828323
 20
922.9461777509097
 30
0.0
 40
2.0
100
AcDbArc
 50
270.0
 51
0.0
  0
ARC
  5
7CB1
330
19
100
AcDbEntity
  8
1
100
AcDbCircle
 10
1751.223171828323
 20
905.9461777509097
 30
0.0
 40
2.0
100
AcDbArc
 50
270.0
 51
0.0
  0
LINE
  5
7CB2
330
19
100
AcDbEntity
  8
1
100
AcDbLine
 10
1751.223171828323
 20
903.9461777509098
 30
0.0
 11
1750.223171828323
 21
903.9461777509096
 31
0.0
  0
DIMENSION
  5
7CB3
330
19
100
AcDbEntity
  8
3
100
AcDbDimension
280
     0
  2
*D5
 10
1850.863835637859
 20
923.9461777509097
 30
0.0
 11
1825.86383563786
 21
1011.946177750908
 31
0.0
 70
    32
 71
     5
 42
-1.0
 73
     0
 74
     0
 75
     0
  3
IGA
100
AcDbAlignedDimension
 13
1748.523171828323
 23
1099.946177750906
 33
0.0
 14
1750.223171828323
 24
923.9461777509097
 34
0.0
 50
90.0
100
AcDbRotatedDimension
1001
ACAD
1000
DSTYLE
1002
{
1070
     3
1000
φ<>
1070
    40
1040
10.0
1070
   143
1040
0.039
1070
   172
1070
     1
1070
   271
1070
     0
1070
   279
1070
     0
1070
   288
1070
     1
1002
}
  0
DIMENSION
  5
7CB4
330
19
100
AcDbEntity
  8
3
100
AcDbDimension
280
     0
  2
*D6
 10
1746.223171828322
 20
1219.326170756605
 30
0.0
 11
1686.223171828322
 21
1246.740344196313
 31
0.0
 70
   160
 71
     5
 42
-1.0
 73
     0
 74
     0
 75
     0
  3
IGA
100
AcDbAlignedDimension
 13
1626.223171828322
 23
1165.946177750909
 33
0.0
 14
1746.223171828322
 24
1165.94617775091
 34
0.0
100
AcDbRotatedDimension
1001
ACAD
1000
DSTYLE
1002
{
1070
   288
1070
     1
1070
   172
1070
     1
1070
    40
1040
10.0
1070
   271
1070
     0
1070
   143
1040
0.039
1002
}
  0
DIMENSION
  5
7CB5
330
19
100
AcDbEntity
  8
3
100
AcDbDimension
280
     0
  2
*D7
 10
1686.223171828323
 20
1287.435661688887
 30
0.0
 11
1718.223171828323
 21
1311.715705130914
 31
0.0
 70
   160
 71
     5
 42
-1.0
 73
     0
 74
     0
 75
     0
  3
IGA
100
AcDbAlignedDimension
 13
1750.223171828323
 23
983.6961724527679
 33
0.0
 14
1686.223171828323
 24
1268.621211417856
 34
0.0
100
AcDbRotatedDimension
1001
ACAD
1000
DSTYLE
1002
{
1070
   288
1070
     1
1070
   172
1070
     1
1070
    40
1040
10.0
1070
   271
1070
     0
1070
   143
1040
0.039
1002
}
  0
DIMENSION
  5
7CB6
330
19
100
AcDbEntity
  8
3
100
AcDbDimension
280
     0
  2
*D8
 10
1270.478121433025
 20
1287.435661688887
 30
0.0
 11
1478.350646630674
 21
1345.29280454603
 31
0.0
 70
    32
  1
\P(500)
 71
     5
 42
415.7450503952977
 73
     0
 74
     0
 75
     0
  3
IGA
100
AcDbAlignedDimension
 13
1686.223171828323
 23
1268.621211417856
 33
0.0
 14
1270.478121433025
 24
1166.952142837029
 34
0.0
100
AcDbRotatedDimension
1001
ACAD
1000
DSTYLE
1002
{
1070
    40
1040
10.0
1070
   143
1040
0.039
1070
   172
1070
     1
1070
   271
1070
     0
1070
   279
1070
     0
1070
   288
1070
     1
1002
}
  0
DIMENSION
  5
7CB7
330
19
100
AcDbEntity
  8
3
100
AcDbDimension
280
     0
  2
*D9
 10
791.1044471972331
 20
1236.815104941575
 30
0.0
 11
871.1044471972332
 21
1261.815104941576
 31
0.0
 12
133.9369579319955
 22
0.0
 32
0.0
 70
    32
 71
     5
 42
-1.0
 73
     0
 74
     0
 75
     0
  3
IGA
100
AcDbAlignedDimension
 13
951.1044471972331
 23
1188.295863458341
 33
0.0
 14
791.1044471972331
 24
1190.552236248001
 34
0.0
100
AcDbRotatedDimension
1001
ACAD
1000
DSTYLE
1002
{
1070
    40
1040
10.0
1070
   143
1040
0.039
1070
   172
1070
     1
1070
   271
1070
     0
1070
   279
1070
     0
1070
   288
1070
     1
1002
}
  0
DIMENSION
  5
7CB8
330
19
100
AcDbEntity
  8
3
100
AcDbDimension
280
     0
  2
*D10
 10
654.6044471972331
 20
1236.815104941575
 30
0.0
 11
722.8544471972331
 21
1261.815104941576
 31
0.0
 12
133.9369579319955
 22
0.0
 32
0.0
 70
    32
  1
136
 71
     5
 42
-1.0
 73
     0
 74
     0
 75
     0
  3
IGA
100
AcDbAlignedDimension
 13
791.1044471972331
 23
1190.552236248001
 33
0.0
 14
654.6044471972331
 24
1019.496172452767
 34
0.0
100
AcDbRotatedDimension
1001
ACAD
1000
DSTYLE
1002
{
1070
    40
1040
10.0
1070
   143
1040
0.039
1070
   172
1070
     1
1070
   271
1070
     0
1070
   279
1070
     0
1070
   288
1070
     1
1002
}
  0
DIMENSION
  5
7CB9
330
19
100
AcDbEntity
  8
3
100
AcDbDimension
280
     0
  2
*D11
 10
361.1044471972332
 20
1294.208042797074
 30
0.0
 11
656.1044471972332
 21
1319.208042797074
 31
0.0
 12
133.9369579319955
 22
0.0
 32
0.0
 70
    32
 71
     5
 42
-1.0
 73
     0
 74
     0
 75
     0
  3
IGA
100
AcDbAlignedDimension
 13
951.1044471972331
 23
1188.295863458341
 33
0.0
 14
361.1044471972332
 24
831.9961724527681
 34
0.0
100
AcDbRotatedDimension
1001
ACAD
1000
DSTYLE
1002
{
1070
    40
1040
10.0
1070
   143
1040
0.039
1070
   172
1070
     1
1070
   271
1070
     0
1070
   279
1070
     0
1070
   288
1070
     1
1002
}
  0
LINE
  5
7CBA
330
19
100
AcDbEntity
  8
2
100
AcDbLine
 10
976.8361107459968
 20
1991.644944746569
 30
0.0
 11
595.978612277564
 21
1991.644944746569
 31
0.0
  0
LINE
  5
7CBB
330
19
100
AcDbEntity
  8
1
100
AcDbLine
 10
951.1044471972336
 20
1910.14844711951
 30
0.0
 11
951.104447197234
 21
2070.148447119511
 31
0.0
  0
LINE
  5
7CBC
330
19
100
AcDbEntity
  8
1
100
AcDbLine
 10
655.1044471972332
 20
1930.14844711951
 30
0.0
 11
655.1044471972336
 21
2050.148447119511
 31
0.0
  0
LINE
  5
7CBD
330
19
100
AcDbEntity
  8
1
100
AcDbLine
 10
931.1044471972332
 20
2050.14844711951
 30
0.0
 11
655.1044471972336
 21
2050.148447119511
 31
0.0
  0
LINE
  5
7CBE
330
19
100
AcDbEntity
  8
1
100
AcDbLine
 10
931.1044471972335
 20
1930.14844711951
 30
0.0
 11
655.1044471972336
 21
1930.14844711951
 31
0.0
  0
LINE
  5
7CBF
330
19
100
AcDbEntity
  8
1
100
AcDbLine
 10
931.1044471972335
 20
1910.14844711951
 30
0.0
 11
931.1044471972332
 21
2070.14844711951
 31
0.0
  0
LINE
  5
7CC0
330
19
100
AcDbEntity
  8
1
100
AcDbLine
 10
951.104447197234
 20
2070.14844711951
 30
0.0
 11
931.1044471972332
 21
2070.14844711951
 31
0.0
  0
LINE
  5
7CC1
330
19
100
AcDbEntity
  8
1
100
AcDbLine
 10
951.1044471972336
 20
1910.14844711951
 30
0.0
 11
931.1044471972335
 21
1910.14844711951
 31
0.0
  0
LINE
  5
7CC3
330
19
100
AcDbEntity
  8
1
100
AcDbLine
 10
836.1044471972327
 20
1596.903396724214
 30
0.0
 11
836.1044471972327
 21
1626.903396724214
 31
0.0
  0
LINE
  5
7CC4
330
19
100
AcDbEntity
  8
1
100
AcDbLine
 10
746.1044471972327
 20
1596.903396724214
 30
0.0
 11
746.1044471972327
 21
1626.903396724214
 31
0.0
  0
LINE
  5
7CC5
330
19
100
AcDbEntity
  8
1
100
AcDbLine
 10
527.0984821111142
 20
1626.903396724214
 30
0.0
 11
527.0984821111142
 21
1596.903396724214
 31
0.0
  0
LINE
  5
7CC6
330
19
100
AcDbEntity
  8
1
100
AcDbLine
 10
417.0984821111142
 20
1626.903396724214
 30
0.0
 11
417.0984821111142
 21
1596.903396724214
 31
0.0
  0
LINE
  5
7CC9
330
19
100
AcDbEntity
  8
1
100
AcDbLine
 10
387.7187588428146
 20
1574.403396724216
 30
0.0
 11
917.7187588428145
 21
1574.403396724213
 31
0.0
  0
LINE
  5
7CCA
330
19
100
AcDbEntity
  8
1
100
AcDbLine
 10
836.1044471972327
 20
1596.903396724214
 30
0.0
 11
746.1044471972327
 21
1596.903396724213
 31
0.0
  0
LINE
  5
7CCB
330
19
100
AcDbEntity
  8
1
100
AcDbLine
 10
387.7187588428146
 20
1649.403396724215
 30
0.0
 11
917.7187588428145
 21
1649.403396724213
 31
0.0
  0
LINE
  5
7CCC
330
19
100
AcDbEntity
  8
1
100
AcDbLine
 10
801.1044471972327
 20
1636.903396724214
 30
0.0
 11
801.104447197234
 21
1930.148447119511
 31
0.0
  0
LINE
  5
7CCD
330
19
100
AcDbEntity
  8
1
100
AcDbLine
 10
781.1044471972327
 20
1636.903396724214
 30
0.0
 11
781.1044471972336
 21
1930.14844711951
 31
0.0
  0
LINE
  5
7CCE
330
19
100
AcDbEntity
  8
1
100
AcDbLine
 10
801.1044471972327
 20
1636.903396724214
 30
0.0
 11
781.1044471972327
 21
1636.903396724214
 31
0.0
  0
LINE
  5
7CCF
330
19
100
AcDbEntity
  8
1
100
AcDbLine
 10
836.1044471972327
 20
1626.903396724214
 30
0.0
 11
746.1044471972327
 21
1626.903396724214
 31
0.0
  0
LINE
  5
7CD0
330
19
100
AcDbEntity
  8
1
100
AcDbLine
 10
781.6044471972327
 20
1626.903396724214
 30
0.0
 11
781.6044471972327
 21
1636.903396724214
 31
0.0
  0
LINE
  5
7CD1
330
19
100
AcDbEntity
  8
1
100
AcDbLine
 10
800.6044471972327
 20
1626.903396724214
 30
0.0
 11
800.6044471972327
 21
1636.903396724214
 31
0.0
  0
LINE
  5
7CD3
330
19
100
AcDbEntity
  8
1
100
AcDbLine
 10
896.1044471972336
 20
1661.34494474657
 30
0.0
 11
896.1044471972336
 21
1930.14844711951
 31
0.0
  0
LINE
  5
7CD4
330
19
100
AcDbEntity
  8
1
100
AcDbLine
 10
686.1044471972336
 20
1661.34494474657
 30
0.0
 11
686.1044471972336
 21
1930.14844711951
 31
0.0
  0
LINE
  5
7CD5
330
19
100
AcDbEntity
  8
1
100
AcDbLine
 10
896.1044471972336
 20
1661.34494474657
 30
0.0
 11
801.1044471972327
 21
1661.344944746569
 31
0.0
  0
LINE
  5
7CD6
330
19
100
AcDbEntity
  8
1
100
AcDbLine
 10
781.1044471972327
 20
1661.34494474657
 30
0.0
 11
686.1044471972336
 21
1661.34494474657
 31
0.0
  0
LINE
  5
7CD7
330
19
100
AcDbEntity
  8
1
100
AcDbLine
 10
556.1044471972332
 20
1658.64844711951
 30
0.0
 11
556.1044471972336
 21
1886.64844711951
 31
0.0
  0
LINE
  5
7CD8
330
19
100
AcDbEntity
  8
1
100
AcDbLine
 10
386.1044391972332
 20
1658.64844711951
 30
0.0
 11
386.1044391972336
 21
1886.64844711951
 31
0.0
  0
LINE
  5
7CD9
330
19
100
AcDbEntity
  8
1
100
AcDbLine
 10
556.1044471972336
 20
1886.64844711951
 30
0.0
 11
386.1044391972336
 21
1886.64844711951
 31
0.0
  0
LINE
  5
7CDA
330
19
100
AcDbEntity
  8
1
100
AcDbLine
 10
556.1044471972336
 20
1658.64844711951
 30
0.0
 11
386.1044391972336
 21
1658.64844711951
 31
0.0
  0
LINE
  5
7CDB
330
19
100
AcDbEntity
  8
1
100
AcDbLine
 10
480.6044471972326
 20
1626.903396724215
 30
0.0
 11
480.6044471972326
 21
1658.64844711951
 31
0.0
  0
LINE
  5
7CDC
330
19
100
AcDbEntity
  8
1
100
AcDbLine
 10
461.6044471972327
 20
1626.903396724215
 30
0.0
 11
461.6044471972327
 21
1658.64844711951
 31
0.0
  0
LINE
  5
7CDD
330
19
100
AcDbEntity
  8
1
100
AcDbLine
 10
401.1044471972327
 20
1886.64844711951
 30
0.0
 11
401.1044471972326
 21
1966.644944746569
 31
0.0
  0
LINE
  5
7CE3
330
19
100
AcDbEntity
  8
1
100
AcDbLine
 10
527.0984821111137
 20
1626.903396724215
 30
0.0
 11
417.0984821111142
 21
1626.903396724216
 31
0.0
  0
LINE
  5
7CE4
330
19
100
AcDbEntity
  8
1
100
AcDbLine
 10
527.0984821111137
 20
1596.903396724214
 30
0.0
 11
417.0984821111142
 21
1596.903396724214
 31
0.0
  0
LINE
  5
7CE7
330
19
100
AcDbEntity
  8
1
100
AcDbLine
 10
1281.223171828322
 20
791.9461777509095
 30
0.0
 11
1281.223171828322
 21
831.9461777509095
 31
0.0
  0
LINE
  5
7CE8
330
19
100
AcDbEntity
  8
1
100
AcDbLine
 10
1661.223171828323
 20
791.9461777509095
 30
0.0
 11
1661.223171828322
 21
831.9461777509093
 31
0.0
  0
LINE
  5
7CE9
330
19
100
AcDbEntity
  8
1
100
AcDbLine
 10
1354.72317182832
 20
1026.952150837028
 30
0.0
 11
1582.72317182832
 21
1026.952150837028
 31
0.0
  0
LINE
  5
7CEA
330
19
100
AcDbEntity
  8
1
100
AcDbLine
 10
1354.72317182832
 20
856.9521428370288
 30
0.0
 11
1355.923171828322
 21
856.9521428370288
 31
0.0
  0
LINE
  5
7CEB
330
19
100
AcDbEntity
  8
1
100
AcDbLine
 10
1354.72317182832
 20
856.9521428370283
 30
0.0
 11
1354.72317182832
 21
973.1461777509091
 31
0.0
  0
LINE
  5
7CEC
330
19
100
AcDbEntity
  8
1
100
AcDbLine
 10
1322.978121433025
 20
932.4521428370292
 30
0.0
 11
1354.72317182832
 21
932.4521428370292
 31
0.0
  0
LINE
  5
7CED
330
19
100
AcDbEntity
  8
1
100
AcDbLine
 10
1322.978121433025
 20
951.4521428370292
 30
0.0
 11
1354.72317182832
 21
951.4521428370292
 31
0.0
  0
LINE
  5
7CEE
330
19
100
AcDbEntity
  8
1
100
AcDbLine
 10
1354.72317182832
 20
975.4461777509098
 30
0.0
 11
1354.72317182832
 21
1001.946177750909
 31
0.0
  0
LINE
  5
7CEF
330
19
100
AcDbEntity
  8
1
100
AcDbLine
 10
1354.72317182832
 20
1021.946177750909
 30
0.0
 11
1354.72317182832
 21
1026.952150837028
 31
0.0
  0
LINE
  5
7CF0
330
19
100
AcDbEntity
  8
1
100
AcDbLine
 10
1582.72317182832
 20
1026.952150837028
 30
0.0
 11
1582.72317182832
 21
1021.946177750909
 31
0.0
  0
LINE
  5
7CF1
330
19
100
AcDbEntity
  8
1
100
AcDbLine
 10
1746.223171828322
 20
1165.94617775091
 30
0.0
 11
1626.223171828321
 21
1005.946177750909
 31
0.0
  0
LINE
  5
7CF2
330
19
100
AcDbEntity
  8
1
100
AcDbLine
 10
1626.223171828322
 20
1165.946177750909
 30
0.0
 11
1746.223171828322
 21
1005.946177750909
 31
0.0
  0
LINE
  5
7CF3
330
19
100
AcDbEntity
  8
1
100
AcDbLine
 10
1598.923171828323
 20
855.4961777509094
 30
0.0
 11
1623.923171828323
 21
855.4961777509094
 31
0.0
  0
LINE
  5
7CF4
330
19
100
AcDbEntity
  8
1
100
AcDbLine
 10
1598.923171828323
 20
1075.496177750909
 30
0.0
 11
1598.923171828322
 21
855.4961777509094
 31
0.0
  0
LINE
  5
8335
330
19
100
AcDbEntity
  8
4
100
AcDbLine
 10
1850.0
 20
500.0
 30
0.0
 11
1850.0
 21
300.0
 31
0.0
  0
LINE
  5
8336
330
19
100
AcDbEntity
  8
4
100
AcDbLine
 10
1150.0
 20
500.0
 30
0.0
 11
1150.0
 21
300.0
 31
0.0
  0
LINE
  5
8337
330
19
100
AcDbEntity
  8
4
100
AcDbLine
 10
650.0
 20
500.0
 30
0.0
 11
650.0
 21
300.0
 31
0.0
  0
LINE
  5
833A
330
19
100
AcDbEntity
  8
4
100
AcDbLine
 10
650.0
 20
300.0
 30
0.0
 11
1850.0
 21
300.0
 31
0.0
  0
LINE
  5
833B
330
19
100
AcDbEntity
  8
4
100
AcDbLine
 10
650.0
 20
400.0
 30
0.0
 11
1850.0
 21
400.0
 31
0.0
  0
TEXT
  5
833C
330
19
100
AcDbEntity
  8
4
100
AcDbText
 10
688.5020808469016
 20
431.5430258666128
 30
0.0
 40
50.0
  1
機器名称
100
AcDbText
  0
TEXT
  5
833D
330
19
100
AcDbEntity
  8
4
100
AcDbText
 10
686.2581060247975
 20
321.645156732011
 30
0.0
 40
50.0
  1
機器型番
100
AcDbText
  0
TEXT
  5
833E
330
19
100
AcDbEntity
  8
4
100
AcDbText
 10
1177.678745487665
 20
422.5717689575685
 30
0.0
 40
50.0
  1
ミツヤ多翼送風機
100
AcDbText
  0
TEXT
  5
833F
330
19
100
AcDbEntity
  8
4
100
AcDbText
 10
1186.65449558548
 20
317.1595842799434
 30
0.0
 40
50.0
  1
MF#1-1
100
AcDbText
  0
TEXT
  5
8341
330
19
100
AcDbEntity
  8
4
100
AcDbText
 10
742.054101521724
 20
2383.428841332516
 30
0.0
 40
53.99999999999999
  1
床置防振ベット
100
AcDbText
  0
TEXT
  5
8342
330
19
100
AcDbEntity
  8
4
100
AcDbText
 10
316.1675933294464
 20
2533.880976199298
 30
0.0
 40
72.0
  1
遠心式片吸込片持多翼ファン
100
AcDbText
  0
LINE
  5
8343
330
19
100
AcDbEntity
  8
4
100
AcDbLine
 10
250.0
 20
2469.408754264805
 30
0.0
 11
1850.0
 21
2469.408754264805
 31
0.0
  0
LINE
  5
8344
330
19
100
AcDbEntity
  8
4
100
AcDbLine
 10
250.0
 20
2669.408754264805
 30
0.0
 11
1850.0
 21
2669.408754264805
 31
0.0
  0
LINE
  5
8345
330
19
100
AcDbEntity
  8
4
100
AcDbLine
 10
650.0
 20
500.0
 30
0.0
 11
1850.0
 21
500.0
 31
0.0
  0
LINE
  5
8346
330
19
100
AcDbEntity
  8
4
100
AcDbLine
 10
250.0
 20
2669.408754264805
 30
0.0
 11
250.0
 21
2469.408754264805
 31
0.0
  0
TEXT
  5
8347
330
19
100
AcDbEntity
  8
4
100
AcDbText
 10
306.1952692790219
 20
2382.319477546344
 30
0.0
 40
53.99999999999999
  1
右回転右横向
100
AcDbText
  0
TEXT
  5
8348
330
19
100
AcDbEntity
  8
4
100
AcDbText
 10
1468.96955924929
 20
2706.061081495309
 30
0.0
 40
56.00000000000001
  1
No.
100
AcDbText
  0
TEXT
  5
8349
330
19
100
AcDbEntity
  8
4
100
AcDbText
 10
1311.296062600013
 20
2383.428841332516
 30
0.0
 40
53.99999999999999
  1
縮尺：1/10
100
AcDbText
  0
LINE
  5
834A
330
19
100
AcDbEntity
  8
4
100
AcDbLine
 10
1850.0
 20
2669.408754264805
 30
0.0
 11
1850.0
 21
2469.408754264805
 31
0.0
  0
LINE
  5
834B
330
19
100
AcDbEntity
  8
4
100
AcDbLine
 10
2100.0
 20
2950.0
 30
0.0
 11
2100.0
 21
2950.0
 31
0.0
  0
LINE
  5
834C
330
19
100
AcDbEntity
  8
4
100
AcDbLine
 10
1440.617422359864
 20
2681.263583125401
 30
0.0
 11
1440.617422359864
 21
2786.652261549753
 31
0.0
  0
LINE
  5
834D
330
19
100
AcDbEntity
  8
4
100
AcDbLine
 10
1440.617422359864
 20
2786.652261549753
 30
0.0
 11
1850.0
 21
2786.652261549753
 31
0.0
  0
LINE
  5
834E
330
19
100
AcDbEntity
  8
4
100
AcDbLine
 10
1850.0
 20
2786.652261549753
 30
0.0
 11
1850.0
 21
2681.263583125401
 31
0.0
  0
LINE
  5
834F
330
19
100
AcDbEntity
  8
4
100
AcDbLine
 10
1850.0
 20
2681.263583125401
 30
0.0
 11
1440.617422359864
 21
2681.263583125401
 31
0.0
  0
LINE
  5
8350
330
19
100
AcDbEntity
  8
4
100
AcDbLine
 10
0.0
 20
0.0
 30
0.0
 11
0.0
 21
2950.0
 31
0.0
  0
LINE
  5
8351
330
19
100
AcDbEntity
  8
4
100
AcDbLine
 10
0.0
 20
2950.0
 30
0.0
 11
2100.0
 21
2950.0
 31
0.0
  0
LINE
  5
8352
330
19
100
AcDbEntity
  8
4
100
AcDbLine
 10
2100.0
 20
2950.0
 30
0.0
 11
2100.0
 21
0.0
 31
0.0
  0
LINE
  5
8353
330
19
100
AcDbEntity
  8
4
100
AcDbLine
 10
2100.0
 20
0.0
 30
0.0
 11
0.0
 21
0.0
 31
0.0
  0
LINE
  5
83D5
330
19
100
AcDbEntity
  8
1
100
AcDbLine
 10
1345.478121433025
 20
1130.351900931307
 30
0.0
 11
1345.478121433025
 21
1166.952142837029
 31
0.0
  0
LINE
  5
83DA
330
19
100
AcDbEntity
  8
1
100
AcDbLine
 10
387.7187588428146
 20
1574.403396724216
 30
0.0
 11
387.7187588428146
 21
1649.403396724215
 31
0.0
  0
LINE
  5
83DB
330
19
100
AcDbEntity
  8
1
100
AcDbLine
 10
917.7187588428145
 20
1574.403396724213
 30
0.0
 11
917.7187588428147
 21
1649.403396724213
 31
0.0
  0
LINE
  5
844A
330
19
100
AcDbEntity
  8
1
100
AcDbLine
 10
901.1044471972326
 20
1926.644944746569
 30
0.0
 11
401.1044471972326
 21
1926.644944746569
 31
0.0
  0
LINE
  5
8462
330
19
100
AcDbEntity
  8
1
100
AcDbLine
 10
901.1044471972327
 20
1626.644944746569
 30
0.0
 11
401.1044471972327
 21
1626.644944746569
 31
0.0
  0
DIMENSION
  5
846F
330
19
100
AcDbEntity
  8
3
100
AcDbDimension
280
     0
  2
*D13
 10
295.2160591024003
 20
1586.644944746569
 30
0.0
 11
295.2160591024003
 21
1770.953688894821
 31
0.0
 12
133.9369579319955
 22
0.0
 32
0.0
 70
   160
 71
     5
 42
-1.0
 73
     0
 74
     0
 75
     0
  3
IGA
100
AcDbAlignedDimension
 13
361.1044471972331
 23
1966.644944746569
 33
0.0
 14
361.1044471972328
 24
1586.644944746569
 34
0.0
 50
90.0
100
AcDbRotatedDimension
1001
ACAD
1000
DSTYLE
1002
{
1070
    40
1040
10.0
1070
   143
1040
0.039
1070
   172
1070
     1
1070
   271
1070
     0
1070
   279
1070
     0
1070
   288
1070
     1
1002
}
  0
DIMENSION
  5
847C
330
19
100
AcDbEntity
  8
3
100
AcDbDimension
280
     0
  2
*D14
 10
941.1044471972328
 20
1490.699727649986
 30
0.0
 11
626.6988390226197
 21
1490.699727649986
 31
0.0
 12
133.9369579319955
 22
0.0
 32
0.0
 70
   160
 71
     5
 42
-1.0
 73
     0
 74
     0
 75
     0
  3
IGA
100
AcDbAlignedDimension
 13
361.1044471972328
 23
1586.644944746569
 33
0.0
 14
941.1044471972328
 24
1586.644944746569
 34
0.0
100
AcDbRotatedDimension
1001
ACAD
1000
DSTYLE
1002
{
1070
    40
1040
10.0
1070
   143
1040
0.039
1070
   172
1070
     1
1070
   271
1070
     0
1070
   279
1070
     0
1070
   288
1070
     1
1002
}
  0
DIMENSION
  5
84DF
330
19
100
AcDbEntity
  8
3
100
AcDbDimension
280
     0
  2
*D15
 10
791.1044471972331
 20
614.9281636554978
 30
0.0
 11
576.1044471972332
 21
639.9281636554978
 31
0.0
 70
    32
 71
     5
 42
430.0
 73
     0
 74
     0
 75
     0
  3
IGA
100
AcDbAlignedDimension
 13
361.1044471972332
 23
681.952142837029
 33
0.0
 14
791.1044471972331
 24
681.9961724527679
 34
0.0
100
AcDbRotatedDimension
1001
ACAD
1000
DSTYLE
1002
{
1070
    40
1040
10.0
1070
   143
1040
0.039
1070
   172
1070
     1
1070
   271
1070
     0
1070
   279
1070
     0
1002
}
  0
DIMENSION
  5
84EC
330
19
100
AcDbEntity
  8
3
100
AcDbDimension
280
     0
  2
*D16
 10
941.1044471972328
 20
614.9281636554978
 30
0.0
 11
866.104447197233
 21
639.9281636554978
 31
0.0
 70
    32
 71
     5
 42
149.9999999999995
 73
     0
 74
     0
 75
     0
  3
IGA
100
AcDbAlignedDimension
 13
791.1044471972331
 23
681.9961724527679
 33
0.0
 14
941.1044471972328
 24
681.9521428370285
 34
0.0
100
AcDbRotatedDimension
1001
ACAD
1000
DSTYLE
1002
{
1070
    40
1040
10.0
1070
   143
1040
0.039
1070
   172
1070
     1
1070
   271
1070
     0
1070
   279
1070
     0
1002
}
  0
DIMENSION
  5
84F9
330
19
100
AcDbEntity
  8
3
100
AcDbDimension
280
     0
  2
*D17
 10
1661.223171828323
 20
614.9281636554978
 30
0.0
 11
1471.223171828322
 21
639.9281636554978
 31
0.0
 70
    32
 71
     5
 42
380.0000000000005
 73
     0
 74
     0
 75
     0
  3
IGA
100
AcDbAlignedDimension
 13
1281.223171828322
 23
681.9461777509095
 33
0.0
 14
1661.223171828323
 24
681.9461777509095
 34
0.0
100
AcDbRotatedDimension
1001
ACAD
1000
DSTYLE
1002
{
1070
    40
1040
10.0
1070
   143
1040
0.039
1070
   172
1070
     1
1070
   271
1070
     0
1070
   279
1070
     0
1002
}
  0
DIMENSION
  5
8508
330
19
100
AcDbEntity
  8
3
100
AcDbDimension
280
     0
  2
*D18
 10
1686.223171828322
 20
614.9281636554978
 30
0.0
 11
1760.508886114036
 21
639.9281636554978
 31
0.0
 70
    32
 71
     5
 42
24.99999999999909
 73
     0
 74
     0
 75
     0
  3
IGA
100
AcDbAlignedDimension
 13
1661.223171828323
 23
681.9461777509095
 33
0.0
 14
1686.223171828322
 24
681.9461777509095
 34
0.0
100
AcDbRotatedDimension
1001
ACAD
1000
DSTYLE
1002
{
1070
    40
1040
10.0
1070
   143
1040
0.039
1070
   172
1070
     1
1070
   271
1070
     0
1070
   279
1070
     0
1002
}
  0
LINE
  5
851F
330
19
100
AcDbEntity
  8
1
100
AcDbLine
 10
1661.223171828323
 20
681.9461777509095
 30
0.0
 11
1661.223171828322
 21
721.9461777509093
 31
0.0
  0
LINE
  5
8520
330
19
100
AcDbEntity
  8
1
100
AcDbLine
 10
1281.223171828322
 20
681.9461777509095
 30
0.0
 11
1661.223171828323
 21
681.9461777509095
 31
0.0
  0
LINE
  5
8521
330
19
100
AcDbEntity
  8
1
100
AcDbLine
 10
1281.223171828322
 20
721.9461777509097
 30
0.0
 11
1661.223171828322
 21
721.9461777509094
 31
0.0
  0
LINE
  5
8522
330
19
100
AcDbEntity
  8
1
100
AcDbLine
 10
1523.923171828323
 20
721.9461777509096
 30
0.0
 11
1323.923171828323
 21
721.9461777509096
 31
0.0
  0
LINE
  5
8523
330
19
100
AcDbEntity
  8
1
100
AcDbLine
 10
1281.223171828322
 20
681.9461777509095
 30
0.0
 11
1281.223171828322
 21
721.9461777509096
 31
0.0
  0
LINE
  5
8524
330
19
100
AcDbEntity
  8
1
100
AcDbLine
 10
941.1044471972328
 20
721.9961724527679
 30
0.0
 11
941.1044471972328
 21
681.9521428370285
 31
0.0
  0
LINE
  5
8525
330
19
100
AcDbEntity
  8
1
100
AcDbLine
 10
941.1044471972322
 20
721.9961724527681
 30
0.0
 11
361.1044471972332
 21
721.9961724527681
 31
0.0
  0
LINE
  5
8526
330
19
100
AcDbEntity
  8
1
100
AcDbLine
 10
941.1044471972328
 20
681.9961724527679
 30
0.0
 11
361.1044471972332
 21
681.9961724527679
 31
0.0
  0
LINE
  5
8527
330
19
100
AcDbEntity
  8
1
100
AcDbLine
 10
361.1044471972332
 20
721.9961724527681
 30
0.0
 11
361.1044471972332
 21
681.952142837029
 31
0.0
  0
DIMENSION
  5
8537
330
19
100
AcDbEntity
  8
3
100
AcDbDimension
280
     0
  2
*D19
 10
1061.347417240515
 20
681.9961724527679
 30
0.0
 11
1036.347417240514
 21
607.7104581670538
 31
0.0
 70
    32
 71
     5
 42
40.0
 73
     0
 74
     0
 75
     0
  3
IGA
100
AcDbAlignedDimension
 13
941.1044471972328
 23
721.9961724527679
 33
0.0
 14
941.1044471972328
 24
681.9961724527679
 34
0.0
 50
90.0
100
AcDbRotatedDimension
1001
ACAD
1000
DSTYLE
1002
{
1070
    40
1040
10.0
1070
   143
1040
0.039
1070
   172
1070
     1
1070
   271
1070
     0
1070
   279
1070
     0
1070
   343
1005
8383
1002
}
  0
DIMENSION
  5
8562
330
19
100
AcDbEntity
  8
3
100
AcDbDimension
280
     0
  2
*D20
 10
1060.945793572369
 20
791.9521428370285
 30
0.0
 11
1104.128025614551
 21
754.2563311071244
 31
0.0
 70
   160
 71
     5
 42
69.95597038426047
 73
     0
 74
     0
 75
     0
  3
IGA
100
AcDbAlignedDimension
 13
941.1044471972322
 23
721.9961724527681
 33
0.0
 14
941.1044471972328
 24
791.9521428370285
 34
0.0
 50
90.0
100
AcDbRotatedDimension
1001
ACAD
1000
DSTYLE
1002
{
1070
     3
1000
(<>)
1070
    40
1040
10.0
1070
   143
1040
0.039
1070
   172
1070
     1
1070
   271
1070
     0
1070
   343
1005
8383
1002
}
  0
DIMENSION
  5
856F
330
19
100
AcDbEntity
  8
3
100
AcDbDimension
280
     0
  2
*D21
 10
1141.753770272276
 20
681.9961724527679
 30
0.0
 11
1108.896627415133
 21
935.1460179555548
 31
0.0
 70
    32
 71
     5
 42
506.2996910055735
 73
     0
 74
     0
 75
     0
  3
IGA
100
AcDbAlignedDimension
 13
951.1044471972331
 23
1188.295863458341
 33
0.0
 14
941.1044471972328
 24
681.9961724527679
 34
0.0
 50
90.0
100
AcDbRotatedDimension
1001
ACAD
1000
DSTYLE
1002
{
1070
   172
1070
     1
1070
    40
1040
10.0
1070
     3
1000
(<>)
1070
   271
1070
     0
1070
   143
1040
0.039
1002
}
  0
ENDSEC
  0
SECTION
  2
OBJECTS
  0
DICTIONARY
  5
C
330
0
100
AcDbDictionary
281
     1
  3
ACAD_CIP_PREVIOUS_PRODUCT_INFO
350
85D2
  3
ACAD_COLOR
350
85B5
  3
ACAD_DETAILVIEWSTYLE
350
85CE
  3
ACAD_GROUP
350
D
  3
ACAD_LAYOUT
350
8574
  3
ACAD_MATERIAL
350
8583
  3
ACAD_MLEADERSTYLE
350
85CA
  3
ACAD_MLINESTYLE
350
E
  3
ACAD_PLOTSETTINGS
350
8575
  3
ACAD_PLOTSTYLENAME
350
8572
  3
ACAD_SCALELIST
350
85B8
  3
ACAD_SECTIONVIEWSTYLE
350
85CC
  3
ACAD_TABLESTYLE
350
85B6
  3
ACAD_VISUALSTYLE
350
859C
  3
ACDB_RECOMPOSE_DATA
350
8684
  3
AcDbVariableDictionary
350
863B
  0
DICTIONARY
  5
862F
330
2
100
AcDbDictionary
280
     1
281
     1
  3
ACAD_LAYERSTATES
360
8630
  0
DICTIONARY
  5
8622
330
F
100
AcDbDictionary
280
     1
281
     1
  3
ADSK_XREC_LAYER_RECONCILED
360
8623
  0
DICTIONARY
  5
8624
330
31
100
AcDbDictionary
280
     1
281
     1
  3
ADSK_XREC_LAYER_RECONCILED
360
8625
  0
DICTIONARY
  5
8626
330
76D0
100
AcDbDictionary
280
     1
281
     1
  3
ADSK_XREC_LAYER_RECONCILED
360
8627
  0
DICTIONARY
  5
8628
330
76D1
100
AcDbDictionary
280
     1
281
     1
  3
ADSK_XREC_LAYER_RECONCILED
360
8629
  0
DICTIONARY
  5
862A
330
76D2
100
AcDbDictionary
280
     1
281
     1
  3
ADSK_XREC_LAYER_RECONCILED
360
862B
  0
DICTIONARY
  5
85D4
330
19
100
AcDbDictionary
280
     1
281
     1
  3
ACAD_SORTENTS
360
85D5
  0
XRECORD
  5
85D2
102
{ACAD_REACTORS
330
C
102
}
330
C
100
AcDbXrecord
280
     1
300
ACDLT
300
2015
300
INVLTS_F_S
  0
DICTIONARY
  5
85B5
102
{ACAD_REACTORS
330
C
102
}
330
C
100
AcDbDictionary
281
     1
  0
DICTIONARY
  5
85CE
102
{ACAD_REACTORS
330
C
102
}
330
C
100
AcDbDictionary
281
     1
  3
Metric50
350
85CF
  0
DICTIONARY
  5
D
102
{ACAD_REACTORS
330
C
102
}
330
C
100
AcDbDictionary
281
     1
  0
DICTIONARY
  5
8574
102
{ACAD_REACTORS
330
C
102
}
330
C
100
AcDbDictionary
281
     1
  3
Model
350
8576
  3
ﾚｲｱｳﾄ1
350
8577
  0
DICTIONARY
  5
8583
102
{ACAD_REACTORS
330
C
102
}
330
C
100
AcDbDictionary
281
     1
  3
ByBlock
350
858C
  3
ByLayer
350
8584
  3
Global
350
8594
  0
DICTIONARY
  5
85CA
102
{ACAD_REACTORS
330
C
102
}
330
C
100
AcDbDictionary
281
     1
  3
Standard
350
85CB
  0
DICTIONARY
  5
E
102
{ACAD_REACTORS
330
C
102
}
330
C
100
AcDbDictionary
281
     1
  3
STANDARD
350
1C
  0
DICTIONARY
  5
8575
102
{ACAD_REACTORS
330
C
102
}
330
C
100
AcDbDictionary
281
     1
  0
ACDBDICTIONARYWDFLT
  5
8572
102
{ACAD_REACTORS
330
C
102
}
330
C
100
AcDbDictionary
281
     1
  3
Normal
350
8573
100
AcDbDictionaryWithDefault
340
8573
  0
DICTIONARY
  5
85B8
102
{ACAD_REACTORS
330
C
102
}
330
C
100
AcDbDictionary
281
     1
  3
A0
350
85B9
  3
A1
350
85BA
  3
A2
350
85BB
  3
A3
350
85BC
  3
A4
350
85BD
  3
A5
350
85BE
  3
A6
350
85BF
  3
A7
350
85C0
  3
A8
350
85C1
  3
A9
350
85C2
  3
B0
350
85C3
  3
B1
350
85C4
  3
B2
350
85C5
  3
B3
350
85C6
  3
B4
350
85C7
  3
B5
350
85C8
  3
B6
350
85C9
  0
DICTIONARY
  5
85CC
102
{ACAD_REACTORS
330
C
102
}
330
C
100
AcDbDictionary
281
     1
  3
Metric50
350
85CD
  0
DICTIONARY
  5
85B6
102
{ACAD_REACTORS
330
C
102
}
330
C
100
AcDbDictionary
281
     1
  3
Standard
350
85B7
  0
DICTIONARY
  5
859C
102
{ACAD_REACTORS
330
C
102
}
330
C
100
AcDbDictionary
281
     1
  3
2dWireframe
350
85A2
  3
Basic
350
85A1
  3
Brighten
350
85A8
  3
ColorChange
350
85AC
  3
Conceptual
350
85A5
  3
Dim
350
85A7
  3
EdgeColorOff
350
85B4
  3
Facepattern
350
85AB
  3
Flat
350
859D
  3
FlatWithEdges
350
859E
  3
Gouraud
350
859F
  3
GouraudWithEdges
350
85A0
  3
Hidden
350
85A4
  3
JitterOff
350
85B2
  3
Linepattern
350
85AA
  3
OverhangOff
350
85B3
  3
Realistic
350
85A6
  3
Shaded
350
85B1
  3
Shaded with edges
350
85B0
  3
Shades of Gray
350
85AD
  3
Sketchy
350
85AE
  3
Thicken
350
85A9
  3
Wireframe
350
85A3
  3
X-Ray
350
85AF
  0
XRECORD
  5
8684
102
{ACAD_REACTORS
330
C
102
}
330
C
100
AcDbXrecord
280
     1
 90
        1
330
85B7
330
85CD
330
85CF
  0
DICTIONARY
  5
863B
102
{ACAD_REACTORS
330
C
102
}
330
C
100
AcDbDictionary
281
     1
  3
CANNOSCALE
350
8641
  3
CMLEADERSTYLE
350
863D
  3
CTABLESTYLE
350
863C
  3
CVIEWDETAILSTYLE
350
863E
  3
CVIEWSECTIONSTYLE
350
863F
  3
LAYEREVAL
350
8643
  3
LAYERNOTIFY
350
8644
  3
LIGHTINGUNITS
350
8642
  3
MSLTSCALE
350
8640
  0
DICTIONARY
  5
8630
102
{ACAD_REACTORS
330
862F
102
}
330
862F
100
AcDbDictionary
281
     1
  0
XRECORD
  5
8623
102
{ACAD_REACTORS
330
8622
102
}
330
8622
100
AcDbXrecord
280
     1
290
     1
  0
XRECORD
  5
8625
102
{ACAD_REACTORS
330
8624
102
}
330
8624
100
AcDbXrecord
280
     1
290
     1
  0
XRECORD
  5
8627
102
{ACAD_REACTORS
330
8626
102
}
330
8626
100
AcDbXrecord
280
     1
290
     1
  0
XRECORD
  5
8629
102
{ACAD_REACTORS
330
8628
102
}
330
8628
100
AcDbXrecord
280
     1
290
     1
  0
XRECORD
  5
862B
102
{ACAD_REACTORS
330
862A
102
}
330
862A
100
AcDbXrecord
280
     1
290
     1
  0
SORTENTSTABLE
  5
85D5
102
{ACAD_REACTORS
330
85D4
102
}
330
85D4
100
AcDbSortentsTable
330
19
331
7C2F
  5
7C2F
331
7C2B
  5
7C2B
331
7CEC
  5
7CED
331
7C6E
  5
7C6E
331
7CE8
  5
7CE9
331
7C6A
  5
7C6A
331
7CAD
  5
7CAE
331
7CE4
  5
7CE7
331
7CA9
  5
7CAA
331
7C27
  5
7C27
331
7C23
  5
7C23
331
7C1F
  5
7C1F
331
7C1B
  5
7C1B
331
7CDC
  5
7CDD
331
7CA5
  5
7CA6
331
7C5E
  5
7C5E
331
7CD8
  5
7CD9
331
7C5A
  5
7C5A
331
83DB
  5
844A
331
7C9D
  5
7C9E
331
7C56
  5
7C56
331
7CD4
  5
7CD5
331
8350
  5
8351
331
7CD0
  5
7CD1
331
834C
  5
834D
331
8348
  5
8349
331
8525
  5
8526
331
8521
  5
8522
331
7C17
  5
7C17
331
7C13
  5
7C13
331
7C0F
  5
7C0F
331
7C0B
  5
7C0B
331
7C4E
  5
7C4E
331
7CCC
  5
7CCD
331
7C89
  5
7C89
331
7C4A
  5
7C4A
331
8344
  5
8345
331
7C46
  5
7C46
331
7CC4
  5
7CC5
331
7C81
  5
7C81
331
7C42
  5
7C42
331
7CC0
  5
7CC1
331
833C
  5
833D
331
7C07
  5
7C07
331
7CBC
  5
7CBD
331
7C3E
  5
7C3E
331
7C7D
  5
7C7D
331
7CB8
  5
7CB9
331
7C79
  5
7C79
331
7C3A
  5
7C3A
331
7CB4
  5
7CB5
331
7C75
  5
7C75
331
7C36
  5
7C36
331
7CF3
  5
7CF4
331
7C71
  5
7C71
331
7C32
  5
7C32
331
7CB0
  5
7CB1
331
8462
  5
846F
331
84F9
  5
8508
331
7CEF
  5
7CF0
331
7C2A
  5
7C2A
331
7CEB
  5
7CEC
331
7C6D
  5
7C6D
331
7CE7
  5
7CE8
331
7CAC
  5
7CAD
331
7CE3
  5
7CE4
331
7C61
  5
7C61
331
7CA8
  5
7CA9
331
844A
  5
8462
331
7C26
  5
7C26
331
7C22
  5
7C22
331
7C1E
  5
7C1E
331
7C1A
  5
7C1A
331
7CDB
  5
7CDC
331
7CA4
  5
7CA5
331
7C5D
  5
7C5D
331
7CD7
  5
7CD8
331
7C59
  5
7C59
331
8353
  5
83D5
331
83DA
  5
83DB
331
7C9C
  5
7C9D
331
7C55
  5
7C55
331
7CD3
  5
7CD4
331
834F
  5
8350
331
834B
  5
834C
331
8524
  5
8525
331
8520
  5
8521
331
7C16
  5
7C16
331
7C12
  5
7C12
331
7C0E
  5
7C0E
331
7CCF
  5
7CD0
331
7C0A
  5
7C0A
331
7CCB
  5
7CCC
331
7C8C
  5
7C8F
331
7C4D
  5
7C4D
331
8347
  5
8348
331
7C49
  5
7C49
331
8343
  5
8344
331
7C84
  5
7C84
331
7C45
  5
7C45
331
7CC3
  5
7CC4
331
833F
  5
8341
331
7C41
  5
7C41
331
7C80
  5
7C80
331
833B
  5
833C
331
856F
  5
85D3
331
8508
  5
851F
331
7C06
  5
7C06
331
7CBF
  5
7CC0
331
7CBB
  5
7CBC
331
7C3D
  5
7C3D
331
7C7C
  5
7C7C
331
8337
  5
833A
331
7CB7
  5
7CB8
331
7C78
  5
7C78
331
7C39
  5
7C39
331
7CF2
  5
7CF3
331
7C74
  5
7C74
331
7C35
  5
7C35
331
7CB3
  5
7CB4
331
7C70
  5
7C70
331
7C31
  5
7C31
331
7C2D
  5
7C2D
331
7CEE
  5
7CEF
331
7C29
  5
7C29
331
7CEA
  5
7CEB
331
7C6C
  5
7C6C
331
7CAF
  5
7CB0
331
7C68
  5
7C68
331
7CAB
  5
7CAC
331
7C64
  5
7C64
331
84EC
  5
84F9
331
7C60
  5
7C60
331
8537
  5
8562
331
7C25
  5
7C25
331
7C21
  5
7C21
331
7C1D
  5
7C1D
331
7CA7
  5
7CA8
331
7C19
  5
7C19
331
7CDA
  5
7CDB
331
7CD6
  5
7CD7
331
7C9F
  5
7CA4
331
7C58
  5
7C58
331
8352
  5
8353
331
7C54
  5
7C54
331
83D5
  5
83DA
331
834E
  5
834F
331
834A
  5
834B
331
8527
  5
8537
331
8523
  5
8524
331
7C15
  5
7C15
331
7C11
  5
7C11
331
7C0D
  5
7C0D
331
7CCE
  5
7CCF
331
7C8F
  5
7C9C
331
7C09
  5
7C09
331
7CCA
  5
7CCB
331
7C8B
  5
7C8B
331
7C4C
  5
7C4C
331
8346
  5
8347
331
7CC6
  5
7CC9
331
7C48
  5
7C48
331
8342
  5
8343
331
851F
  5
8520
331
7C83
  5
7C83
331
7C44
  5
7C44
331
833E
  5
833F
331
847C
  5
84DF
331
7C40
  5
7C40
331
833A
  5
833B
331
7CBE
  5
7CBF
331
7C7F
  5
7C7F
331
7CBA
  5
7CBB
331
7C7B
  5
7C7B
331
7C3C
  5
7C3C
331
8336
  5
8337
331
7CB6
  5
7CB7
331
7C77
  5
7C77
331
7C38
  5
7C38
331
7CF1
  5
7CF2
331
7C73
  5
7C73
331
7C34
  5
7C34
331
7CB2
  5
7CB3
331
8562
  5
856F
331
7C30
  5
7C30
331
7C2C
  5
7C2C
331
7CED
  5
7CEE
331
7C6F
  5
7C6F
331
7C28
  5
7C28
331
7CE9
  5
7CEA
331
7C6B
  5
7C6B
331
7CAE
  5
7CAF
331
7C67
  5
7C67
331
7C63
  5
7C63
331
7CAA
  5
7CAB
331
7C24
  5
7C24
331
7C20
  5
7C20
331
7C1C
  5
7C1C
331
7CDD
  5
7CE3
331
7C5F
  5
7C5F
331
7CA6
  5
7CA7
331
7C18
  5
7C18
331
7CD9
  5
7CDA
331
7C9E
  5
7C9F
331
7C57
  5
7C57
331
7CD5
  5
7CD6
331
8351
  5
8352
331
84DF
  5
84EC
331
7C53
  5
7C53
331
7CD1
  5
7CD3
331
834D
  5
834E
331
8349
  5
834A
331
8526
  5
8527
331
8522
  5
8523
331
7C14
  5
7C14
331
7C10
  5
7C10
331
7C0C
  5
7C0C
331
7CCD
  5
7CCE
331
7CC9
  5
7CCA
331
7C8A
  5
7C8A
331
7C4B
  5
7C4B
331
8345
  5
8346
331
7CC5
  5
7CC6
331
7C47
  5
7C47
331
8341
  5
8342
331
7C82
  5
7C82
331
7C43
  5
7C43
331
7CC1
  5
7CC3
331
833D
  5
833E
331
7CBD
  5
7CBE
331
7C3F
  5
7C3F
331
7C7E
  5
7C7E
331
7CB9
  5
7CBA
331
7C7A
  5
7C7A
331
7C3B
  5
7C3B
331
8335
  5
8336
331
7CB5
  5
7CB6
331
7C76
  5
7C76
331
7C37
  5
7C37
331
7CF4
  5
8335
331
846F
  5
847C
331
7CF0
  5
7CF1
331
7C33
  5
7C33
331
7CB1
  5
7CB2
  0
ACDBDETAILVIEWSTYLE
  5
85CF
102
{ACAD_XDICTIONARY
360
8638
102
}
102
{ACAD_REACTORS
330
85CE
102
}
330
85CE
100
AcDbModelDocViewStyle
 70
     0
  3
Metric50
290
     0
100
AcDbDetailViewStyle
 70
     0
 71
     0
 90
        3
 71
     1
340
10
 62
   256
 40
5.0
340
0
 62
   256
 40
5.0
300

 40
0.0
280
     1
 71
     2
340
15
 90
       25
 62
   256
 71
     3
340
10
 62
   256
 40
5.0
 90
        0
 40
15.0
 90
        1
300
%<\AcVar ViewDetailId>% (%<\AcVar ViewScale \f "%sn">%)
 71
     4
340
15
 90
       25
 62
   256
340
15
 90
       25
 62
   256
280
     0
  0
LAYOUT
  5
8576
102
{ACAD_REACTORS
330
8574
102
}
330
8574
100
AcDbPlotSettings
  1

  2
EPSON LP-9300
  4

  6

 40
0.0
 41
0.0
 42
0.0
 43
0.0
 44
0.0
 45
0.0
 46
0.0
 47
0.0
 48
0.0
 49
0.0
140
0.0
141
0.0
142
1.0
143
1.0
 70
  1712
 72
     0
 73
     0
 74
     0
  7

 75
     0
147
1.0
 76
     0
 77
     2
 78
   300
148
0.0
149
0.0
100
AcDbLayout
  1
Model
 70
     1
 71
     0
 10
0.0
 20
0.0
 11
12.0
 21
9.0
 12
0.0
 22
0.0
 32
0.0
 14
0.0
 24
0.0
 34
0.0
 15
0.0
 25
0.0
 35
0.0
146
0.0
 13
0.0
 23
0.0
 33
0.0
 16
1.0
 26
0.0
 36
0.0
 17
0.0
 27
1.0
 37
0.0
 76
     0
330
19
331
8581
  0
LAYOUT
  5
8577
102
{ACAD_REACTORS
330
8574
102
}
330
8574
100
AcDbPlotSettings
  1

  2
EPSON LP-9300
  4

  6

 40
0.0
 41
0.0
 42
0.0
 43
0.0
 44
0.0
 45
0.0
 46
0.0
 47
0.0
 48
0.0
 49
0.0
140
0.0
141
0.0
142
1.0
143
1.0
 70
   688
 72
     0
 73
     0
 74
     5
  7

 75
    16
147
1.0
 76
     0
 77
     2
 78
   300
148
0.0
149
0.0
100
AcDbLayout
  1
ﾚｲｱｳﾄ1
 70
     1
 71
     1
 10
0.0
 20
0.0
 11
12.0
 21
9.0
 12
0.0
 22
0.0
 32
0.0
 14
1.000000000000000E+20
 24
1.000000000000000E+20
 34
1.000000000000000E+20
 15
-1.000000000000000E+20
 25
-1.000000000000000E+20
 35
-1.000000000000000E+20
146
0.0
 13
0.0
 23
0.0
 33
0.0
 16
1.0
 26
0.0
 36
0.0
 17
0.0
 27
1.0
 37
0.0
 76
     0
330
16
  0
MATERIAL
  5
858C
102
{ACAD_XDICTIONARY
360
858D
102
}
102
{ACAD_REACTORS
330
8583
102
}
330
8583
100
AcDbMaterial
  1
ByBlock
 72
     0
 43
0.0208333333333333
 43
0.0
 43
0.0
 43
0.0
 43
0.0
 43
0.0208333333333333
 43
0.0
 43
0.0
 43
0.0
 43
0.0
 43
1.0
 43
0.0
 43
0.0
 43
0.0
 43
0.0
 43
1.0
 77
     0
 47
0.0208333333333333
 47
0.0
 47
0.0
 47
0.0
 47
0.0
 47
0.0208333333333333
 47
0.0
 47
0.0
 47
0.0
 47
0.0
 47
1.0
 47
0.0
 47
0.0
 47
0.0
 47
0.0
 47
1.0
171
     0
 49
0.0208333333333333
 49
0.0
 49
0.0
 49
0.0
 49
0.0
 49
0.0208333333333333
 49
0.0
 49
0.0
 49
0.0
 49
0.0
 49
1.0
 49
0.0
 49
0.0
 49
0.0
 49
0.0
 49
1.0
175
     0
142
0.0208333333333333
142
0.0
142
0.0
142
0.0
142
0.0
142
0.0208333333333333
142
0.0
142
0.0
142
0.0
142
0.0
142
1.0
142
0.0
142
0.0
142
0.0
142
0.0
142
1.0
179
     0
144
0.0208333333333333
144
0.0
144
0.0
144
0.0
144
0.0
144
0.0208333333333333
144
0.0
144
0.0
144
0.0
144
0.0
144
1.0
144
0.0
144
0.0
144
0.0
144
0.0
144
1.0
147
0.0208333333333333
147
0.0
147
0.0
147
0.0
147
0.0
147
0.0208333333333333
147
0.0
147
0.0
147
0.0
147
0.0
147
1.0
147
0.0
147
0.0
147
0.0
147
0.0
147
1.0
  0
MATERIAL
  5
8584
102
{ACAD_XDICTIONARY
360
8585
102
}
102
{ACAD_REACTORS
330
8583
102
}
330
8583
100
AcDbMaterial
  1
ByLayer
 72
     0
 43
0.0208333333333333
 43
0.0
 43
0.0
 43
0.0
 43
0.0
 43
0.0208333333333333
 43
0.0
 43
0.0
 43
0.0
 43
0.0
 43
1.0
 43
0.0
 43
0.0
 43
0.0
 43
0.0
 43
1.0
 77
     0
 47
0.0208333333333333
 47
0.0
 47
0.0
 47
0.0
 47
0.0
 47
0.0208333333333333
 47
0.0
 47
0.0
 47
0.0
 47
0.0
 47
1.0
 47
0.0
 47
0.0
 47
0.0
 47
0.0
 47
1.0
171
     0
 49
0.0208333333333333
 49
0.0
 49
0.0
 49
0.0
 49
0.0
 49
0.0208333333333333
 49
0.0
 49
0.0
 49
0.0
 49
0.0
 49
1.0
 49
0.0
 49
0.0
 49
0.0
 49
0.0
 49
1.0
175
     0
142
0.0208333333333333
142
0.0
142
0.0
142
0.0
142
0.0
142
0.0208333333333333
142
0.0
142
0.0
142
0.0
142
0.0
142
1.0
142
0.0
142
0.0
142
0.0
142
0.0
142
1.0
179
     0
144
0.0208333333333333
144
0.0
144
0.0
144
0.0
144
0.0
144
0.0208333333333333
144
0.0
144
0.0
144
0.0
144
0.0
144
1.0
144
0.0
144
0.0
144
0.0
144
0.0
144
1.0
147
0.0208333333333333
147
0.0
147
0.0
147
0.0
147
0.0
147
0.0208333333333333
147
0.0
147
0.0
147
0.0
147
0.0
147
1.0
147
0.0
147
0.0
147
0.0
147
0.0
147
1.0
  0
MATERIAL
  5
8594
102
{ACAD_XDICTIONARY
360
8595
102
}
102
{ACAD_REACTORS
330
8583
102
}
330
8583
100
AcDbMaterial
  1
Global
 72
     0
 43
0.0208333333333333
 43
0.0
 43
0.0
 43
0.0
 43
0.0
 43
0.0208333333333333
 43
0.0
 43
0.0
 43
0.0
 43
0.0
 43
1.0
 43
0.0
 43
0.0
 43
0.0
 43
0.0
 43
1.0
 77
     0
 47
0.0208333333333333
 47
0.0
 47
0.0
 47
0.0
 47
0.0
 47
0.0208333333333333
 47
0.0
 47
0.0
 47
0.0
 47
0.0
 47
1.0
 47
0.0
 47
0.0
 47
0.0
 47
0.0
 47
1.0
171
     0
 49
0.0208333333333333
 49
0.0
 49
0.0
 49
0.0
 49
0.0
 49
0.0208333333333333
 49
0.0
 49
0.0
 49
0.0
 49
0.0
 49
1.0
 49
0.0
 49
0.0
 49
0.0
 49
0.0
 49
1.0
175
     0
142
0.0208333333333333
142
0.0
142
0.0
142
0.0
142
0.0
142
0.0208333333333333
142
0.0
142
0.0
142
0.0
142
0.0
142
1.0
142
0.0
142
0.0
142
0.0
142
0.0
142
1.0
179
     0
144
0.0208333333333333
144
0.0
144
0.0
144
0.0
144
0.0
144
0.0208333333333333
144
0.0
144
0.0
144
0.0
144
0.0
144
1.0
144
0.0
144
0.0
144
0.0
144
0.0
144
1.0
147
0.0208333333333333
147
0.0
147
0.0
147
0.0
147
0.0
147
0.0208333333333333
147
0.0
147
0.0
147
0.0
147
0.0
147
1.0
147
0.0
147
0.0
147
0.0
147
0.0
147
1.0
  0
MLEADERSTYLE
  5
85CB
102
{ACAD_REACTORS
330
85CA
102
}
330
85CA
100
AcDbMLeaderStyle
179
     2
170
     2
171
     1
172
     0
 90
        2
 40
0.0
 41
0.0
173
     1
 91
-1056964608
340
13
 92
       -2
290
     1
 42
2.0
291
     1
 43
0.36
  3
Standard
 44
4.0
300

342
10
174
     1
178
     6
175
     1
176
     0
 93
-1056964608
 45
4.0
292
     0
297
     0
 46
4.0
 94
-1056964608
 47
1.0
 49
1.0
140
1.0
293
     1
141
0.0
294
     1
177
     0
142
1.0
295
     1
296
     0
143
0.125
271
     0
272
     9
273
     9
298
     1
  0
MLINESTYLE
  5
1C
102
{ACAD_REACTORS
330
E
102
}
330
E
100
AcDbMlineStyle
  2
STANDARD
 70
     0
  3

 62
     0
 51
90.0
 52
90.0
 71
     2
 49
0.5
 62
   256
  6
BYLAYER
 49
-0.5
 62
   256
  6
BYLAYER
  0
ACDBPLACEHOLDER
  5
8573
102
{ACAD_REACTORS
330
8572
102
}
330
8572
  0
SCALE
  5
85B9
102
{ACAD_REACTORS
330
85B8
102
}
330
85B8
100
AcDbScale
 70
     0
300
1:1
140
1.0
141
1.0
290
     1
  0
SCALE
  5
85BA
102
{ACAD_REACTORS
330
85B8
102
}
330
85B8
100
AcDbScale
 70
     0
300
1:2
140
1.0
141
2.0
290
     0
  0
SCALE
  5
85BB
102
{ACAD_REACTORS
330
85B8
102
}
330
85B8
100
AcDbScale
 70
     0
300
1:4
140
1.0
141
4.0
290
     0
  0
SCALE
  5
85BC
102
{ACAD_REACTORS
330
85B8
102
}
330
85B8
100
AcDbScale
 70
     0
300
1:5
140
1.0
141
5.0
290
     0
  0
SCALE
  5
85BD
102
{ACAD_REACTORS
330
85B8
102
}
330
85B8
100
AcDbScale
 70
     0
300
1:8
140
1.0
141
8.0
290
     0
  0
SCALE
  5
85BE
102
{ACAD_REACTORS
330
85B8
102
}
330
85B8
100
AcDbScale
 70
     0
300
1:10
140
1.0
141
10.0
290
     0
  0
SCALE
  5
85BF
102
{ACAD_REACTORS
330
85B8
102
}
330
85B8
100
AcDbScale
 70
     0
300
1:16
140
1.0
141
16.0
290
     0
  0
SCALE
  5
85C0
102
{ACAD_REACTORS
330
85B8
102
}
330
85B8
100
AcDbScale
 70
     0
300
1:20
140
1.0
141
20.0
290
     0
  0
SCALE
  5
85C1
102
{ACAD_REACTORS
330
85B8
102
}
330
85B8
100
AcDbScale
 70
     0
300
1:30
140
1.0
141
30.0
290
     0
  0
SCALE
  5
85C2
102
{ACAD_REACTORS
330
85B8
102
}
330
85B8
100
AcDbScale
 70
     0
300
1:40
140
1.0
141
40.0
290
     0
  0
SCALE
  5
85C3
102
{ACAD_REACTORS
330
85B8
102
}
330
85B8
100
AcDbScale
 70
     0
300
1:50
140
1.0
141
50.0
290
     0
  0
SCALE
  5
85C4
102
{ACAD_REACTORS
330
85B8
102
}
330
85B8
100
AcDbScale
 70
     0
300
1:100
140
1.0
141
100.0
290
     0
  0
SCALE
  5
85C5
102
{ACAD_REACTORS
330
85B8
102
}
330
85B8
100
AcDbScale
 70
     0
300
2:1
140
2.0
141
1.0
290
     0
  0
SCALE
  5
85C6
102
{ACAD_REACTORS
330
85B8
102
}
330
85B8
100
AcDbScale
 70
     0
300
4:1
140
4.0
141
1.0
290
     0
  0
SCALE
  5
85C7
102
{ACAD_REACTORS
330
85B8
102
}
330
85B8
100
AcDbScale
 70
     0
300
8:1
140
8.0
141
1.0
290
     0
  0
SCALE
  5
85C8
102
{ACAD_REACTORS
330
85B8
102
}
330
85B8
100
AcDbScale
 70
     0
300
10:1
140
10.0
141
1.0
290
     0
  0
SCALE
  5
85C9
102
{ACAD_REACTORS
330
85B8
102
}
330
85B8
100
AcDbScale
 70
     0
300
100:1
140
100.0
141
1.0
290
     0
  0
ACDBSECTIONVIEWSTYLE
  5
85CD
102
{ACAD_XDICTIONARY
360
8636
102
}
102
{ACAD_REACTORS
330
85CC
102
}
330
85CC
100
AcDbModelDocViewStyle
 70
     0
  3
Metric50
290
     0
100
AcDbSectionViewStyle
 70
     0
 71
     0
 90
      102
 71
     1
340
10
 62
   256
 40
5.0
340
0
340
0
 62
   256
 40
5.0
300
I, O, Q, S, X, Z
 40
10.0
 90
        0
 40
2.5
 90
        0
 71
     2
340
15
 90
       25
 62
   256
340
15
 90
       50
 62
   256
 40
5.0
 40
2.5
 40
5.0
 71
     3
340
10
 62
   256
 40
5.0
 90
        0
 40
15.0
 90
        1
300
%<\AcVar ViewSectionStartId>%-%<\AcVar ViewSectionEndId>% (%<\AcVar ViewScale \f "%sn">%)
 71
     4
 62
   256
 62
   257
300
ANSI31
 40
1.0
 90
        0
290
     0
290
     0
 90
        6
 40
0.0
 40
1.570796326794896
 40
0.2617993877991494
 40
1.308996938995747
 40
-0.2617993877991494
 40
1.832595714594046
  0
TABLESTYLE
  5
85B7
102
{ACAD_XDICTIONARY
360
8680
102
}
102
{ACAD_REACTORS
330
85B6
102
}
330
85B6
100
AcDbTableStyle
280
     0
  3
Standard
 70
     0
 71
     0
 40
1.5
 41
1.5
280
     0
281
     0
  7
STANDARD
140
4.5
170
     2
 62
     0
 63
     7
283
     0
 90
      512
 91
        0
  1

274
    -2
284
     1
 64
     0
275
    -2
285
     1
 65
     0
276
    -2
286
     1
 66
     0
277
    -2
287
     1
 67
     0
278
    -2
288
     1
 68
     0
279
    -2
289
     1
 69
     0
  7
STANDARD
140
6.0
170
     5
 62
     0
 63
     7
283
     0
 90
      512
 91
        0
  1

274
    -2
284
     1
 64
     0
275
    -2
285
     1
 65
     0
276
    -2
286
     1
 66
     0
277
    -2
287
     1
 67
     0
278
    -2
288
     1
 68
     0
279
    -2
289
     1
 69
     0
  7
STANDARD
140
4.5
170
     5
 62
     0
 63
     7
283
     0
 90
      512
 91
        0
  1

274
    -2
284
     1
 64
     0
275
    -2
285
     1
 65
     0
276
    -2
286
     1
 66
     0
277
    -2
287
     1
 67
     0
278
    -2
288
     1
 68
     0
279
    -2
289
     1
 69
     0
  0
VISUALSTYLE
  5
85A2
102
{ACAD_REACTORS
330
859C
102
}
330
859C
100
AcDbVisualStyle
  2
2dWireframe
 70
     4
177
     3
291
     0
 70
    58
 90
        0
176
     1
 90
        2
176
     1
 90
        0
176
     1
 90
        0
176
     1
 40
0.6
176
     1
 40
30.0
176
     1
 62
     7
420
 16777215
176
     1
 90
        1
176
     1
 90
        4
176
     1
 62
     7
176
     1
 62
   257
176
     1
 90
        1
176
     1
 90
        1
176
     1
 40
1.0
176
     1
 90
        0
176
     1
 62
   257
176
     1
 40
1.0
176
     1
 90
        1
176
     1
 90
        6
176
     1
 90
        2
176
     1
 62
     7
176
     1
 90
        5
176
     1
 90
        0
176
     1
 90
        0
176
     1
290
     0
176
     1
 90
        1
176
     1
 40
0.0
176
     1
 90
        0
176
     1
290
     1
176
     1
290
     1
176
     1
290
     0
176
     1
290
     0
176
     1
290
     0
176
     1
290
     0
176
     1
290
     0
176
     1
290
     0
176
     1
290
     0
176
     1
 90
       50
176
     1
 40
0.0
176
     1
 40
1.0
176
     1
 90
        0
176
     1
 62
    18
420
        0
176
     1
 90
       50
176
     1
 90
        3
176
     1
 62
     5
420
      255
176
     1
290
     0
176
     1
 90
       50
176
     1
 90
       50
176
     1
 90
       50
176
     1
290
     0
176
     1
 90
       50
176
     1
 62
   256
176
     0
 40
1.0
176
     0
 90
        2
176
     1
  1
strokes_ogs.tif
176
     1
290
     0
176
     1
 40
1.0
176
     1
 40
1.0
176
     1
  0
VISUALSTYLE
  5
85A1
102
{ACAD_REACTORS
330
859C
102
}
330
859C
100
AcDbVisualStyle
  2
Basic
 70
     7
177
     3
291
     1
 70
    58
 90
        1
176
     1
 90
        0
176
     1
 90
        1
176
     1
 90
        0
176
     1
 40
0.6
176
     1
 40
30.0
176
     1
 62
     7
420
 16777215
176
     1
 90
        0
176
     1
 90
        4
176
     1
 62
     7
176
     1
 62
   257
176
     1
 90
        1
176
     1
 90
        1
176
     1
 40
1.0
176
     1
 90
        8
176
     1
 62
     7
176
     1
 40
1.0
176
     1
 90
        1
176
     1
 90
        6
176
     1
 90
        2
176
     1
 62
     7
176
     1
 90
        5
176
     1
 90
        0
176
     1
 90
        0
176
     1
290
     0
176
     1
 90
        1
176
     1
 40
0.0
176
     1
 90
        0
176
     1
290
     0
176
     1
290
     1
176
     1
290
     1
176
     1
290
     0
176
     1
290
     0
176
     1
290
     0
176
     1
290
     0
176
     1
290
     0
176
     1
290
     0
176
     1
 90
       50
176
     1
 40
0.0
176
     1
 40
1.0
176
     1
 90
        0
176
     1
 62
    18
420
        0
176
     1
 90
       50
176
     1
 90
        3
176
     1
 62
     5
420
      255
176
     1
290
     0
176
     1
 90
       50
176
     1
 90
       50
176
     1
 90
       50
176
     1
290
     0
176
     1
 90
       50
176
     1
 62
   256
176
     0
 40
1.0
176
     0
 90
        2
176
     1
  1
strokes_ogs.tif
176
     1
290
     0
176
     1
 40
1.0
176
     1
 40
1.0
176
     1
  0
VISUALSTYLE
  5
85A8
102
{ACAD_REACTORS
330
859C
102
}
330
859C
100
AcDbVisualStyle
  2
Brighten
 70
    12
177
     3
291
     1
 70
    58
 90
        2
176
     1
 90
        2
176
     1
 90
        0
176
     1
 90
        0
176
     1
 40
0.6
176
     1
 40
30.0
176
     1
 62
     7
420
 16777215
176
     1
 90
        1
176
     1
 90
        4
176
     1
 62
     7
176
     1
 62
   257
176
     1
 90
        1
176
     1
 90
        1
176
     1
 40
1.0
176
     1
 90
        8
176
     1
 62
     7
176
     1
 40
1.0
176
     1
 90
        1
176
     1
 90
        6
176
     1
 90
        2
176
     1
 62
     7
176
     1
 90
        5
176
     1
 90
        0
176
     1
 90
        0
176
     1
290
     0
176
     1
 90
        1
176
     1
 40
50.0
176
     1
 90
        0
176
     1
290
     0
176
     1
290
     1
176
     1
290
     1
176
     1
290
     0
176
     1
290
     0
176
     1
290
     0
176
     1
290
     0
176
     1
290
     0
176
     1
290
     0
176
     1
 90
       50
176
     1
 40
0.0
176
     1
 40
1.0
176
     1
 90
        0
176
     1
 62
    18
420
        0
176
     1
 90
       50
176
     1
 90
        3
176
     1
 62
     5
420
      255
176
     1
290
     0
176
     1
 90
       50
176
     1
 90
       50
176
     1
 90
       50
176
     1
290
     0
176
     1
 90
       50
176
     1
 62
   256
176
     0
 40
1.0
176
     0
 90
        2
176
     1
  1
strokes_ogs.tif
176
     1
290
     0
176
     1
 40
1.0
176
     1
 40
1.0
176
     1
  0
VISUALSTYLE
  5
85AC
102
{ACAD_REACTORS
330
859C
102
}
330
859C
100
AcDbVisualStyle
  2
ColorChange
 70
    16
177
     3
291
     1
 70
    58
 90
        2
176
     1
 90
        2
176
     1
 90
        3
176
     1
 90
        0
176
     1
 40
0.6
176
     1
 40
30.0
176
     1
 62
     8
420
  8421504
176
     1
 90
        1
176
     1
 90
        4
176
     1
 62
     7
176
     1
 62
   257
176
     1
 90
        1
176
     1
 90
        1
176
     1
 40
1.0
176
     1
 90
        8
176
     1
 62
     8
420
  8421504
176
     1
 40
1.0
176
     1
 90
        1
176
     1
 90
        6
176
     1
 90
        2
176
     1
 62
     7
176
     1
 90
        5
176
     1
 90
        0
176
     1
 90
        0
176
     1
290
     0
176
     1
 90
        1
176
     1
 40
0.0
176
     1
 90
        0
176
     1
290
     0
176
     1
290
     1
176
     1
290
     1
176
     1
290
     0
176
     1
290
     0
176
     1
290
     0
176
     1
290
     0
176
     1
290
     0
176
     1
290
     0
176
     1
 90
       50
176
     1
 40
0.0
176
     1
 40
1.0
176
     1
 90
        0
176
     1
 62
    18
420
        0
176
     1
 90
       50
176
     1
 90
        3
176
     1
 62
     5
420
      255
176
     1
290
     0
176
     1
 90
       50
176
     1
 90
       50
176
     1
 90
       50
176
     1
290
     0
176
     1
 90
       50
176
     1
 62
   256
176
     0
 40
1.0
176
     0
 90
        2
176
     1
  1
strokes_ogs.tif
176
     1
290
     0
176
     1
 40
1.0
176
     1
 40
1.0
176
     1
  0
VISUALSTYLE
  5
85A5
102
{ACAD_REACTORS
330
859C
102
}
330
859C
100
AcDbVisualStyle
  2
Conceptual
 70
     9
177
     3
291
     0
 70
    58
 90
        3
176
     1
 90
        2
176
     1
 90
        0
176
     1
 90
        0
176
     1
 40
0.6
176
     1
 40
30.0
176
     1
 62
     7
420
 16777215
176
     1
 90
        2
176
     1
 90
        2
176
     1
 62
     7
176
     1
 62
   257
176
     1
 90
        1
176
     1
 90
        1
176
     1
 40
179.0
176
     1
 90
        8
176
     1
 62
     7
176
     1
 40
1.0
176
     1
 90
        1
176
     1
 90
        6
176
     1
 90
        2
176
     1
 62
     7
176
     1
 90
        3
176
     1
 90
        0
176
     1
 90
        0
176
     1
290
     0
176
     1
 90
        1
176
     1
 40
0.0
176
     1
 90
        0
176
     1
290
     0
176
     1
290
     1
176
     1
290
     1
176
     1
290
     0
176
     1
290
     0
176
     1
290
     0
176
     1
290
     0
176
     1
290
     0
176
     1
290
     0
176
     1
 90
       50
176
     1
 40
0.0
176
     1
 40
1.0
176
     1
 90
        0
176
     1
 62
    18
420
        0
176
     1
 90
       50
176
     1
 90
        3
176
     1
 62
     5
420
      255
176
     1
290
     0
176
     1
 90
       50
176
     1
 90
       50
176
     1
 90
       50
176
     1
290
     0
176
     1
 90
       50
176
     1
 62
   256
176
     0
 40
1.0
176
     0
 90
        2
176
     1
  1
strokes_ogs.tif
176
     1
290
     0
176
     1
 40
1.0
176
     1
 40
1.0
176
     1
  0
VISUALSTYLE
  5
85A7
102
{ACAD_REACTORS
330
859C
102
}
330
859C
100
AcDbVisualStyle
  2
Dim
 70
    11
177
     3
291
     1
 70
    58
 90
        2
176
     1
 90
        2
176
     1
 90
        0
176
     1
 90
        0
176
     1
 40
0.6
176
     1
 40
30.0
176
     1
 62
     7
420
 16777215
176
     1
 90
        1
176
     1
 90
        4
176
     1
 62
     7
176
     1
 62
   257
176
     1
 90
        1
176
     1
 90
        1
176
     1
 40
1.0
176
     1
 90
        8
176
     1
 62
     7
176
     1
 40
1.0
176
     1
 90
        1
176
     1
 90
        6
176
     1
 90
        2
176
     1
 62
     7
176
     1
 90
        5
176
     1
 90
        0
176
     1
 90
        0
176
     1
290
     0
176
     1
 90
        1
176
     1
 40
-50.0
176
     1
 90
        0
176
     1
290
     0
176
     1
290
     1
176
     1
290
     1
176
     1
290
     0
176
     1
290
     0
176
     1
290
     0
176
     1
290
     0
176
     1
290
     0
176
     1
290
     0
176
     1
 90
       50
176
     1
 40
0.0
176
     1
 40
1.0
176
     1
 90
        0
176
     1
 62
    18
420
        0
176
     1
 90
       50
176
     1
 90
        3
176
     1
 62
     5
420
      255
176
     1
290
     0
176
     1
 90
       50
176
     1
 90
       50
176
     1
 90
       50
176
     1
290
     0
176
     1
 90
       50
176
     1
 62
   256
176
     0
 40
1.0
176
     0
 90
        2
176
     1
  1
strokes_ogs.tif
176
     1
290
     0
176
     1
 40
1.0
176
     1
 40
1.0
176
     1
  0
VISUALSTYLE
  5
85B4
102
{ACAD_REACTORS
330
859C
102
}
330
859C
100
AcDbVisualStyle
  2
EdgeColorOff
 70
    22
177
     3
291
     1
 70
    58
 90
        2
176
     0
 90
        2
176
     0
 90
        0
176
     0
 90
        0
176
     0
 40
0.6
176
     0
 40
30.0
176
     0
 62
     7
420
 16777215
176
     0
 90
        1
176
     0
 90
        4
176
     0
 62
     7
176
     0
 62
   257
176
     0
 90
        1
176
     0
 90
        1
176
     0
 40
1.0
176
     0
 90
        8
176
     2
 62
     7
176
     0
 40
1.0
176
     0
 90
        1
176
     0
 90
        6
176
     0
 90
        2
176
     0
 62
     7
176
     0
 90
        5
176
     0
 90
        0
176
     0
 90
        0
176
     0
290
     0
176
     0
 90
        1
176
     0
 40
0.0
176
     0
 90
        0
176
     0
290
     0
176
     0
290
     1
176
     0
290
     1
176
     0
290
     0
176
     0
290
     0
176
     0
290
     0
176
     0
290
     0
176
     0
290
     0
176
     0
290
     0
176
     0
 90
       50
176
     0
 40
0.0
176
     0
 40
1.0
176
     0
 90
        0
176
     0
 62
    18
420
        0
176
     0
 90
       50
176
     0
 90
        3
176
     0
 62
     5
420
      255
176
     0
290
     0
176
     0
 90
       50
176
     0
 90
       50
176
     0
 90
       50
176
     0
290
     0
176
     0
 90
       50
176
     0
 62
   256
176
     0
 40
1.0
176
     0
 90
        2
176
     0
  1
strokes_ogs.tif
176
     0
290
     0
176
     0
 40
1.0
176
     0
 40
1.0
176
     0
  0
VISUALSTYLE
  5
85AB
102
{ACAD_REACTORS
330
859C
102
}
330
859C
100
AcDbVisualStyle
  2
Facepattern
 70
    15
177
     3
291
     1
 70
    58
 90
        2
176
     1
 90
        2
176
     1
 90
        0
176
     1
 90
        0
176
     1
 40
0.6
176
     1
 40
30.0
176
     1
 62
     7
420
 16777215
176
     1
 90
        1
176
     1
 90
        4
176
     1
 62
     7
176
     1
 62
   257
176
     1
 90
        1
176
     1
 90
        1
176
     1
 40
1.0
176
     1
 90
        8
176
     1
 62
     7
176
     1
 40
1.0
176
     1
 90
        1
176
     1
 90
        6
176
     1
 90
        2
176
     1
 62
     7
176
     1
 90
        5
176
     1
 90
        0
176
     1
 90
        0
176
     1
290
     0
176
     1
 90
        1
176
     1
 40
0.0
176
     1
 90
        0
176
     1
290
     0
176
     1
290
     1
176
     1
290
     1
176
     1
290
     0
176
     1
290
     0
176
     1
290
     0
176
     1
290
     0
176
     1
290
     0
176
     1
290
     0
176
     1
 90
       50
176
     1
 40
0.0
176
     1
 40
1.0
176
     1
 90
        0
176
     1
 62
    18
420
        0
176
     1
 90
       50
176
     1
 90
        3
176
     1
 62
     5
420
      255
176
     1
290
     0
176
     1
 90
       50
176
     1
 90
       50
176
     1
 90
       50
176
     1
290
     0
176
     1
 90
       50
176
     1
 62
   256
176
     0
 40
1.0
176
     0
 90
        2
176
     1
  1
strokes_ogs.tif
176
     1
290
     0
176
     1
 40
1.0
176
     1
 40
1.0
176
     1
  0
VISUALSTYLE
  5
859D
102
{ACAD_REACTORS
330
859C
102
}
330
859C
100
AcDbVisualStyle
  2
Flat
 70
     0
177
     3
291
     1
 70
    58
 90
        2
176
     1
 90
        1
176
     1
 90
        1
176
     1
 90
        2
176
     1
 40
0.6
176
     1
 40
30.0
176
     1
 62
     7
420
 16777215
176
     1
 90
        0
176
     1
 90
        0
176
     1
 62
     7
176
     1
 62
   257
176
     1
 90
        1
176
     1
 90
        1
176
     1
 40
1.0
176
     1
 90
        8
176
     1
 62
     7
176
     1
 40
1.0
176
     1
 90
        1
176
     1
 90
        6
176
     1
 90
        2
176
     1
 62
     7
176
     1
 90
        5
176
     1
 90
        0
176
     1
 90
        0
176
     1
290
     0
176
     1
 90
       13
176
     1
 40
0.0
176
     1
 90
        0
176
     1
290
     0
176
     1
290
     1
176
     1
290
     1
176
     1
290
     0
176
     1
290
     0
176
     1
290
     0
176
     1
290
     0
176
     1
290
     0
176
     1
290
     0
176
     1
 90
       50
176
     1
 40
0.0
176
     1
 40
1.0
176
     1
 90
        0
176
     1
 62
    18
420
        0
176
     1
 90
       50
176
     1
 90
        3
176
     1
 62
     5
420
      255
176
     1
290
     0
176
     1
 90
       50
176
     1
 90
       50
176
     1
 90
       50
176
     1
290
     0
176
     1
 90
       50
176
     1
 62
   256
176
     0
 40
1.0
176
     0
 90
        2
176
     1
  1
strokes_ogs.tif
176
     1
290
     0
176
     1
 40
1.0
176
     1
 40
1.0
176
     1
  0
VISUALSTYLE
  5
859E
102
{ACAD_REACTORS
330
859C
102
}
330
859C
100
AcDbVisualStyle
  2
FlatWithEdges
 70
     1
177
     3
291
     1
 70
    58
 90
        2
176
     1
 90
        1
176
     1
 90
        1
176
     1
 90
        2
176
     1
 40
0.6
176
     1
 40
30.0
176
     1
 62
     7
420
 16777215
176
     1
 90
        1
176
     1
 90
        0
176
     1
 62
     7
176
     1
 62
   257
176
     1
 90
        1
176
     1
 90
        1
176
     1
 40
1.0
176
     1
 90
        0
176
     1
 62
   257
176
     1
 40
1.0
176
     1
 90
        1
176
     1
 90
        6
176
     1
 90
        2
176
     1
 62
     7
176
     1
 90
        5
176
     1
 90
        0
176
     1
 90
        0
176
     1
290
     0
176
     1
 90
       13
176
     1
 40
0.0
176
     1
 90
        0
176
     1
290
     0
176
     1
290
     1
176
     1
290
     1
176
     1
290
     0
176
     1
290
     0
176
     1
290
     0
176
     1
290
     0
176
     1
290
     0
176
     1
290
     0
176
     1
 90
       50
176
     1
 40
0.0
176
     1
 40
1.0
176
     1
 90
        0
176
     1
 62
    18
420
        0
176
     1
 90
       50
176
     1
 90
        3
176
     1
 62
     5
420
      255
176
     1
290
     0
176
     1
 90
       50
176
     1
 90
       50
176
     1
 90
       50
176
     1
290
     0
176
     1
 90
       50
176
     1
 62
   256
176
     0
 40
1.0
176
     0
 90
        2
176
     1
  1
strokes_ogs.tif
176
     1
290
     0
176
     1
 40
1.0
176
     1
 40
1.0
176
     1
  0
VISUALSTYLE
  5
859F
102
{ACAD_REACTORS
330
859C
102
}
330
859C
100
AcDbVisualStyle
  2
Gouraud
 70
     2
177
     3
291
     1
 70
    58
 90
        2
176
     1
 90
        2
176
     1
 90
        1
176
     1
 90
        2
176
     1
 40
0.6
176
     1
 40
30.0
176
     1
 62
     7
420
 16777215
176
     1
 90
        0
176
     1
 90
        0
176
     1
 62
     7
176
     1
 62
   257
176
     1
 90
        1
176
     1
 90
        1
176
     1
 40
1.0
176
     1
 90
        0
176
     1
 62
     7
176
     1
 40
1.0
176
     1
 90
        1
176
     1
 90
        6
176
     1
 90
        2
176
     1
 62
     7
176
     1
 90
        5
176
     1
 90
        0
176
     1
 90
        0
176
     1
290
     0
176
     1
 90
       13
176
     1
 40
0.0
176
     1
 90
        0
176
     1
290
     0
176
     1
290
     1
176
     1
290
     1
176
     1
290
     0
176
     1
290
     0
176
     1
290
     0
176
     1
290
     0
176
     1
290
     0
176
     1
290
     0
176
     1
 90
       50
176
     1
 40
0.0
176
     1
 40
1.0
176
     1
 90
        0
176
     1
 62
    18
420
        0
176
     1
 90
       50
176
     1
 90
        3
176
     1
 62
     5
420
      255
176
     1
290
     0
176
     1
 90
       50
176
     1
 90
       50
176
     1
 90
       50
176
     1
290
     0
176
     1
 90
       50
176
     1
 62
   256
176
     0
 40
1.0
176
     0
 90
        2
176
     1
  1
strokes_ogs.tif
176
     1
290
     0
176
     1
 40
1.0
176
     1
 40
1.0
176
     1
  0
VISUALSTYLE
  5
85A0
102
{ACAD_REACTORS
330
859C
102
}
330
859C
100
AcDbVisualStyle
  2
GouraudWithEdges
 70
     3
177
     3
291
     1
 70
    58
 90
        2
176
     1
 90
        2
176
     1
 90
        1
176
     1
 90
        2
176
     1
 40
0.6
176
     1
 40
30.0
176
     1
 62
     7
420
 16777215
176
     1
 90
        1
176
     1
 90
        0
176
     1
 62
     7
176
     1
 62
   257
176
     1
 90
        1
176
     1
 90
        1
176
     1
 40
1.0
176
     1
 90
        0
176
     1
 62
   257
176
     1
 40
1.0
176
     1
 90
        1
176
     1
 90
        6
176
     1
 90
        2
176
     1
 62
     7
176
     1
 90
        5
176
     1
 90
        0
176
     1
 90
        0
176
     1
290
     0
176
     1
 90
       13
176
     1
 40
0.0
176
     1
 90
        0
176
     1
290
     0
176
     1
290
     1
176
     1
290
     1
176
     1
290
     0
176
     1
290
     0
176
     1
290
     0
176
     1
290
     0
176
     1
290
     0
176
     1
290
     0
176
     1
 90
       50
176
     1
 40
0.0
176
     1
 40
1.0
176
     1
 90
        0
176
     1
 62
    18
420
        0
176
     1
 90
       50
176
     1
 90
        3
176
     1
 62
     5
420
      255
176
     1
290
     0
176
     1
 90
       50
176
     1
 90
       50
176
     1
 90
       50
176
     1
290
     0
176
     1
 90
       50
176
     1
 62
   256
176
     0
 40
1.0
176
     0
 90
        2
176
     1
  1
strokes_ogs.tif
176
     1
290
     0
176
     1
 40
1.0
176
     1
 40
1.0
176
     1
  0
VISUALSTYLE
  5
85A4
102
{ACAD_REACTORS
330
859C
102
}
330
859C
100
AcDbVisualStyle
  2
Hidden
 70
     6
177
     3
291
     0
 70
    58
 90
        1
176
     1
 90
        2
176
     1
 90
        2
176
     1
 90
        0
176
     1
 40
0.6
176
     1
 40
30.0
176
     1
 62
     7
420
 16777215
176
     1
 90
        2
176
     1
 90
        2
176
     1
 62
     7
176
     1
 62
   257
176
     1
 90
        2
176
     1
 90
        1
176
     1
 40
40.0
176
     1
 90
        0
176
     1
 62
   257
176
     1
 40
1.0
176
     1
 90
        1
176
     1
 90
        6
176
     1
 90
        2
176
     1
 62
     7
176
     1
 90
        3
176
     1
 90
        0
176
     1
 90
        0
176
     1
290
     0
176
     1
 90
        1
176
     1
 40
0.0
176
     1
 90
        0
176
     1
290
     0
176
     1
290
     1
176
     1
290
     1
176
     1
290
     0
176
     1
290
     0
176
     1
290
     0
176
     1
290
     0
176
     1
290
     0
176
     1
290
     0
176
     1
 90
       50
176
     1
 40
0.0
176
     1
 40
1.0
176
     1
 90
        0
176
     1
 62
    18
420
        0
176
     1
 90
       50
176
     1
 90
        3
176
     1
 62
     5
420
      255
176
     1
290
     0
176
     1
 90
       50
176
     1
 90
       50
176
     1
 90
       50
176
     1
290
     0
176
     1
 90
       50
176
     1
 62
   256
176
     0
 40
1.0
176
     0
 90
        2
176
     1
  1
strokes_ogs.tif
176
     1
290
     0
176
     1
 40
1.0
176
     1
 40
1.0
176
     1
  0
VISUALSTYLE
  5
85B2
102
{ACAD_REACTORS
330
859C
102
}
330
859C
100
AcDbVisualStyle
  2
JitterOff
 70
    20
177
     3
291
     1
 70
    58
 90
        2
176
     0
 90
        2
176
     0
 90
        0
176
     0
 90
        0
176
     0
 40
0.6
176
     0
 40
30.0
176
     0
 62
     7
420
 16777215
176
     0
 90
        1
176
     0
 90
        4
176
     0
 62
     7
176
     0
 62
   257
176
     0
 90
        1
176
     0
 90
        1
176
     0
 40
1.0
176
     0
 90
       10
176
     2
 62
     7
176
     0
 40
1.0
176
     0
 90
        1
176
     0
 90
        6
176
     0
 90
        2
176
     0
 62
     7
176
     0
 90
        5
176
     0
 90
        0
176
     0
 90
        0
176
     0
290
     0
176
     0
 90
        1
176
     0
 40
0.0
176
     0
 90
        0
176
     0
290
     0
176
     0
290
     1
176
     0
290
     1
176
     0
290
     0
176
     0
290
     0
176
     0
290
     0
176
     0
290
     0
176
     0
290
     0
176
     0
290
     0
176
     0
 90
       50
176
     0
 40
0.0
176
     0
 40
1.0
176
     0
 90
        0
176
     0
 62
    18
420
        0
176
     0
 90
       50
176
     0
 90
        3
176
     0
 62
     5
420
      255
176
     0
290
     0
176
     0
 90
       50
176
     0
 90
       50
176
     0
 90
       50
176
     0
290
     0
176
     0
 90
       50
176
     0
 62
   256
176
     0
 40
1.0
176
     0
 90
        2
176
     0
  1
strokes_ogs.tif
176
     0
290
     0
176
     0
 40
1.0
176
     0
 40
1.0
176
     0
  0
VISUALSTYLE
  5
85AA
102
{ACAD_REACTORS
330
859C
102
}
330
859C
100
AcDbVisualStyle
  2
Linepattern
 70
    14
177
     3
291
     1
 70
    58
 90
        2
176
     1
 90
        2
176
     1
 90
        0
176
     1
 90
        0
176
     1
 40
0.6
176
     1
 40
30.0
176
     1
 62
     7
420
 16777215
176
     1
 90
        1
176
     1
 90
        4
176
     1
 62
     7
176
     1
 62
   257
176
     1
 90
        7
176
     1
 90
        7
176
     1
 40
1.0
176
     1
 90
        8
176
     1
 62
     7
176
     1
 40
1.0
176
     1
 90
        1
176
     1
 90
        6
176
     1
 90
        2
176
     1
 62
     7
176
     1
 90
        5
176
     1
 90
        0
176
     1
 90
        0
176
     1
290
     0
176
     1
 90
        1
176
     1
 40
0.0
176
     1
 90
        0
176
     1
290
     0
176
     1
290
     1
176
     1
290
     1
176
     1
290
     0
176
     1
290
     0
176
     1
290
     0
176
     1
290
     0
176
     1
290
     0
176
     1
290
     0
176
     1
 90
       50
176
     1
 40
0.0
176
     1
 40
1.0
176
     1
 90
        0
176
     1
 62
    18
420
        0
176
     1
 90
       50
176
     1
 90
        3
176
     1
 62
     5
420
      255
176
     1
290
     0
176
     1
 90
       50
176
     1
 90
       50
176
     1
 90
       50
176
     1
290
     0
176
     1
 90
       50
176
     1
 62
   256
176
     0
 40
1.0
176
     0
 90
        2
176
     1
  1
strokes_ogs.tif
176
     1
290
     0
176
     1
 40
1.0
176
     1
 40
1.0
176
     1
  0
VISUALSTYLE
  5
85B3
102
{ACAD_REACTORS
330
859C
102
}
330
859C
100
AcDbVisualStyle
  2
OverhangOff
 70
    21
177
     3
291
     1
 70
    58
 90
        2
176
     0
 90
        2
176
     0
 90
        0
176
     0
 90
        0
176
     0
 40
0.6
176
     0
 40
30.0
176
     0
 62
     7
420
 16777215
176
     0
 90
        1
176
     0
 90
        4
176
     0
 62
     7
176
     0
 62
   257
176
     0
 90
        1
176
     0
 90
        1
176
     0
 40
1.0
176
     0
 90
        9
176
     2
 62
     7
176
     0
 40
1.0
176
     0
 90
        1
176
     0
 90
        6
176
     0
 90
        2
176
     0
 62
     7
176
     0
 90
        5
176
     0
 90
        0
176
     0
 90
        0
176
     0
290
     0
176
     0
 90
        1
176
     0
 40
0.0
176
     0
 90
        0
176
     0
290
     0
176
     0
290
     1
176
     0
290
     1
176
     0
290
     0
176
     0
290
     0
176
     0
290
     0
176
     0
290
     0
176
     0
290
     0
176
     0
290
     0
176
     0
 90
       50
176
     0
 40
0.0
176
     0
 40
1.0
176
     0
 90
        0
176
     0
 62
    18
420
        0
176
     0
 90
       50
176
     0
 90
        3
176
     0
 62
     5
420
      255
176
     0
290
     0
176
     0
 90
       50
176
     0
 90
       50
176
     0
 90
       50
176
     0
290
     0
176
     0
 90
       50
176
     0
 62
   256
176
     0
 40
1.0
176
     0
 90
        2
176
     0
  1
strokes_ogs.tif
176
     0
290
     0
176
     0
 40
1.0
176
     0
 40
1.0
176
     0
  0
VISUALSTYLE
  5
85A6
102
{ACAD_REACTORS
330
859C
102
}
330
859C
100
AcDbVisualStyle
  2
Realistic
 70
     8
177
     3
291
     0
 70
    58
 90
        2
176
     1
 90
        3
176
     1
 90
        0
176
     1
 90
        2
176
     1
 40
0.6
176
     1
 40
30.0
176
     1
 62
     7
420
 16777215
176
     1
 90
        0
176
     1
 90
        0
176
     1
 62
     7
176
     1
 62
   257
176
     1
 90
        1
176
     1
 90
        1
176
     1
 40
1.0
176
     1
 90
        8
176
     1
 62
   257
176
     1
 40
1.0
176
     1
 90
        1
176
     1
 90
        6
176
     1
 90
        2
176
     1
 62
     7
176
     1
 90
        3
176
     1
 90
        0
176
     1
 90
        0
176
     1
290
     0
176
     1
 90
       13
176
     1
 40
0.0
176
     1
 90
        0
176
     1
290
     0
176
     1
290
     1
176
     1
290
     1
176
     1
290
     0
176
     1
290
     0
176
     1
290
     0
176
     1
290
     0
176
     1
290
     0
176
     1
290
     0
176
     1
 90
       50
176
     1
 40
0.0
176
     1
 40
1.0
176
     1
 90
        0
176
     1
 62
    18
420
        0
176
     1
 90
       50
176
     1
 90
        3
176
     1
 62
     5
420
      255
176
     1
290
     0
176
     1
 90
       50
176
     1
 90
       50
176
     1
 90
       50
176
     1
290
     0
176
     1
 90
       50
176
     1
 62
   256
176
     0
 40
1.0
176
     0
 90
        2
176
     1
  1
strokes_ogs.tif
176
     1
290
     0
176
     1
 40
1.0
176
     1
 40
1.0
176
     1
  0
VISUALSTYLE
  5
85B1
102
{ACAD_REACTORS
330
859C
102
}
330
859C
100
AcDbVisualStyle
  2
Shaded
 70
    27
177
     3
291
     0
 70
    58
 90
        2
176
     1
 90
        2
176
     1
 90
        1
176
     1
 90
        2
176
     1
 40
0.6
176
     1
 40
30.0
176
     1
 62
     7
420
 16777215
176
     1
 90
        0
176
     1
 90
        4
176
     1
 62
     7
176
     1
 62
   257
176
     1
 90
        1
176
     1
 90
        1
176
     1
 40
1.0
176
     1
 90
        8
176
     1
 62
   257
176
     1
 40
1.0
176
     1
 90
        1
176
     1
 90
        6
176
     1
 90
        2
176
     1
 62
     8
420
  7895160
176
     1
 90
        3
176
     1
 90
        0
176
     1
 90
        0
176
     1
290
     0
176
     1
 90
        5
176
     1
 40
0.0
176
     1
 90
        0
176
     1
290
     0
176
     1
290
     1
176
     1
290
     1
176
     1
290
     0
176
     1
290
     0
176
     1
290
     0
176
     1
290
     0
176
     1
290
     0
176
     1
290
     0
176
     1
 90
       50
176
     1
 40
0.0
176
     1
 40
1.0
176
     1
 90
        0
176
     1
 62
    18
420
        0
176
     1
 90
       50
176
     1
 90
        3
176
     1
 62
     5
420
      255
176
     1
290
     0
176
     1
 90
       50
176
     1
 90
       50
176
     1
 90
       50
176
     1
290
     0
176
     1
 90
       50
176
     1
 62
   256
176
     0
 40
1.0
176
     0
 90
        2
176
     1
  1
strokes_ogs.tif
176
     1
290
     0
176
     1
 40
1.0
176
     1
 40
1.0
176
     1
  0
VISUALSTYLE
  5
85B0
102
{ACAD_REACTORS
330
859C
102
}
330
859C
100
AcDbVisualStyle
  2
Shaded with edges
 70
    26
177
     3
291
     0
 70
    58
 90
        2
176
     1
 90
        2
176
     1
 90
        1
176
     1
 90
        2
176
     1
 40
0.6
176
     1
 40
30.0
176
     1
 62
     7
420
 16777215
176
     1
 90
        1
176
     1
 90
       10
176
     1
 62
     7
176
     1
 62
   257
176
     1
 90
        2
176
     1
 90
        1
176
     1
 40
1.0
176
     1
 90
        8
176
     1
 62
   257
176
     1
 40
1.0
176
     1
 90
        1
176
     1
 90
        6
176
     1
 90
        2
176
     1
 62
     7
176
     1
 90
        3
176
     1
 90
        0
176
     1
 90
        0
176
     1
290
     0
176
     1
 90
        5
176
     1
 40
0.0
176
     1
 90
        0
176
     1
290
     0
176
     1
290
     1
176
     1
290
     1
176
     1
290
     0
176
     1
290
     0
176
     1
290
     0
176
     1
290
     0
176
     1
290
     0
176
     1
290
     0
176
     1
 90
       50
176
     1
 40
0.0
176
     1
 40
1.0
176
     1
 90
        0
176
     1
 62
    18
420
        0
176
     1
 90
       50
176
     1
 90
        3
176
     1
 62
     5
420
      255
176
     1
290
     0
176
     1
 90
       50
176
     1
 90
       50
176
     1
 90
       50
176
     1
290
     0
176
     1
 90
       50
176
     1
 62
   256
176
     0
 40
1.0
176
     0
 90
        2
176
     1
  1
strokes_ogs.tif
176
     1
290
     0
176
     1
 40
1.0
176
     1
 40
1.0
176
     1
  0
VISUALSTYLE
  5
85AD
102
{ACAD_REACTORS
330
859C
102
}
330
859C
100
AcDbVisualStyle
  2
Shades of Gray
 70
    23
177
     3
291
     0
 70
    58
 90
        2
176
     1
 90
        2
176
     1
 90
        3
176
     1
 90
        0
176
     1
 40
0.6
176
     1
 40
30.0
176
     1
 62
     7
420
 16777215
176
     1
 90
        2
176
     1
 90
        2
176
     1
 62
     7
176
     1
 62
     7
176
     1
 90
        1
176
     1
 90
        1
176
     1
 40
40.0
176
     1
 90
        8
176
     1
 62
     7
176
     1
 40
1.0
176
     1
 90
        1
176
     1
 90
        6
176
     1
 90
        2
176
     1
 62
     7
176
     1
 90
        3
176
     1
 90
        0
176
     1
 90
        0
176
     1
290
     0
176
     1
 90
        1
176
     1
 40
0.0
176
     1
 90
        0
176
     1
290
     0
176
     1
290
     1
176
     1
290
     1
176
     1
290
     0
176
     1
290
     0
176
     1
290
     0
176
     1
290
     0
176
     1
290
     0
176
     1
290
     0
176
     1
 90
       50
176
     1
 40
0.0
176
     1
 40
1.0
176
     1
 90
        0
176
     1
 62
    18
420
        0
176
     1
 90
       50
176
     1
 90
        3
176
     1
 62
     5
420
      255
176
     1
290
     0
176
     1
 90
       50
176
     1
 90
       50
176
     1
 90
       50
176
     1
290
     0
176
     1
 90
       50
176
     1
 62
   256
176
     0
 40
1.0
176
     0
 90
        2
176
     1
  1
strokes_ogs.tif
176
     1
290
     0
176
     1
 40
1.0
176
     1
 40
1.0
176
     1
  0
VISUALSTYLE
  5
85AE
102
{ACAD_REACTORS
330
859C
102
}
330
859C
100
AcDbVisualStyle
  2
Sketchy
 70
    24
177
     3
291
     0
 70
    58
 90
        1
176
     1
 90
        2
176
     1
 90
        2
176
     1
 90
        0
176
     1
 40
0.6
176
     1
 40
30.0
176
     1
 62
     7
420
 16777215
176
     1
 90
        2
176
     1
 90
        2
176
     1
 62
     7
176
     1
 62
     7
176
     1
 90
        1
176
     1
 90
        1
176
     1
 40
40.0
176
     1
 90
       11
176
     1
 62
     7
176
     1
 40
1.0
176
     1
 90
        1
176
     1
 90
        6
176
     1
 90
        2
176
     1
 62
     7
176
     1
 90
        6
176
     1
 90
        0
176
     1
 90
        0
176
     1
290
     0
176
     1
 90
        1
176
     1
 40
0.0
176
     1
 90
        0
176
     1
290
     0
176
     1
290
     1
176
     1
290
     1
176
     1
290
     0
176
     1
290
     0
176
     1
290
     0
176
     1
290
     0
176
     1
290
     0
176
     1
290
     0
176
     1
 90
       50
176
     1
 40
0.0
176
     1
 40
1.0
176
     1
 90
        0
176
     1
 62
    18
420
        0
176
     1
 90
       50
176
     1
 90
        3
176
     1
 62
     5
420
      255
176
     1
290
     0
176
     1
 90
       50
176
     1
 90
       50
176
     1
 90
       50
176
     1
290
     0
176
     1
 90
       50
176
     1
 62
   256
176
     0
 40
1.0
176
     0
 90
        2
176
     1
  1
strokes_ogs.tif
176
     1
290
     0
176
     1
 40
1.0
176
     1
 40
1.0
176
     1
  0
VISUALSTYLE
  5
85A9
102
{ACAD_REACTORS
330
859C
102
}
330
859C
100
AcDbVisualStyle
  2
Thicken
 70
    13
177
     3
291
     1
 70
    58
 90
        2
176
     1
 90
        2
176
     1
 90
        0
176
     1
 90
        0
176
     1
 40
0.6
176
     1
 40
30.0
176
     1
 62
     7
420
 16777215
176
     1
 90
        1
176
     1
 90
        4
176
     1
 62
     7
176
     1
 62
   257
176
     1
 90
        1
176
     1
 90
        1
176
     1
 40
1.0
176
     1
 90
       12
176
     1
 62
     7
176
     1
 40
1.0
176
     1
 90
        1
176
     1
 90
        6
176
     1
 90
        2
176
     1
 62
     7
176
     1
 90
        5
176
     1
 90
        0
176
     1
 90
        0
176
     1
290
     0
176
     1
 90
        1
176
     1
 40
0.0
176
     1
 90
        0
176
     1
290
     0
176
     1
290
     1
176
     1
290
     1
176
     1
290
     0
176
     1
290
     0
176
     1
290
     0
176
     1
290
     0
176
     1
290
     0
176
     1
290
     0
176
     1
 90
       50
176
     1
 40
0.0
176
     1
 40
1.0
176
     1
 90
        0
176
     1
 62
    18
420
        0
176
     1
 90
       50
176
     1
 90
        3
176
     1
 62
     5
420
      255
176
     1
290
     0
176
     1
 90
       50
176
     1
 90
       50
176
     1
 90
       50
176
     1
290
     0
176
     1
 90
       50
176
     1
 62
   256
176
     0
 40
1.0
176
     0
 90
        2
176
     1
  1
strokes_ogs.tif
176
     1
290
     0
176
     1
 40
1.0
176
     1
 40
1.0
176
     1
  0
VISUALSTYLE
  5
85A3
102
{ACAD_REACTORS
330
859C
102
}
330
859C
100
AcDbVisualStyle
  2
Wireframe
 70
     5
177
     3
291
     0
 70
    58
 90
        0
176
     1
 90
        2
176
     1
 90
        0
176
     1
 90
        0
176
     1
 40
0.6
176
     1
 40
30.0
176
     1
 62
     7
420
 16777215
176
     1
 90
        1
176
     1
 90
        4
176
     1
 62
     7
176
     1
 62
   257
176
     1
 90
        1
176
     1
 90
        1
176
     1
 40
1.0
176
     1
 90
        0
176
     1
 62
   257
176
     1
 40
1.0
176
     1
 90
        1
176
     1
 90
        6
176
     1
 90
        2
176
     1
 62
     7
176
     1
 90
        3
176
     1
 90
        0
176
     1
 90
        0
176
     1
290
     0
176
     1
 90
        1
176
     1
 40
0.0
176
     1
 90
        0
176
     1
290
     0
176
     1
290
     1
176
     1
290
     1
176
     1
290
     0
176
     1
290
     0
176
     1
290
     0
176
     1
290
     0
176
     1
290
     0
176
     1
290
     0
176
     1
 90
       50
176
     1
 40
0.0
176
     1
 40
1.0
176
     1
 90
        0
176
     1
 62
    18
420
        0
176
     1
 90
       50
176
     1
 90
        3
176
     1
 62
     5
420
      255
176
     1
290
     0
176
     1
 90
       50
176
     1
 90
       50
176
     1
 90
       50
176
     1
290
     0
176
     1
 90
       50
176
     1
 62
   256
176
     0
 40
1.0
176
     0
 90
        2
176
     1
  1
strokes_ogs.tif
176
     1
290
     0
176
     1
 40
1.0
176
     1
 40
1.0
176
     1
  0
VISUALSTYLE
  5
85AF
102
{ACAD_REACTORS
330
859C
102
}
330
859C
100
AcDbVisualStyle
  2
X-Ray
 70
    25
177
     3
291
     0
 70
    58
 90
        2
176
     1
 90
        2
176
     1
 90
        1
176
     1
 90
        1
176
     1
 40
0.5
176
     1
 40
30.0
176
     1
 62
     7
420
 16777215
176
     1
 90
        1
176
     1
 90
        0
176
     1
 62
     7
176
     1
 62
   257
176
     1
 90
        1
176
     1
 90
        1
176
     1
 40
1.0
176
     1
 90
        8
176
     1
 62
     7
176
     1
 40
1.0
176
     1
 90
        1
176
     1
 90
        6
176
     1
 90
        2
176
     1
 62
     7
176
     1
 90
        3
176
     1
 90
        0
176
     1
 90
        0
176
     1
290
     0
176
     1
 90
       13
176
     1
 40
0.0
176
     1
 90
        0
176
     1
290
     0
176
     1
290
     1
176
     1
290
     1
176
     1
290
     0
176
     1
290
     0
176
     1
290
     0
176
     1
290
     0
176
     1
290
     0
176
     1
290
     0
176
     1
 90
       50
176
     1
 40
0.0
176
     1
 40
1.0
176
     1
 90
        0
176
     1
 62
    18
420
        0
176
     1
 90
       50
176
     1
 90
        3
176
     1
 62
     5
420
      255
176
     1
290
     0
176
     1
 90
       50
176
     1
 90
       50
176
     1
 90
       50
176
     1
290
     0
176
     1
 90
       50
176
     1
 62
   256
176
     0
 40
1.0
176
     0
 90
        2
176
     1
  1
strokes_ogs.tif
176
     1
290
     0
176
     1
 40
1.0
176
     1
 40
1.0
176
     1
  0
DICTIONARYVAR
  5
8641
102
{ACAD_REACTORS
330
863B
102
}
330
863B
100
DictionaryVariables
280
     0
  1
1:1
  0
DICTIONARYVAR
  5
863D
102
{ACAD_REACTORS
330
863B
102
}
330
863B
100
DictionaryVariables
280
     0
  1
STANDARD
  0
DICTIONARYVAR
  5
863C
102
{ACAD_REACTORS
330
863B
102
}
330
863B
100
DictionaryVariables
280
     0
  1
STANDARD
  0
DICTIONARYVAR
  5
863E
102
{ACAD_REACTORS
330
863B
102
}
330
863B
100
DictionaryVariables
280
     0
  1
Metric50
  0
DICTIONARYVAR
  5
863F
102
{ACAD_REACTORS
330
863B
102
}
330
863B
100
DictionaryVariables
280
     0
  1
Metric50
  0
DICTIONARYVAR
  5
8643
102
{ACAD_REACTORS
330
863B
102
}
330
863B
100
DictionaryVariables
280
     0
  1
1
  0
DICTIONARYVAR
  5
8644
102
{ACAD_REACTORS
330
863B
102
}
330
863B
100
DictionaryVariables
280
     0
  1
15
  0
DICTIONARYVAR
  5
8642
102
{ACAD_REACTORS
330
863B
102
}
330
863B
100
DictionaryVariables
280
     0
  1
0
  0
DICTIONARYVAR
  5
8640
102
{ACAD_REACTORS
330
863B
102
}
330
863B
100
DictionaryVariables
280
     0
  1
0
  0
DICTIONARY
  5
8638
330
85CF
100
AcDbDictionary
280
     1
281
     1
  3
ACAD_XREC_ROUNDTRIP
360
8683
  0
DICTIONARY
  5
858D
330
858C
100
AcDbDictionary
280
     1
281
     1
  3
BUMPTILE
360
858F
  3
DIFFUSETILE
360
858E
  3
OPACITYTILE
360
8592
  3
REFLECTIONTILE
360
8591
  3
REFRACTIONTILE
360
8593
  3
SPECULARTILE
360
8590
  0
DICTIONARY
  5
8585
330
8584
100
AcDbDictionary
280
     1
281
     1
  3
BUMPTILE
360
8587
  3
DIFFUSETILE
360
8586
  3
OPACITYTILE
360
858A
  3
REFLECTIONTILE
360
8589
  3
REFRACTIONTILE
360
858B
  3
SPECULARTILE
360
8588
  0
DICTIONARY
  5
8595
330
8594
100
AcDbDictionary
280
     1
281
     1
  3
BUMPTILE
360
8597
  3
DIFFUSETILE
360
8596
  3
OPACITYTILE
360
859A
  3
REFLECTIONTILE
360
8599
  3
REFRACTIONTILE
360
859B
  3
SPECULARTILE
360
8598
  0
DICTIONARY
  5
8636
330
85CD
100
AcDbDictionary
280
     1
281
     1
  3
ACAD_XREC_ROUNDTRIP
360
8682
  0
DICTIONARY
  5
8680
330
85B7
100
AcDbDictionary
280
     1
281
     1
  3
ACAD_ROUNDTRIP_2008_TABLESTYLE_CELLSTYLEMAP
360
8681
  0
XRECORD
  5
8683
102
{ACAD_REACTORS
330
8638
102
}
330
8638
100
AcDbXrecord
280
     1
102
DISPLAYNAME
  1
Metric50
102
FLAGS
 90
        0
  0
XRECORD
  5
858F
102
{ACAD_REACTORS
330
858D
102
}
330
858D
100
AcDbXrecord
280
     1
270
     1
271
     1
  0
XRECORD
  5
858E
102
{ACAD_REACTORS
330
858D
102
}
330
858D
100
AcDbXrecord
280
     1
270
     1
271
     1
  0
XRECORD
  5
8592
102
{ACAD_REACTORS
330
858D
102
}
330
858D
100
AcDbXrecord
280
     1
270
     1
271
     1
  0
XRECORD
  5
8591
102
{ACAD_REACTORS
330
858D
102
}
330
858D
100
AcDbXrecord
280
     1
270
     1
271
     1
  0
XRECORD
  5
8593
102
{ACAD_REACTORS
330
858D
102
}
330
858D
100
AcDbXrecord
280
     1
270
     1
271
     1
  0
XRECORD
  5
8590
102
{ACAD_REACTORS
330
858D
102
}
330
858D
100
AcDbXrecord
280
     1
270
     1
271
     1
  0
XRECORD
  5
8587
102
{ACAD_REACTORS
330
8585
102
}
330
8585
100
AcDbXrecord
280
     1
270
     1
271
     1
  0
XRECORD
  5
8586
102
{ACAD_REACTORS
330
8585
102
}
330
8585
100
AcDbXrecord
280
     1
270
     1
271
     1
  0
XRECORD
  5
858A
102
{ACAD_REACTORS
330
8585
102
}
330
8585
100
AcDbXrecord
280
     1
270
     1
271
     1
  0
XRECORD
  5
8589
102
{ACAD_REACTORS
330
8585
102
}
330
8585
100
AcDbXrecord
280
     1
270
     1
271
     1
  0
XRECORD
  5
858B
102
{ACAD_REACTORS
330
8585
102
}
330
8585
100
AcDbXrecord
280
     1
270
     1
271
     1
  0
XRECORD
  5
8588
102
{ACAD_REACTORS
330
8585
102
}
330
8585
100
AcDbXrecord
280
     1
270
     1
271
     1
  0
XRECORD
  5
8597
102
{ACAD_REACTORS
330
8595
102
}
330
8595
100
AcDbXrecord
280
     1
270
     1
271
     1
  0
XRECORD
  5
8596
102
{ACAD_REACTORS
330
8595
102
}
330
8595
100
AcDbXrecord
280
     1
270
     1
271
     1
  0
XRECORD
  5
859A
102
{ACAD_REACTORS
330
8595
102
}
330
8595
100
AcDbXrecord
280
     1
270
     1
271
     1
  0
XRECORD
  5
8599
102
{ACAD_REACTORS
330
8595
102
}
330
8595
100
AcDbXrecord
280
     1
270
     1
271
     1
  0
XRECORD
  5
859B
102
{ACAD_REACTORS
330
8595
102
}
330
8595
100
AcDbXrecord
280
     1
270
     1
271
     1
  0
XRECORD
  5
8598
102
{ACAD_REACTORS
330
8595
102
}
330
8595
100
AcDbXrecord
280
     1
270
     1
271
     1
  0
XRECORD
  5
8682
102
{ACAD_REACTORS
330
8636
102
}
330
8636
100
AcDbXrecord
280
     1
102
DISPLAYNAME
  1
Metric50
102
FLAGS
 90
        0
  0
CELLSTYLEMAP
  5
8681
102
{ACAD_REACTORS
330
8680
102
}
330
8680
100
AcDbCellStyleMap
 90
        3
300
CELLSTYLE
  1
TABLEFORMAT_BEGIN
 90
        5
170
     1
 91
        0
 92
    32768
 62
   257
 93
        1
300
CONTENTFORMAT
  1
CONTENTFORMAT_BEGIN
 90
        0
 91
        0
 92
      512
 93
        0
300

 40
0.0
140
1.0
 94
        5
 62
     0
340
10
144
6.0
309
CONTENTFORMAT_END
171
     1
301
MARGIN
  1
CELLMARGIN_BEGIN
 40
1.5
 40
1.5
 40
1.5
 40
1.5
 40
4.5
 40
4.5
309
CELLMARGIN_END
 94
        6
 95
        1
302
GRIDFORMAT
  1
GRIDFORMAT_BEGIN
 90
        0
 91
        1
 62
     0
 92
       -2
340
0
 93
        0
 40
1.125
309
GRIDFORMAT_END
 95
        2
302
GRIDFORMAT
  1
GRIDFORMAT_BEGIN
 90
        0
 91
        1
 62
     0
 92
       -2
340
0
 93
        0
 40
1.125
309
GRIDFORMAT_END
 95
        4
302
GRIDFORMAT
  1
GRIDFORMAT_BEGIN
 90
        0
 91
        1
 62
     0
 92
       -2
340
0
 93
        0
 40
1.125
309
GRIDFORMAT_END
 95
        8
302
GRIDFORMAT
  1
GRIDFORMAT_BEGIN
 90
        0
 91
        1
 62
     0
 92
       -2
340
0
 93
        0
 40
1.125
309
GRIDFORMAT_END
 95
       16
302
GRIDFORMAT
  1
GRIDFORMAT_BEGIN
 90
        0
 91
        1
 62
     0
 92
       -2
340
0
 93
        0
 40
1.125
309
GRIDFORMAT_END
 95
       32
302
GRIDFORMAT
  1
GRIDFORMAT_BEGIN
 90
        0
 91
        1
 62
     0
 92
       -2
340
0
 93
        0
 40
1.125
309
GRIDFORMAT_END
309
TABLEFORMAT_END
  1
CELLSTYLE_BEGIN
 90
        1
 91
        1
300
_TITLE
309
CELLSTYLE_END
300
CELLSTYLE
  1
TABLEFORMAT_BEGIN
 90
        5
170
     1
 91
        0
 92
        0
 62
   257
 93
        1
300
CONTENTFORMAT
  1
CONTENTFORMAT_BEGIN
 90
        0
 91
        0
 92
      512
 93
        0
300

 40
0.0
140
1.0
 94
        5
 62
     0
340
10
144
4.5
309
CONTENTFORMAT_END
171
     1
301
MARGIN
  1
CELLMARGIN_BEGIN
 40
1.5
 40
1.5
 40
1.5
 40
1.5
 40
4.5
 40
4.5
309
CELLMARGIN_END
 94
        6
 95
        1
302
GRIDFORMAT
  1
GRIDFORMAT_BEGIN
 90
        0
 91
        1
 62
     0
 92
       -2
340
0
 93
        0
 40
1.125
309
GRIDFORMAT_END
 95
        2
302
GRIDFORMAT
  1
GRIDFORMAT_BEGIN
 90
        0
 91
        1
 62
     0
 92
       -2
340
0
 93
        0
 40
1.125
309
GRIDFORMAT_END
 95
        4
302
GRIDFORMAT
  1
GRIDFORMAT_BEGIN
 90
        0
 91
        1
 62
     0
 92
       -2
340
0
 93
        0
 40
1.125
309
GRIDFORMAT_END
 95
        8
302
GRIDFORMAT
  1
GRIDFORMAT_BEGIN
 90
        0
 91
        1
 62
     0
 92
       -2
340
0
 93
        0
 40
1.125
309
GRIDFORMAT_END
 95
       16
302
GRIDFORMAT
  1
GRIDFORMAT_BEGIN
 90
        0
 91
        1
 62
     0
 92
       -2
340
0
 93
        0
 40
1.125
309
GRIDFORMAT_END
 95
       32
302
GRIDFORMAT
  1
GRIDFORMAT_BEGIN
 90
        0
 91
        1
 62
     0
 92
       -2
340
0
 93
        0
 40
1.125
309
GRIDFORMAT_END
309
TABLEFORMAT_END
  1
CELLSTYLE_BEGIN
 90
        2
 91
        1
300
_HEADER
309
CELLSTYLE_END
300
CELLSTYLE
  1
TABLEFORMAT_BEGIN
 90
        5
170
     1
 91
        0
 92
        0
 62
   257
 93
        1
300
CONTENTFORMAT
  1
CONTENTFORMAT_BEGIN
 90
        0
 91
        0
 92
      512
 93
        0
300

 40
0.0
140
1.0
 94
        2
 62
     0
340
10
144
4.5
309
CONTENTFORMAT_END
171
     1
301
MARGIN
  1
CELLMARGIN_BEGIN
 40
1.5
 40
1.5
 40
1.5
 40
1.5
 40
4.5
 40
4.5
309
CELLMARGIN_END
 94
        6
 95
        1
302
GRIDFORMAT
  1
GRIDFORMAT_BEGIN
 90
        0
 91
        1
 62
     0
 92
       -2
340
0
 93
        0
 40
1.125
309
GRIDFORMAT_END
 95
        2
302
GRIDFORMAT
  1
GRIDFORMAT_BEGIN
 90
        0
 91
        1
 62
     0
 92
       -2
340
0
 93
        0
 40
1.125
309
GRIDFORMAT_END
 95
        4
302
GRIDFORMAT
  1
GRIDFORMAT_BEGIN
 90
        0
 91
        1
 62
     0
 92
       -2
340
0
 93
        0
 40
1.125
309
GRIDFORMAT_END
 95
        8
302
GRIDFORMAT
  1
GRIDFORMAT_BEGIN
 90
        0
 91
        1
 62
     0
 92
       -2
340
0
 93
        0
 40
1.125
309
GRIDFORMAT_END
 95
       16
302
GRIDFORMAT
  1
GRIDFORMAT_BEGIN
 90
        0
 91
        1
 62
     0
 92
       -2
340
0
 93
        0
 40
1.125
309
GRIDFORMAT_END
 95
       32
302
GRIDFORMAT
  1
GRIDFORMAT_BEGIN
 90
        0
 91
        1
 62
     0
 92
       -2
340
0
 93
        0
 40
1.125
309
GRIDFORMAT_END
309
TABLEFORMAT_END
  1
CELLSTYLE_BEGIN
 90
        3
 91
        2
300
_DATA
309
CELLSTYLE_END
  0
ENDSEC
  0
SECTION
  2
ACDSDATA
 70
     2
 71
     8
  0
ACDSSCHEMA
 90
        0
  1
AcDb_Thumbnail_Schema
  2
AcDbDs::ID
280
    10
 91
        8
  2
Thumbnail_Data
280
    15
 91
        0
101
ACDSRECORD
 95
        0
 90
        1
  2
AcDbDs::TreatedAsObjectData
280
     1
291
     1
101
ACDSRECORD
 95
        0
 90
        2
  2
AcDbDs::Legacy
280
     1
291
     1
101
ACDSRECORD
  1
AcDbDs::ID
 90
        3
  2
AcDs:Indexable
280
     1
291
     1
101
ACDSRECORD
  1
AcDbDs::ID
 90
        4
  2
AcDbDs::HandleAttribute
280
     7
282
     1
  0
ACDSSCHEMA
 90
        1
  1
AcDbDs::TreatedAsObjectDataSchema
  2
AcDbDs::TreatedAsObjectData
280
     1
 91
        0
  0
ACDSSCHEMA
 90
        2
  1
AcDbDs::LegacySchema
  2
AcDbDs::Legacy
280
     1
 91
        0
  0
ACDSSCHEMA
 90
        3
  1
AcDbDs::IndexedPropertySchema
  2
AcDs:Indexable
280
     1
 91
        0
  0
ACDSSCHEMA
 90
        4
  1
AcDbDs::HandleAttributeSchema
  2
AcDbDs::HandleAttribute
280
     7
 91
        1
284
     1
  0
ACDSRECORD
 90
        0
  2
AcDbDs::ID
280
    10
320
8576
  2
Thumbnail_Data
280
    15
 94
     1670
310
89504E470D0A1A0A0000000D49484452000001000000007C0803000000B13B9E5A00000300504C5445000000000000C8C8C80000000000000000000000000000000000000000000000000000330000660000990000CC0000FF0033000033330033660033990033CC0033FF0066000066330066660066990066CC0066FF0099
310
000099330099660099990099CC0099FF00CC0000CC3300CC6600CC9900CCCC00CCFF00FF0000FF3300FF6600FF9900FFCC00FFFF3300003300333300663300993300CC3300FF3333003333333333663333993333CC3333FF3366003366333366663366993366CC3366FF3399003399333399663399993399CC3399FF33CC00
310
33CC3333CC6633CC9933CCCC33CCFF33FF0033FF3333FF6633FF9933FFCC33FFFF6600006600336600666600996600CC6600FF6633006633336633666633996633CC6633FF6666006666336666666666996666CC6666FF6699006699336699666699996699CC6699FF66CC0066CC3366CC6666CC9966CCCC66CCFF66FF0066
310
FF3366FF6666FF9966FFCC66FFFF9900009900339900669900999900CC9900FF9933009933339933669933999933CC9933FF9966009966339966669966999966CC9966FF9999009999339999669999999999CC9999FF99CC0099CC3399CC6699CC9999CCCC99CCFF99FF0099FF3399FF6699FF9999FFCC99FFFFCC0000CC00
310
33CC0066CC0099CC00CCCC00FFCC3300CC3333CC3366CC3399CC33CCCC33FFCC6600CC6633CC6666CC6699CC66CCCC66FFCC9900CC9933CC9966CC9999CC99CCCC99FFCCCC00CCCC33CCCC66CCCC99CCCCCCCCCCFFCCFF00CCFF33CCFF66CCFF99CCFFCCCCFFFFFF0000FF0033FF0066FF0099FF00CCFF00FFFF3300FF3333
310
FF3366FF3399FF33CCFF33FFFF6600FF6633FF6666FF6699FF66CCFF66FFFF9900FF9933FF9966FF9999FF99CCFF99FFFFCC00FFCC33FFCC66FFCC99FFCCCCFFCCFFFFFF00FFFF33FFFF66FFFF99FFFFCCFFFFFF0000000D0D0D1A1A1A2828283535354343435050505D5D5D6B6B6B787878868686939393A1A1A1AEAEAEBB
310
BBBBC9C9C9D6D6D6E4E4E4F1F1F1FFFFFF00000000000000000000000000000000000000000000000000000000000008F1915C000003124944415478DAED9D4B72C3201044390E1BEE7F19AEC13E1282D1F093364E627A9A5414DBC12ACF53CF075061E77EA1A55F6A6E9796B63A2D011000011000017CCF277D487E560074
310
6F4F2615601E40B20CA0F382BD017C7404B025802F3B1901FC0380A2E3FB4FF97513A1A789910800DC65AD98EC0484589F91B8D9901F4301AD0E1A31241104328024455E72AD0824E92506414800D6EB808F9E614F00930B3A5CDFA4BA5EA9B004450B0092D87AA7C89A363126447A639B574AA2908E4EFDA000F8DCFB3927
310
480004400004400004400004400004B03B009F8FC12280A09B4900A615E0BD0FFE6EC11B0010CF36C8DE9202E2E9F7965D207681CF5C10D400EA65CF8F822D17F055F2044000A6001C399000088000180409C03A0096C204A0EDBD9E180130CC07A816ADCC08AD0CB50720E6B28000EC0158352B00BEFCB40440000440007F
310
F6495F43FF537A0000F09EFC1480A12F781DF0DE03632C50CC9A0098780B20800705BCBA0B08807AE84D8EAFD11003803E3652688D0D791221060C007A12443F2EC647E9A5004C66CD3606D028E0B0CA5F369E4F054068EE98386CF70E47011AC0F9A40068146005407EBC00A063C0396BDA650210005501E109402800820E
310
8E5B03F0B70B94E03600E8636076011405D49580330B1CD7DA8762B00E827D4302705893EDBD6E8F0CD7B1A6C1B80050532586027CB95B70581A933037351F4601470C28ABC1E18E016E0070C700978B859C081000F84BFC25149C21B198AB2AFED3297C0700270D06B9C2B2303A0098290064302441B09816B243BC001817
310
D0010643B5E2F53506AC4AE150070C70A3C1310B3CD401280064F8E3C6D7DD622C7006451C006159E4743100540163F3EDD4D76B2702A00B600388D35E11270DDE6A975764D92376BDA453AE10221200E5ED651CECB4897DAF18FBA554C4B54165E2FBFA21D07D82B23C120705286CC069F091CE474EBB0F004700B60098DF
310
517261D9B5C5EAF4BF8600CC2F3C1A0037F9DAA4BAD1A23505D88C01730538BDC3E6EA64C03140B6DA7EDC49140DC0C22F0C29803B4BB3142600022000022000022000022000020003B0D1576FFF00A8BC96CD9CBBEEB90000000049454E44AE426082826082000000000000000000000000000000B402F86879FCE7FE00E7
310
01207A2BA8EB0D0000000049454E44AE426082
  0
ENDSEC
  0
EOF
