  0
SECTION
  2
HEADER
  9
$ACADVER
  1
AC1027
  9
$ACADMAINTVER
 70
    81
  9
$DWGCODEPAGE
  3
ANSI_932
  9
$LASTSAVEDBY
  1
reiko.miyawaki
  9
$REQUIREDVERSIONS
160
                 0
  9
$INSBASE
 10
0.0
 20
0.0
 30
0.0
  9
$EXTMIN
 10
0.0
 20
0.0
 30
0.0
  9
$EXTMAX
 10
2100.0
 20
2950.0
 30
0.0
  9
$LIMMIN
 10
0.0
 20
0.0
  9
$LIMMAX
 10
297.0
 20
210.0
  9
$ORTHOMODE
 70
     0
  9
$REGENMODE
 70
     1
  9
$FILLMODE
 70
     0
  9
$QTEXTMODE
 70
     0
  9
$MIRRTEXT
 70
     1
  9
$LTSCALE
 40
100.0
  9
$ATTMODE
 70
     1
  9
$TEXTSIZE
 40
180.0
  9
$TRACEWID
 40
0.05
  9
$TEXTSTYLE
  7
STANDARD
  9
$CLAYER
  8
3
  9
$CELTYPE
  6
BYLAYER
  9
$CECOLOR
 62
   256
  9
$CELTSCALE
 40
1.0
  9
$DISPSILH
 70
     0
  9
$DIMSCALE
 40
10.0
  9
$DIMASZ
 40
2.0
  9
$DIMEXO
 40
0.5
  9
$DIMDLI
 40
10.0
  9
$DIMRND
 40
0.0
  9
$DIMDLE
 40
0.0
  9
$DIMEXE
 40
1.0
  9
$DIMTP
 40
1.0
  9
$DIMTM
 40
1.0
  9
$DIMTXT
 40
3.0
  9
$DIMCEN
 40
0.0
  9
$DIMTSZ
 40
0.0
  9
$DIMTOL
 70
     0
  9
$DIMLIM
 70
     0
  9
$DIMTIH
 70
     0
  9
$DIMTOH
 70
     0
  9
$DIMSE1
 70
     0
  9
$DIMSE2
 70
     0
  9
$DIMTAD
 70
     1
  9
$DIMZIN
 70
     8
  9
$DIMBLK
  1

  9
$DIMASO
 70
     1
  9
$DIMSHO
 70
     1
  9
$DIMPOST
  1
(<>)
  9
$DIMAPOST
  1

  9
$DIMALT
 70
     0
  9
$DIMALTD
 70
     2
  9
$DIMALTF
 40
0.039
  9
$DIMLFAC
 40
1.0
  9
$DIMTOFL
 70
     1
  9
$DIMTVP
 40
0.0
  9
$DIMTIX
 70
     0
  9
$DIMSOXD
 70
     0
  9
$DIMSAH
 70
     1
  9
$DIMBLK1
  1
OPEN
  9
$DIMBLK2
  1
OPEN
  9
$DIMSTYLE
  2
IGA
  9
$DIMCLRD
 70
     0
  9
$DIMCLRE
 70
     0
  9
$DIMCLRT
 70
     0
  9
$DIMTFAC
 40
10.0
  9
$DIMGAP
 40
1.0
  9
$DIMJUST
 70
     0
  9
$DIMSD1
 70
     0
  9
$DIMSD2
 70
     0
  9
$DIMTOLJ
 70
     1
  9
$DIMTZIN
 70
     8
  9
$DIMALTZ
 70
     0
  9
$DIMALTTZ
 70
     0
  9
$DIMUPT
 70
     0
  9
$DIMDEC
 70
     0
  9
$DIMTDEC
 70
     0
  9
$DIMALTU
 70
     2
  9
$DIMALTTD
 70
     2
  9
$DIMTXSTY
  7
STANDARD
  9
$DIMAUNIT
 70
     0
  9
$DIMADEC
 70
     0
  9
$DIMALTRND
 40
0.0
  9
$DIMAZIN
 70
     0
  9
$DIMDSEP
 70
    46
  9
$DIMATFIT
 70
     3
  9
$DIMFRAC
 70
     0
  9
$DIMLDRBLK
  1
OPEN
  9
$DIMLUNIT
 70
     2
  9
$DIMLWD
 70
    -2
  9
$DIMLWE
 70
    -2
  9
$DIMTMOVE
 70
     2
  9
$DIMFXL
 40
1.0
  9
$DIMFXLON
 70
     0
  9
$DIMJOGANG
 40
0.7853981633974483
  9
$DIMTFILL
 70
     0
  9
$DIMTFILLCLR
 70
     0
  9
$DIMARCSYM
 70
     0
  9
$DIMLTYPE
  6

  9
$DIMLTEX1
  6

  9
$DIMLTEX2
  6

  9
$DIMTXTDIRECTION
 70
     0
  9
$LUNITS
 70
     2
  9
$LUPREC
 70
     3
  9
$SKETCHINC
 40
0.1
  9
$FILLETRAD
 40
50.0
  9
$AUNITS
 70
     0
  9
$AUPREC
 70
     0
  9
$MENU
  1
acad
  9
$ELEVATION
 40
0.0
  9
$PELEVATION
 40
0.0
  9
$THICKNESS
 40
0.0
  9
$LIMCHECK
 70
     0
  9
$CHAMFERA
 40
0.5
  9
$CHAMFERB
 40
0.5
  9
$CHAMFERC
 40
20.0
  9
$CHAMFERD
 40
0.0
  9
$SKPOLY
 70
     0
  9
$TDCREATE
 40
2451935.652899421
  9
$TDUCREATE
 40
2451935.277899421
  9
$TDUPDATE
 40
2459024.394560336
  9
$TDUUPDATE
 40
2459024.019560336
  9
$TDINDWG
 40
0.1772605903
  9
$TDUSRTIMER
 40
0.1772605903
  9
$USRTIMER
 70
     1
  9
$ANGBASE
 50
0.0
  9
$ANGDIR
 70
     0
  9
$PDMODE
 70
     0
  9
$PDSIZE
 40
0.0
  9
$PLINEWID
 40
0.0
  9
$SPLFRAME
 70
     0
  9
$SPLINETYPE
 70
     6
  9
$SPLINESEGS
 70
     8
  9
$HANDSEED
  5
84DC
  9
$SURFTAB1
 70
     6
  9
$SURFTAB2
 70
     6
  9
$SURFTYPE
 70
     6
  9
$SURFU
 70
     6
  9
$SURFV
 70
     6
  9
$UCSBASE
  2

  9
$UCSNAME
  2

  9
$UCSORG
 10
0.0
 20
0.0
 30
0.0
  9
$UCSXDIR
 10
1.0
 20
0.0
 30
0.0
  9
$UCSYDIR
 10
0.0
 20
1.0
 30
0.0
  9
$UCSORTHOREF
  2

  9
$UCSORTHOVIEW
 70
     0
  9
$UCSORGTOP
 10
0.0
 20
0.0
 30
0.0
  9
$UCSORGBOTTOM
 10
0.0
 20
0.0
 30
0.0
  9
$UCSORGLEFT
 10
0.0
 20
0.0
 30
0.0
  9
$UCSORGRIGHT
 10
0.0
 20
0.0
 30
0.0
  9
$UCSORGFRONT
 10
0.0
 20
0.0
 30
0.0
  9
$UCSORGBACK
 10
0.0
 20
0.0
 30
0.0
  9
$PUCSBASE
  2

  9
$PUCSNAME
  2

  9
$PUCSORG
 10
0.0
 20
0.0
 30
0.0
  9
$PUCSXDIR
 10
1.0
 20
0.0
 30
0.0
  9
$PUCSYDIR
 10
0.0
 20
1.0
 30
0.0
  9
$PUCSORTHOREF
  2

  9
$PUCSORTHOVIEW
 70
     0
  9
$PUCSORGTOP
 10
0.0
 20
0.0
 30
0.0
  9
$PUCSORGBOTTOM
 10
0.0
 20
0.0
 30
0.0
  9
$PUCSORGLEFT
 10
0.0
 20
0.0
 30
0.0
  9
$PUCSORGRIGHT
 10
0.0
 20
0.0
 30
0.0
  9
$PUCSORGFRONT
 10
0.0
 20
0.0
 30
0.0
  9
$PUCSORGBACK
 10
0.0
 20
0.0
 30
0.0
  9
$USERI1
 70
     0
  9
$USERI2
 70
     0
  9
$USERI3
 70
     0
  9
$USERI4
 70
     0
  9
$USERI5
 70
     0
  9
$USERR1
 40
0.0
  9
$USERR2
 40
0.0
  9
$USERR3
 40
0.0
  9
$USERR4
 40
0.0
  9
$USERR5
 40
0.0
  9
$WORLDVIEW
 70
     1
  9
$SHADEDGE
 70
     3
  9
$SHADEDIF
 70
    70
  9
$TILEMODE
 70
     1
  9
$MAXACTVP
 70
    16
  9
$PINSBASE
 10
0.0
 20
0.0
 30
0.0
  9
$PLIMCHECK
 70
     0
  9
$PEXTMIN
 10
1.000000000000000E+20
 20
1.000000000000000E+20
 30
1.000000000000000E+20
  9
$PEXTMAX
 10
-1.000000000000000E+20
 20
-1.000000000000000E+20
 30
-1.000000000000000E+20
  9
$PLIMMIN
 10
0.0
 20
0.0
  9
$PLIMMAX
 10
12.0
 20
9.0
  9
$UNITMODE
 70
     0
  9
$VISRETAIN
 70
     0
  9
$PLINEGEN
 70
     0
  9
$PSLTSCALE
 70
     1
  9
$TREEDEPTH
 70
  3020
  9
$CMLSTYLE
  2
STANDARD
  9
$CMLJUST
 70
     0
  9
$CMLSCALE
 40
20.0
  9
$PROXYGRAPHICS
 70
     1
  9
$MEASUREMENT
 70
     1
  9
$CELWEIGHT
370
    -1
  9
$ENDCAPS
280
     0
  9
$JOINSTYLE
280
     0
  9
$LWDISPLAY
290
     0
  9
$INSUNITS
 70
     0
  9
$HYPERLINKBASE
  1

  9
$STYLESHEET
  1

  9
$XEDIT
290
     1
  9
$CEPSNTYPE
380
     0
  9
$PSTYLEMODE
290
     1
  9
$FINGERPRINTGUID
  2
{01080618-1D48-47A3-9DCD-837F13ACD3F3}
  9
$VERSIONGUID
  2
{23DA8341-9AA2-4458-9925-6707EA0637CA}
  9
$EXTNAMES
290
     1
  9
$PSVPSCALE
 40
0.0
  9
$OLESTARTUP
290
     0
  9
$SORTENTS
280
   127
  9
$INDEXCTL
280
     0
  9
$HIDETEXT
280
     0
  9
$XCLIPFRAME
280
     2
  9
$HALOGAP
280
     0
  9
$OBSCOLOR
 70
   257
  9
$OBSLTYPE
280
     0
  9
$INTERSECTIONDISPLAY
280
     0
  9
$INTERSECTIONCOLOR
 70
   257
  9
$DIMASSOC
280
     1
  9
$PROJECTNAME
  1

  9
$CAMERADISPLAY
290
     0
  9
$LENSLENGTH
 40
50.0
  9
$CAMERAHEIGHT
 40
0.0
  9
$STEPSPERSEC
 40
2.0
  9
$STEPSIZE
 40
6.0
  9
$3DDWFPREC
 40
2.0
  9
$PSOLWIDTH
 40
0.25
  9
$PSOLHEIGHT
 40
4.0
  9
$LOFTANG1
 40
1.570796326794896
  9
$LOFTANG2
 40
1.570796326794896
  9
$LOFTMAG1
 40
0.0
  9
$LOFTMAG2
 40
0.0
  9
$LOFTPARAM
 70
     7
  9
$LOFTNORMALS
280
     1
  9
$LATITUDE
 40
37.795
  9
$LONGITUDE
 40
-122.394
  9
$NORTHDIRECTION
 40
0.0
  9
$TIMEZONE
 70
 -8000
  9
$LIGHTGLYPHDISPLAY
280
     1
  9
$TILEMODELIGHTSYNCH
280
     1
  9
$CMATERIAL
347
83A2
  9
$SOLIDHIST
280
     0
  9
$SHOWHIST
280
     1
  9
$DWFFRAME
280
     2
  9
$DGNFRAME
280
     0
  9
$REALWORLDSCALE
290
     1
  9
$INTERFERECOLOR
 62
     1
  9
$INTERFEREOBJVS
345
83C4
  9
$INTERFEREVPVS
346
83C1
  9
$CSHADOW
280
     0
  9
$SHADOWPLANELOCATION
 40
0.0
  0
ENDSEC
  0
SECTION
  2
CLASSES
  0
CLASS
  1
ACDBDICTIONARYWDFLT
  2
AcDbDictionaryWithDefault
  3
ObjectDBX Classes
 90
        0
 91
        1
280
     0
281
     0
  0
CLASS
  1
MATERIAL
  2
AcDbMaterial
  3
ObjectDBX Classes
 90
     1153
 91
        3
280
     0
281
     0
  0
CLASS
  1
VISUALSTYLE
  2
AcDbVisualStyle
  3
ObjectDBX Classes
 90
     4095
 91
       24
280
     0
281
     0
  0
CLASS
  1
TABLESTYLE
  2
AcDbTableStyle
  3
ObjectDBX Classes
 90
     4095
 91
        1
280
     0
281
     0
  0
CLASS
  1
SCALE
  2
AcDbScale
  3
ObjectDBX Classes
 90
     1153
 91
       17
280
     0
281
     0
  0
CLASS
  1
MLEADERSTYLE
  2
AcDbMLeaderStyle
  3
ACDB_MLEADERSTYLE_CLASS
 90
     4095
 91
        1
280
     0
281
     0
  0
CLASS
  1
ACDBSECTIONVIEWSTYLE
  2
AcDbSectionViewStyle
  3
ObjectDBX Classes
 90
     1025
 91
        1
280
     0
281
     0
  0
CLASS
  1
ACDBDETAILVIEWSTYLE
  2
AcDbDetailViewStyle
  3
ObjectDBX Classes
 90
     1025
 91
        1
280
     0
281
     0
  0
CLASS
  1
SORTENTSTABLE
  2
AcDbSortentsTable
  3
ObjectDBX Classes
 90
        0
 91
        1
280
     0
281
     0
  0
CLASS
  1
DICTIONARYVAR
  2
AcDbDictionaryVar
  3
ObjectDBX Classes
 90
        0
 91
        9
280
     0
281
     0
  0
CLASS
  1
CELLSTYLEMAP
  2
AcDbCellStyleMap
  3
ObjectDBX Classes
 90
     1152
 91
        1
280
     0
281
     0
  0
ENDSEC
  0
SECTION
  2
TABLES
  0
TABLE
  2
VPORT
  5
8
330
0
100
AcDbSymbolTable
 70
     1
  0
VPORT
  5
839F
330
8
100
AcDbSymbolTableRecord
100
AcDbViewportTableRecord
  2
*Active
 70
     0
 10
0.0
 20
0.0
 11
1.0
 21
1.0
 12
1050.000014669224
 22
1545.633256078082
 13
0.0
 23
0.0
 14
10.0
 24
10.0
 15
10.0
 25
10.0
 16
0.0
 26
0.0
 36
1.0
 17
0.0
 27
0.0
 37
0.0
 40
3110.722971016731
 41
1.957107843137255
 42
50.0
 43
0.0
 44
0.0
 50
0.0
 51
0.0
 71
     0
 72
   100
 73
     1
 74
     0
 75
     0
 76
     0
 77
     0
 78
     0
281
     0
 65
     1
110
0.0
120
0.0
130
0.0
111
1.0
121
0.0
131
0.0
112
0.0
122
1.0
132
0.0
 79
     0
146
0.0
348
83C0
 60
     3
 61
     5
292
     1
282
     1
141
0.0
142
0.0
 63
   250
421
  3355443
1001
ACAD_NAV_VCDISPLAY
1070
     3
  0
ENDTAB
  0
TABLE
  2
LTYPE
  5
5
330
0
100
AcDbSymbolTable
 70
     2
  0
LTYPE
  5
13
330
5
100
AcDbSymbolTableRecord
100
AcDbLinetypeTableRecord
  2
BYBLOCK
 70
     0
  3

 72
    65
 73
     0
 40
0.0
  0
LTYPE
  5
14
330
5
100
AcDbSymbolTableRecord
100
AcDbLinetypeTableRecord
  2
BYLAYER
 70
     0
  3

 72
    65
 73
     0
 40
0.0
  0
LTYPE
  5
15
330
5
100
AcDbSymbolTableRecord
100
AcDbLinetypeTableRecord
  2
CONTINUOUS
 70
     0
  3
Solid line
 72
    65
 73
     0
 40
0.0
  0
LTYPE
  5
1F
330
5
100
AcDbSymbolTableRecord
100
AcDbLinetypeTableRecord
  2
CENTER
 70
     0
  3
____ _ ____ _ ____ _ ____ _ ____ _ ____ _ ____ 
 72
    65
 73
     4
 40
2.0
 49
1.25
 74
     0
 49
-0.25
 74
     0
 49
0.25
 74
     0
 49
-0.25
 74
     0
  0
ENDTAB
  0
TABLE
  2
LAYER
  5
2
102
{ACAD_XDICTIONARY
360
8458
102
}
330
0
100
AcDbSymbolTable
 70
     6
  0
LAYER
  5
F
102
{ACAD_XDICTIONARY
360
844B
102
}
330
2
100
AcDbSymbolTableRecord
100
AcDbLayerTableRecord
  2
0
 70
     0
 62
     7
  6
CONTINUOUS
370
    -3
390
8392
347
83B2
348
0
  0
LAYER
  5
31
102
{ACAD_XDICTIONARY
360
844D
102
}
330
2
100
AcDbSymbolTableRecord
100
AcDbLayerTableRecord
  2
3
 70
     0
 62
     2
  6
CONTINUOUS
370
    -3
390
8392
347
83B2
348
0
  0
LAYER
  5
76D0
102
{ACAD_XDICTIONARY
360
844F
102
}
330
2
100
AcDbSymbolTableRecord
100
AcDbLayerTableRecord
  2
2
 70
     0
 62
     3
  6
CENTER
370
    -3
390
8392
347
83B2
348
0
  0
LAYER
  5
76D1
102
{ACAD_XDICTIONARY
360
8451
102
}
330
2
100
AcDbSymbolTableRecord
100
AcDbLayerTableRecord
  2
1
 70
     0
 62
     4
  6
CONTINUOUS
370
    -3
390
8392
347
83B2
348
0
  0
LAYER
  5
76D2
102
{ACAD_XDICTIONARY
360
8453
102
}
330
2
100
AcDbSymbolTableRecord
100
AcDbLayerTableRecord
  2
4
 70
     0
 62
     7
  6
CONTINUOUS
370
    -3
390
8392
347
83B2
348
0
  0
LAYER
  5
7B1B
330
2
100
AcDbSymbolTableRecord
100
AcDbLayerTableRecord
  2
DEFPOINTS
 70
     0
 62
     7
  6
CONTINUOUS
290
     0
370
    -3
390
8392
347
83B2
348
0
  0
ENDTAB
  0
TABLE
  2
STYLE
  5
3
330
0
100
AcDbSymbolTable
 70
     1
  0
STYLE
  5
10
330
3
100
AcDbSymbolTableRecord
100
AcDbTextStyleTableRecord
  2
STANDARD
 70
     0
 40
0.0
 41
1.0
 50
0.0
 71
     0
 42
180.0
  3
simplex.shx
  4
extfont.shx
  0
ENDTAB
  0
TABLE
  2
VIEW
  5
6
330
0
100
AcDbSymbolTable
 70
     0
  0
ENDTAB
  0
TABLE
  2
UCS
  5
7
330
0
100
AcDbSymbolTable
 70
     0
  0
ENDTAB
  0
TABLE
  2
APPID
  5
9
330
0
100
AcDbSymbolTable
 70
     4
  0
APPID
  5
11
330
9
100
AcDbSymbolTableRecord
100
AcDbRegAppTableRecord
  2
ACAD
 70
     0
  0
APPID
  5
845E
330
9
100
AcDbSymbolTableRecord
100
AcDbRegAppTableRecord
  2
ACAD_NAV_VCDISPLAY
 70
     0
  0
APPID
  5
8472
330
9
100
AcDbSymbolTableRecord
100
AcDbRegAppTableRecord
  2
AcadAnnoMonitorAlertIconDisabled
 70
     0
  0
APPID
  5
8473
330
9
100
AcDbSymbolTableRecord
100
AcDbRegAppTableRecord
  2
ACAD_EXEMPT_FROM_CAD_STANDARDS
 70
     0
  0
ENDTAB
  0
TABLE
  2
DIMSTYLE
  5
A
330
0
100
AcDbSymbolTable
 70
     1
100
AcDbDimStyleTable
 71
     1
340
1D
  0
DIMSTYLE
105
1D
102
{ACAD_REACTORS
330
7C9A
330
7CBA
330
7CBB
330
7CBC
330
7CBD
330
7D07
330
7D08
330
7D09
330
7D0A
330
7D0D
330
7D0E
330
8201
330
820E
330
8242
330
824F
330
8269
330
8278
330
8313
330
835F
330
836C
102
}
330
A
100
AcDbSymbolTableRecord
100
AcDbDimStyleTableRecord
  2
IGA
 70
     0
 40
2.0
 41
2.0
 42
0.5
 43
10.0
 44
1.0
 47
1.0
 48
1.0
 73
     0
 74
     0
 77
     1
 78
     8
140
3.0
141
0.0
143
0.03937
146
10.0
147
1.0
173
     1
271
     1
272
     0
279
     2
284
     8
340
10
341
79FC
343
79FC
344
79FC
  0
ENDTAB
  0
TABLE
  2
BLOCK_RECORD
  5
1
330
0
100
AcDbSymbolTable
 70
    23
  0
BLOCK_RECORD
  5
19
102
{ACAD_XDICTIONARY
360
83F2
102
}
330
1
100
AcDbSymbolTableRecord
100
AcDbBlockTableRecord
  2
*MODEL_SPACE
340
8395
 70
     0
280
     1
281
     0
  0
BLOCK_RECORD
  5
16
330
1
100
AcDbSymbolTableRecord
100
AcDbBlockTableRecord
  2
*PAPER_SPACE
340
8396
 70
     0
280
     1
281
     0
  0
BLOCK_RECORD
  5
79FC
330
1
100
AcDbSymbolTableRecord
100
AcDbBlockTableRecord
  2
_OPEN
340
0
102
{BLKREFS
331
7F21
331
7F22
331
7F2C
331
7F2D
331
7F67
331
7F68
331
7F72
331
7F73
331
8004
331
8005
331
8078
331
8079
331
808E
331
808F
331
80DB
331
80DC
331
8140
331
8141
331
81FA
331
81FB
331
8207
331
8208
331
82CE
331
82CF
331
83F7
331
83F8
331
8400
331
8401
331
8409
331
840A
331
8414
331
8415
331
843C
331
8446
331
8493
331
8494
331
84B9
331
84BA
102
}
 70
     0
280
     1
281
     0
  0
BLOCK_RECORD
  5
7A02
330
1
100
AcDbSymbolTableRecord
100
AcDbBlockTableRecord
  2
YA_N
340
0
102
{BLKREFS
331
7C1F
331
7C20
102
}
 70
     0
280
     1
281
     0
  0
BLOCK_RECORD
  5
7A34
330
1
100
AcDbSymbolTableRecord
100
AcDbBlockTableRecord
  2
_DOT
340
0
102
{BLKREFS
331
843B
331
8445
102
}
 70
     0
280
     1
281
     0
  0
BLOCK_RECORD
  5
7D1C
330
1
100
AcDbSymbolTableRecord
100
AcDbBlockTableRecord
  2
*D3
340
0
 70
     0
280
     1
281
     0
  0
BLOCK_RECORD
  5
7D6E
330
1
100
AcDbSymbolTableRecord
100
AcDbBlockTableRecord
  2
*D4
340
0
 70
     0
280
     1
281
     0
  0
BLOCK_RECORD
  5
7D7A
330
1
100
AcDbSymbolTableRecord
100
AcDbBlockTableRecord
  2
*D5
340
0
 70
     0
280
     1
281
     0
  0
BLOCK_RECORD
  5
7D86
330
1
100
AcDbSymbolTableRecord
100
AcDbBlockTableRecord
  2
*D6
340
0
 70
     0
280
     1
281
     0
  0
BLOCK_RECORD
  5
7D92
330
1
100
AcDbSymbolTableRecord
100
AcDbBlockTableRecord
  2
*D7
340
0
 70
     0
280
     1
281
     0
  0
BLOCK_RECORD
  5
7DB5
330
1
100
AcDbSymbolTableRecord
100
AcDbBlockTableRecord
  2
*D8
340
0
 70
     0
280
     1
281
     0
  0
BLOCK_RECORD
  5
7DC1
330
1
100
AcDbSymbolTableRecord
100
AcDbBlockTableRecord
  2
*D9
340
0
 70
     0
280
     1
281
     0
  0
BLOCK_RECORD
  5
7DCC
330
1
100
AcDbSymbolTableRecord
100
AcDbBlockTableRecord
  2
*D10
340
0
 70
     0
280
     1
281
     0
  0
BLOCK_RECORD
  5
7DD8
330
1
100
AcDbSymbolTableRecord
100
AcDbBlockTableRecord
  2
*D11
340
0
 70
     0
280
     1
281
     0
  0
BLOCK_RECORD
  5
7DFE
330
1
100
AcDbSymbolTableRecord
100
AcDbBlockTableRecord
  2
*D12
340
0
 70
     0
280
     1
281
     0
  0
BLOCK_RECORD
  5
7E0A
330
1
100
AcDbSymbolTableRecord
100
AcDbBlockTableRecord
  2
*D13
340
0
 70
     0
280
     1
281
     0
  0
BLOCK_RECORD
  5
81F5
330
1
100
AcDbSymbolTableRecord
100
AcDbBlockTableRecord
  2
*D14
340
0
 70
     0
280
     1
281
     0
  0
BLOCK_RECORD
  5
8202
330
1
100
AcDbSymbolTableRecord
100
AcDbBlockTableRecord
  2
*D15
340
0
 70
     0
280
     1
281
     0
  0
BLOCK_RECORD
  5
8236
330
1
100
AcDbSymbolTableRecord
100
AcDbBlockTableRecord
  2
*D16
340
0
 70
     0
280
     1
281
     0
  0
BLOCK_RECORD
  5
8243
330
1
100
AcDbSymbolTableRecord
100
AcDbBlockTableRecord
  2
*D17
340
0
 70
     0
280
     1
281
     0
  0
BLOCK_RECORD
  5
825D
330
1
100
AcDbSymbolTableRecord
100
AcDbBlockTableRecord
  2
*D18
340
0
 70
     0
280
     1
281
     0
  0
BLOCK_RECORD
  5
826A
330
1
100
AcDbSymbolTableRecord
100
AcDbBlockTableRecord
  2
*D19
340
0
 70
     0
280
     1
281
     0
  0
BLOCK_RECORD
  5
8305
330
1
100
AcDbSymbolTableRecord
100
AcDbBlockTableRecord
  2
*D20
340
0
 70
     0
280
     1
281
     0
  0
BLOCK_RECORD
  5
8353
330
1
100
AcDbSymbolTableRecord
100
AcDbBlockTableRecord
  2
*D21
340
0
 70
     0
280
     1
281
     0
  0
BLOCK_RECORD
  5
8360
330
1
100
AcDbSymbolTableRecord
100
AcDbBlockTableRecord
  2
*D22
340
0
 70
     0
280
     1
281
     0
  0
ENDTAB
  0
ENDSEC
  0
SECTION
  2
BLOCKS
  0
BLOCK
  5
1A
330
19
100
AcDbEntity
  8
0
100
AcDbBlockBegin
  2
*MODEL_SPACE
 70
     0
 10
0.0
 20
0.0
 30
0.0
  3
*MODEL_SPACE
  1

  0
ENDBLK
  5
1B
330
19
100
AcDbEntity
  8
0
100
AcDbBlockEnd
  0
BLOCK
  5
17
330
16
100
AcDbEntity
 67
     1
  8
0
100
AcDbBlockBegin
  2
*PAPER_SPACE
 70
     0
 10
0.0
 20
0.0
 30
0.0
  3
*PAPER_SPACE
  1

  0
ENDBLK
  5
18
330
16
100
AcDbEntity
 67
     1
  8
0
100
AcDbBlockEnd
  0
BLOCK
  5
7A00
330
79FC
100
AcDbEntity
  8
0
100
AcDbBlockBegin
  2
_OPEN
 70
     0
 10
0.0
 20
0.0
 30
0.0
  3
_OPEN
  1

  0
LINE
  5
79FD
330
79FC
100
AcDbEntity
  8
0
  6
ByBlock
 62
     0
100
AcDbLine
 10
-1.0
 20
0.1666666666666666
 30
0.0
 11
0.0
 21
0.0
 31
0.0
  0
LINE
  5
79FE
330
79FC
100
AcDbEntity
  8
0
  6
ByBlock
 62
     0
100
AcDbLine
 10
0.0
 20
0.0
 30
0.0
 11
-1.0
 21
-0.1666666666666666
 31
0.0
  0
LINE
  5
79FF
330
79FC
100
AcDbEntity
  8
0
  6
ByBlock
 62
     0
100
AcDbLine
 10
0.0
 20
0.0
 30
0.0
 11
-1.0
 21
0.0
 31
0.0
  0
ENDBLK
  5
7A01
330
79FC
100
AcDbEntity
  8
0
100
AcDbBlockEnd
  0
BLOCK
  5
7A03
330
7A02
100
AcDbEntity
  8
0
100
AcDbBlockBegin
  2
YA_N
 70
     0
 10
0.0
 20
0.0
 30
0.0
  3
YA_N
  1

  0
ENDBLK
  5
7A04
330
7A02
100
AcDbEntity
  8
0
100
AcDbBlockEnd
  0
BLOCK
  5
7A3A
330
7A34
100
AcDbEntity
  8
0
100
AcDbBlockBegin
  2
_DOT
 70
     0
 10
0.0
 20
0.0
 30
0.0
  3
_DOT
  1

  0
LINE
  5
814B
330
7A34
100
AcDbEntity
  8
0
  6
ByBlock
 62
     0
100
AcDbLine
 10
0.0
 20
0.0
 30
0.0
 11
-1.0
 21
-0.0000000000000284
 31
0.0
  0
LWPOLYLINE
  5
814C
330
7A34
100
AcDbEntity
  8
0
  6
ByBlock
 62
     0
100
AcDbPolyline
 90
        2
 70
     1
 43
0.1666666666666666
 10
-0.0833333333333286
 20
-0.0000000000000284
 42
1.0
 10
0.0833333333333286
 20
-0.0000000000000284
 42
1.0
  0
ENDBLK
  5
7A3B
330
7A34
100
AcDbEntity
  8
0
100
AcDbBlockEnd
  0
BLOCK
  5
8000
330
7D1C
100
AcDbEntity
  8
0
100
AcDbBlockBegin
  2
*D3
 70
     1
 10
0.0
 20
0.0
 30
0.0
  3
*D3
  1

  0
LINE
  5
8001
330
7D1C
100
AcDbEntity
  8
0
  6
ByBlock
 62
     0
440
 16777216
100
AcDbLine
 10
818.3286300685541
 20
828.9607394630269
 30
0.0
 11
894.1067138440226
 21
828.9607394630269
 31
0.0
  0
LINE
  5
8002
330
7D1C
100
AcDbEntity
  8
0
  6
ByBlock
 62
     0
440
 16777216
100
AcDbLine
 10
818.3286300685542
 20
988.9607394630269
 30
0.0
 11
894.1067138440226
 21
988.9607394630269
 31
0.0
  0
LINE
  5
8003
330
7D1C
100
AcDbEntity
  8
0
  6
ByBlock
 62
     0
440
 16777216
100
AcDbLine
 10
884.1067138440225
 20
848.9607394630269
 30
0.0
 11
884.1067138440225
 21
968.960739463027
 31
0.0
  0
INSERT
  5
8004
330
7D1C
100
AcDbEntity
  8
0
  6
ByBlock
 62
     0
440
 16777216
100
AcDbBlockReference
  2
_OPEN
 10
884.1067138440225
 20
828.9607394630269
 30
0.0
 41
20.0
 42
20.0
 43
20.0
 50
270.0
  0
INSERT
  5
8005
330
7D1C
100
AcDbEntity
  8
0
  6
ByBlock
 62
     0
440
 16777216
100
AcDbBlockReference
  2
_OPEN
 10
884.1067138440225
 20
988.9607394630269
 30
0.0
 41
20.0
 42
20.0
 43
20.0
 50
90.0
  0
MTEXT
  5
8006
330
7D1C
100
AcDbEntity
  8
0
  6
ByBlock
 62
     0
440
 16777216
100
AcDbMText
 10
859.1067138440225
 20
923.2464537487413
 30
0.0
 40
30.0
 41
0.0
 46
0.0
 71
     5
 72
     5
  1
\A1;160
 11
0.0
 21
1.0
 31
0.0
 73
     1
 44
1.0
  0
POINT
  5
8007
330
7D1C
100
AcDbEntity
  8
DEFPOINTS
  6
ByBlock
 62
     0
440
 16777216
100
AcDbPoint
 10
813.328630068554
 20
828.9607394630269
 30
0.0
  0
POINT
  5
8008
330
7D1C
100
AcDbEntity
  8
DEFPOINTS
  6
ByBlock
 62
     0
440
 16777216
100
AcDbPoint
 10
813.3286300685542
 20
988.9607394630269
 30
0.0
  0
POINT
  5
8009
330
7D1C
100
AcDbEntity
  8
DEFPOINTS
  6
ByBlock
 62
     0
440
 16777216
100
AcDbPoint
 10
884.1067138440225
 20
988.9607394630269
 30
0.0
  0
ENDBLK
  5
800A
330
7D1C
100
AcDbEntity
  8
0
100
AcDbBlockEnd
  0
BLOCK
  5
813C
330
7D6E
100
AcDbEntity
  8
0
100
AcDbBlockBegin
  2
*D4
 70
     1
 10
0.0
 20
0.0
 30
0.0
  3
*D4
  1

  0
LINE
  5
813D
330
7D6E
100
AcDbEntity
  8
0
  6
ByBlock
 62
     0
440
 16777216
100
AcDbLine
 10
1920.51928371928
 20
1070.910744761168
 30
0.0
 11
2006.159947528817
 21
1070.910744761168
 31
0.0
  0
LINE
  5
813E
330
7D6E
100
AcDbEntity
  8
0
  6
ByBlock
 62
     0
440
 16777216
100
AcDbLine
 10
1920.51928371928
 20
894.9107447611687
 30
0.0
 11
2006.159947528817
 21
894.9107447611687
 31
0.0
  0
LINE
  5
813F
330
7D6E
100
AcDbEntity
  8
0
  6
ByBlock
 62
     0
440
 16777216
100
AcDbLine
 10
1996.159947528816
 20
1050.910744761168
 30
0.0
 11
1996.159947528816
 21
914.9107447611687
 31
0.0
  0
INSERT
  5
8140
330
7D6E
100
AcDbEntity
  8
0
  6
ByBlock
 62
     0
440
 16777216
100
AcDbBlockReference
  2
_OPEN
 10
1996.159947528816
 20
1070.910744761168
 30
0.0
 41
20.0
 42
20.0
 43
20.0
 50
90.0
  0
INSERT
  5
8141
330
7D6E
100
AcDbEntity
  8
0
  6
ByBlock
 62
     0
440
 16777216
100
AcDbBlockReference
  2
_OPEN
 10
1996.159947528816
 20
894.9107447611687
 30
0.0
 41
20.0
 42
20.0
 43
20.0
 50
270.0
  0
MTEXT
  5
8142
330
7D6E
100
AcDbEntity
  8
0
  6
ByBlock
 62
     0
440
 16777216
100
AcDbMText
 10
1971.159947528817
 20
982.9107447611686
 30
0.0
 40
30.0
 41
0.0
 46
0.0
 71
     5
 72
     5
  1
\A1;φ176
 11
0.0
 21
1.0
 31
0.0
 73
     1
 44
1.0
  0
POINT
  5
8143
330
7D6E
100
AcDbEntity
  8
DEFPOINTS
  6
ByBlock
 62
     0
440
 16777216
100
AcDbPoint
 10
1915.51928371928
 20
1070.910744761168
 30
0.0
  0
POINT
  5
8144
330
7D6E
100
AcDbEntity
  8
DEFPOINTS
  6
ByBlock
 62
     0
440
 16777216
100
AcDbPoint
 10
1915.51928371928
 20
894.9107447611687
 30
0.0
  0
POINT
  5
8145
330
7D6E
100
AcDbEntity
  8
DEFPOINTS
  6
ByBlock
 62
     0
440
 16777216
100
AcDbPoint
 10
1996.159947528816
 20
894.9107447611687
 30
0.0
  0
ENDBLK
  5
8146
330
7D6E
100
AcDbEntity
  8
0
100
AcDbBlockEnd
  0
BLOCK
  5
8089
330
7D7A
100
AcDbEntity
  8
0
100
AcDbBlockBegin
  2
*D5
 70
     1
 10
0.0
 20
0.0
 30
0.0
  3
*D5
  1

  0
LINE
  5
808A
330
7D7A
100
AcDbEntity
  8
0
  6
ByBlock
 62
     0
440
 16777216
100
AcDbLine
 10
1771.519283719279
 20
1100.67729809108
 30
0.0
 11
1771.519283719279
 21
1179.021253878446
 31
0.0
  0
LINE
  5
808B
330
7D7A
100
AcDbEntity
  8
0
  6
ByBlock
 62
     0
440
 16777216
100
AcDbLine
 10
1891.519283719279
 20
1100.677298091079
 30
0.0
 11
1891.519283719279
 21
1179.021253878446
 31
0.0
  0
LINE
  5
808C
330
7D7A
100
AcDbEntity
  8
0
  6
ByBlock
 62
     0
440
 16777216
100
AcDbLine
 10
1791.519283719279
 20
1169.021253878446
 30
0.0
 11
1871.519283719279
 21
1169.021253878446
 31
0.0
  0
MTEXT
  5
808D
330
7D7A
100
AcDbEntity
  8
0
  6
ByBlock
 62
     0
440
 16777216
100
AcDbMText
 10
1831.519283719279
 20
1196.751384352566
 30
0.0
 40
30.0
 41
0.0
 46
0.0
 71
     5
 72
     5
  1
\A1;120
 73
     1
 44
1.0
  0
INSERT
  5
808E
330
7D7A
100
AcDbEntity
  8
0
  6
ByBlock
 62
     0
440
 16777216
100
AcDbBlockReference
  2
_OPEN
 10
1771.519283719279
 20
1169.021253878446
 30
0.0
 41
20.0
 42
20.0
 43
20.0
 50
180.0
  0
INSERT
  5
808F
330
7D7A
100
AcDbEntity
  8
0
  6
ByBlock
 62
     0
440
 16777216
100
AcDbBlockReference
  2
_OPEN
 10
1891.519283719279
 20
1169.021253878446
 30
0.0
 41
20.0
 42
20.0
 43
20.0
  0
POINT
  5
8090
330
7D7A
100
AcDbEntity
  8
DEFPOINTS
  6
ByBlock
 62
     0
440
 16777216
100
AcDbPoint
 10
1771.519283719279
 20
1095.67729809108
 30
0.0
  0
POINT
  5
8091
330
7D7A
100
AcDbEntity
  8
DEFPOINTS
  6
ByBlock
 62
     0
440
 16777216
100
AcDbPoint
 10
1891.519283719279
 20
1095.67729809108
 30
0.0
  0
POINT
  5
8092
330
7D7A
100
AcDbEntity
  8
DEFPOINTS
  6
ByBlock
 62
     0
440
 16777216
100
AcDbPoint
 10
1891.519283719279
 20
1169.021253878446
 30
0.0
  0
ENDBLK
  5
8093
330
7D7A
100
AcDbEntity
  8
0
100
AcDbBlockEnd
  0
BLOCK
  5
8073
330
7D86
100
AcDbEntity
  8
0
100
AcDbBlockBegin
  2
*D6
 70
     1
 10
0.0
 20
0.0
 30
0.0
  3
*D6
  1

  0
LINE
  5
8074
330
7D86
100
AcDbEntity
  8
0
  6
ByBlock
 62
     0
440
 16777216
100
AcDbLine
 10
1895.51928371928
 20
1098.910744761169
 30
0.0
 11
1895.51928371928
 21
1268.400228699146
 31
0.0
  0
LINE
  5
8075
330
7D86
100
AcDbEntity
  8
0
  6
ByBlock
 62
     0
440
 16777216
100
AcDbLine
 10
1831.51928371928
 20
1223.316294539697
 30
0.0
 11
1831.51928371928
 21
1268.400228699146
 31
0.0
  0
LINE
  5
8076
330
7D86
100
AcDbEntity
  8
0
  6
ByBlock
 62
     0
440
 16777216
100
AcDbLine
 10
1875.519283719279
 20
1258.400228699146
 30
0.0
 11
1851.51928371928
 21
1258.400228699146
 31
0.0
  0
MTEXT
  5
8077
330
7D86
100
AcDbEntity
  8
0
  6
ByBlock
 62
     0
440
 16777216
100
AcDbMText
 10
1863.51928371928
 20
1298.400228699146
 30
0.0
 40
30.0
 41
0.0
 46
0.0
 71
     5
 72
     5
  1
\A1;64
 73
     1
 44
1.0
  0
INSERT
  5
8078
330
7D86
100
AcDbEntity
  8
0
  6
ByBlock
 62
     0
440
 16777216
100
AcDbBlockReference
  2
_OPEN
 10
1895.51928371928
 20
1258.400228699146
 30
0.0
 41
20.0
 42
20.0
 43
20.0
  0
INSERT
  5
8079
330
7D86
100
AcDbEntity
  8
0
  6
ByBlock
 62
     0
440
 16777216
100
AcDbBlockReference
  2
_OPEN
 10
1831.51928371928
 20
1258.400228699146
 30
0.0
 41
20.0
 42
20.0
 43
20.0
 50
180.0
  0
POINT
  5
807A
330
7D86
100
AcDbEntity
  8
DEFPOINTS
  6
ByBlock
 62
     0
440
 16777216
100
AcDbPoint
 10
1895.51928371928
 20
1093.910744761169
 30
0.0
  0
POINT
  5
807B
330
7D86
100
AcDbEntity
  8
DEFPOINTS
  6
ByBlock
 62
     0
440
 16777216
100
AcDbPoint
 10
1831.51928371928
 20
1218.316294539697
 30
0.0
  0
POINT
  5
807C
330
7D86
100
AcDbEntity
  8
DEFPOINTS
  6
ByBlock
 62
     0
440
 16777216
100
AcDbPoint
 10
1831.51928371928
 20
1258.400228699146
 30
0.0
  0
ENDBLK
  5
807D
330
7D86
100
AcDbEntity
  8
0
100
AcDbBlockEnd
  0
BLOCK
  5
8131
330
7D92
100
AcDbEntity
  8
0
100
AcDbBlockBegin
  2
*D7
 70
     1
 10
0.0
 20
0.0
 30
0.0
  3
*D7
  1

  0
LINE
  5
84B6
330
7D92
100
AcDbEntity
  8
3
 62
     0
440
 16777216
370
    -2
100
AcDbLine
 10
1831.51928371928
 20
1362.961264157315
 30
0.0
 11
1831.51928371928
 21
1408.045198316764
 31
0.0
  0
LINE
  5
84B7
330
7D92
100
AcDbEntity
  8
3
 62
     0
440
 16777216
370
    -2
100
AcDbLine
 10
1415.774233323982
 20
1282.561679464906
 30
0.0
 11
1415.774233323982
 21
1408.045198316764
 31
0.0
  0
LINE
  5
84B8
330
7D92
100
AcDbEntity
  8
3
 62
     0
440
 16777216
370
    -2
100
AcDbLine
 10
1811.51928371928
 20
1398.045198316764
 30
0.0
 11
1435.774233323982
 21
1398.045198316764
 31
0.0
  0
INSERT
  5
84B9
330
7D92
100
AcDbEntity
  8
3
 62
     0
440
 16777216
370
    -2
100
AcDbBlockReference
  2
_OPEN
 10
1831.51928371928
 20
1398.045198316764
 30
0.0
 41
20.0
 42
20.0
 43
20.0
  0
INSERT
  5
84BA
330
7D92
100
AcDbEntity
  8
3
 62
     0
440
 16777216
370
    -2
100
AcDbBlockReference
  2
_OPEN
 10
1415.774233323982
 20
1398.045198316764
 30
0.0
 41
20.0
 42
20.0
 43
20.0
 50
180.0
  0
MTEXT
  5
84BB
330
7D92
100
AcDbEntity
  8
3
 62
     0
440
 16777216
100
AcDbMText
 10
1623.646758521631
 20
1455.902341173907
 30
0.0
 40
30.0
 41
0.0
 46
0.0
 71
     5
 72
     1
  1
\A1;\P(500)
 73
     1
 44
1.0
  0
POINT
  5
84BC
330
7D92
100
AcDbEntity
  8
DEFPOINTS
 62
     0
440
 16777216
100
AcDbPoint
 10
1831.51928371928
 20
1357.961264157315
 30
0.0
  0
POINT
  5
84BD
330
7D92
100
AcDbEntity
  8
DEFPOINTS
 62
     0
440
 16777216
100
AcDbPoint
 10
1415.774233323982
 20
1277.561679464906
 30
0.0
  0
POINT
  5
84BE
330
7D92
100
AcDbEntity
  8
DEFPOINTS
 62
     0
440
 16777216
100
AcDbPoint
 10
1415.774233323982
 20
1398.045198316764
 30
0.0
  0
ENDBLK
  5
813B
330
7D92
100
AcDbEntity
  8
0
100
AcDbBlockEnd
  0
BLOCK
  5
7F6E
330
7DB5
100
AcDbEntity
  8
0
100
AcDbBlockBegin
  2
*D8
 70
     1
 10
0.0
 20
0.0
 30
0.0
  3
*D8
  1

  0
LINE
  5
7F6F
330
7DB5
100
AcDbEntity
  8
0
  6
ByBlock
 62
     0
440
 16777216
100
AcDbLine
 10
833.3286300685539
 20
1016.260739463027
 30
0.0
 11
833.3286300685539
 21
1196.213836360371
 31
0.0
  0
LINE
  5
7F70
330
7DB5
100
AcDbEntity
  8
0
  6
ByBlock
 62
     0
440
 16777216
100
AcDbLine
 10
673.3286300685545
 20
1166.51680325826
 30
0.0
 11
673.3286300685545
 21
1196.213836360371
 31
0.0
  0
LINE
  5
7F71
330
7DB5
100
AcDbEntity
  8
0
  6
ByBlock
 62
     0
440
 16777216
100
AcDbLine
 10
813.328630068554
 20
1186.213836360371
 30
0.0
 11
693.3286300685544
 21
1186.213836360371
 31
0.0
  0
INSERT
  5
7F72
330
7DB5
100
AcDbEntity
  8
0
  6
ByBlock
 62
     0
440
 16777216
100
AcDbBlockReference
  2
_OPEN
 10
833.3286300685539
 20
1186.213836360371
 30
0.0
 41
20.0
 42
20.0
 43
20.0
  0
INSERT
  5
7F73
330
7DB5
100
AcDbEntity
  8
0
  6
ByBlock
 62
     0
440
 16777216
100
AcDbBlockReference
  2
_OPEN
 10
673.3286300685545
 20
1186.213836360371
 30
0.0
 41
20.0
 42
20.0
 43
20.0
 50
180.0
  0
MTEXT
  5
7F74
330
7DB5
100
AcDbEntity
  8
0
  6
ByBlock
 62
     0
440
 16777216
100
AcDbMText
 10
753.3286300685542
 20
1211.213836360371
 30
0.0
 40
30.0
 41
0.0
 46
0.0
 71
     5
 72
     5
  1
\A1;160
 73
     1
 44
1.0
  0
POINT
  5
7F75
330
7DB5
100
AcDbEntity
  8
DEFPOINTS
  6
ByBlock
 62
     0
440
 16777216
100
AcDbPoint
 10
833.3286300685539
 20
1011.260739463027
 30
0.0
  0
POINT
  5
7F76
330
7DB5
100
AcDbEntity
  8
DEFPOINTS
  6
ByBlock
 62
     0
440
 16777216
100
AcDbPoint
 10
673.3286300685545
 20
1161.51680325826
 30
0.0
  0
POINT
  5
7F77
330
7DB5
100
AcDbEntity
  8
DEFPOINTS
  6
ByBlock
 62
     0
440
 16777216
100
AcDbPoint
 10
673.3286300685545
 20
1186.213836360371
 30
0.0
  0
ENDBLK
  5
7F78
330
7DB5
100
AcDbEntity
  8
0
100
AcDbBlockEnd
  0
BLOCK
  5
7F63
330
7DC1
100
AcDbEntity
  8
0
100
AcDbBlockBegin
  2
*D9
 70
     1
 10
0.0
 20
0.0
 30
0.0
  3
*D9
  1

  0
LINE
  5
7F64
330
7DC1
100
AcDbEntity
  8
0
  6
ByBlock
 62
     0
440
 16777216
100
AcDbLine
 10
673.3286300685545
 20
1166.51680325826
 30
0.0
 11
673.3286300685545
 21
1196.213836360371
 31
0.0
  0
LINE
  5
7F65
330
7DC1
100
AcDbEntity
  8
0
  6
ByBlock
 62
     0
440
 16777216
100
AcDbLine
 10
536.8286300685542
 20
980.4607394630279
 30
0.0
 11
536.8286300685542
 21
1196.213836360371
 31
0.0
  0
LINE
  5
7F66
330
7DC1
100
AcDbEntity
  8
0
  6
ByBlock
 62
     0
440
 16777216
100
AcDbLine
 10
653.3286300685545
 20
1186.213836360371
 30
0.0
 11
556.8286300685542
 21
1186.213836360371
 31
0.0
  0
INSERT
  5
7F67
330
7DC1
100
AcDbEntity
  8
0
  6
ByBlock
 62
     0
440
 16777216
100
AcDbBlockReference
  2
_OPEN
 10
673.3286300685545
 20
1186.213836360371
 30
0.0
 41
20.0
 42
20.0
 43
20.0
  0
INSERT
  5
7F68
330
7DC1
100
AcDbEntity
  8
0
  6
ByBlock
 62
     0
440
 16777216
100
AcDbBlockReference
  2
_OPEN
 10
536.8286300685542
 20
1186.213836360371
 30
0.0
 41
20.0
 42
20.0
 43
20.0
 50
180.0
  0
MTEXT
  5
7F69
330
7DC1
100
AcDbEntity
  8
0
  6
ByBlock
 62
     0
440
 16777216
100
AcDbMText
 10
605.0786300685544
 20
1211.213836360371
 30
0.0
 40
30.0
 41
0.0
 46
0.0
 71
     5
 72
     5
  1
\A1;136
 73
     1
 44
1.0
  0
POINT
  5
7F6A
330
7DC1
100
AcDbEntity
  8
DEFPOINTS
  6
ByBlock
 62
     0
440
 16777216
100
AcDbPoint
 10
673.3286300685545
 20
1161.51680325826
 30
0.0
  0
POINT
  5
7F6B
330
7DC1
100
AcDbEntity
  8
DEFPOINTS
  6
ByBlock
 62
     0
440
 16777216
100
AcDbPoint
 10
536.8286300685542
 20
975.460739463028
 30
0.0
  0
POINT
  5
7F6C
330
7DC1
100
AcDbEntity
  8
DEFPOINTS
  6
ByBlock
 62
     0
440
 16777216
100
AcDbPoint
 10
536.8286300685542
 20
1186.213836360371
 30
0.0
  0
ENDBLK
  5
7F6D
330
7DC1
100
AcDbEntity
  8
0
100
AcDbBlockEnd
  0
BLOCK
  5
82CA
330
7DCC
100
AcDbEntity
  8
0
100
AcDbBlockBegin
  2
*D10
 70
     1
 10
0.0
 20
0.0
 30
0.0
  3
*D10
  1

  0
LINE
  5
82CB
330
7DCC
100
AcDbEntity
  8
0
  6
ByBlock
 62
     0
440
 16777216
100
AcDbLine
 10
670.8286300685547
 20
1244.105709080645
 30
0.0
 11
1005.275632901771
 21
1244.105709080645
 31
0.0
  0
LINE
  5
82CC
330
7DCC
100
AcDbEntity
  8
0
  6
ByBlock
 62
     0
440
 16777216
100
AcDbLine
 10
869.919805096601
 20
1122.605709080644
 30
0.0
 11
1005.275632901771
 21
1122.605709080644
 31
0.0
  0
LINE
  5
82CD
330
7DCC
100
AcDbEntity
  8
0
  6
ByBlock
 62
     0
440
 16777216
100
AcDbLine
 10
995.2756329017709
 20
1224.105709080645
 30
0.0
 11
995.2756329017709
 21
1142.605709080645
 31
0.0
  0
INSERT
  5
82CE
330
7DCC
100
AcDbEntity
  8
0
  6
ByBlock
 62
     0
440
 16777216
100
AcDbBlockReference
  2
_OPEN
 10
995.2756329017709
 20
1244.105709080645
 30
0.0
 41
20.0
 42
20.0
 43
20.0
 50
90.0
  0
INSERT
  5
82CF
330
7DCC
100
AcDbEntity
  8
0
  6
ByBlock
 62
     0
440
 16777216
100
AcDbBlockReference
  2
_OPEN
 10
995.2756329017709
 20
1122.605709080644
 30
0.0
 41
20.0
 42
20.0
 43
20.0
 50
270.0
  0
MTEXT
  5
82D0
330
7DCC
100
AcDbEntity
  8
0
  6
ByBlock
 62
     0
440
 16777216
100
AcDbMText
 10
970.2756329017709
 20
1183.355709080645
 30
0.0
 40
30.0
 41
0.0
 46
0.0
 71
     5
 72
     5
  1
\A1;121
 11
0.0
 21
1.0
 31
0.0
 73
     1
 44
1.0
  0
POINT
  5
82D1
330
7DCC
100
AcDbEntity
  8
DEFPOINTS
  6
ByBlock
 62
     0
440
 16777216
100
AcDbPoint
 10
665.8286300685547
 20
1244.105709080645
 30
0.0
  0
POINT
  5
82D2
330
7DCC
100
AcDbEntity
  8
DEFPOINTS
  6
ByBlock
 62
     0
440
 16777216
100
AcDbPoint
 10
864.919805096601
 20
1122.605709080644
 30
0.0
  0
POINT
  5
82D3
330
7DCC
100
AcDbEntity
  8
DEFPOINTS
  6
ByBlock
 62
     0
440
 16777216
100
AcDbPoint
 10
995.2756329017709
 20
1122.605709080644
 30
0.0
  0
ENDBLK
  5
82D4
330
7DCC
100
AcDbEntity
  8
0
100
AcDbBlockEnd
  0
BLOCK
  5
80D7
330
7DD8
100
AcDbEntity
  8
0
100
AcDbBlockBegin
  2
*D11
 70
     1
 10
0.0
 20
0.0
 30
0.0
  3
*D11
  1

  0
LINE
  5
80D8
330
7DD8
100
AcDbEntity
  8
0
  6
ByBlock
 62
     0
440
 16777216
100
AcDbLine
 10
869.919805096601
 20
982.960739463027
 30
0.0
 11
1005.27563290177
 21
982.960739463027
 31
0.0
  0
LINE
  5
80D9
330
7DD8
100
AcDbEntity
  8
0
  6
ByBlock
 62
     0
440
 16777216
100
AcDbLine
 10
828.328630068554
 20
762.9607394630269
 30
0.0
 11
1005.27563290177
 21
762.9607394630269
 31
0.0
  0
LINE
  5
80DA
330
7DD8
100
AcDbEntity
  8
0
  6
ByBlock
 62
     0
440
 16777216
100
AcDbLine
 10
995.2756329017702
 20
962.9607394630269
 30
0.0
 11
995.2756329017702
 21
782.9607394630269
 31
0.0
  0
INSERT
  5
80DB
330
7DD8
100
AcDbEntity
  8
0
  6
ByBlock
 62
     0
440
 16777216
100
AcDbBlockReference
  2
_OPEN
 10
995.2756329017702
 20
982.960739463027
 30
0.0
 41
20.0
 42
20.0
 43
20.0
 50
90.0
  0
INSERT
  5
80DC
330
7DD8
100
AcDbEntity
  8
0
  6
ByBlock
 62
     0
440
 16777216
100
AcDbBlockReference
  2
_OPEN
 10
995.2756329017702
 20
762.9607394630269
 30
0.0
 41
20.0
 42
20.0
 43
20.0
 50
270.0
  0
MTEXT
  5
80DD
330
7DD8
100
AcDbEntity
  8
0
  6
ByBlock
 62
     0
440
 16777216
100
AcDbMText
 10
970.2756329017702
 20
872.9607394630271
 30
0.0
 40
30.0
 41
0.0
 46
0.0
 71
     5
 72
     5
  1
\A1;220
 11
0.0
 21
1.0
 31
0.0
 73
     1
 44
1.0
  0
POINT
  5
80DE
330
7DD8
100
AcDbEntity
  8
DEFPOINTS
  6
ByBlock
 62
     0
440
 16777216
100
AcDbPoint
 10
864.919805096601
 20
982.960739463027
 30
0.0
  0
POINT
  5
80DF
330
7DD8
100
AcDbEntity
  8
DEFPOINTS
  6
ByBlock
 62
     0
440
 16777216
100
AcDbPoint
 10
823.328630068554
 20
762.9607394630269
 30
0.0
  0
POINT
  5
80E0
330
7DD8
100
AcDbEntity
  8
DEFPOINTS
  6
ByBlock
 62
     0
440
 16777216
100
AcDbPoint
 10
995.2756329017702
 20
762.9607394630269
 30
0.0
  0
ENDBLK
  5
80E1
330
7DD8
100
AcDbEntity
  8
0
100
AcDbBlockEnd
  0
BLOCK
  5
7F28
330
7DFE
100
AcDbEntity
  8
0
100
AcDbBlockBegin
  2
*D12
 70
     1
 10
0.0
 20
0.0
 30
0.0
  3
*D12
  1

  0
LINE
  5
7F29
330
7DFE
100
AcDbEntity
  8
0
  6
ByBlock
 62
     0
440
 16777216
100
AcDbLine
 10
869.919805096601
 20
982.960739463027
 30
0.0
 11
946.2744608048192
 21
982.960739463027
 31
0.0
  0
LINE
  5
7F2A
330
7DFE
100
AcDbEntity
  8
0
  6
ByBlock
 62
     0
440
 16777216
100
AcDbLine
 10
818.3286300685541
 20
828.9607394630269
 30
0.0
 11
946.2744608048192
 21
828.9607394630269
 31
0.0
  0
LINE
  5
7F2B
330
7DFE
100
AcDbEntity
  8
0
  6
ByBlock
 62
     0
440
 16777216
100
AcDbLine
 10
936.2744608048192
 20
962.9607394630269
 30
0.0
 11
936.2744608048192
 21
848.9607394630269
 31
0.0
  0
INSERT
  5
7F2C
330
7DFE
100
AcDbEntity
  8
0
  6
ByBlock
 62
     0
440
 16777216
100
AcDbBlockReference
  2
_OPEN
 10
936.2744608048192
 20
982.960739463027
 30
0.0
 41
20.0
 42
20.0
 43
20.0
 50
90.0
  0
INSERT
  5
7F2D
330
7DFE
100
AcDbEntity
  8
0
  6
ByBlock
 62
     0
440
 16777216
100
AcDbBlockReference
  2
_OPEN
 10
936.2744608048192
 20
828.9607394630269
 30
0.0
 41
20.0
 42
20.0
 43
20.0
 50
270.0
  0
MTEXT
  5
7F2E
330
7DFE
100
AcDbEntity
  8
0
  6
ByBlock
 62
     0
440
 16777216
100
AcDbMText
 10
911.2744608048192
 20
905.9607394630265
 30
0.0
 40
30.0
 41
0.0
 46
0.0
 71
     5
 72
     5
  1
\A1;154
 11
0.0
 21
1.0
 31
0.0
 73
     1
 44
1.0
  0
POINT
  5
7F2F
330
7DFE
100
AcDbEntity
  8
DEFPOINTS
  6
ByBlock
 62
     0
440
 16777216
100
AcDbPoint
 10
864.919805096601
 20
982.960739463027
 30
0.0
  0
POINT
  5
7F30
330
7DFE
100
AcDbEntity
  8
DEFPOINTS
  6
ByBlock
 62
     0
440
 16777216
100
AcDbPoint
 10
813.328630068554
 20
828.9607394630269
 30
0.0
  0
POINT
  5
7F31
330
7DFE
100
AcDbEntity
  8
DEFPOINTS
  6
ByBlock
 62
     0
440
 16777216
100
AcDbPoint
 10
936.2744608048192
 20
828.9607394630269
 30
0.0
  0
ENDBLK
  5
7F32
330
7DFE
100
AcDbEntity
  8
0
100
AcDbBlockEnd
  0
BLOCK
  5
7F1D
330
7E0A
100
AcDbEntity
  8
0
100
AcDbBlockBegin
  2
*D13
 70
     1
 10
0.0
 20
0.0
 30
0.0
  3
*D13
  1

  0
LINE
  5
7F1E
330
7E0A
100
AcDbEntity
  8
0
  6
ByBlock
 62
     0
440
 16777216
100
AcDbLine
 10
833.3286300685539
 20
1016.260739463027
 30
0.0
 11
833.3286300685539
 21
1257.868548027654
 31
0.0
  0
LINE
  5
7F1F
330
7E0A
100
AcDbEntity
  8
0
  6
ByBlock
 62
     0
440
 16777216
100
AcDbLine
 10
243.3286300685545
 20
807.9607394630272
 30
0.0
 11
243.3286300685545
 21
1257.868548027654
 31
0.0
  0
LINE
  5
7F20
330
7E0A
100
AcDbEntity
  8
0
  6
ByBlock
 62
     0
440
 16777216
100
AcDbLine
 10
813.328630068554
 20
1247.868548027654
 30
0.0
 11
263.3286300685545
 21
1247.868548027654
 31
0.0
  0
INSERT
  5
7F21
330
7E0A
100
AcDbEntity
  8
0
  6
ByBlock
 62
     0
440
 16777216
100
AcDbBlockReference
  2
_OPEN
 10
833.3286300685539
 20
1247.868548027654
 30
0.0
 41
20.0
 42
20.0
 43
20.0
  0
INSERT
  5
7F22
330
7E0A
100
AcDbEntity
  8
0
  6
ByBlock
 62
     0
440
 16777216
100
AcDbBlockReference
  2
_OPEN
 10
243.3286300685545
 20
1247.868548027654
 30
0.0
 41
20.0
 42
20.0
 43
20.0
 50
180.0
  0
MTEXT
  5
7F23
330
7E0A
100
AcDbEntity
  8
0
  6
ByBlock
 62
     0
440
 16777216
100
AcDbMText
 10
538.3286300685543
 20
1272.868548027654
 30
0.0
 40
30.0
 41
0.0
 46
0.0
 71
     5
 72
     5
  1
\A1;590
 73
     1
 44
1.0
  0
POINT
  5
7F24
330
7E0A
100
AcDbEntity
  8
DEFPOINTS
  6
ByBlock
 62
     0
440
 16777216
100
AcDbPoint
 10
833.3286300685539
 20
1011.260739463027
 30
0.0
  0
POINT
  5
7F25
330
7E0A
100
AcDbEntity
  8
DEFPOINTS
  6
ByBlock
 62
     0
440
 16777216
100
AcDbPoint
 10
243.3286300685545
 20
802.9607394630271
 30
0.0
  0
POINT
  5
7F26
330
7E0A
100
AcDbEntity
  8
DEFPOINTS
  6
ByBlock
 62
     0
440
 16777216
100
AcDbPoint
 10
243.3286300685545
 20
1247.868548027654
 30
0.0
  0
ENDBLK
  5
7F27
330
7E0A
100
AcDbEntity
  8
0
100
AcDbBlockEnd
  0
BLOCK
  5
81F6
330
81F5
100
AcDbEntity
  8
0
100
AcDbBlockBegin
  2
*D14
 70
     1
 10
0.0
 20
0.0
 30
0.0
  3
*D14
  1

  0
LINE
  5
81F7
330
81F5
100
AcDbEntity
  8
0
  6
ByBlock
 62
     0
440
 16777216
100
AcDbLine
 10
243.3286300685542
 20
1587.452031344518
 30
0.0
 11
243.3286300685542
 21
1479.684068227357
 31
0.0
  0
LINE
  5
81F8
330
81F5
100
AcDbEntity
  8
0
  6
ByBlock
 62
     0
440
 16777216
100
AcDbLine
 10
823.3286300685541
 20
1587.452031344515
 30
0.0
 11
823.3286300685541
 21
1479.684068227357
 31
0.0
  0
LINE
  5
81F9
330
81F5
100
AcDbEntity
  8
0
  6
ByBlock
 62
     0
440
 16777216
100
AcDbLine
 10
263.3286300685542
 20
1489.684068227357
 30
0.0
 11
803.3286300685542
 21
1489.684068227357
 31
0.0
  0
INSERT
  5
81FA
330
81F5
100
AcDbEntity
  8
0
  6
ByBlock
 62
     0
440
 16777216
100
AcDbBlockReference
  2
_OPEN
 10
243.3286300685542
 20
1489.684068227357
 30
0.0
 41
20.0
 42
20.0
 43
20.0
 50
180.0
  0
INSERT
  5
81FB
330
81F5
100
AcDbEntity
  8
0
  6
ByBlock
 62
     0
440
 16777216
100
AcDbBlockReference
  2
_OPEN
 10
823.3286300685541
 20
1489.684068227357
 30
0.0
 41
20.0
 42
20.0
 43
20.0
  0
MTEXT
  5
81FC
330
81F5
100
AcDbEntity
  8
0
  6
ByBlock
 62
     0
440
 16777216
100
AcDbMText
 10
514.9354020853807
 20
1514.684068227358
 30
0.0
 40
30.0
 41
0.0
 46
0.0
 71
     5
 72
     5
  1
\A1;580
 73
     1
 44
1.0
  0
POINT
  5
81FD
330
81F5
100
AcDbEntity
  8
DEFPOINTS
  6
ByBlock
 62
     0
440
 16777216
100
AcDbPoint
 10
243.3286300685542
 20
1592.452031344518
 30
0.0
  0
POINT
  5
81FE
330
81F5
100
AcDbEntity
  8
DEFPOINTS
  6
ByBlock
 62
     0
440
 16777216
100
AcDbPoint
 10
823.3286300685541
 20
1592.452031344515
 30
0.0
  0
POINT
  5
81FF
330
81F5
100
AcDbEntity
  8
DEFPOINTS
  6
ByBlock
 62
     0
440
 16777216
100
AcDbPoint
 10
823.3286300685541
 20
1489.684068227357
 30
0.0
  0
ENDBLK
  5
8200
330
81F5
100
AcDbEntity
  8
0
100
AcDbBlockEnd
  0
BLOCK
  5
8203
330
8202
100
AcDbEntity
  8
0
100
AcDbBlockBegin
  2
*D15
 70
     1
 10
0.0
 20
0.0
 30
0.0
  3
*D15
  1

  0
LINE
  5
8204
330
8202
100
AcDbEntity
  8
0
  6
ByBlock
 62
     0
440
 16777216
100
AcDbLine
 10
238.3286300685544
 20
1972.452031344519
 30
0.0
 11
170.7304654417112
 21
1972.452031344519
 31
0.0
  0
LINE
  5
8205
330
8202
100
AcDbEntity
  8
0
  6
ByBlock
 62
     0
440
 16777216
100
AcDbLine
 10
238.3286300685542
 20
1592.452031344518
 30
0.0
 11
170.7304654417112
 21
1592.452031344518
 31
0.0
  0
LINE
  5
8206
330
8202
100
AcDbEntity
  8
0
  6
ByBlock
 62
     0
440
 16777216
100
AcDbLine
 10
180.7304654417112
 20
1952.452031344519
 30
0.0
 11
180.7304654417112
 21
1612.452031344518
 31
0.0
  0
INSERT
  5
8207
330
8202
100
AcDbEntity
  8
0
  6
ByBlock
 62
     0
440
 16777216
100
AcDbBlockReference
  2
_OPEN
 10
180.7304654417112
 20
1972.452031344519
 30
0.0
 41
20.0
 42
20.0
 43
20.0
 50
90.0
  0
INSERT
  5
8208
330
8202
100
AcDbEntity
  8
0
  6
ByBlock
 62
     0
440
 16777216
100
AcDbBlockReference
  2
_OPEN
 10
180.7304654417112
 20
1592.452031344518
 30
0.0
 41
20.0
 42
20.0
 43
20.0
 50
270.0
  0
MTEXT
  5
8209
330
8202
100
AcDbEntity
  8
0
  6
ByBlock
 62
     0
440
 16777216
100
AcDbMText
 10
155.7304654417112
 20
1764.808074340512
 30
0.0
 40
30.0
 41
0.0
 46
0.0
 71
     5
 72
     5
  1
\A1;380
 11
0.0
 21
1.0
 31
0.0
 73
     1
 44
1.0
  0
POINT
  5
820A
330
8202
100
AcDbEntity
  8
DEFPOINTS
  6
ByBlock
 62
     0
440
 16777216
100
AcDbPoint
 10
243.3286300685544
 20
1972.452031344519
 30
0.0
  0
POINT
  5
820B
330
8202
100
AcDbEntity
  8
DEFPOINTS
  6
ByBlock
 62
     0
440
 16777216
100
AcDbPoint
 10
243.3286300685542
 20
1592.452031344518
 30
0.0
  0
POINT
  5
820C
330
8202
100
AcDbEntity
  8
DEFPOINTS
  6
ByBlock
 62
     0
440
 16777216
100
AcDbPoint
 10
180.7304654417112
 20
1592.452031344518
 30
0.0
  0
ENDBLK
  5
820D
330
8202
100
AcDbEntity
  8
0
100
AcDbBlockEnd
  0
BLOCK
  5
8237
330
8236
100
AcDbEntity
  8
0
100
AcDbBlockBegin
  2
*D16
 70
     1
 10
0.0
 20
0.0
 30
0.0
  3
*D16
  1

  0
LINE
  5
83F4
330
8236
100
AcDbEntity
  8
3
 62
     0
440
 16777216
370
    -2
100
AcDbLine
 10
243.3286300685545
 20
787.5616794649056
 30
0.0
 11
243.3286300685545
 21
711.4012124379142
 31
0.0
  0
LINE
  5
83F5
330
8236
100
AcDbEntity
  8
3
 62
     0
440
 16777216
370
    -2
100
AcDbLine
 10
673.3286300685546
 20
787.6057090806447
 30
0.0
 11
673.3286300685546
 21
711.4012124379142
 31
0.0
  0
LINE
  5
83F6
330
8236
100
AcDbEntity
  8
3
 62
     0
440
 16777216
370
    -2
100
AcDbLine
 10
263.3286300685545
 20
721.4012124379141
 30
0.0
 11
653.3286300685546
 21
721.4012124379141
 31
0.0
  0
INSERT
  5
83F7
330
8236
100
AcDbEntity
  8
3
 62
     0
440
 16777216
370
    -2
100
AcDbBlockReference
  2
_OPEN
 10
243.3286300685545
 20
721.4012124379141
 30
0.0
 41
20.0
 42
20.0
 43
20.0
 50
180.0
  0
INSERT
  5
83F8
330
8236
100
AcDbEntity
  8
3
 62
     0
440
 16777216
370
    -2
100
AcDbBlockReference
  2
_OPEN
 10
673.3286300685546
 20
721.4012124379141
 30
0.0
 41
20.0
 42
20.0
 43
20.0
  0
MTEXT
  5
83F9
330
8236
100
AcDbEntity
  8
3
 62
     0
440
 16777216
100
AcDbMText
 10
458.3286300685545
 20
746.4012124379141
 30
0.0
 40
30.0
 41
0.0
 46
0.0
 71
     5
 72
     1
  1
\A1;430
 73
     1
 44
1.0
  0
POINT
  5
83FA
330
8236
100
AcDbEntity
  8
DEFPOINTS
 62
     0
440
 16777216
100
AcDbPoint
 10
243.3286300685545
 20
792.5616794649056
 30
0.0
  0
POINT
  5
83FB
330
8236
100
AcDbEntity
  8
DEFPOINTS
 62
     0
440
 16777216
100
AcDbPoint
 10
673.3286300685546
 20
792.6057090806446
 30
0.0
  0
POINT
  5
83FC
330
8236
100
AcDbEntity
  8
DEFPOINTS
 62
     0
440
 16777216
100
AcDbPoint
 10
673.3286300685546
 20
721.4012124379141
 30
0.0
  0
ENDBLK
  5
8241
330
8236
100
AcDbEntity
  8
0
100
AcDbBlockEnd
  0
BLOCK
  5
8244
330
8243
100
AcDbEntity
  8
0
100
AcDbBlockBegin
  2
*D17
 70
     1
 10
0.0
 20
0.0
 30
0.0
  3
*D17
  1

  0
LINE
  5
83FD
330
8243
100
AcDbEntity
  8
3
 62
     0
440
 16777216
370
    -2
100
AcDbLine
 10
673.3286300685546
 20
787.6057090806447
 30
0.0
 11
673.3286300685546
 21
711.4012124379142
 31
0.0
  0
LINE
  5
83FE
330
8243
100
AcDbEntity
  8
3
 62
     0
440
 16777216
370
    -2
100
AcDbLine
 10
823.328630068554
 20
787.5616794649053
 30
0.0
 11
823.328630068554
 21
711.4012124379142
 31
0.0
  0
LINE
  5
83FF
330
8243
100
AcDbEntity
  8
3
 62
     0
440
 16777216
370
    -2
100
AcDbLine
 10
693.3286300685546
 20
721.4012124379141
 30
0.0
 11
803.328630068554
 21
721.4012124379141
 31
0.0
  0
INSERT
  5
8400
330
8243
100
AcDbEntity
  8
3
 62
     0
440
 16777216
370
    -2
100
AcDbBlockReference
  2
_OPEN
 10
673.3286300685546
 20
721.4012124379141
 30
0.0
 41
20.0
 42
20.0
 43
20.0
 50
180.0
  0
INSERT
  5
8401
330
8243
100
AcDbEntity
  8
3
 62
     0
440
 16777216
370
    -2
100
AcDbBlockReference
  2
_OPEN
 10
823.328630068554
 20
721.4012124379141
 30
0.0
 41
20.0
 42
20.0
 43
20.0
  0
MTEXT
  5
8402
330
8243
100
AcDbEntity
  8
3
 62
     0
440
 16777216
100
AcDbMText
 10
748.3286300685542
 20
746.4012124379141
 30
0.0
 40
30.0
 41
0.0
 46
0.0
 71
     5
 72
     1
  1
\A1;150
 73
     1
 44
1.0
  0
POINT
  5
8403
330
8243
100
AcDbEntity
  8
DEFPOINTS
 62
     0
440
 16777216
100
AcDbPoint
 10
673.3286300685546
 20
792.6057090806446
 30
0.0
  0
POINT
  5
8404
330
8243
100
AcDbEntity
  8
DEFPOINTS
 62
     0
440
 16777216
100
AcDbPoint
 10
823.328630068554
 20
792.5616794649052
 30
0.0
  0
POINT
  5
8405
330
8243
100
AcDbEntity
  8
DEFPOINTS
 62
     0
440
 16777216
100
AcDbPoint
 10
823.328630068554
 20
721.4012124379141
 30
0.0
  0
ENDBLK
  5
824E
330
8243
100
AcDbEntity
  8
0
100
AcDbBlockEnd
  0
BLOCK
  5
825E
330
825D
100
AcDbEntity
  8
0
100
AcDbBlockBegin
  2
*D18
 70
     1
 10
0.0
 20
0.0
 30
0.0
  3
*D18
  1

  0
LINE
  5
8406
330
825D
100
AcDbEntity
  8
3
 62
     0
440
 16777216
370
    -2
100
AcDbLine
 10
1426.519283719279
 20
787.5557143787864
 30
0.0
 11
1426.519283719279
 21
711.4012124379142
 31
0.0
  0
LINE
  5
8407
330
825D
100
AcDbEntity
  8
3
 62
     0
440
 16777216
370
    -2
100
AcDbLine
 10
1806.51928371928
 20
787.5557143787864
 30
0.0
 11
1806.51928371928
 21
711.4012124379142
 31
0.0
  0
LINE
  5
8408
330
825D
100
AcDbEntity
  8
3
 62
     0
440
 16777216
370
    -2
100
AcDbLine
 10
1446.519283719279
 20
721.4012124379141
 30
0.0
 11
1786.51928371928
 21
721.4012124379141
 31
0.0
  0
INSERT
  5
8409
330
825D
100
AcDbEntity
  8
3
 62
     0
440
 16777216
370
    -2
100
AcDbBlockReference
  2
_OPEN
 10
1426.519283719279
 20
721.4012124379141
 30
0.0
 41
20.0
 42
20.0
 43
20.0
 50
180.0
  0
INSERT
  5
840A
330
825D
100
AcDbEntity
  8
3
 62
     0
440
 16777216
370
    -2
100
AcDbBlockReference
  2
_OPEN
 10
1806.51928371928
 20
721.4012124379141
 30
0.0
 41
20.0
 42
20.0
 43
20.0
  0
MTEXT
  5
840B
330
825D
100
AcDbEntity
  8
3
 62
     0
440
 16777216
100
AcDbMText
 10
1616.51928371928
 20
746.4012124379141
 30
0.0
 40
30.0
 41
0.0
 46
0.0
 71
     5
 72
     1
  1
\A1;380
 73
     1
 44
1.0
  0
POINT
  5
840C
330
825D
100
AcDbEntity
  8
DEFPOINTS
 62
     0
440
 16777216
100
AcDbPoint
 10
1426.519283719279
 20
792.5557143787864
 30
0.0
  0
POINT
  5
840D
330
825D
100
AcDbEntity
  8
DEFPOINTS
 62
     0
440
 16777216
100
AcDbPoint
 10
1806.51928371928
 20
792.5557143787864
 30
0.0
  0
POINT
  5
840E
330
825D
100
AcDbEntity
  8
DEFPOINTS
 62
     0
440
 16777216
100
AcDbPoint
 10
1806.51928371928
 20
721.4012124379141
 30
0.0
  0
ENDBLK
  5
8268
330
825D
100
AcDbEntity
  8
0
100
AcDbBlockEnd
  0
BLOCK
  5
826B
330
826A
100
AcDbEntity
  8
0
100
AcDbBlockBegin
  2
*D19
 70
     1
 10
0.0
 20
0.0
 30
0.0
  3
*D19
  1

  0
LINE
  5
840F
330
826A
100
AcDbEntity
  8
3
 62
     0
440
 16777216
370
    -2
100
AcDbLine
 10
1806.51928371928
 20
787.5557143787864
 30
0.0
 11
1806.51928371928
 21
711.4012124379142
 31
0.0
  0
LINE
  5
8410
330
826A
100
AcDbEntity
  8
3
 62
     0
440
 16777216
370
    -2
100
AcDbLine
 10
1831.519283719279
 20
787.5557143787864
 30
0.0
 11
1831.519283719279
 21
711.4012124379142
 31
0.0
  0
LINE
  5
8411
330
826A
100
AcDbEntity
  8
3
 62
     0
440
 16777216
370
    -2
100
AcDbLine
 10
1786.51928371928
 20
721.4012124379141
 30
0.0
 11
1766.519283719279
 21
721.4012124379141
 31
0.0
  0
LINE
  5
8412
330
826A
100
AcDbEntity
  8
3
 62
     0
440
 16777216
370
    -2
100
AcDbLine
 10
1851.519283719279
 20
721.4012124379141
 30
0.0
 11
1940.090712290708
 21
721.4012124379141
 31
0.0
  0
LINE
  5
8413
330
826A
100
AcDbEntity
  8
3
 62
     0
440
 16777216
370
    -2
100
AcDbLine
 10
1806.51928371928
 20
721.4012124379141
 30
0.0
 11
1831.519283719279
 21
721.4012124379141
 31
0.0
  0
INSERT
  5
8414
330
826A
100
AcDbEntity
  8
3
 62
     0
440
 16777216
370
    -2
100
AcDbBlockReference
  2
_OPEN
 10
1806.51928371928
 20
721.4012124379141
 30
0.0
 41
20.0
 42
20.0
 43
20.0
  0
INSERT
  5
8415
330
826A
100
AcDbEntity
  8
3
 62
     0
440
 16777216
370
    -2
100
AcDbBlockReference
  2
_OPEN
 10
1831.519283719279
 20
721.4012124379141
 30
0.0
 41
20.0
 42
20.0
 43
20.0
 50
180.0
  0
MTEXT
  5
8416
330
826A
100
AcDbEntity
  8
3
 62
     0
440
 16777216
100
AcDbMText
 10
1905.804998004994
 20
746.4012124379141
 30
0.0
 40
30.0
 41
0.0
 46
0.0
 71
     5
 72
     1
  1
\A1;25
 73
     1
 44
1.0
  0
POINT
  5
8417
330
826A
100
AcDbEntity
  8
DEFPOINTS
 62
     0
440
 16777216
100
AcDbPoint
 10
1806.51928371928
 20
792.5557143787864
 30
0.0
  0
POINT
  5
8418
330
826A
100
AcDbEntity
  8
DEFPOINTS
 62
     0
440
 16777216
100
AcDbPoint
 10
1831.519283719279
 20
792.5557143787864
 30
0.0
  0
POINT
  5
8419
330
826A
100
AcDbEntity
  8
DEFPOINTS
 62
     0
440
 16777216
100
AcDbPoint
 10
1831.519283719279
 20
721.4012124379141
 30
0.0
  0
ENDBLK
  5
8277
330
826A
100
AcDbEntity
  8
0
100
AcDbBlockEnd
  0
BLOCK
  5
8306
330
8305
100
AcDbEntity
  8
0
100
AcDbBlockBegin
  2
*D20
 70
     1
 10
0.0
 20
0.0
 30
0.0
  3
*D20
  1

  0
LINE
  5
8440
330
8305
100
AcDbEntity
  8
3
 62
     0
440
 16777216
370
    -2
100
AcDbLine
 10
828.328630068554
 20
832.6057090806447
 30
0.0
 11
1005.377333943402
 21
832.6057090806447
 31
0.0
  0
LINE
  5
8441
330
8305
100
AcDbEntity
  8
3
 62
     0
440
 16777216
370
    -2
100
AcDbLine
 10
828.328630068554
 20
792.6057090806446
 30
0.0
 11
1005.377333943402
 21
792.6057090806446
 31
0.0
  0
LINE
  5
8442
330
8305
100
AcDbEntity
  8
3
 62
     0
440
 16777216
370
    -2
100
AcDbLine
 10
995.3773339434022
 20
852.6057090806446
 30
0.0
 11
995.3773339434022
 21
872.6057090806447
 31
0.0
  0
LINE
  5
8443
330
8305
100
AcDbEntity
  8
3
 62
     0
440
 16777216
370
    -2
100
AcDbLine
 10
995.3773339434022
 20
772.6057090806447
 30
0.0
 11
995.3773339434022
 21
684.034280509216
 31
0.0
  0
LINE
  5
8444
330
8305
100
AcDbEntity
  8
3
 62
     0
440
 16777216
370
    -2
100
AcDbLine
 10
995.3773339434022
 20
832.6057090806447
 30
0.0
 11
995.3773339434022
 21
792.6057090806446
 31
0.0
  0
INSERT
  5
8445
330
8305
100
AcDbEntity
  8
3
 62
     0
440
 16777216
370
    -2
100
AcDbBlockReference
  2
_DOT
 10
995.3773339434022
 20
832.6057090806447
 30
0.0
 41
20.0
 42
20.0
 43
20.0
 50
270.0
  0
INSERT
  5
8446
330
8305
100
AcDbEntity
  8
3
 62
     0
440
 16777216
370
    -2
100
AcDbBlockReference
  2
_OPEN
 10
995.3773339434022
 20
792.6057090806446
 30
0.0
 41
20.0
 42
20.0
 43
20.0
 50
90.0
  0
MTEXT
  5
8447
330
8305
100
AcDbEntity
  8
3
 62
     0
440
 16777216
100
AcDbMText
 10
970.377333943402
 20
718.3199947949304
 30
0.0
 40
30.0
 41
0.0
 46
0.0
 71
     5
 72
     1
  1
\A1;40
 11
0.0000000000000001
 21
1.0
 31
0.0
 73
     1
 44
1.0
  0
POINT
  5
8448
330
8305
100
AcDbEntity
  8
DEFPOINTS
 62
     0
440
 16777216
100
AcDbPoint
 10
823.328630068554
 20
832.6057090806447
 30
0.0
  0
POINT
  5
8449
330
8305
100
AcDbEntity
  8
DEFPOINTS
 62
     0
440
 16777216
100
AcDbPoint
 10
823.328630068554
 20
792.6057090806446
 30
0.0
  0
POINT
  5
844A
330
8305
100
AcDbEntity
  8
DEFPOINTS
 62
     0
440
 16777216
100
AcDbPoint
 10
995.3773339434022
 20
792.6057090806446
 30
0.0
  0
ENDBLK
  5
8312
330
8305
100
AcDbEntity
  8
0
100
AcDbBlockEnd
  0
BLOCK
  5
8354
330
8353
100
AcDbEntity
  8
0
100
AcDbBlockBegin
  2
*D21
 70
     1
 10
0.0
 20
0.0
 30
0.0
  3
*D21
  1

  0
LINE
  5
8437
330
8353
100
AcDbEntity
  8
3
 62
     0
440
 16777216
370
    -2
100
AcDbLine
 10
828.3286300685535
 20
832.6057090806447
 30
0.0
 11
1005.377333943403
 21
832.6057090806447
 31
0.0
  0
LINE
  5
8438
330
8353
100
AcDbEntity
  8
3
 62
     0
440
 16777216
370
    -2
100
AcDbLine
 10
828.328630068554
 20
902.6057090806446
 30
0.0
 11
1005.377333943403
 21
902.6057090806446
 31
0.0
  0
LINE
  5
8439
330
8353
100
AcDbEntity
  8
3
 62
     0
440
 16777216
370
    -2
100
AcDbLine
 10
995.3773339434029
 20
852.6057090806446
 30
0.0
 11
995.3773339434029
 21
882.6057090806447
 31
0.0
  0
MTEXT
  5
843A
330
8353
100
AcDbEntity
  8
3
 62
     0
440
 16777216
100
AcDbMText
 10
1045.335394148555
 20
863.6577041816254
 30
0.0
 40
30.0
 41
0.0
 46
0.0
 71
     5
 72
     1
  1
\A1;(70)
 11
0.0000000000000001
 21
1.0
 31
0.0
 73
     1
 44
1.0
  0
INSERT
  5
843B
330
8353
100
AcDbEntity
  8
3
 62
     0
440
 16777216
370
    -2
100
AcDbBlockReference
  2
_DOT
 10
995.3773339434029
 20
832.6057090806447
 30
0.0
 41
20.0
 42
20.0
 43
20.0
 50
270.0
  0
INSERT
  5
843C
330
8353
100
AcDbEntity
  8
3
 62
     0
440
 16777216
370
    -2
100
AcDbBlockReference
  2
_OPEN
 10
995.3773339434029
 20
902.6057090806446
 30
0.0
 41
20.0
 42
20.0
 43
20.0
 50
90.0
  0
POINT
  5
843D
330
8353
100
AcDbEntity
  8
DEFPOINTS
 62
     0
440
 16777216
100
AcDbPoint
 10
823.3286300685536
 20
832.6057090806447
 30
0.0
  0
POINT
  5
843E
330
8353
100
AcDbEntity
  8
DEFPOINTS
 62
     0
440
 16777216
100
AcDbPoint
 10
823.328630068554
 20
902.6057090806446
 30
0.0
  0
POINT
  5
843F
330
8353
100
AcDbEntity
  8
DEFPOINTS
 62
     0
440
 16777216
100
AcDbPoint
 10
995.3773339434029
 20
902.6057090806446
 30
0.0
  0
ENDBLK
  5
835E
330
8353
100
AcDbEntity
  8
0
100
AcDbBlockEnd
  0
BLOCK
  5
8383
330
8360
100
AcDbEntity
  8
0
100
AcDbBlockBegin
  2
*D22
 70
     1
 10
0.0
 20
0.0
 30
0.0
  3
*D22
  1

  0
LINE
  5
8490
330
8360
100
AcDbEntity
  8
3
 62
     0
440
 16777216
370
    -2
100
AcDbLine
 10
670.8286300685541
 20
1244.105709080645
 30
0.0
 11
1098.068836275359
 21
1244.105709080645
 31
0.0
  0
LINE
  5
8491
330
8360
100
AcDbEntity
  8
3
 62
     0
440
 16777216
370
    -2
100
AcDbLine
 10
828.328630068554
 20
792.6057090806446
 30
0.0
 11
1098.068836275359
 21
792.6057090806446
 31
0.0
  0
LINE
  5
8492
330
8360
100
AcDbEntity
  8
3
 62
     0
440
 16777216
370
    -2
100
AcDbLine
 10
1088.068836275359
 20
1224.105709080645
 30
0.0
 11
1088.068836275359
 21
812.6057090806448
 31
0.0
  0
INSERT
  5
8493
330
8360
100
AcDbEntity
  8
3
 62
     0
440
 16777216
370
    -2
100
AcDbBlockReference
  2
_OPEN
 10
1088.068836275359
 20
1244.105709080645
 30
0.0
 41
20.0
 42
20.0
 43
20.0
 50
90.0
  0
INSERT
  5
8494
330
8360
100
AcDbEntity
  8
3
 62
     0
440
 16777216
370
    -2
100
AcDbBlockReference
  2
_OPEN
 10
1088.068836275359
 20
792.6057090806446
 30
0.0
 41
20.0
 42
20.0
 43
20.0
 50
270.0
  0
MTEXT
  5
8495
330
8360
100
AcDbEntity
  8
3
 62
     0
440
 16777216
100
AcDbMText
 10
1055.211693418216
 20
1018.355709080645
 30
0.0
 40
30.0
 41
0.0
 46
0.0
 71
     5
 72
     1
  1
\A1;(452)
 11
0.0000000000000001
 21
1.0
 31
0.0
 73
     1
 44
1.0
  0
POINT
  5
8496
330
8360
100
AcDbEntity
  8
DEFPOINTS
 62
     0
440
 16777216
100
AcDbPoint
 10
665.8286300685541
 20
1244.105709080645
 30
0.0
  0
POINT
  5
8497
330
8360
100
AcDbEntity
  8
DEFPOINTS
 62
     0
440
 16777216
100
AcDbPoint
 10
823.328630068554
 20
792.6057090806446
 30
0.0
  0
POINT
  5
8498
330
8360
100
AcDbEntity
  8
DEFPOINTS
 62
     0
440
 16777216
100
AcDbPoint
 10
1088.068836275359
 20
792.6057090806446
 30
0.0
  0
ENDBLK
  5
838D
330
8360
100
AcDbEntity
  8
0
100
AcDbBlockEnd
  0
ENDSEC
  0
SECTION
  2
ENTITIES
  0
INSERT
  5
7C1F
330
19
100
AcDbEntity
  8
0
100
AcDbBlockReference
  2
YA_N
 10
2724.161206490659
 20
327.0207551769345
 30
0.0
  0
INSERT
  5
7C20
330
19
100
AcDbEntity
  8
0
100
AcDbBlockReference
  2
YA_N
 10
2724.161206490659
 20
327.0207551769345
 30
0.0
  0
LINE
  5
7C22
330
19
100
AcDbEntity
  8
1
100
AcDbLine
 10
1669.21928371928
 20
942.5557143787864
 30
0.0
 11
1469.21928371928
 21
942.5557143787864
 31
0.0
  0
LINE
  5
7C23
330
19
100
AcDbEntity
  8
1
100
AcDbLine
 10
1426.519283719279
 20
942.5557143787866
 30
0.0
 11
1806.519283719279
 21
942.5557143787862
 31
0.0
  0
LINE
  5
7C24
330
19
100
AcDbEntity
  8
1
100
AcDbLine
 10
1426.519283719279
 20
902.5557143787866
 30
0.0
 11
1806.51928371928
 21
902.5557143787862
 31
0.0
  0
LINE
  5
7C25
330
19
100
AcDbEntity
  8
1
100
AcDbLine
 10
1494.21928371928
 20
1083.755714378786
 30
0.0
 11
1501.219283719279
 21
1083.755714378786
 31
0.0
  0
LINE
  5
7C26
330
19
100
AcDbEntity
  8
1
100
AcDbLine
 10
1494.21928371928
 20
1086.055714378786
 30
0.0
 11
1501.219283719279
 21
1086.055714378787
 31
0.0
  0
LINE
  5
7C27
330
19
100
AcDbEntity
  8
2
100
AcDbLine
 10
1433.265775998736
 20
1122.555714378786
 30
0.0
 11
1928.000807699107
 21
1122.555714378786
 31
0.0
  0
LINE
  5
7C28
330
19
100
AcDbEntity
  8
1
100
AcDbLine
 10
269.9429417141359
 20
1277.561679464906
 30
0.0
 11
799.9429417141359
 21
1277.561679464906
 31
0.0
  0
LINE
  5
7C29
330
19
100
AcDbEntity
  8
1
100
AcDbLine
 10
685.4402706458854
 20
1079.266256355379
 30
0.0
 11
368.1317463297367
 21
999.6352668608754
 31
0.0
  0
LINE
  5
7C2A
330
19
100
AcDbEntity
  8
1
100
AcDbLine
 10
663.8677525949547
 20
1166.599933672397
 30
0.0
 11
341.7653353785993
 21
1106.37642802612
 31
0.0
  0
LINE
  5
7C2B
330
19
100
AcDbEntity
  8
1
100
AcDbLine
 10
269.9429417141359
 20
1277.561679464906
 30
0.0
 11
269.9429417141359
 21
942.5616794649057
 31
0.0
  0
LINE
  5
7C2C
330
19
100
AcDbEntity
  8
1
100
AcDbLine
 10
258.3286300685547
 20
942.605709080645
 30
0.0
 11
448.3286300685551
 21
942.605709080645
 31
0.0
  0
LINE
  5
7C2D
330
19
100
AcDbEntity
  8
1
100
AcDbLine
 10
243.3286300685545
 20
942.605709080645
 30
0.0
 11
243.3286300685545
 21
902.5616794649057
 31
0.0
  0
CIRCLE
  5
7C2E
330
19
100
AcDbEntity
  8
1
100
AcDbCircle
 10
353.3286300685547
 20
1052.605709080645
 30
0.0
 40
55.0
  0
LINE
  5
7C2F
330
19
100
AcDbEntity
  8
2
100
AcDbLine
 10
450.4871755442016
 20
1052.605709080645
 30
0.0
 11
258.941950294168
 21
1052.605709080645
 31
0.0
  0
LINE
  5
7C30
330
19
100
AcDbEntity
  8
2
100
AcDbLine
 10
353.3286300685547
 20
1133.995209080645
 30
0.0
 11
353.3286300685547
 21
924.6113109211353
 31
0.0
  0
LINE
  5
7C31
330
19
100
AcDbEntity
  8
2
100
AcDbLine
 10
673.3286300685545
 20
1301.161772875878
 30
0.0
 11
673.3286300685547
 21
792.6057090806446
 31
0.0
  0
LINE
  5
7C32
330
19
100
AcDbEntity
  8
1
100
AcDbLine
 10
573.3286300685545
 20
1082.905709080645
 30
0.0
 11
573.3286300685545
 21
942.5616794649055
 31
0.0
  0
LINE
  5
7C33
330
19
100
AcDbEntity
  8
1
100
AcDbLine
 10
799.9429417141359
 20
942.5616794649059
 30
0.0
 11
799.9429417141359
 21
1277.561679464906
 31
0.0
  0
LINE
  5
7C34
330
19
100
AcDbEntity
  8
1
100
AcDbLine
 10
773.3286300685545
 20
1082.905709080645
 30
0.0
 11
773.3286300685545
 21
942.5616794649053
 31
0.0
  0
LINE
  5
7C35
330
19
100
AcDbEntity
  8
1
100
AcDbLine
 10
1490.774233323982
 20
951.5557143787866
 30
0.0
 11
1490.774233323982
 21
989.0371087021513
 31
0.0
  0
LINE
  5
7C36
330
19
100
AcDbEntity
  8
1
100
AcDbLine
 10
1415.774233323982
 20
951.5557143787866
 30
0.0
 11
1415.774233323982
 21
1277.561679464906
 31
0.0
  0
LINE
  5
7C37
330
19
100
AcDbEntity
  8
1
100
AcDbLine
 10
1490.774233323982
 20
951.5557143787864
 30
0.0
 11
1415.774233323982
 21
951.5557143787864
 31
0.0
  0
LINE
  5
7C38
330
19
100
AcDbEntity
  8
1
100
AcDbLine
 10
823.328630068554
 20
942.6057090806446
 30
0.0
 11
823.328630068554
 21
902.5616794649053
 31
0.0
  0
POINT
  5
7C39
330
19
100
AcDbEntity
  8
1
100
AcDbPoint
 10
1466.519283719279
 20
902.5557143787864
 30
0.0
  0
POINT
  5
7C3A
330
19
100
AcDbEntity
  8
1
100
AcDbPoint
 10
1498.919283719279
 20
942.5557143787864
 30
0.0
  0
POINT
  5
7C3B
330
19
100
AcDbEntity
  8
1
100
AcDbPoint
 10
1498.919283719279
 20
942.5557143787864
 30
0.0
  0
ARC
  5
7C3C
330
19
100
AcDbEntity
  8
1
100
AcDbCircle
 10
665.8286300685542
 20
1115.105709080645
 30
0.0
 40
129.0
100
AcDbArc
 50
90.00000000000005
 51
180.0
  0
ARC
  5
7C3D
330
19
100
AcDbEntity
  8
1
100
AcDbCircle
 10
665.8286300685542
 20
1130.105709080645
 30
0.0
 40
114.0
100
AcDbArc
 50
0.0000000000000119
 51
90.00000000000005
  0
LINE
  5
7C3E
330
19
100
AcDbEntity
  8
2
100
AcDbLine
 10
864.919805096601
 20
1122.605709080644
 30
0.0
 11
497.1563173053141
 21
1122.605709080644
 31
0.0
  0
LINE
  5
7C3F
330
19
100
AcDbEntity
  8
1
100
AcDbLine
 10
581.0286300685543
 20
1186.105714378786
 30
0.0
 11
581.0286300685543
 21
1086.105709080645
 31
0.0
  0
LINE
  5
7C40
330
19
100
AcDbEntity
  8
1
100
AcDbLine
 10
575.0286300685543
 20
1186.105714378786
 30
0.0
 11
575.0286300685543
 21
1086.105709080645
 31
0.0
  0
LINE
  5
7C41
330
19
100
AcDbEntity
  8
1
100
AcDbLine
 10
771.6286300685542
 20
1186.105714378786
 30
0.0
 11
771.6286300685546
 21
1086.105709080645
 31
0.0
  0
LINE
  5
7C42
330
19
100
AcDbEntity
  8
1
100
AcDbLine
 10
765.6286300685542
 20
1186.105714378786
 30
0.0
 11
765.6286300685547
 21
1086.105709080645
 31
0.0
  0
LINE
  5
7C43
330
19
100
AcDbEntity
  8
1
100
AcDbLine
 10
813.3286300685536
 20
968.6057090806446
 30
0.0
 11
676.108587080919
 21
971.1830868345405
 31
0.0
  0
ARC
  5
7C44
330
19
100
AcDbEntity
  8
1
100
AcDbCircle
 10
680.8286300685542
 20
1115.105709080645
 30
0.0
 40
144.0
100
AcDbArc
 50
180.0
 51
269.9999999999982
  0
CIRCLE
  5
7C45
330
19
100
AcDbEntity
  8
1
100
AcDbCircle
 10
673.3286300685545
 20
1012.561679464905
 30
0.0
 40
60.0
  0
LINE
  5
7C47
330
19
100
AcDbEntity
  8
1
100
AcDbLine
 10
778.3286300685545
 20
1082.905709080645
 30
0.0
 11
568.3286300685544
 21
1082.905709080645
 31
0.0
  0
LINE
  5
7C48
330
19
100
AcDbEntity
  8
1
100
AcDbLine
 10
778.3286300685545
 20
1086.105709080645
 30
0.0
 11
568.3286300685544
 21
1086.105709080645
 31
0.0
  0
CIRCLE
  5
7C49
330
19
100
AcDbEntity
  8
1
100
AcDbCircle
 10
673.3286300685545
 20
1122.605709080644
 30
0.0
 40
45.0
  0
LINE
  5
7C4A
330
19
100
AcDbEntity
  8
1
100
AcDbLine
 10
598.3286300685545
 20
1089.305709080645
 30
0.0
 11
748.3286300685545
 21
1089.305709080645
 31
0.0
  0
LINE
  5
7C4B
330
19
100
AcDbEntity
  8
1
100
AcDbLine
 10
748.3286300685545
 20
1086.105709080645
 30
0.0
 11
598.3286300685545
 21
1086.105709080644
 31
0.0
  0
LINE
  5
7C4C
330
19
100
AcDbEntity
  8
1
100
AcDbLine
 10
568.3286300685544
 20
1086.105709080645
 30
0.0
 11
568.3286300685544
 21
1082.905709080645
 31
0.0
  0
LINE
  5
7C4D
330
19
100
AcDbEntity
  8
1
100
AcDbLine
 10
598.3286300685545
 20
1086.105709080644
 30
0.0
 11
598.3286300685545
 21
1089.305709080645
 31
0.0
  0
LINE
  5
7C4E
330
19
100
AcDbEntity
  8
1
100
AcDbLine
 10
748.3286300685545
 20
1089.305709080645
 30
0.0
 11
748.3286300685545
 21
1086.105709080645
 31
0.0
  0
LINE
  5
7C4F
330
19
100
AcDbEntity
  8
1
100
AcDbLine
 10
778.3286300685545
 20
1086.105709080645
 30
0.0
 11
778.3286300685545
 21
1082.905709080645
 31
0.0
  0
LINE
  5
7C50
330
19
100
AcDbEntity
  8
1
100
AcDbLine
 10
813.3286300685542
 20
946.3060180750712
 30
0.0
 11
813.328630068554
 21
1150.905709080645
 31
0.0
  0
LINE
  5
7C51
330
19
100
AcDbEntity
  8
1
100
AcDbLine
 10
833.3286300685543
 20
946.306018075071
 30
0.0
 11
833.3286300685539
 21
1150.905709080645
 31
0.0
  0
LINE
  5
7C52
330
19
100
AcDbEntity
  8
1
100
AcDbLine
 10
813.3286300685542
 20
946.3060180750712
 30
0.0
 11
833.3286300685543
 21
946.306018075071
 31
0.0
  0
LINE
  5
7C53
330
19
100
AcDbEntity
  8
1
100
AcDbLine
 10
581.0286300685543
 20
1186.105714378786
 30
0.0
 11
575.0286300685543
 21
1186.105714378786
 31
0.0
  0
CIRCLE
  5
7C54
330
19
100
AcDbEntity
  8
1
100
AcDbCircle
 10
781.3012631583663
 20
1099.605709080645
 30
0.0
 40
6.0
  0
LINE
  5
7C55
330
19
100
AcDbEntity
  8
1
100
AcDbLine
 10
813.3286300685542
 20
1128.605709080645
 30
0.0
 11
779.8172657799325
 21
1128.605709080644
 31
0.0
  0
ARC
  5
7C56
330
19
100
AcDbEntity
  8
1
100
AcDbCircle
 10
680.8286300685542
 20
1130.105709080645
 30
0.0
 40
99.0
100
AcDbArc
 50
343.1135330024385
 51
0.0000000000000119
  0
LINE
  5
7C57
330
19
100
AcDbEntity
  8
1
100
AcDbLine
 10
833.3286300685539
 20
1150.905709080645
 30
0.0
 11
813.328630068554
 21
1150.905709080645
 31
0.0
  0
LINE
  5
7C58
330
19
100
AcDbEntity
  8
1
100
AcDbLine
 10
771.6286300685542
 20
1186.105714378786
 30
0.0
 11
765.6286300685542
 21
1186.105714378786
 31
0.0
  0
LINE
  5
7C59
330
19
100
AcDbEntity
  8
1
100
AcDbLine
 10
1468.274233323982
 20
1167.555714378786
 30
0.0
 11
1468.274233323982
 21
998.5557143787865
 31
0.0
  0
LINE
  5
7C5A
330
19
100
AcDbEntity
  8
1
100
AcDbLine
 10
1438.274233323982
 20
1167.555714378786
 30
0.0
 11
1438.274233323982
 21
998.5557143787865
 31
0.0
  0
LINE
  5
7C5B
330
19
100
AcDbEntity
  8
2
100
AcDbLine
 10
1434.881985114812
 20
1052.561679464906
 30
0.0
 11
1566.545997364747
 21
1052.561679464906
 31
0.0
  0
LINE
  5
7C5C
330
19
100
AcDbEntity
  8
1
100
AcDbLine
 10
1468.274233323982
 20
998.5557143787865
 30
0.0
 11
1438.274233323982
 21
998.5557143787865
 31
0.0
  0
LINE
  5
7C5D
330
19
100
AcDbEntity
  8
1
100
AcDbLine
 10
1478.274233323982
 20
1112.555714378786
 30
0.0
 11
1501.21928371928
 21
1112.555714378786
 31
0.0
  0
LINE
  5
7C5E
330
19
100
AcDbEntity
  8
1
100
AcDbLine
 10
1478.274233323982
 20
1132.555714378786
 30
0.0
 11
1501.219283719279
 21
1132.555714378786
 31
0.0
  0
LINE
  5
7C5F
330
19
100
AcDbEntity
  8
1
100
AcDbLine
 10
1478.274233323982
 20
1132.555714378786
 30
0.0
 11
1478.274233323982
 21
1112.555714378786
 31
0.0
  0
LINE
  5
7C60
330
19
100
AcDbEntity
  8
1
100
AcDbLine
 10
1468.274233323982
 20
1108.555714378786
 30
0.0
 11
1438.274233323982
 21
1108.555714378786
 31
0.0
  0
LINE
  5
7C61
330
19
100
AcDbEntity
  8
1
100
AcDbLine
 10
1438.274233323982
 20
1077.555714378786
 30
0.0
 11
1468.274233323982
 21
1077.555714378786
 31
0.0
  0
LINE
  5
7C62
330
19
100
AcDbEntity
  8
1
100
AcDbLine
 10
1494.219283719279
 20
1086.055714378786
 30
0.0
 11
1494.219283719279
 21
1083.755714378786
 31
0.0
  0
LINE
  5
7C63
330
19
100
AcDbEntity
  8
1
100
AcDbLine
 10
1468.274233323982
 20
1113.055714378786
 30
0.0
 11
1478.274233323982
 21
1113.055714378786
 31
0.0
  0
LINE
  5
7C64
330
19
100
AcDbEntity
  8
1
100
AcDbLine
 10
1438.274233323982
 20
1167.555714378786
 30
0.0
 11
1468.274233323982
 21
1167.555714378786
 31
0.0
  0
LINE
  5
7C65
330
19
100
AcDbEntity
  8
1
100
AcDbLine
 10
1468.274233323982
 20
1132.055714378786
 30
0.0
 11
1478.274233323982
 21
1132.055714378786
 31
0.0
  0
LINE
  5
7C66
330
19
100
AcDbEntity
  8
1
100
AcDbLine
 10
1415.774233323982
 20
1277.561679464906
 30
0.0
 11
1490.774233323982
 21
1277.561679464906
 31
0.0
  0
LINE
  5
7C6A
330
19
100
AcDbEntity
  8
1
100
AcDbLine
 10
283.3286300685541
 20
1697.18575512348
 30
0.0
 11
283.3286300685541
 21
1769.18925749642
 31
0.0
  0
LINE
  5
7C6B
330
19
100
AcDbEntity
  8
1
100
AcDbLine
 10
243.3286300685543
 20
1697.18575512348
 30
0.0
 11
243.3286300685539
 21
2037.185755123481
 31
0.0
  0
LINE
  5
7C6C
330
19
100
AcDbEntity
  8
2
100
AcDbLine
 10
353.3286300685545
 20
1702.528456985045
 30
0.0
 11
353.328630068555
 21
2043.514882720351
 31
0.0
  0
LINE
  5
7C6E
330
19
100
AcDbEntity
  8
1
100
AcDbLine
 10
243.3286300685539
 20
2037.185755123481
 30
0.0
 11
243.3286300685544
 21
2077.18575512348
 31
0.0
  0
LINE
  5
7C6F
330
19
100
AcDbEntity
  8
2
100
AcDbLine
 10
673.3286300685545
 20
1703.816152617048
 30
0.0
 11
673.3286300685554
 21
2183.93048623804
 31
0.0
  0
LINE
  5
7C70
330
19
100
AcDbEntity
  8
1
100
AcDbLine
 10
823.3286300685541
 20
1697.185755123477
 30
0.0
 11
823.3286300685543
 21
2020.689257496424
 31
0.0
  0
LINE
  5
7C71
330
19
100
AcDbEntity
  8
1
100
AcDbLine
 10
783.3286300685541
 20
1697.18575512348
 30
0.0
 11
783.328630068554
 21
2040.689257496421
 31
0.0
  0
LINE
  5
7C75
330
19
100
AcDbEntity
  8
2
100
AcDbLine
 10
1831.51928371928
 20
1316.571188009672
 30
0.0
 11
1831.519283719279
 21
792.5557143787865
 31
0.0
  0
LINE
  5
7C76
330
19
100
AcDbEntity
  8
1
100
AcDbLine
 10
1915.51928371928
 20
1034.555714378786
 30
0.0
 11
1895.51928371928
 21
1034.555714378786
 31
0.0
  0
LINE
  5
7C77
330
19
100
AcDbEntity
  8
1
100
AcDbLine
 10
1895.519283719281
 20
1122.555714378786
 30
0.0
 11
1895.51928371928
 21
1011.555714378786
 31
0.0
  0
LINE
  5
7C79
330
19
100
AcDbEntity
  8
1
100
AcDbLine
 10
1891.519283719279
 20
1244.105709080645
 30
0.0
 11
1891.519283719279
 21
1148.555714378787
 31
0.0
  0
LINE
  5
7C7A
330
19
100
AcDbEntity
  8
1
100
AcDbLine
 10
1771.519283719279
 20
1244.105709080645
 30
0.0
 11
1771.519283719279
 21
1148.555714378786
 31
0.0
  0
LINE
  5
7C80
330
19
100
AcDbEntity
  8
1
100
AcDbLine
 10
1895.51928371928
 20
1034.555714378786
 30
0.0
 11
1895.51928371928
 21
1014.555714378786
 31
0.0
  0
LINE
  5
7C81
330
19
100
AcDbEntity
  8
1
100
AcDbLine
 10
1891.519283719279
 20
1011.555714378786
 30
0.0
 11
1895.51928371928
 21
1011.555714378786
 31
0.0
  0
LINE
  5
7C86
330
19
100
AcDbEntity
  8
1
100
AcDbLine
 10
1744.21928371928
 20
1186.105714378786
 30
0.0
 11
1771.519283719279
 21
1186.105714378786
 31
0.0
  0
POINT
  5
7C87
330
19
100
AcDbEntity
  8
1
100
AcDbPoint
 10
1831.51928371928
 20
1253.402862916399
 30
0.0
  0
LINE
  5
7C88
330
19
100
AcDbEntity
  8
1
100
AcDbLine
 10
1898.519283719279
 20
1122.555714378786
 30
0.0
 11
1898.51928371928
 21
1034.555714378786
 31
0.0
  0
ARC
  5
7C89
330
19
100
AcDbEntity
  8
1
100
AcDbCircle
 10
353.3286300685547
 20
1052.605709080645
 30
0.0
 40
85.000008
100
AcDbArc
 50
180.0
 51
244.082274
  0
ARC
  5
7C8A
330
19
100
AcDbEntity
  8
1
100
AcDbCircle
 10
353.3286300685547
 20
1052.605709080645
 30
0.0
 40
85.0
100
AcDbArc
 50
295.875534
 51
180.0
  0
LINE
  5
7C8B
330
19
100
AcDbEntity
  8
1
100
AcDbLine
 10
390.4241290685547
 20
976.1547810806449
 30
0.0
 11
316.1768210685548
 21
976.1547810806451
 31
0.0
  0
LINE
  5
7C8C
330
19
100
AcDbEntity
  8
1
100
AcDbLine
 10
435.1032276343187
 20
972.6057090806447
 30
0.0
 11
415.6517980685546
 21
994.787205080645
 31
0.0
  0
LINE
  5
7C8D
330
19
100
AcDbEntity
  8
1
100
AcDbLine
 10
430.8286300685547
 20
972.6057090806451
 30
0.0
 11
395.8286300685547
 21
972.6057090806449
 31
0.0
  0
LINE
  5
7C8E
330
19
100
AcDbEntity
  8
1
100
AcDbLine
 10
271.55412139396
 20
972.6057090806449
 30
0.0
 11
291.0073220685547
 21
994.7893470806448
 31
0.0
  0
LINE
  5
7C8F
330
19
100
AcDbEntity
  8
1
100
AcDbLine
 10
275.8286300685547
 20
972.6057090806449
 30
0.0
 11
310.8286300685547
 21
972.6057090806451
 31
0.0
  0
LINE
  5
7C90
330
19
100
AcDbEntity
  8
1
100
AcDbLine
 10
250.8286300685547
 20
972.6057090806451
 30
0.0
 11
353.3286300685547
 21
972.6057090806451
 31
0.0
  0
LINE
  5
7C91
330
19
100
AcDbEntity
  8
1
100
AcDbLine
 10
250.8286300685547
 20
972.6057090806451
 30
0.0
 11
245.8286300685547
 21
942.605709080645
 31
0.0
  0
LINE
  5
7C92
330
19
100
AcDbEntity
  8
1
100
AcDbLine
 10
455.8286300685547
 20
972.6057090806447
 30
0.0
 11
460.8286300685547
 21
942.6057090806446
 31
0.0
  0
LINE
  5
7C93
330
19
100
AcDbEntity
  8
1
100
AcDbLine
 10
353.3286300685547
 20
972.6057090806451
 30
0.0
 11
455.8286300685547
 21
972.6057090806447
 31
0.0
  0
LINE
  5
7C96
330
19
100
AcDbEntity
  8
1
100
AcDbLine
 10
823.3286300685541
 20
1697.185755123477
 30
0.0
 11
243.3286300685542
 21
1697.18575512348
 31
0.0
  0
LINE
  5
7C97
330
19
100
AcDbEntity
  8
1
100
AcDbLine
 10
536.8286300685586
 20
2077.185755123481
 30
0.0
 11
243.3286300685539
 21
2077.185755123481
 31
0.0
  0
DIMENSION
  5
7C9A
330
19
100
AcDbEntity
  8
3
100
AcDbDimension
280
     0
  2
*D3
 10
884.1067138440225
 20
1128.605709080645
 30
0.0
 11
884.1067138440225
 21
1062.891423366359
 31
0.0
 12
0.0
 22
139.6449696176178
 32
0.0
 70
   160
 71
     5
 42
-1.0
 73
     0
 74
     0
 75
     0
  3
IGA
100
AcDbAlignedDimension
 13
813.328630068554
 23
968.6057090806446
 33
0.0
 14
813.3286300685542
 24
1128.605709080645
 34
0.0
 50
90.0
100
AcDbRotatedDimension
1001
ACAD
1000
DSTYLE
1002
{
1070
    40
1040
10.0
1070
   143
1040
0.039
1070
   172
1070
     1
1070
   271
1070
     0
1070
   279
1070
     0
1070
   288
1070
     1
1002
}
  0
LINE
  5
7C9B
330
19
100
AcDbEntity
  8
1
100
AcDbLine
 10
823.328630068554
 20
902.6057090806446
 30
0.0
 11
243.3286300685545
 21
902.6057090806446
 31
0.0
  0
LINE
  5
7C9C
330
19
100
AcDbEntity
  8
1
100
AcDbLine
 10
823.3286300685536
 20
942.6057090806446
 30
0.0
 11
243.3286300685545
 21
942.605709080645
 31
0.0
  0
LINE
  5
7CA9
330
19
100
AcDbEntity
  8
1
100
AcDbLine
 10
1891.519283719279
 20
1128.555714378786
 30
0.0
 11
1891.519283719279
 21
968.5557143787862
 31
0.0
  0
LINE
  5
7CAA
330
19
100
AcDbEntity
  8
1
100
AcDbLine
 10
1771.519283719278
 20
1128.555714378786
 30
0.0
 11
1771.519283719279
 21
968.5557143787864
 31
0.0
  0
LINE
  5
7CAD
330
19
100
AcDbEntity
  8
1
100
AcDbLine
 10
1915.51928371928
 20
1210.555714378786
 30
0.0
 11
1915.51928371928
 21
1034.555714378786
 31
0.0
  0
LINE
  5
7CAE
330
19
100
AcDbEntity
  8
1
100
AcDbLine
 10
1915.51928371928
 20
1210.555714378786
 30
0.0
 11
1913.81928371928
 21
1210.555714378786
 31
0.0
  0
ARC
  5
7CAF
330
19
100
AcDbEntity
  8
1
100
AcDbCircle
 10
1913.51928371928
 20
1211.555714378786
 30
0.0
 40
2.0
100
AcDbArc
 50
0.0
 51
90.0
  0
LINE
  5
7CB0
330
19
100
AcDbEntity
  8
1
100
AcDbLine
 10
1915.51928371928
 20
1211.555714378786
 30
0.0
 11
1915.51928371928
 21
1210.555714378786
 31
0.0
  0
LINE
  5
7CB1
330
19
100
AcDbEntity
  8
1
100
AcDbLine
 10
1898.51928371928
 20
1016.555714378786
 30
0.0
 11
1898.51928371928
 21
1027.555714378786
 31
0.0
  0
LINE
  5
7CB2
330
19
100
AcDbEntity
  8
1
100
AcDbLine
 10
1895.51928371928
 20
1014.555714378786
 30
0.0
 11
1895.51928371928
 21
1034.555714378786
 31
0.0
  0
LINE
  5
7CB3
330
19
100
AcDbEntity
  8
1
100
AcDbLine
 10
1902.51928371928
 20
1031.555714378786
 30
0.0
 11
1913.51928371928
 21
1031.555714378786
 31
0.0
  0
LINE
  5
7CB4
330
19
100
AcDbEntity
  8
1
100
AcDbLine
 10
1895.51928371928
 20
1034.555714378786
 30
0.0
 11
1915.51928371928
 21
1034.555714378786
 31
0.0
  0
ARC
  5
7CB5
330
19
100
AcDbEntity
  8
1
100
AcDbCircle
 10
1902.51928371928
 20
1027.555714378786
 30
0.0
 40
4.0
100
AcDbArc
 50
90.0
 51
180.0
  0
LINE
  5
7CB6
330
19
100
AcDbEntity
  8
1
100
AcDbLine
 10
1915.51928371928
 20
1034.555714378786
 30
0.0
 11
1915.51928371928
 21
1033.555714378786
 31
0.0
  0
ARC
  5
7CB7
330
19
100
AcDbEntity
  8
1
100
AcDbCircle
 10
1913.51928371928
 20
1033.555714378786
 30
0.0
 40
2.0
100
AcDbArc
 50
270.0
 51
0.0
  0
ARC
  5
7CB8
330
19
100
AcDbEntity
  8
1
100
AcDbCircle
 10
1896.51928371928
 20
1016.555714378786
 30
0.0
 40
2.0
100
AcDbArc
 50
270.0
 51
0.0
  0
LINE
  5
7CB9
330
19
100
AcDbEntity
  8
1
100
AcDbLine
 10
1896.51928371928
 20
1014.555714378786
 30
0.0
 11
1895.51928371928
 21
1014.555714378786
 31
0.0
  0
DIMENSION
  5
7CBA
330
19
100
AcDbEntity
  8
3
100
AcDbDimension
280
     0
  2
*D4
 10
1996.159947528816
 20
1034.555714378786
 30
0.0
 11
1971.159947528817
 21
1122.555714378786
 31
0.0
 12
0.0
 22
139.6449696176178
 32
0.0
 70
    32
 71
     5
 42
-1.0
 73
     0
 74
     0
 75
     0
  3
IGA
100
AcDbAlignedDimension
 13
1915.51928371928
 23
1210.555714378786
 33
0.0
 14
1915.51928371928
 24
1034.555714378786
 34
0.0
 50
90.0
100
AcDbRotatedDimension
1001
ACAD
1000
DSTYLE
1002
{
1070
     3
1000
φ<>
1070
    40
1040
10.0
1070
   143
1040
0.039
1070
   172
1070
     1
1070
   271
1070
     0
1070
   279
1070
     0
1070
   288
1070
     1
1002
}
  0
DIMENSION
  5
7CBB
330
19
100
AcDbEntity
  8
3
100
AcDbDimension
280
     0
  2
*D5
 10
1891.519283719279
 20
1308.666223496064
 30
0.0
 11
1831.519283719279
 21
1336.396353970183
 31
0.0
 12
0.0
 22
139.6449696176178
 32
0.0
 70
   160
 71
     5
 42
-1.0
 73
     0
 74
     0
 75
     0
  3
IGA
100
AcDbAlignedDimension
 13
1771.519283719279
 23
1235.322267708698
 33
0.0
 14
1891.519283719279
 24
1235.322267708697
 34
0.0
100
AcDbRotatedDimension
1001
ACAD
1000
DSTYLE
1002
{
1070
   288
1070
     1
1070
   172
1070
     1
1070
    40
1040
10.0
1070
   271
1070
     0
1070
   143
1040
0.039
1002
}
  0
DIMENSION
  5
7CBC
330
19
100
AcDbEntity
  8
3
100
AcDbDimension
280
     0
  2
*D6
 10
1831.51928371928
 20
1398.045198316764
 30
0.0
 11
1863.51928371928
 21
1438.045198316764
 31
0.0
 12
0.0
 22
139.6449696176178
 32
0.0
 70
    32
 71
     5
 42
-1.0
 73
     0
 74
     0
 75
     0
  3
IGA
100
AcDbAlignedDimension
 13
1895.51928371928
 23
1233.555714378786
 33
0.0
 14
1831.51928371928
 24
1357.961264157315
 34
0.0
100
AcDbRotatedDimension
1001
ACAD
1000
DSTYLE
1002
{
1070
   288
1070
     1
1070
   172
1070
     1
1070
    40
1040
10.0
1070
   271
1070
     0
1070
   143
1040
0.039
1002
}
  0
DIMENSION
  5
7CBD
330
19
100
AcDbEntity
  8
3
100
AcDbDimension
280
     0
  2
*D7
 10
1415.774233323982
 20
1398.045198316764
 30
0.0
 11
1623.646758521631
 21
1455.902341173907
 31
0.0
 70
    32
  1
\P(500)
 71
     5
 42
415.7450503952977
 73
     0
 74
     0
 75
     0
  3
IGA
100
AcDbAlignedDimension
 13
1831.51928371928
 23
1357.961264157315
 33
0.0
 14
1415.774233323982
 24
1277.561679464906
 34
0.0
100
AcDbRotatedDimension
1001
ACAD
1000
DSTYLE
1002
{
1070
    40
1040
10.0
1070
   143
1040
0.039
1070
   172
1070
     1
1070
   271
1070
     0
1070
   279
1070
     0
1070
   288
1070
     1
1002
}
  0
LINE
  5
7CBE
330
19
100
AcDbEntity
  8
2
100
AcDbLine
 10
859.0602936173182
 20
2102.18575512348
 30
0.0
 11
491.1008842495812
 21
2102.18575512348
 31
0.0
  0
LINE
  5
7CBF
330
19
100
AcDbEntity
  8
1
100
AcDbLine
 10
813.3286300685581
 20
2160.68925749642
 30
0.0
 11
536.8286300685586
 21
2160.689257496422
 31
0.0
  0
LINE
  5
7CC0
330
19
100
AcDbEntity
  8
1
100
AcDbLine
 10
813.3286300685577
 20
2040.689257496421
 30
0.0
 11
536.8286300685586
 21
2040.689257496419
 31
0.0
  0
LINE
  5
7CC1
330
19
100
AcDbEntity
  8
1
100
AcDbLine
 10
833.3286300685585
 20
2180.689257496421
 30
0.0
 11
813.3286300685586
 21
2180.689257496421
 31
0.0
  0
LINE
  5
7CC2
330
19
100
AcDbEntity
  8
1
100
AcDbLine
 10
833.3286300685578
 20
2020.689257496425
 30
0.0
 11
813.3286300685577
 21
2020.689257496425
 31
0.0
  0
LINE
  5
7CC4
330
19
100
AcDbEntity
  8
1
100
AcDbLine
 10
718.328630068554
 20
1707.444207101124
 30
0.0
 11
718.328630068554
 21
1737.444207101124
 31
0.0
  0
LINE
  5
7CC5
330
19
100
AcDbEntity
  8
1
100
AcDbLine
 10
628.328630068554
 20
1707.444207101124
 30
0.0
 11
628.328630068554
 21
1737.444207101125
 31
0.0
  0
LINE
  5
7CC6
330
19
100
AcDbEntity
  8
1
100
AcDbLine
 10
409.3226649824355
 20
1737.444207101124
 30
0.0
 11
409.3226649824355
 21
1707.444207101124
 31
0.0
  0
LINE
  5
7CC7
330
19
100
AcDbEntity
  8
1
100
AcDbLine
 10
299.3226649824355
 20
1737.444207101125
 30
0.0
 11
299.3226649824355
 21
1707.444207101125
 31
0.0
  0
LINE
  5
7CCA
330
19
100
AcDbEntity
  8
1
100
AcDbLine
 10
269.9429417141359
 20
1684.944207101127
 30
0.0
 11
799.9429417141359
 21
1684.944207101124
 31
0.0
  0
LINE
  5
7CCB
330
19
100
AcDbEntity
  8
1
100
AcDbLine
 10
718.328630068554
 20
1707.444207101124
 30
0.0
 11
628.328630068554
 21
1707.444207101124
 31
0.0
  0
LINE
  5
7CCC
330
19
100
AcDbEntity
  8
1
100
AcDbLine
 10
269.9429417141359
 20
1759.944207101125
 30
0.0
 11
799.9429417141358
 21
1759.944207101124
 31
0.0
  0
LINE
  5
7CCD
330
19
100
AcDbEntity
  8
1
100
AcDbLine
 10
683.328630068554
 20
1747.444207101124
 30
0.0
 11
683.3286300685553
 21
2040.689257496421
 31
0.0
  0
LINE
  5
7CCE
330
19
100
AcDbEntity
  8
1
100
AcDbLine
 10
663.328630068554
 20
1747.444207101124
 30
0.0
 11
663.3286300685549
 21
2040.689257496421
 31
0.0
  0
LINE
  5
7CCF
330
19
100
AcDbEntity
  8
1
100
AcDbLine
 10
683.328630068554
 20
1747.444207101124
 30
0.0
 11
663.328630068554
 21
1747.444207101124
 31
0.0
  0
LINE
  5
7CD0
330
19
100
AcDbEntity
  8
1
100
AcDbLine
 10
718.328630068554
 20
1737.444207101124
 30
0.0
 11
628.328630068554
 21
1737.444207101124
 31
0.0
  0
LINE
  5
7CD1
330
19
100
AcDbEntity
  8
1
100
AcDbLine
 10
663.828630068554
 20
1737.444207101124
 30
0.0
 11
663.828630068554
 21
1747.444207101125
 31
0.0
  0
LINE
  5
7CD2
330
19
100
AcDbEntity
  8
1
100
AcDbLine
 10
682.828630068554
 20
1737.444207101124
 30
0.0
 11
682.828630068554
 21
1747.444207101125
 31
0.0
  0
LINE
  5
7CD4
330
19
100
AcDbEntity
  8
1
100
AcDbLine
 10
778.3286300685549
 20
1771.88575512348
 30
0.0
 11
778.3286300685549
 21
2040.689257496421
 31
0.0
  0
LINE
  5
7CD5
330
19
100
AcDbEntity
  8
1
100
AcDbLine
 10
568.328630068555
 20
1771.88575512348
 30
0.0
 11
568.328630068555
 21
2040.689257496419
 31
0.0
  0
LINE
  5
7CD6
330
19
100
AcDbEntity
  8
1
100
AcDbLine
 10
778.3286300685549
 20
1771.88575512348
 30
0.0
 11
683.328630068554
 21
1771.88575512348
 31
0.0
  0
LINE
  5
7CD7
330
19
100
AcDbEntity
  8
1
100
AcDbLine
 10
663.328630068554
 20
1771.88575512348
 30
0.0
 11
568.328630068555
 21
1771.88575512348
 31
0.0
  0
LINE
  5
7CD8
330
19
100
AcDbEntity
  8
1
100
AcDbLine
 10
438.3286300685544
 20
1769.18925749642
 30
0.0
 11
438.3286300685549
 21
1997.189257496421
 31
0.0
  0
LINE
  5
7CD9
330
19
100
AcDbEntity
  8
1
100
AcDbLine
 10
268.3286220685545
 20
1769.18925749642
 30
0.0
 11
268.328622068555
 21
1997.189257496421
 31
0.0
  0
LINE
  5
7CDA
330
19
100
AcDbEntity
  8
1
100
AcDbLine
 10
438.3286300685549
 20
1997.189257496421
 30
0.0
 11
268.328622068555
 21
1997.189257496421
 31
0.0
  0
LINE
  5
7CDB
330
19
100
AcDbEntity
  8
1
100
AcDbLine
 10
438.3286300685549
 20
1769.189257496421
 30
0.0
 11
268.328622068555
 21
1769.189257496421
 31
0.0
  0
LINE
  5
7CDC
330
19
100
AcDbEntity
  8
1
100
AcDbLine
 10
362.8286300685541
 20
1737.444207101126
 30
0.0
 11
362.8286300685541
 21
1769.18925749642
 31
0.0
  0
LINE
  5
7CDD
330
19
100
AcDbEntity
  8
1
100
AcDbLine
 10
343.8286300685541
 20
1737.444207101125
 30
0.0
 11
343.8286300685541
 21
1769.18925749642
 31
0.0
  0
LINE
  5
7CDE
330
19
100
AcDbEntity
  8
1
100
AcDbLine
 10
283.3286300685541
 20
1997.18925749642
 30
0.0
 11
283.3286300685539
 21
2077.185755123481
 31
0.0
  0
LINE
  5
7CE4
330
19
100
AcDbEntity
  8
1
100
AcDbLine
 10
409.322664982435
 20
1737.444207101125
 30
0.0
 11
299.3226649824355
 21
1737.444207101126
 31
0.0
  0
LINE
  5
7CE5
330
19
100
AcDbEntity
  8
1
100
AcDbLine
 10
409.322664982435
 20
1707.444207101125
 30
0.0
 11
299.3226649824355
 21
1707.444207101125
 31
0.0
  0
LINE
  5
7CE8
330
19
100
AcDbEntity
  8
1
100
AcDbLine
 10
1426.519283719279
 20
902.5557143787864
 30
0.0
 11
1426.519283719279
 21
942.5557143787864
 31
0.0
  0
LINE
  5
7CE9
330
19
100
AcDbEntity
  8
1
100
AcDbLine
 10
1806.51928371928
 20
902.5557143787864
 30
0.0
 11
1806.519283719279
 21
942.5557143787862
 31
0.0
  0
LINE
  5
7CEA
330
19
100
AcDbEntity
  8
1
100
AcDbLine
 10
1500.019283719277
 20
1137.561687464905
 30
0.0
 11
1728.019283719277
 21
1137.561687464905
 31
0.0
  0
LINE
  5
7CEB
330
19
100
AcDbEntity
  8
1
100
AcDbLine
 10
1501.219283719279
 20
967.5616794649057
 30
0.0
 11
1500.019283719277
 21
967.5616794649057
 31
0.0
  0
LINE
  5
7CEC
330
19
100
AcDbEntity
  8
1
100
AcDbLine
 10
1500.019283719277
 20
967.5616794649052
 30
0.0
 11
1500.019283719277
 21
1083.755714378786
 31
0.0
  0
LINE
  5
7CED
330
19
100
AcDbEntity
  8
1
100
AcDbLine
 10
1468.274233323982
 20
1043.061679464906
 30
0.0
 11
1500.019283719277
 21
1043.061679464906
 31
0.0
  0
LINE
  5
7CEE
330
19
100
AcDbEntity
  8
1
100
AcDbLine
 10
1468.274233323982
 20
1062.061679464906
 30
0.0
 11
1500.019283719277
 21
1062.061679464906
 31
0.0
  0
LINE
  5
7CEF
330
19
100
AcDbEntity
  8
1
100
AcDbLine
 10
1728.019283719277
 20
1137.561687464905
 30
0.0
 11
1728.019283719277
 21
1132.555714378786
 31
0.0
  0
LINE
  5
7CF0
330
19
100
AcDbEntity
  8
1
100
AcDbLine
 10
1911.519283719285
 20
948.5557143787861
 30
0.0
 11
1911.519283719283
 21
1031.555714378787
 31
0.0
  0
LINE
  5
7CF1
330
19
100
AcDbEntity
  8
1
100
AcDbLine
 10
1895.51928371928
 20
1210.555714378786
 30
0.0
 11
1915.51928371928
 21
1210.555714378786
 31
0.0
  0
LINE
  5
7CF2
330
19
100
AcDbEntity
  8
1
100
AcDbLine
 10
1902.51928371928
 20
1213.555714378786
 30
0.0
 11
1913.51928371928
 21
1213.555714378786
 31
0.0
  0
LINE
  5
7CF3
330
19
100
AcDbEntity
  8
1
100
AcDbLine
 10
1915.51928371928
 20
1210.555714378786
 30
0.0
 11
1895.51928371928
 21
1210.555714378786
 31
0.0
  0
LINE
  5
7CF4
330
19
100
AcDbEntity
  8
1
100
AcDbLine
 10
1895.519283719281
 20
1122.555714378786
 30
0.0
 11
1895.51928371928
 21
1233.555714378786
 31
0.0
  0
LINE
  5
7CF5
330
19
100
AcDbEntity
  8
1
100
AcDbLine
 10
1898.519283719279
 20
1122.555714378786
 30
0.0
 11
1898.51928371928
 21
1210.555714378786
 31
0.0
  0
LINE
  5
7CF6
330
19
100
AcDbEntity
  8
1
100
AcDbLine
 10
1896.51928371928
 20
1230.555714378786
 30
0.0
 11
1895.51928371928
 21
1230.555714378786
 31
0.0
  0
ARC
  5
7CF7
330
19
100
AcDbEntity
  8
1
100
AcDbCircle
 10
1896.51928371928
 20
1228.555714378786
 30
0.0
 40
2.0
100
AcDbArc
 50
0.0
 51
90.0
  0
ARC
  5
7CF8
330
19
100
AcDbEntity
  8
1
100
AcDbCircle
 10
1902.51928371928
 20
1217.555714378786
 30
0.0
 40
4.0
100
AcDbArc
 50
180.0
 51
270.0
  0
LINE
  5
7CF9
330
19
100
AcDbEntity
  8
1
100
AcDbLine
 10
1895.51928371928
 20
1230.555714378786
 30
0.0
 11
1895.51928371928
 21
1210.555714378786
 31
0.0
  0
LINE
  5
7CFA
330
19
100
AcDbEntity
  8
1
100
AcDbLine
 10
1898.51928371928
 20
1228.555714378786
 30
0.0
 11
1898.51928371928
 21
1217.555714378786
 31
0.0
  0
LINE
  5
7CFB
330
19
100
AcDbEntity
  8
1
100
AcDbLine
 10
1891.519283719279
 20
1233.555714378786
 30
0.0
 11
1895.51928371928
 21
1233.555714378786
 31
0.0
  0
LINE
  5
7CFC
330
19
100
AcDbEntity
  8
1
100
AcDbLine
 10
1895.51928371928
 20
1210.555714378786
 30
0.0
 11
1895.51928371928
 21
1230.555714378786
 31
0.0
  0
LINE
  5
7CFD
330
19
100
AcDbEntity
  8
1
100
AcDbLine
 10
1915.51928371928
 20
1034.555714378786
 30
0.0
 11
1915.51928371928
 21
1210.555714378786
 31
0.0
  0
ARC
  5
7CFE
330
19
100
AcDbEntity
  8
1
100
AcDbCircle
 10
1913.51928371928
 20
1211.555714378786
 30
0.0
 40
2.0
100
AcDbArc
 50
0.0
 51
90.0
  0
LINE
  5
7CFF
330
19
100
AcDbEntity
  8
1
100
AcDbLine
 10
1915.51928371928
 20
1210.555714378786
 30
0.0
 11
1915.51928371928
 21
1211.555714378786
 31
0.0
  0
LINE
  5
7D00
330
19
100
AcDbEntity
  8
1
100
AcDbLine
 10
536.8286300685586
 20
2040.689257496419
 30
0.0
 11
536.8286300685586
 21
2160.689257496422
 31
0.0
  0
LINE
  5
7D01
330
19
100
AcDbEntity
  8
1
100
AcDbLine
 10
833.3286300685578
 20
2020.689257496424
 30
0.0
 11
833.3286300685585
 21
2180.689257496421
 31
0.0
  0
LINE
  5
7D02
330
19
100
AcDbEntity
  8
1
100
AcDbLine
 10
813.3286300685577
 20
2020.689257496425
 30
0.0
 11
813.3286300685586
 21
2180.689257496421
 31
0.0
  0
LINE
  5
7D03
330
19
100
AcDbEntity
  8
1
100
AcDbLine
 10
1501.219283719279
 20
1086.055714378788
 30
0.0
 11
1744.21928371928
 21
1086.055714378786
 31
0.0
  0
LINE
  5
7D04
330
19
100
AcDbEntity
  8
1
100
AcDbLine
 10
1501.219283719279
 20
1083.755714378785
 30
0.0
 11
1744.21928371928
 21
1083.755714378786
 31
0.0
  0
LINE
  5
7D05
330
19
100
AcDbEntity
  8
1
100
AcDbLine
 10
1501.219283719279
 20
1112.555714378786
 30
0.0
 11
1744.21928371928
 21
1112.555714378786
 31
0.0
  0
LINE
  5
7D06
330
19
100
AcDbEntity
  8
1
100
AcDbLine
 10
1501.219283719279
 20
1132.555714378787
 30
0.0
 11
1744.21928371928
 21
1132.555714378786
 31
0.0
  0
DIMENSION
  5
7D07
330
19
100
AcDbEntity
  8
3
100
AcDbDimension
280
     0
  2
*D8
 10
673.3286300685545
 20
1325.858805977988
 30
0.0
 11
753.3286300685542
 21
1350.858805977988
 31
0.0
 12
0.0
 22
139.6449696176178
 32
0.0
 70
    32
 71
     5
 42
-1.0
 73
     0
 74
     0
 75
     0
  3
IGA
100
AcDbAlignedDimension
 13
833.3286300685539
 23
1150.905709080645
 33
0.0
 14
673.3286300685545
 24
1301.161772875878
 34
0.0
 50
359.9999999999998
100
AcDbRotatedDimension
1001
ACAD
1000
DSTYLE
1002
{
1070
    40
1040
10.0
1070
   143
1040
0.039
1070
   172
1070
     1
1070
   271
1070
     0
1070
   279
1070
     0
1070
   288
1070
     1
1002
}
  0
DIMENSION
  5
7D08
330
19
100
AcDbEntity
  8
3
100
AcDbDimension
280
     0
  2
*D9
 10
536.8286300685542
 20
1325.858805977989
 30
0.0
 11
605.0786300685544
 21
1350.858805977989
 31
0.0
 12
0.0
 22
139.6449696176178
 32
0.0
 70
    32
  1
136
 71
     5
 42
-1.0
 73
     0
 74
     0
 75
     0
  3
IGA
100
AcDbAlignedDimension
 13
673.3286300685545
 23
1301.161772875878
 33
0.0
 14
536.8286300685542
 24
1115.105709080645
 34
0.0
 50
359.9999999999998
100
AcDbRotatedDimension
1001
ACAD
1000
DSTYLE
1002
{
1070
    40
1040
10.0
1070
   143
1040
0.039
1070
   172
1070
     1
1070
   271
1070
     0
1070
   279
1070
     0
1070
   288
1070
     1
1002
}
  0
DIMENSION
  5
7D09
330
19
100
AcDbEntity
  8
3
100
AcDbDimension
280
     0
  2
*D10
 10
995.2756329017709
 20
1122.605709080644
 30
0.0
 11
970.2756329017709
 21
1183.355709080645
 31
0.0
 70
    32
  1
121
 71
     5
 42
-1.0
 73
     0
 74
     0
 75
     0
  3
IGA
100
AcDbAlignedDimension
 13
665.8286300685547
 23
1244.105709080645
 33
0.0
 14
864.919805096601
 24
1122.605709080644
 34
0.0
 50
269.9999999999998
100
AcDbRotatedDimension
1001
ACAD
1000
DSTYLE
1002
{
1070
    40
1040
10.0
1070
   143
1040
0.039
1070
   172
1070
     1
1070
   271
1070
     0
1070
   279
1070
     0
1070
   288
1070
     1
1002
}
  0
DIMENSION
  5
7D0A
330
19
100
AcDbEntity
  8
3
100
AcDbDimension
280
     0
  2
*D11
 10
995.2756329017702
 20
902.6057090806446
 30
0.0
 11
970.2756329017702
 21
1012.605709080645
 31
0.0
 12
0.0
 22
139.6449696176178
 32
0.0
 70
    32
 71
     5
 42
-1.0
 73
     0
 74
     0
 75
     0
  3
IGA
100
AcDbAlignedDimension
 13
864.919805096601
 23
1122.605709080644
 33
0.0
 14
823.328630068554
 24
902.6057090806446
 34
0.0
 50
269.9999999999998
100
AcDbRotatedDimension
1001
ACAD
1000
DSTYLE
1002
{
1070
    40
1040
10.0
1070
   143
1040
0.039
1070
   172
1070
     1
1070
   271
1070
     0
1070
   279
1070
     0
1070
   288
1070
     1
1002
}
  0
DIMENSION
  5
7D0D
330
19
100
AcDbEntity
  8
3
100
AcDbDimension
280
     0
  2
*D12
 10
936.2744608048192
 20
968.6057090806446
 30
0.0
 11
936.2744608048192
 21
1045.605709080644
 31
0.0
 12
0.0
 22
139.6449696176178
 32
0.0
 70
   160
 71
     5
 42
-1.0
 73
     0
 74
     0
 75
     0
  3
IGA
100
AcDbAlignedDimension
 13
864.919805096601
 23
1122.605709080644
 33
0.0
 14
813.328630068554
 24
968.6057090806446
 34
0.0
 50
269.9999999999998
100
AcDbRotatedDimension
1001
ACAD
1000
DSTYLE
1002
{
1070
    40
1040
10.0
1070
   143
1040
0.039
1070
   172
1070
     1
1070
   271
1070
     0
1070
   279
1070
     0
1070
   288
1070
     1
1002
}
  0
DIMENSION
  5
7D0E
330
19
100
AcDbEntity
  8
3
100
AcDbDimension
280
     0
  2
*D13
 10
243.3286300685545
 20
1387.513517645272
 30
0.0
 11
538.3286300685543
 21
1412.513517645272
 31
0.0
 12
0.0
 22
139.6449696176178
 32
0.0
 70
    32
 71
     5
 42
-1.0
 73
     0
 74
     0
 75
     0
  3
IGA
100
AcDbAlignedDimension
 13
833.3286300685539
 23
1150.905709080645
 33
0.0
 14
243.3286300685545
 24
942.605709080645
 34
0.0
 50
359.9999999999998
100
AcDbRotatedDimension
1001
ACAD
1000
DSTYLE
1002
{
1070
    40
1040
10.0
1070
   143
1040
0.039
1070
   172
1070
     1
1070
   271
1070
     0
1070
   279
1070
     0
1070
   288
1070
     1
1002
}
  0
LINE
  5
7D10
330
19
100
AcDbEntity
  8
1
100
AcDbLine
 10
1771.519283719279
 20
1244.105709080645
 30
0.0
 11
1891.519283719279
 21
1244.105709080645
 31
0.0
  0
LINE
  5
7D11
330
19
100
AcDbEntity
  8
1
100
AcDbLine
 10
1771.519283719279
 20
968.5557143787866
 30
0.0
 11
1891.519283719279
 21
968.5557143787862
 31
0.0
  0
LINE
  5
7D12
330
19
100
AcDbEntity
  8
1
100
AcDbLine
 10
1771.519283719279
 20
1128.555714378786
 30
0.0
 11
1891.519283719278
 21
1128.555714378786
 31
0.0
  0
LINE
  5
7D14
330
19
100
AcDbEntity
  8
1
100
AcDbLine
 10
1771.519283719279
 20
1128.555714378786
 30
0.0
 11
1891.519283719279
 21
968.5557143787862
 31
0.0
  0
LINE
  5
7D15
330
19
100
AcDbEntity
  8
1
100
AcDbLine
 10
1891.519283719279
 20
1128.555714378786
 30
0.0
 11
1771.519283719279
 21
968.5557143787864
 31
0.0
  0
LINE
  5
7D16
330
19
100
AcDbEntity
  8
1
100
AcDbLine
 10
1500.019283719277
 20
1132.555714378786
 30
0.0
 11
1500.019283719277
 21
1137.561687464906
 31
0.0
  0
LINE
  5
7D17
330
19
100
AcDbEntity
  8
1
100
AcDbLine
 10
1501.219283719279
 20
1083.755714378785
 30
0.0
 11
1501.219283719279
 21
942.5557143787864
 31
0.0
  0
LINE
  5
7D18
330
19
100
AcDbEntity
  8
1
100
AcDbLine
 10
1500.019283719277
 20
1086.055714378787
 30
0.0
 11
1500.019283719277
 21
1112.555714378786
 31
0.0
  0
LINE
  5
7D19
330
19
100
AcDbEntity
  8
1
100
AcDbLine
 10
1728.019283719277
 20
1112.555714378786
 30
0.0
 11
1728.019283719277
 21
1086.055714378786
 31
0.0
  0
LINE
  5
7D1A
330
19
100
AcDbEntity
  8
1
100
AcDbLine
 10
1744.219283719279
 20
1186.105714378786
 30
0.0
 11
1744.21928371928
 21
966.1057143787861
 31
0.0
  0
LINE
  5
7D1B
330
19
100
AcDbEntity
  8
1
100
AcDbLine
 10
1744.21928371928
 20
966.1057143787861
 30
0.0
 11
1751.519283719279
 21
966.1057143787862
 31
0.0
  0
LINE
  5
8094
330
19
100
AcDbEntity
  8
4
100
AcDbLine
 10
1850.0
 20
500.0
 30
0.0
 11
1850.0
 21
300.0
 31
0.0
  0
LINE
  5
8095
330
19
100
AcDbEntity
  8
4
100
AcDbLine
 10
1150.0
 20
500.0
 30
0.0
 11
1150.0
 21
300.0
 31
0.0
  0
LINE
  5
8096
330
19
100
AcDbEntity
  8
4
100
AcDbLine
 10
650.0
 20
500.0
 30
0.0
 11
650.0
 21
300.0
 31
0.0
  0
LINE
  5
8099
330
19
100
AcDbEntity
  8
4
100
AcDbLine
 10
650.0
 20
300.0
 30
0.0
 11
1850.0
 21
300.0
 31
0.0
  0
LINE
  5
809A
330
19
100
AcDbEntity
  8
4
100
AcDbLine
 10
650.0
 20
400.0
 30
0.0
 11
1850.0
 21
400.0
 31
0.0
  0
TEXT
  5
809B
330
19
100
AcDbEntity
  8
4
100
AcDbText
 10
688.5020808469016
 20
431.5430258666128
 30
0.0
 40
50.0
  1
機器名称
100
AcDbText
  0
TEXT
  5
809C
330
19
100
AcDbEntity
  8
4
100
AcDbText
 10
686.2581060247975
 20
321.645156732011
 30
0.0
 40
50.0
  1
機器型番
100
AcDbText
  0
TEXT
  5
809D
330
19
100
AcDbEntity
  8
4
100
AcDbText
 10
1177.678745487665
 20
422.5717689575685
 30
0.0
 40
50.0
  1
ミツヤ多翼送風機
100
AcDbText
  0
TEXT
  5
809E
330
19
100
AcDbEntity
  8
4
100
AcDbText
 10
1186.65449558548
 20
317.1595842799434
 30
0.0
 40
50.0
  1
MF#1-1
100
AcDbText
  0
TEXT
  5
80A0
330
19
100
AcDbEntity
  8
4
100
AcDbText
 10
765.3014901485731
 20
2383.428841332516
 30
0.0
 40
53.99999999999999
  1
床置防振ベット
100
AcDbText
  0
TEXT
  5
80A1
330
19
100
AcDbEntity
  8
4
100
AcDbText
 10
316.1675933294464
 20
2533.880976199298
 30
0.0
 40
72.0
  1
遠心式片吸込片持多翼ファン
100
AcDbText
  0
LINE
  5
80A2
330
19
100
AcDbEntity
  8
4
100
AcDbLine
 10
250.0
 20
2469.408754264805
 30
0.0
 11
1850.0
 21
2469.408754264805
 31
0.0
  0
LINE
  5
80A3
330
19
100
AcDbEntity
  8
4
100
AcDbLine
 10
250.0
 20
2669.408754264805
 30
0.0
 11
1850.0
 21
2669.408754264805
 31
0.0
  0
LINE
  5
80A4
330
19
100
AcDbEntity
  8
4
100
AcDbLine
 10
650.0
 20
500.0
 30
0.0
 11
1850.0
 21
500.0
 31
0.0
  0
LINE
  5
80A5
330
19
100
AcDbEntity
  8
4
100
AcDbLine
 10
250.0
 20
2669.408754264805
 30
0.0
 11
250.0
 21
2469.408754264805
 31
0.0
  0
TEXT
  5
80A6
330
19
100
AcDbEntity
  8
4
100
AcDbText
 10
329.4426579058709
 20
2382.319477546344
 30
0.0
 40
53.99999999999999
  1
左回転右横向
100
AcDbText
  0
TEXT
  5
80A7
330
19
100
AcDbEntity
  8
4
100
AcDbText
 10
1468.96955924929
 20
2706.061081495309
 30
0.0
 40
56.00000000000001
  1
No.
100
AcDbText
  0
TEXT
  5
80A8
330
19
100
AcDbEntity
  8
4
100
AcDbText
 10
1311.296062600013
 20
2383.428841332516
 30
0.0
 40
53.99999999999999
  1
縮尺：1/10
100
AcDbText
  0
LINE
  5
80A9
330
19
100
AcDbEntity
  8
4
100
AcDbLine
 10
1850.0
 20
2669.408754264805
 30
0.0
 11
1850.0
 21
2469.408754264805
 31
0.0
  0
LINE
  5
80AA
330
19
100
AcDbEntity
  8
4
100
AcDbLine
 10
2100.0
 20
2950.0
 30
0.0
 11
2100.0
 21
2950.0
 31
0.0
  0
LINE
  5
80AB
330
19
100
AcDbEntity
  8
4
100
AcDbLine
 10
1440.617422359864
 20
2681.263583125401
 30
0.0
 11
1440.617422359864
 21
2786.652261549753
 31
0.0
  0
LINE
  5
80AC
330
19
100
AcDbEntity
  8
4
100
AcDbLine
 10
1440.617422359864
 20
2786.652261549753
 30
0.0
 11
1850.0
 21
2786.652261549753
 31
0.0
  0
LINE
  5
80AD
330
19
100
AcDbEntity
  8
4
100
AcDbLine
 10
1850.0
 20
2786.652261549753
 30
0.0
 11
1850.0
 21
2681.263583125401
 31
0.0
  0
LINE
  5
80AE
330
19
100
AcDbEntity
  8
4
100
AcDbLine
 10
1850.0
 20
2681.263583125401
 30
0.0
 11
1440.617422359864
 21
2681.263583125401
 31
0.0
  0
LINE
  5
80AF
330
19
100
AcDbEntity
  8
4
100
AcDbLine
 10
0.0
 20
0.0
 30
0.0
 11
0.0
 21
2950.0
 31
0.0
  0
LINE
  5
80B0
330
19
100
AcDbEntity
  8
4
100
AcDbLine
 10
0.0
 20
2950.0
 30
0.0
 11
2100.0
 21
2950.0
 31
0.0
  0
LINE
  5
80B1
330
19
100
AcDbEntity
  8
4
100
AcDbLine
 10
2100.0
 20
2950.0
 30
0.0
 11
2100.0
 21
0.0
 31
0.0
  0
LINE
  5
80B2
330
19
100
AcDbEntity
  8
4
100
AcDbLine
 10
2100.0
 20
0.0
 30
0.0
 11
0.0
 21
0.0
 31
0.0
  0
LINE
  5
8152
330
19
100
AcDbEntity
  8
1
100
AcDbLine
 10
1751.519283719279
 20
948.5557143787866
 30
0.0
 11
1911.519283719285
 21
948.5557143787861
 31
0.0
  0
LINE
  5
8153
330
19
100
AcDbEntity
  8
1
100
AcDbLine
 10
1911.519283719279
 20
1148.555714378787
 30
0.0
 11
1911.51928371928
 21
968.5557143787864
 31
0.0
  0
LINE
  5
8154
330
19
100
AcDbEntity
  8
1
100
AcDbLine
 10
1751.519283719278
 20
1148.555714378786
 30
0.0
 11
1911.519283719278
 21
1148.555714378787
 31
0.0
  0
LINE
  5
8155
330
19
100
AcDbEntity
  8
1
100
AcDbLine
 10
1751.519283719278
 20
1148.555714378786
 30
0.0
 11
1751.519283719279
 21
948.5557143787866
 31
0.0
  0
LINE
  5
8156
330
19
100
AcDbEntity
  8
1
100
AcDbLine
 10
1771.519283719279
 20
948.5557143787866
 30
0.0
 11
1771.519283719279
 21
942.5557143787862
 31
0.0
  0
LINE
  5
815B
330
19
100
AcDbEntity
  8
1
100
AcDbLine
 10
1490.774233323982
 20
1237.2833605388
 30
0.0
 11
1490.774233323982
 21
1277.561679464906
 31
0.0
  0
LINE
  5
8160
330
19
100
AcDbEntity
  8
1
100
AcDbLine
 10
269.9429417141359
 20
1684.944207101127
 30
0.0
 11
269.9429417141359
 21
1759.944207101125
 31
0.0
  0
LINE
  5
8161
330
19
100
AcDbEntity
  8
1
100
AcDbLine
 10
799.9429417141358
 20
1684.944207101124
 30
0.0
 11
799.942941714136
 21
1759.944207101124
 31
0.0
  0
LINE
  5
81E5
330
19
100
AcDbEntity
  8
1
100
AcDbLine
 10
783.328630068554
 20
1737.185755123477
 30
0.0
 11
283.3286300685541
 21
1737.18575512348
 31
0.0
  0
LINE
  5
81F3
330
19
100
AcDbEntity
  8
1
100
AcDbLine
 10
783.328630068554
 20
2037.185755123481
 30
0.0
 11
778.3286300685549
 21
2037.185755123481
 31
0.0
  0
LINE
  5
81F4
330
19
100
AcDbEntity
  8
1
100
AcDbLine
 10
568.328630068555
 20
2037.185755123481
 30
0.0
 11
283.3286300685541
 21
2037.185755123481
 31
0.0
  0
DIMENSION
  5
8201
330
19
100
AcDbEntity
  8
3
100
AcDbDimension
280
     0
  2
*D14
 10
823.3286300685541
 20
1594.417792006319
 30
0.0
 11
514.9354020853807
 21
1594.417792006319
 31
0.0
 12
0.0
 22
104.7337237789615
 32
0.0
 70
   160
 71
     5
 42
-1.0
 73
     0
 74
     0
 75
     0
  3
IGA
100
AcDbAlignedDimension
 13
243.3286300685542
 23
1697.18575512348
 33
0.0
 14
823.3286300685541
 24
1697.185755123477
 34
0.0
100
AcDbRotatedDimension
1001
ACAD
1000
DSTYLE
1002
{
1070
    40
1040
10.0
1070
   143
1040
0.039
1070
   172
1070
     1
1070
   271
1070
     0
1070
   279
1070
     0
1070
   288
1070
     1
1002
}
  0
DIMENSION
  5
820E
330
19
100
AcDbEntity
  8
3
100
AcDbDimension
280
     0
  2
*D15
 10
180.7304654417112
 20
1697.18575512348
 30
0.0
 11
180.7304654417112
 21
1869.541798119473
 31
0.0
 12
0.0
 22
104.7337237789615
 32
0.0
 70
   160
 71
     5
 42
-1.0
 73
     0
 74
     0
 75
     0
  3
IGA
100
AcDbAlignedDimension
 13
243.3286300685544
 23
2077.185755123481
 33
0.0
 14
243.3286300685542
 24
1697.18575512348
 34
0.0
 50
90.0
100
AcDbRotatedDimension
1001
ACAD
1000
DSTYLE
1002
{
1070
    40
1040
10.0
1070
   143
1040
0.039
1070
   172
1070
     1
1070
   271
1070
     0
1070
   279
1070
     0
1070
   288
1070
     1
1002
}
  0
DIMENSION
  5
8242
330
19
100
AcDbEntity
  8
3
100
AcDbDimension
280
     0
  2
*D16
 10
673.3286300685546
 20
721.4012124379141
 30
0.0
 11
458.3286300685545
 21
746.4012124379141
 31
0.0
 70
    32
 71
     5
 42
430.0000000000001
 73
     0
 74
     0
 75
     0
  3
IGA
100
AcDbAlignedDimension
 13
243.3286300685545
 23
792.5616794649056
 33
0.0
 14
673.3286300685546
 24
792.6057090806446
 34
0.0
100
AcDbRotatedDimension
1001
ACAD
1000
DSTYLE
1002
{
1070
    40
1040
10.0
1070
   143
1040
0.039
1070
   172
1070
     1
1070
   271
1070
     0
1070
   279
1070
     0
1002
}
  0
DIMENSION
  5
824F
330
19
100
AcDbEntity
  8
3
100
AcDbDimension
280
     0
  2
*D17
 10
823.328630068554
 20
721.4012124379141
 30
0.0
 11
748.3286300685542
 21
746.4012124379141
 31
0.0
 70
    32
 71
     5
 42
149.9999999999994
 73
     0
 74
     0
 75
     0
  3
IGA
100
AcDbAlignedDimension
 13
673.3286300685546
 23
792.6057090806446
 33
0.0
 14
823.328630068554
 24
792.5616794649052
 34
0.0
100
AcDbRotatedDimension
1001
ACAD
1000
DSTYLE
1002
{
1070
    40
1040
10.0
1070
   143
1040
0.039
1070
   172
1070
     1
1070
   271
1070
     0
1070
   279
1070
     0
1002
}
  0
DIMENSION
  5
8269
330
19
100
AcDbEntity
  8
3
100
AcDbDimension
280
     0
  2
*D18
 10
1806.51928371928
 20
721.4012124379141
 30
0.0
 11
1616.51928371928
 21
746.4012124379141
 31
0.0
 70
    32
 71
     5
 42
380.0000000000005
 73
     0
 74
     0
 75
     0
  3
IGA
100
AcDbAlignedDimension
 13
1426.519283719279
 23
792.5557143787864
 33
0.0
 14
1806.51928371928
 24
792.5557143787864
 34
0.0
100
AcDbRotatedDimension
1001
ACAD
1000
DSTYLE
1002
{
1070
    40
1040
10.0
1070
   143
1040
0.039
1070
   172
1070
     1
1070
   271
1070
     0
1070
   279
1070
     0
1002
}
  0
DIMENSION
  5
8278
330
19
100
AcDbEntity
  8
3
100
AcDbDimension
280
     0
  2
*D19
 10
1831.519283719279
 20
721.4012124379141
 30
0.0
 11
1905.804998004994
 21
746.4012124379141
 31
0.0
 70
    32
 71
     5
 42
24.99999999999955
 73
     0
 74
     0
 75
     0
  3
IGA
100
AcDbAlignedDimension
 13
1806.51928371928
 23
792.5557143787864
 33
0.0
 14
1831.519283719279
 24
792.5557143787864
 34
0.0
100
AcDbRotatedDimension
1001
ACAD
1000
DSTYLE
1002
{
1070
    40
1040
10.0
1070
   143
1040
0.039
1070
   172
1070
     1
1070
   271
1070
     0
1070
   279
1070
     0
1002
}
  0
LINE
  5
82FB
330
19
100
AcDbEntity
  8
1
100
AcDbLine
 10
1426.519283719279
 20
792.5557143787865
 30
0.0
 11
1806.51928371928
 21
792.5557143787863
 31
0.0
  0
LINE
  5
82FC
330
19
100
AcDbEntity
  8
1
100
AcDbLine
 10
1806.51928371928
 20
792.5557143787864
 30
0.0
 11
1806.519283719279
 21
832.5557143787861
 31
0.0
  0
LINE
  5
82FD
330
19
100
AcDbEntity
  8
1
100
AcDbLine
 10
1426.519283719279
 20
832.5557143787865
 30
0.0
 11
1806.519283719279
 21
832.5557143787863
 31
0.0
  0
LINE
  5
82FE
330
19
100
AcDbEntity
  8
1
100
AcDbLine
 10
1669.21928371928
 20
832.5557143787865
 30
0.0
 11
1469.21928371928
 21
832.5557143787865
 31
0.0
  0
LINE
  5
82FF
330
19
100
AcDbEntity
  8
1
100
AcDbLine
 10
1426.519283719279
 20
792.5557143787864
 30
0.0
 11
1426.519283719279
 21
832.5557143787865
 31
0.0
  0
LINE
  5
8300
330
19
100
AcDbEntity
  8
1
100
AcDbLine
 10
823.328630068554
 20
832.6057090806447
 30
0.0
 11
823.328630068554
 21
792.5616794649052
 31
0.0
  0
LINE
  5
8301
330
19
100
AcDbEntity
  8
1
100
AcDbLine
 10
823.3286300685536
 20
832.6057090806447
 30
0.0
 11
243.3286300685545
 21
832.605709080645
 31
0.0
  0
LINE
  5
8302
330
19
100
AcDbEntity
  8
1
100
AcDbLine
 10
823.328630068554
 20
792.6057090806446
 30
0.0
 11
243.3286300685545
 21
792.6057090806446
 31
0.0
  0
LINE
  5
8303
330
19
100
AcDbEntity
  8
1
100
AcDbLine
 10
243.3286300685545
 20
832.605709080645
 30
0.0
 11
243.3286300685545
 21
792.5616794649056
 31
0.0
  0
DIMENSION
  5
8313
330
19
100
AcDbEntity
  8
3
100
AcDbDimension
280
     0
  2
*D20
 10
995.3773339434022
 20
792.6057090806446
 30
0.0
 11
970.377333943402
 21
718.3199947949304
 31
0.0
 70
    32
 71
     5
 42
40.0
 73
     0
 74
     0
 75
     0
  3
IGA
100
AcDbAlignedDimension
 13
823.328630068554
 23
832.6057090806447
 33
0.0
 14
823.328630068554
 24
792.6057090806446
 34
0.0
 50
90.0
100
AcDbRotatedDimension
1001
ACAD
1000
DSTYLE
1002
{
1070
    40
1040
10.0
1070
   143
1040
0.039
1070
   172
1070
     1
1070
   271
1070
     0
1070
   279
1070
     0
1070
   343
1005
7A34
1002
}
  0
DIMENSION
  5
835F
330
19
100
AcDbEntity
  8
3
100
AcDbDimension
280
     0
  2
*D21
 10
995.3773339434029
 20
902.6057090806446
 30
0.0
 11
1045.335394148555
 21
863.6577041816254
 31
0.0
 70
   160
 71
     5
 42
70.0
 73
     0
 74
     0
 75
     0
  3
IGA
100
AcDbAlignedDimension
 13
823.3286300685536
 23
832.6057090806447
 33
0.0
 14
823.328630068554
 24
902.6057090806446
 34
0.0
 50
90.0
100
AcDbRotatedDimension
1001
ACAD
1000
DSTYLE
1002
{
1070
     3
1000
(<>)
1070
    40
1040
10.0
1070
   143
1040
0.039
1070
   172
1070
     1
1070
   271
1070
     0
1070
   343
1005
7A34
1002
}
  0
DIMENSION
  5
836C
330
19
100
AcDbEntity
  8
3
100
AcDbDimension
280
     0
  2
*D22
 10
1088.068836275359
 20
792.6057090806446
 30
0.0
 11
1055.211693418216
 21
1018.355709080645
 31
0.0
 70
    32
 71
     5
 42
451.5000000000005
 73
     0
 74
     0
 75
     0
  3
IGA
100
AcDbAlignedDimension
 13
665.8286300685541
 23
1244.105709080645
 33
0.0
 14
823.328630068554
 24
792.6057090806446
 34
0.0
 50
90.0
100
AcDbRotatedDimension
1001
ACAD
1000
DSTYLE
1002
{
1070
   172
1070
     1
1070
    40
1040
10.0
1070
     3
1000
(<>)
1070
   271
1070
     0
1070
   143
1040
0.039
1002
}
  0
ENDSEC
  0
SECTION
  2
OBJECTS
  0
DICTIONARY
  5
C
330
0
100
AcDbDictionary
281
     1
  3
ACAD_CIP_PREVIOUS_PRODUCT_INFO
350
83F0
  3
ACAD_COLOR
350
83D3
  3
ACAD_DETAILVIEWSTYLE
350
83EC
  3
ACAD_GROUP
350
D
  3
ACAD_LAYOUT
350
8393
  3
ACAD_MATERIAL
350
83A1
  3
ACAD_MLEADERSTYLE
350
83E8
  3
ACAD_MLINESTYLE
350
E
  3
ACAD_PLOTSETTINGS
350
8394
  3
ACAD_PLOTSTYLENAME
350
8391
  3
ACAD_SCALELIST
350
83D6
  3
ACAD_SECTIONVIEWSTYLE
350
83EA
  3
ACAD_TABLESTYLE
350
83D4
  3
ACAD_VISUALSTYLE
350
83BA
  3
ACDB_RECOMPOSE_DATA
350
84DB
  3
AcDbVariableDictionary
350
8464
  0
DICTIONARY
  5
8458
330
2
100
AcDbDictionary
280
     1
281
     1
  3
ACAD_LAYERSTATES
360
8459
  0
DICTIONARY
  5
844B
330
F
100
AcDbDictionary
280
     1
281
     1
  3
ADSK_XREC_LAYER_RECONCILED
360
844C
  0
DICTIONARY
  5
844D
330
31
100
AcDbDictionary
280
     1
281
     1
  3
ADSK_XREC_LAYER_RECONCILED
360
844E
  0
DICTIONARY
  5
844F
330
76D0
100
AcDbDictionary
280
     1
281
     1
  3
ADSK_XREC_LAYER_RECONCILED
360
8450
  0
DICTIONARY
  5
8451
330
76D1
100
AcDbDictionary
280
     1
281
     1
  3
ADSK_XREC_LAYER_RECONCILED
360
8452
  0
DICTIONARY
  5
8453
330
76D2
100
AcDbDictionary
280
     1
281
     1
  3
ADSK_XREC_LAYER_RECONCILED
360
8454
  0
DICTIONARY
  5
83F2
330
19
100
AcDbDictionary
280
     1
281
     1
  3
ACAD_SORTENTS
360
83F3
  0
XRECORD
  5
83F0
102
{ACAD_REACTORS
330
C
102
}
330
C
100
AcDbXrecord
280
     1
300
ACDLT
300
2015
300
INVLTS_F_S
  0
DICTIONARY
  5
83D3
102
{ACAD_REACTORS
330
C
102
}
330
C
100
AcDbDictionary
281
     1
  0
DICTIONARY
  5
83EC
102
{ACAD_REACTORS
330
C
102
}
330
C
100
AcDbDictionary
281
     1
  3
Metric50
350
83ED
  0
DICTIONARY
  5
D
102
{ACAD_REACTORS
330
C
102
}
330
C
100
AcDbDictionary
281
     1
  0
DICTIONARY
  5
8393
102
{ACAD_REACTORS
330
C
102
}
330
C
100
AcDbDictionary
281
     1
  3
Model
350
8395
  3
ﾚｲｱｳﾄ1
350
8396
  0
DICTIONARY
  5
83A1
102
{ACAD_REACTORS
330
C
102
}
330
C
100
AcDbDictionary
281
     1
  3
ByBlock
350
83AA
  3
ByLayer
350
83A2
  3
Global
350
83B2
  0
DICTIONARY
  5
83E8
102
{ACAD_REACTORS
330
C
102
}
330
C
100
AcDbDictionary
281
     1
  3
Standard
350
83E9
  0
DICTIONARY
  5
E
102
{ACAD_REACTORS
330
C
102
}
330
C
100
AcDbDictionary
281
     1
  3
STANDARD
350
1C
  0
DICTIONARY
  5
8394
102
{ACAD_REACTORS
330
C
102
}
330
C
100
AcDbDictionary
281
     1
  0
ACDBDICTIONARYWDFLT
  5
8391
102
{ACAD_REACTORS
330
C
102
}
330
C
100
AcDbDictionary
281
     1
  3
Normal
350
8392
100
AcDbDictionaryWithDefault
340
8392
  0
DICTIONARY
  5
83D6
102
{ACAD_REACTORS
330
C
102
}
330
C
100
AcDbDictionary
281
     1
  3
A0
350
83D7
  3
A1
350
83D8
  3
A2
350
83D9
  3
A3
350
83DA
  3
A4
350
83DB
  3
A5
350
83DC
  3
A6
350
83DD
  3
A7
350
83DE
  3
A8
350
83DF
  3
A9
350
83E0
  3
B0
350
83E1
  3
B1
350
83E2
  3
B2
350
83E3
  3
B3
350
83E4
  3
B4
350
83E5
  3
B5
350
83E6
  3
B6
350
83E7
  0
DICTIONARY
  5
83EA
102
{ACAD_REACTORS
330
C
102
}
330
C
100
AcDbDictionary
281
     1
  3
Metric50
350
83EB
  0
DICTIONARY
  5
83D4
102
{ACAD_REACTORS
330
C
102
}
330
C
100
AcDbDictionary
281
     1
  3
Standard
350
83D5
  0
DICTIONARY
  5
83BA
102
{ACAD_REACTORS
330
C
102
}
330
C
100
AcDbDictionary
281
     1
  3
2dWireframe
350
83C0
  3
Basic
350
83BF
  3
Brighten
350
83C6
  3
ColorChange
350
83CA
  3
Conceptual
350
83C3
  3
Dim
350
83C5
  3
EdgeColorOff
350
83D2
  3
Facepattern
350
83C9
  3
Flat
350
83BB
  3
FlatWithEdges
350
83BC
  3
Gouraud
350
83BD
  3
GouraudWithEdges
350
83BE
  3
Hidden
350
83C2
  3
JitterOff
350
83D0
  3
Linepattern
350
83C8
  3
OverhangOff
350
83D1
  3
Realistic
350
83C4
  3
Shaded
350
83CF
  3
Shaded with edges
350
83CE
  3
Shades of Gray
350
83CB
  3
Sketchy
350
83CC
  3
Thicken
350
83C7
  3
Wireframe
350
83C1
  3
X-Ray
350
83CD
  0
XRECORD
  5
84DB
102
{ACAD_REACTORS
330
C
102
}
330
C
100
AcDbXrecord
280
     1
 90
        1
330
83D5
330
83EB
330
83ED
  0
DICTIONARY
  5
8464
102
{ACAD_REACTORS
330
C
102
}
330
C
100
AcDbDictionary
281
     1
  3
CANNOSCALE
350
846A
  3
CMLEADERSTYLE
350
8466
  3
CTABLESTYLE
350
8465
  3
CVIEWDETAILSTYLE
350
8467
  3
CVIEWSECTIONSTYLE
350
8468
  3
LAYEREVAL
350
846C
  3
LAYERNOTIFY
350
846D
  3
LIGHTINGUNITS
350
846B
  3
MSLTSCALE
350
8469
  0
DICTIONARY
  5
8459
102
{ACAD_REACTORS
330
8458
102
}
330
8458
100
AcDbDictionary
281
     1
  0
XRECORD
  5
844C
102
{ACAD_REACTORS
330
844B
102
}
330
844B
100
AcDbXrecord
280
     1
290
     1
  0
XRECORD
  5
844E
102
{ACAD_REACTORS
330
844D
102
}
330
844D
100
AcDbXrecord
280
     1
290
     1
  0
XRECORD
  5
8450
102
{ACAD_REACTORS
330
844F
102
}
330
844F
100
AcDbXrecord
280
     1
290
     1
  0
XRECORD
  5
8452
102
{ACAD_REACTORS
330
8451
102
}
330
8451
100
AcDbXrecord
280
     1
290
     1
  0
XRECORD
  5
8454
102
{ACAD_REACTORS
330
8453
102
}
330
8453
100
AcDbXrecord
280
     1
290
     1
  0
SORTENTSTABLE
  5
83F3
102
{ACAD_REACTORS
330
83F2
102
}
330
83F2
100
AcDbSortentsTable
330
19
331
81F4
  5
8201
331
809E
  5
80A0
331
809A
  5
809B
331
7CF6
  5
7CF7
331
8096
  5
8099
331
7CF2
  5
7CF3
331
8302
  5
8303
331
7CEE
  5
7CEF
331
7CB7
  5
7CB8
331
7C70
  5
7C70
331
7CB3
  5
7CB4
331
7C6C
  5
7C6C
331
7CEA
  5
7CEB
331
7C35
  5
7C35
331
7C31
  5
7C31
331
824F
  5
8269
331
82FE
  5
82FF
331
7CAF
  5
7CB0
331
8160
  5
8161
331
7C64
  5
7C64
331
7CDE
  5
7CE4
331
7C60
  5
7C60
331
7C2D
  5
7C2D
331
7CDA
  5
7CDB
331
7C9B
  5
7C9B
331
7C5C
  5
7C5C
331
7D19
  5
7D1A
331
7C29
  5
7C29
331
7C58
  5
7C58
331
7C25
  5
7C25
331
8154
  5
8155
331
7D15
  5
7D16
331
7C97
  5
7C97
331
7CD6
  5
7CD7
331
7D11
  5
7D12
331
7CD2
  5
7CD4
331
7C54
  5
7C54
331
7C93
  5
7C93
331
7D0D
  5
7D0E
331
7CCE
  5
7CCF
331
7C8F
  5
7C8F
331
7C50
  5
7C50
331
80B1
  5
80B2
331
7CCA
  5
7CCB
331
7C8B
  5
7C8B
331
7C4C
  5
7C4C
331
7D09
  5
7D0A
331
7C48
  5
7C48
331
80AD
  5
80AE
331
80A9
  5
80AA
331
7D05
  5
7D06
331
7C87
  5
7C87
331
7CC6
  5
7CC7
331
80A5
  5
80A6
331
7D01
  5
7D02
331
7C44
  5
7C44
331
7CC2
  5
7CC4
331
80A1
  5
80A2
331
7CFD
  5
7CFE
331
7CBE
  5
7CBF
331
7C40
  5
7C40
331
7CBA
  5
7CBB
331
7C3C
  5
7C3C
331
7CF9
  5
7CFA
331
7C38
  5
7C38
331
81F3
  5
81F4
331
809D
  5
809E
331
8099
  5
809A
331
7C77
  5
7C77
331
7CF5
  5
7CF6
331
8095
  5
8096
331
7CF1
  5
7CF2
331
8301
  5
8302
331
7CED
  5
7CEE
331
7CB6
  5
7CB7
331
7C6F
  5
7C6F
331
7CB2
  5
7CB3
331
7C6B
  5
7C6B
331
7CE9
  5
7CEA
331
7C34
  5
7C34
331
7C30
  5
7C30
331
82FD
  5
82FE
331
7CE5
  5
7CE8
331
7CAE
  5
7CAF
331
815B
  5
8160
331
7C63
  5
7C63
331
7CAA
  5
7CAD
331
8242
  5
824F
331
7CDD
  5
7CDE
331
7C5F
  5
7C5F
331
7C2C
  5
7C2C
331
7D18
  5
7D19
331
7C9A
  5
7C9A
331
7C5B
  5
7C5B
331
7CD9
  5
7CDA
331
7C28
  5
7C28
331
7C24
  5
7C24
331
7C20
  5
7C20
331
836C
  5
83F1
331
8153
  5
8154
331
820E
  5
8242
331
7D14
  5
7D15
331
7C96
  5
7C96
331
7C57
  5
7C57
331
7CD5
  5
7CD6
331
7D10
  5
7D11
331
7CD1
  5
7CD2
331
7C53
  5
7C53
331
7C92
  5
7C92
331
7CCD
  5
7CCE
331
7C8E
  5
7C8E
331
7C4F
  5
7C4F
331
80B0
  5
80B1
331
7C8A
  5
7C8A
331
7C4B
  5
7C4B
331
7D08
  5
7D09
331
80AC
  5
80AD
331
80A8
  5
80A9
331
7D04
  5
7D05
331
7C86
  5
7C86
331
7C47
  5
7C47
331
7CC5
  5
7CC6
331
80A4
  5
80A5
331
7D00
  5
7D01
331
7C43
  5
7C43
331
7CC1
  5
7CC2
331
8269
  5
8278
331
7CFC
  5
7CFD
331
7CBD
  5
7CBE
331
7C3F
  5
7C3F
331
80A0
  5
80A1
331
7CB9
  5
7CBA
331
7C7A
  5
7C7A
331
7C3B
  5
7C3B
331
7CF8
  5
7CF9
331
809C
  5
809D
331
7C76
  5
7C76
331
7CF4
  5
7CF5
331
8094
  5
8095
331
7CF0
  5
7CF1
331
8300
  5
8301
331
7CEC
  5
7CED
331
7CB5
  5
7CB6
331
7C6E
  5
7C6E
331
7CB1
  5
7CB2
331
7C6A
  5
7C6A
331
7CE8
  5
7CE9
331
7C37
  5
7C37
331
7C33
  5
7C33
331
82FC
  5
82FD
331
7CE4
  5
7CE5
331
7C66
  5
7C66
331
7CAD
  5
7CAE
331
7CA9
  5
7CAA
331
7C62
  5
7C62
331
7C2F
  5
7C2F
331
7CDC
  5
7CDD
331
7C5E
  5
7C5E
331
7D1B
  5
8094
331
7C2B
  5
7C2B
331
7C5A
  5
7C5A
331
7CD8
  5
7CD9
331
7C27
  5
7C27
331
7C23
  5
7C23
331
8156
  5
815B
331
7D17
  5
7D18
331
8152
  5
8153
331
7C56
  5
7C56
331
7CD4
  5
7CD5
331
7CD0
  5
7CD1
331
7C52
  5
7C52
331
7C91
  5
7C91
331
8278
  5
82FB
331
7C1F
  5
7C1F
331
7CCC
  5
7CCD
331
7C8D
  5
7C8D
331
7C4E
  5
7C4E
331
7C89
  5
7C89
331
7C4A
  5
7C4A
331
835F
  5
836C
331
80AF
  5
80B0
331
8201
  5
820E
331
80AB
  5
80AC
331
7D07
  5
7D08
331
80A7
  5
80A8
331
7D03
  5
7D04
331
7CC4
  5
7CC5
331
80A3
  5
80A4
331
7CFF
  5
7D00
331
7CC0
  5
7CC1
331
7C42
  5
7C42
331
7C81
  5
7C81
331
7CBC
  5
7CBD
331
7C3E
  5
7C3E
331
7CFB
  5
7CFC
331
7CB8
  5
7CB9
331
7C79
  5
7C79
331
7C3A
  5
7C3A
331
8313
  5
835F
331
809B
  5
809C
331
7CF7
  5
7CF8
331
81E5
  5
81F3
331
7C75
  5
7C75
331
7CF3
  5
7CF4
331
8303
  5
8313
331
7CEF
  5
7CF0
331
7C71
  5
7C71
331
7CEB
  5
7CEC
331
7CB4
  5
7CB5
331
7CB0
  5
7CB1
331
7C36
  5
7C36
331
7C32
  5
7C32
331
82FF
  5
8300
331
82FB
  5
82FC
331
8161
  5
81E5
331
7C65
  5
7C65
331
7C61
  5
7C61
331
7C2E
  5
7C2E
331
7CDB
  5
7CDC
331
7C9C
  5
7CA9
331
7C5D
  5
7C5D
331
7D1A
  5
7D1B
331
7C2A
  5
7C2A
331
7C59
  5
7C59
331
7C26
  5
7C26
331
7C22
  5
7C22
331
8155
  5
8156
331
7D16
  5
7D17
331
7CD7
  5
7CD8
331
7C55
  5
7C55
331
7D12
  5
7D14
331
80B2
  5
8152
331
7D0E
  5
7D10
331
7CCF
  5
7CD0
331
7C90
  5
7C90
331
7C51
  5
7C51
331
7CCB
  5
7CCC
331
7C8C
  5
7C8C
331
7C4D
  5
7C4D
331
7D0A
  5
7D0D
331
7C88
  5
7C88
331
7C49
  5
7C49
331
80AE
  5
80AF
331
80AA
  5
80AB
331
7D06
  5
7D07
331
7CC7
  5
7CCA
331
80A6
  5
80A7
331
7C45
  5
7C45
331
7D02
  5
7D03
331
80A2
  5
80A3
331
7CFE
  5
7CFF
331
7CBF
  5
7CC0
331
7C41
  5
7C41
331
7C80
  5
7C80
331
7CBB
  5
7CBC
331
7C3D
  5
7C3D
331
7CFA
  5
7CFB
331
7C39
  5
7C39
  0
ACDBDETAILVIEWSTYLE
  5
83ED
102
{ACAD_XDICTIONARY
360
8461
102
}
102
{ACAD_REACTORS
330
83EC
102
}
330
83EC
100
AcDbModelDocViewStyle
 70
     0
  3
Metric50
290
     0
100
AcDbDetailViewStyle
 70
     0
 71
     0
 90
        3
 71
     1
340
10
 62
   256
 40
5.0
340
0
 62
   256
 40
5.0
300

 40
0.0
280
     1
 71
     2
340
15
 90
       25
 62
   256
 71
     3
340
10
 62
   256
 40
5.0
 90
        0
 40
15.0
 90
        1
300
%<\AcVar ViewDetailId>% (%<\AcVar ViewScale \f "%sn">%)
 71
     4
340
15
 90
       25
 62
   256
340
15
 90
       25
 62
   256
280
     0
  0
LAYOUT
  5
8395
102
{ACAD_REACTORS
330
8393
102
}
330
8393
100
AcDbPlotSettings
  1

  2
EPSON LP-9300
  4

  6

 40
0.0
 41
0.0
 42
0.0
 43
0.0
 44
0.0
 45
0.0
 46
0.0
 47
0.0
 48
0.0
 49
0.0
140
0.0
141
0.0
142
1.0
143
1.0
 70
  1712
 72
     0
 73
     0
 74
     0
  7

 75
     0
147
1.0
 76
     0
 77
     2
 78
   300
148
0.0
149
0.0
100
AcDbLayout
  1
Model
 70
     1
 71
     0
 10
0.0
 20
0.0
 11
12.0
 21
9.0
 12
0.0
 22
0.0
 32
0.0
 14
0.0
 24
0.0
 34
0.0
 15
0.0
 25
0.0
 35
0.0
146
0.0
 13
0.0
 23
0.0
 33
0.0
 16
1.0
 26
0.0
 36
0.0
 17
0.0
 27
1.0
 37
0.0
 76
     0
330
19
331
839F
  0
LAYOUT
  5
8396
102
{ACAD_REACTORS
330
8393
102
}
330
8393
100
AcDbPlotSettings
  1

  2
EPSON LP-9300
  4

  6

 40
0.0
 41
0.0
 42
0.0
 43
0.0
 44
0.0
 45
0.0
 46
0.0
 47
0.0
 48
0.0
 49
0.0
140
0.0
141
0.0
142
1.0
143
1.0
 70
   688
 72
     0
 73
     0
 74
     5
  7

 75
    16
147
1.0
 76
     0
 77
     2
 78
   300
148
0.0
149
0.0
100
AcDbLayout
  1
ﾚｲｱｳﾄ1
 70
     1
 71
     1
 10
0.0
 20
0.0
 11
12.0
 21
9.0
 12
0.0
 22
0.0
 32
0.0
 14
1.000000000000000E+20
 24
1.000000000000000E+20
 34
1.000000000000000E+20
 15
-1.000000000000000E+20
 25
-1.000000000000000E+20
 35
-1.000000000000000E+20
146
0.0
 13
0.0
 23
0.0
 33
0.0
 16
1.0
 26
0.0
 36
0.0
 17
0.0
 27
1.0
 37
0.0
 76
     0
330
16
  0
MATERIAL
  5
83AA
102
{ACAD_XDICTIONARY
360
83AB
102
}
102
{ACAD_REACTORS
330
83A1
102
}
330
83A1
100
AcDbMaterial
  1
ByBlock
 72
     0
 43
0.0208333333333333
 43
0.0
 43
0.0
 43
0.0
 43
0.0
 43
0.0208333333333333
 43
0.0
 43
0.0
 43
0.0
 43
0.0
 43
1.0
 43
0.0
 43
0.0
 43
0.0
 43
0.0
 43
1.0
 77
     0
 47
0.0208333333333333
 47
0.0
 47
0.0
 47
0.0
 47
0.0
 47
0.0208333333333333
 47
0.0
 47
0.0
 47
0.0
 47
0.0
 47
1.0
 47
0.0
 47
0.0
 47
0.0
 47
0.0
 47
1.0
171
     0
 49
0.0208333333333333
 49
0.0
 49
0.0
 49
0.0
 49
0.0
 49
0.0208333333333333
 49
0.0
 49
0.0
 49
0.0
 49
0.0
 49
1.0
 49
0.0
 49
0.0
 49
0.0
 49
0.0
 49
1.0
175
     0
142
0.0208333333333333
142
0.0
142
0.0
142
0.0
142
0.0
142
0.0208333333333333
142
0.0
142
0.0
142
0.0
142
0.0
142
1.0
142
0.0
142
0.0
142
0.0
142
0.0
142
1.0
179
     0
144
0.0208333333333333
144
0.0
144
0.0
144
0.0
144
0.0
144
0.0208333333333333
144
0.0
144
0.0
144
0.0
144
0.0
144
1.0
144
0.0
144
0.0
144
0.0
144
0.0
144
1.0
147
0.0208333333333333
147
0.0
147
0.0
147
0.0
147
0.0
147
0.0208333333333333
147
0.0
147
0.0
147
0.0
147
0.0
147
1.0
147
0.0
147
0.0
147
0.0
147
0.0
147
1.0
  0
MATERIAL
  5
83A2
102
{ACAD_XDICTIONARY
360
83A3
102
}
102
{ACAD_REACTORS
330
83A1
102
}
330
83A1
100
AcDbMaterial
  1
ByLayer
 72
     0
 43
0.0208333333333333
 43
0.0
 43
0.0
 43
0.0
 43
0.0
 43
0.0208333333333333
 43
0.0
 43
0.0
 43
0.0
 43
0.0
 43
1.0
 43
0.0
 43
0.0
 43
0.0
 43
0.0
 43
1.0
 77
     0
 47
0.0208333333333333
 47
0.0
 47
0.0
 47
0.0
 47
0.0
 47
0.0208333333333333
 47
0.0
 47
0.0
 47
0.0
 47
0.0
 47
1.0
 47
0.0
 47
0.0
 47
0.0
 47
0.0
 47
1.0
171
     0
 49
0.0208333333333333
 49
0.0
 49
0.0
 49
0.0
 49
0.0
 49
0.0208333333333333
 49
0.0
 49
0.0
 49
0.0
 49
0.0
 49
1.0
 49
0.0
 49
0.0
 49
0.0
 49
0.0
 49
1.0
175
     0
142
0.0208333333333333
142
0.0
142
0.0
142
0.0
142
0.0
142
0.0208333333333333
142
0.0
142
0.0
142
0.0
142
0.0
142
1.0
142
0.0
142
0.0
142
0.0
142
0.0
142
1.0
179
     0
144
0.0208333333333333
144
0.0
144
0.0
144
0.0
144
0.0
144
0.0208333333333333
144
0.0
144
0.0
144
0.0
144
0.0
144
1.0
144
0.0
144
0.0
144
0.0
144
0.0
144
1.0
147
0.0208333333333333
147
0.0
147
0.0
147
0.0
147
0.0
147
0.0208333333333333
147
0.0
147
0.0
147
0.0
147
0.0
147
1.0
147
0.0
147
0.0
147
0.0
147
0.0
147
1.0
  0
MATERIAL
  5
83B2
102
{ACAD_XDICTIONARY
360
83B3
102
}
102
{ACAD_REACTORS
330
83A1
102
}
330
83A1
100
AcDbMaterial
  1
Global
 72
     0
 43
0.0208333333333333
 43
0.0
 43
0.0
 43
0.0
 43
0.0
 43
0.0208333333333333
 43
0.0
 43
0.0
 43
0.0
 43
0.0
 43
1.0
 43
0.0
 43
0.0
 43
0.0
 43
0.0
 43
1.0
 77
     0
 47
0.0208333333333333
 47
0.0
 47
0.0
 47
0.0
 47
0.0
 47
0.0208333333333333
 47
0.0
 47
0.0
 47
0.0
 47
0.0
 47
1.0
 47
0.0
 47
0.0
 47
0.0
 47
0.0
 47
1.0
171
     0
 49
0.0208333333333333
 49
0.0
 49
0.0
 49
0.0
 49
0.0
 49
0.0208333333333333
 49
0.0
 49
0.0
 49
0.0
 49
0.0
 49
1.0
 49
0.0
 49
0.0
 49
0.0
 49
0.0
 49
1.0
175
     0
142
0.0208333333333333
142
0.0
142
0.0
142
0.0
142
0.0
142
0.0208333333333333
142
0.0
142
0.0
142
0.0
142
0.0
142
1.0
142
0.0
142
0.0
142
0.0
142
0.0
142
1.0
179
     0
144
0.0208333333333333
144
0.0
144
0.0
144
0.0
144
0.0
144
0.0208333333333333
144
0.0
144
0.0
144
0.0
144
0.0
144
1.0
144
0.0
144
0.0
144
0.0
144
0.0
144
1.0
147
0.0208333333333333
147
0.0
147
0.0
147
0.0
147
0.0
147
0.0208333333333333
147
0.0
147
0.0
147
0.0
147
0.0
147
1.0
147
0.0
147
0.0
147
0.0
147
0.0
147
1.0
  0
MLEADERSTYLE
  5
83E9
102
{ACAD_REACTORS
330
83E8
102
}
330
83E8
100
AcDbMLeaderStyle
179
     2
170
     2
171
     1
172
     0
 90
        2
 40
0.0
 41
0.0
173
     1
 91
-1056964608
340
13
 92
       -2
290
     1
 42
2.0
291
     1
 43
0.36
  3
Standard
 44
4.0
300

342
10
174
     1
178
     6
175
     1
176
     0
 93
-1056964608
 45
4.0
292
     0
297
     0
 46
4.0
 94
-1056964608
 47
1.0
 49
1.0
140
1.0
293
     1
141
0.0
294
     1
177
     0
142
1.0
295
     1
296
     0
143
0.125
271
     0
272
     9
273
     9
298
     1
  0
MLINESTYLE
  5
1C
102
{ACAD_REACTORS
330
E
102
}
330
E
100
AcDbMlineStyle
  2
STANDARD
 70
     0
  3

 62
     0
 51
90.0
 52
90.0
 71
     2
 49
0.5
 62
   256
  6
BYLAYER
 49
-0.5
 62
   256
  6
BYLAYER
  0
ACDBPLACEHOLDER
  5
8392
102
{ACAD_REACTORS
330
8391
102
}
330
8391
  0
SCALE
  5
83D7
102
{ACAD_REACTORS
330
83D6
102
}
330
83D6
100
AcDbScale
 70
     0
300
1:1
140
1.0
141
1.0
290
     1
  0
SCALE
  5
83D8
102
{ACAD_REACTORS
330
83D6
102
}
330
83D6
100
AcDbScale
 70
     0
300
1:2
140
1.0
141
2.0
290
     0
  0
SCALE
  5
83D9
102
{ACAD_REACTORS
330
83D6
102
}
330
83D6
100
AcDbScale
 70
     0
300
1:4
140
1.0
141
4.0
290
     0
  0
SCALE
  5
83DA
102
{ACAD_REACTORS
330
83D6
102
}
330
83D6
100
AcDbScale
 70
     0
300
1:5
140
1.0
141
5.0
290
     0
  0
SCALE
  5
83DB
102
{ACAD_REACTORS
330
83D6
102
}
330
83D6
100
AcDbScale
 70
     0
300
1:8
140
1.0
141
8.0
290
     0
  0
SCALE
  5
83DC
102
{ACAD_REACTORS
330
83D6
102
}
330
83D6
100
AcDbScale
 70
     0
300
1:10
140
1.0
141
10.0
290
     0
  0
SCALE
  5
83DD
102
{ACAD_REACTORS
330
83D6
102
}
330
83D6
100
AcDbScale
 70
     0
300
1:16
140
1.0
141
16.0
290
     0
  0
SCALE
  5
83DE
102
{ACAD_REACTORS
330
83D6
102
}
330
83D6
100
AcDbScale
 70
     0
300
1:20
140
1.0
141
20.0
290
     0
  0
SCALE
  5
83DF
102
{ACAD_REACTORS
330
83D6
102
}
330
83D6
100
AcDbScale
 70
     0
300
1:30
140
1.0
141
30.0
290
     0
  0
SCALE
  5
83E0
102
{ACAD_REACTORS
330
83D6
102
}
330
83D6
100
AcDbScale
 70
     0
300
1:40
140
1.0
141
40.0
290
     0
  0
SCALE
  5
83E1
102
{ACAD_REACTORS
330
83D6
102
}
330
83D6
100
AcDbScale
 70
     0
300
1:50
140
1.0
141
50.0
290
     0
  0
SCALE
  5
83E2
102
{ACAD_REACTORS
330
83D6
102
}
330
83D6
100
AcDbScale
 70
     0
300
1:100
140
1.0
141
100.0
290
     0
  0
SCALE
  5
83E3
102
{ACAD_REACTORS
330
83D6
102
}
330
83D6
100
AcDbScale
 70
     0
300
2:1
140
2.0
141
1.0
290
     0
  0
SCALE
  5
83E4
102
{ACAD_REACTORS
330
83D6
102
}
330
83D6
100
AcDbScale
 70
     0
300
4:1
140
4.0
141
1.0
290
     0
  0
SCALE
  5
83E5
102
{ACAD_REACTORS
330
83D6
102
}
330
83D6
100
AcDbScale
 70
     0
300
8:1
140
8.0
141
1.0
290
     0
  0
SCALE
  5
83E6
102
{ACAD_REACTORS
330
83D6
102
}
330
83D6
100
AcDbScale
 70
     0
300
10:1
140
10.0
141
1.0
290
     0
  0
SCALE
  5
83E7
102
{ACAD_REACTORS
330
83D6
102
}
330
83D6
100
AcDbScale
 70
     0
300
100:1
140
100.0
141
1.0
290
     0
  0
ACDBSECTIONVIEWSTYLE
  5
83EB
102
{ACAD_XDICTIONARY
360
845F
102
}
102
{ACAD_REACTORS
330
83EA
102
}
330
83EA
100
AcDbModelDocViewStyle
 70
     0
  3
Metric50
290
     0
100
AcDbSectionViewStyle
 70
     0
 71
     0
 90
      102
 71
     1
340
10
 62
   256
 40
5.0
340
0
340
0
 62
   256
 40
5.0
300
I, O, Q, S, X, Z
 40
10.0
 90
        0
 40
2.5
 90
        0
 71
     2
340
15
 90
       25
 62
   256
340
15
 90
       50
 62
   256
 40
5.0
 40
2.5
 40
5.0
 71
     3
340
10
 62
   256
 40
5.0
 90
        0
 40
15.0
 90
        1
300
%<\AcVar ViewSectionStartId>%-%<\AcVar ViewSectionEndId>% (%<\AcVar ViewScale \f "%sn">%)
 71
     4
 62
   256
 62
   257
300
ANSI31
 40
1.0
 90
        0
290
     0
290
     0
 90
        6
 40
0.0
 40
1.570796326794896
 40
0.2617993877991494
 40
1.308996938995747
 40
-0.2617993877991494
 40
1.832595714594046
  0
TABLESTYLE
  5
83D5
102
{ACAD_XDICTIONARY
360
84D7
102
}
102
{ACAD_REACTORS
330
83D4
102
}
330
83D4
100
AcDbTableStyle
280
     0
  3
Standard
 70
     0
 71
     0
 40
1.5
 41
1.5
280
     0
281
     0
  7
STANDARD
140
4.5
170
     2
 62
     0
 63
     7
283
     0
 90
      512
 91
        0
  1

274
    -2
284
     1
 64
     0
275
    -2
285
     1
 65
     0
276
    -2
286
     1
 66
     0
277
    -2
287
     1
 67
     0
278
    -2
288
     1
 68
     0
279
    -2
289
     1
 69
     0
  7
STANDARD
140
6.0
170
     5
 62
     0
 63
     7
283
     0
 90
      512
 91
        0
  1

274
    -2
284
     1
 64
     0
275
    -2
285
     1
 65
     0
276
    -2
286
     1
 66
     0
277
    -2
287
     1
 67
     0
278
    -2
288
     1
 68
     0
279
    -2
289
     1
 69
     0
  7
STANDARD
140
4.5
170
     5
 62
     0
 63
     7
283
     0
 90
      512
 91
        0
  1

274
    -2
284
     1
 64
     0
275
    -2
285
     1
 65
     0
276
    -2
286
     1
 66
     0
277
    -2
287
     1
 67
     0
278
    -2
288
     1
 68
     0
279
    -2
289
     1
 69
     0
  0
VISUALSTYLE
  5
83C0
102
{ACAD_REACTORS
330
83BA
102
}
330
83BA
100
AcDbVisualStyle
  2
2dWireframe
 70
     4
177
     3
291
     0
 70
    58
 90
        0
176
     1
 90
        2
176
     1
 90
        0
176
     1
 90
        0
176
     1
 40
0.6
176
     1
 40
30.0
176
     1
 62
     7
420
 16777215
176
     1
 90
        1
176
     1
 90
        4
176
     1
 62
     7
176
     1
 62
   257
176
     1
 90
        1
176
     1
 90
        1
176
     1
 40
1.0
176
     1
 90
        0
176
     1
 62
   257
176
     1
 40
1.0
176
     1
 90
        1
176
     1
 90
        6
176
     1
 90
        2
176
     1
 62
     7
176
     1
 90
        5
176
     1
 90
        0
176
     1
 90
        0
176
     1
290
     0
176
     1
 90
        1
176
     1
 40
0.0
176
     1
 90
        0
176
     1
290
     1
176
     1
290
     1
176
     1
290
     0
176
     1
290
     0
176
     1
290
     0
176
     1
290
     0
176
     1
290
     0
176
     1
290
     0
176
     1
290
     0
176
     1
 90
       50
176
     1
 40
0.0
176
     1
 40
1.0
176
     1
 90
        0
176
     1
 62
    18
420
        0
176
     1
 90
       50
176
     1
 90
        3
176
     1
 62
     5
420
      255
176
     1
290
     0
176
     1
 90
       50
176
     1
 90
       50
176
     1
 90
       50
176
     1
290
     0
176
     1
 90
       50
176
     1
 62
   256
176
     0
 40
1.0
176
     0
 90
        2
176
     1
  1
strokes_ogs.tif
176
     1
290
     0
176
     1
 40
1.0
176
     1
 40
1.0
176
     1
  0
VISUALSTYLE
  5
83BF
102
{ACAD_REACTORS
330
83BA
102
}
330
83BA
100
AcDbVisualStyle
  2
Basic
 70
     7
177
     3
291
     1
 70
    58
 90
        1
176
     1
 90
        0
176
     1
 90
        1
176
     1
 90
        0
176
     1
 40
0.6
176
     1
 40
30.0
176
     1
 62
     7
420
 16777215
176
     1
 90
        0
176
     1
 90
        4
176
     1
 62
     7
176
     1
 62
   257
176
     1
 90
        1
176
     1
 90
        1
176
     1
 40
1.0
176
     1
 90
        8
176
     1
 62
     7
176
     1
 40
1.0
176
     1
 90
        1
176
     1
 90
        6
176
     1
 90
        2
176
     1
 62
     7
176
     1
 90
        5
176
     1
 90
        0
176
     1
 90
        0
176
     1
290
     0
176
     1
 90
        1
176
     1
 40
0.0
176
     1
 90
        0
176
     1
290
     0
176
     1
290
     1
176
     1
290
     1
176
     1
290
     0
176
     1
290
     0
176
     1
290
     0
176
     1
290
     0
176
     1
290
     0
176
     1
290
     0
176
     1
 90
       50
176
     1
 40
0.0
176
     1
 40
1.0
176
     1
 90
        0
176
     1
 62
    18
420
        0
176
     1
 90
       50
176
     1
 90
        3
176
     1
 62
     5
420
      255
176
     1
290
     0
176
     1
 90
       50
176
     1
 90
       50
176
     1
 90
       50
176
     1
290
     0
176
     1
 90
       50
176
     1
 62
   256
176
     0
 40
1.0
176
     0
 90
        2
176
     1
  1
strokes_ogs.tif
176
     1
290
     0
176
     1
 40
1.0
176
     1
 40
1.0
176
     1
  0
VISUALSTYLE
  5
83C6
102
{ACAD_REACTORS
330
83BA
102
}
330
83BA
100
AcDbVisualStyle
  2
Brighten
 70
    12
177
     3
291
     1
 70
    58
 90
        2
176
     1
 90
        2
176
     1
 90
        0
176
     1
 90
        0
176
     1
 40
0.6
176
     1
 40
30.0
176
     1
 62
     7
420
 16777215
176
     1
 90
        1
176
     1
 90
        4
176
     1
 62
     7
176
     1
 62
   257
176
     1
 90
        1
176
     1
 90
        1
176
     1
 40
1.0
176
     1
 90
        8
176
     1
 62
     7
176
     1
 40
1.0
176
     1
 90
        1
176
     1
 90
        6
176
     1
 90
        2
176
     1
 62
     7
176
     1
 90
        5
176
     1
 90
        0
176
     1
 90
        0
176
     1
290
     0
176
     1
 90
        1
176
     1
 40
50.0
176
     1
 90
        0
176
     1
290
     0
176
     1
290
     1
176
     1
290
     1
176
     1
290
     0
176
     1
290
     0
176
     1
290
     0
176
     1
290
     0
176
     1
290
     0
176
     1
290
     0
176
     1
 90
       50
176
     1
 40
0.0
176
     1
 40
1.0
176
     1
 90
        0
176
     1
 62
    18
420
        0
176
     1
 90
       50
176
     1
 90
        3
176
     1
 62
     5
420
      255
176
     1
290
     0
176
     1
 90
       50
176
     1
 90
       50
176
     1
 90
       50
176
     1
290
     0
176
     1
 90
       50
176
     1
 62
   256
176
     0
 40
1.0
176
     0
 90
        2
176
     1
  1
strokes_ogs.tif
176
     1
290
     0
176
     1
 40
1.0
176
     1
 40
1.0
176
     1
  0
VISUALSTYLE
  5
83CA
102
{ACAD_REACTORS
330
83BA
102
}
330
83BA
100
AcDbVisualStyle
  2
ColorChange
 70
    16
177
     3
291
     1
 70
    58
 90
        2
176
     1
 90
        2
176
     1
 90
        3
176
     1
 90
        0
176
     1
 40
0.6
176
     1
 40
30.0
176
     1
 62
     8
420
  8421504
176
     1
 90
        1
176
     1
 90
        4
176
     1
 62
     7
176
     1
 62
   257
176
     1
 90
        1
176
     1
 90
        1
176
     1
 40
1.0
176
     1
 90
        8
176
     1
 62
     8
420
  8421504
176
     1
 40
1.0
176
     1
 90
        1
176
     1
 90
        6
176
     1
 90
        2
176
     1
 62
     7
176
     1
 90
        5
176
     1
 90
        0
176
     1
 90
        0
176
     1
290
     0
176
     1
 90
        1
176
     1
 40
0.0
176
     1
 90
        0
176
     1
290
     0
176
     1
290
     1
176
     1
290
     1
176
     1
290
     0
176
     1
290
     0
176
     1
290
     0
176
     1
290
     0
176
     1
290
     0
176
     1
290
     0
176
     1
 90
       50
176
     1
 40
0.0
176
     1
 40
1.0
176
     1
 90
        0
176
     1
 62
    18
420
        0
176
     1
 90
       50
176
     1
 90
        3
176
     1
 62
     5
420
      255
176
     1
290
     0
176
     1
 90
       50
176
     1
 90
       50
176
     1
 90
       50
176
     1
290
     0
176
     1
 90
       50
176
     1
 62
   256
176
     0
 40
1.0
176
     0
 90
        2
176
     1
  1
strokes_ogs.tif
176
     1
290
     0
176
     1
 40
1.0
176
     1
 40
1.0
176
     1
  0
VISUALSTYLE
  5
83C3
102
{ACAD_REACTORS
330
83BA
102
}
330
83BA
100
AcDbVisualStyle
  2
Conceptual
 70
     9
177
     3
291
     0
 70
    58
 90
        3
176
     1
 90
        2
176
     1
 90
        0
176
     1
 90
        0
176
     1
 40
0.6
176
     1
 40
30.0
176
     1
 62
     7
420
 16777215
176
     1
 90
        2
176
     1
 90
        2
176
     1
 62
     7
176
     1
 62
   257
176
     1
 90
        1
176
     1
 90
        1
176
     1
 40
179.0
176
     1
 90
        8
176
     1
 62
     7
176
     1
 40
1.0
176
     1
 90
        1
176
     1
 90
        6
176
     1
 90
        2
176
     1
 62
     7
176
     1
 90
        3
176
     1
 90
        0
176
     1
 90
        0
176
     1
290
     0
176
     1
 90
        1
176
     1
 40
0.0
176
     1
 90
        0
176
     1
290
     0
176
     1
290
     1
176
     1
290
     1
176
     1
290
     0
176
     1
290
     0
176
     1
290
     0
176
     1
290
     0
176
     1
290
     0
176
     1
290
     0
176
     1
 90
       50
176
     1
 40
0.0
176
     1
 40
1.0
176
     1
 90
        0
176
     1
 62
    18
420
        0
176
     1
 90
       50
176
     1
 90
        3
176
     1
 62
     5
420
      255
176
     1
290
     0
176
     1
 90
       50
176
     1
 90
       50
176
     1
 90
       50
176
     1
290
     0
176
     1
 90
       50
176
     1
 62
   256
176
     0
 40
1.0
176
     0
 90
        2
176
     1
  1
strokes_ogs.tif
176
     1
290
     0
176
     1
 40
1.0
176
     1
 40
1.0
176
     1
  0
VISUALSTYLE
  5
83C5
102
{ACAD_REACTORS
330
83BA
102
}
330
83BA
100
AcDbVisualStyle
  2
Dim
 70
    11
177
     3
291
     1
 70
    58
 90
        2
176
     1
 90
        2
176
     1
 90
        0
176
     1
 90
        0
176
     1
 40
0.6
176
     1
 40
30.0
176
     1
 62
     7
420
 16777215
176
     1
 90
        1
176
     1
 90
        4
176
     1
 62
     7
176
     1
 62
   257
176
     1
 90
        1
176
     1
 90
        1
176
     1
 40
1.0
176
     1
 90
        8
176
     1
 62
     7
176
     1
 40
1.0
176
     1
 90
        1
176
     1
 90
        6
176
     1
 90
        2
176
     1
 62
     7
176
     1
 90
        5
176
     1
 90
        0
176
     1
 90
        0
176
     1
290
     0
176
     1
 90
        1
176
     1
 40
-50.0
176
     1
 90
        0
176
     1
290
     0
176
     1
290
     1
176
     1
290
     1
176
     1
290
     0
176
     1
290
     0
176
     1
290
     0
176
     1
290
     0
176
     1
290
     0
176
     1
290
     0
176
     1
 90
       50
176
     1
 40
0.0
176
     1
 40
1.0
176
     1
 90
        0
176
     1
 62
    18
420
        0
176
     1
 90
       50
176
     1
 90
        3
176
     1
 62
     5
420
      255
176
     1
290
     0
176
     1
 90
       50
176
     1
 90
       50
176
     1
 90
       50
176
     1
290
     0
176
     1
 90
       50
176
     1
 62
   256
176
     0
 40
1.0
176
     0
 90
        2
176
     1
  1
strokes_ogs.tif
176
     1
290
     0
176
     1
 40
1.0
176
     1
 40
1.0
176
     1
  0
VISUALSTYLE
  5
83D2
102
{ACAD_REACTORS
330
83BA
102
}
330
83BA
100
AcDbVisualStyle
  2
EdgeColorOff
 70
    22
177
     3
291
     1
 70
    58
 90
        2
176
     0
 90
        2
176
     0
 90
        0
176
     0
 90
        0
176
     0
 40
0.6
176
     0
 40
30.0
176
     0
 62
     7
420
 16777215
176
     0
 90
        1
176
     0
 90
        4
176
     0
 62
     7
176
     0
 62
   257
176
     0
 90
        1
176
     0
 90
        1
176
     0
 40
1.0
176
     0
 90
        8
176
     2
 62
     7
176
     0
 40
1.0
176
     0
 90
        1
176
     0
 90
        6
176
     0
 90
        2
176
     0
 62
     7
176
     0
 90
        5
176
     0
 90
        0
176
     0
 90
        0
176
     0
290
     0
176
     0
 90
        1
176
     0
 40
0.0
176
     0
 90
        0
176
     0
290
     0
176
     0
290
     1
176
     0
290
     1
176
     0
290
     0
176
     0
290
     0
176
     0
290
     0
176
     0
290
     0
176
     0
290
     0
176
     0
290
     0
176
     0
 90
       50
176
     0
 40
0.0
176
     0
 40
1.0
176
     0
 90
        0
176
     0
 62
    18
420
        0
176
     0
 90
       50
176
     0
 90
        3
176
     0
 62
     5
420
      255
176
     0
290
     0
176
     0
 90
       50
176
     0
 90
       50
176
     0
 90
       50
176
     0
290
     0
176
     0
 90
       50
176
     0
 62
   256
176
     0
 40
1.0
176
     0
 90
        2
176
     0
  1
strokes_ogs.tif
176
     0
290
     0
176
     0
 40
1.0
176
     0
 40
1.0
176
     0
  0
VISUALSTYLE
  5
83C9
102
{ACAD_REACTORS
330
83BA
102
}
330
83BA
100
AcDbVisualStyle
  2
Facepattern
 70
    15
177
     3
291
     1
 70
    58
 90
        2
176
     1
 90
        2
176
     1
 90
        0
176
     1
 90
        0
176
     1
 40
0.6
176
     1
 40
30.0
176
     1
 62
     7
420
 16777215
176
     1
 90
        1
176
     1
 90
        4
176
     1
 62
     7
176
     1
 62
   257
176
     1
 90
        1
176
     1
 90
        1
176
     1
 40
1.0
176
     1
 90
        8
176
     1
 62
     7
176
     1
 40
1.0
176
     1
 90
        1
176
     1
 90
        6
176
     1
 90
        2
176
     1
 62
     7
176
     1
 90
        5
176
     1
 90
        0
176
     1
 90
        0
176
     1
290
     0
176
     1
 90
        1
176
     1
 40
0.0
176
     1
 90
        0
176
     1
290
     0
176
     1
290
     1
176
     1
290
     1
176
     1
290
     0
176
     1
290
     0
176
     1
290
     0
176
     1
290
     0
176
     1
290
     0
176
     1
290
     0
176
     1
 90
       50
176
     1
 40
0.0
176
     1
 40
1.0
176
     1
 90
        0
176
     1
 62
    18
420
        0
176
     1
 90
       50
176
     1
 90
        3
176
     1
 62
     5
420
      255
176
     1
290
     0
176
     1
 90
       50
176
     1
 90
       50
176
     1
 90
       50
176
     1
290
     0
176
     1
 90
       50
176
     1
 62
   256
176
     0
 40
1.0
176
     0
 90
        2
176
     1
  1
strokes_ogs.tif
176
     1
290
     0
176
     1
 40
1.0
176
     1
 40
1.0
176
     1
  0
VISUALSTYLE
  5
83BB
102
{ACAD_REACTORS
330
83BA
102
}
330
83BA
100
AcDbVisualStyle
  2
Flat
 70
     0
177
     3
291
     1
 70
    58
 90
        2
176
     1
 90
        1
176
     1
 90
        1
176
     1
 90
        2
176
     1
 40
0.6
176
     1
 40
30.0
176
     1
 62
     7
420
 16777215
176
     1
 90
        0
176
     1
 90
        0
176
     1
 62
     7
176
     1
 62
   257
176
     1
 90
        1
176
     1
 90
        1
176
     1
 40
1.0
176
     1
 90
        8
176
     1
 62
     7
176
     1
 40
1.0
176
     1
 90
        1
176
     1
 90
        6
176
     1
 90
        2
176
     1
 62
     7
176
     1
 90
        5
176
     1
 90
        0
176
     1
 90
        0
176
     1
290
     0
176
     1
 90
       13
176
     1
 40
0.0
176
     1
 90
        0
176
     1
290
     0
176
     1
290
     1
176
     1
290
     1
176
     1
290
     0
176
     1
290
     0
176
     1
290
     0
176
     1
290
     0
176
     1
290
     0
176
     1
290
     0
176
     1
 90
       50
176
     1
 40
0.0
176
     1
 40
1.0
176
     1
 90
        0
176
     1
 62
    18
420
        0
176
     1
 90
       50
176
     1
 90
        3
176
     1
 62
     5
420
      255
176
     1
290
     0
176
     1
 90
       50
176
     1
 90
       50
176
     1
 90
       50
176
     1
290
     0
176
     1
 90
       50
176
     1
 62
   256
176
     0
 40
1.0
176
     0
 90
        2
176
     1
  1
strokes_ogs.tif
176
     1
290
     0
176
     1
 40
1.0
176
     1
 40
1.0
176
     1
  0
VISUALSTYLE
  5
83BC
102
{ACAD_REACTORS
330
83BA
102
}
330
83BA
100
AcDbVisualStyle
  2
FlatWithEdges
 70
     1
177
     3
291
     1
 70
    58
 90
        2
176
     1
 90
        1
176
     1
 90
        1
176
     1
 90
        2
176
     1
 40
0.6
176
     1
 40
30.0
176
     1
 62
     7
420
 16777215
176
     1
 90
        1
176
     1
 90
        0
176
     1
 62
     7
176
     1
 62
   257
176
     1
 90
        1
176
     1
 90
        1
176
     1
 40
1.0
176
     1
 90
        0
176
     1
 62
   257
176
     1
 40
1.0
176
     1
 90
        1
176
     1
 90
        6
176
     1
 90
        2
176
     1
 62
     7
176
     1
 90
        5
176
     1
 90
        0
176
     1
 90
        0
176
     1
290
     0
176
     1
 90
       13
176
     1
 40
0.0
176
     1
 90
        0
176
     1
290
     0
176
     1
290
     1
176
     1
290
     1
176
     1
290
     0
176
     1
290
     0
176
     1
290
     0
176
     1
290
     0
176
     1
290
     0
176
     1
290
     0
176
     1
 90
       50
176
     1
 40
0.0
176
     1
 40
1.0
176
     1
 90
        0
176
     1
 62
    18
420
        0
176
     1
 90
       50
176
     1
 90
        3
176
     1
 62
     5
420
      255
176
     1
290
     0
176
     1
 90
       50
176
     1
 90
       50
176
     1
 90
       50
176
     1
290
     0
176
     1
 90
       50
176
     1
 62
   256
176
     0
 40
1.0
176
     0
 90
        2
176
     1
  1
strokes_ogs.tif
176
     1
290
     0
176
     1
 40
1.0
176
     1
 40
1.0
176
     1
  0
VISUALSTYLE
  5
83BD
102
{ACAD_REACTORS
330
83BA
102
}
330
83BA
100
AcDbVisualStyle
  2
Gouraud
 70
     2
177
     3
291
     1
 70
    58
 90
        2
176
     1
 90
        2
176
     1
 90
        1
176
     1
 90
        2
176
     1
 40
0.6
176
     1
 40
30.0
176
     1
 62
     7
420
 16777215
176
     1
 90
        0
176
     1
 90
        0
176
     1
 62
     7
176
     1
 62
   257
176
     1
 90
        1
176
     1
 90
        1
176
     1
 40
1.0
176
     1
 90
        0
176
     1
 62
     7
176
     1
 40
1.0
176
     1
 90
        1
176
     1
 90
        6
176
     1
 90
        2
176
     1
 62
     7
176
     1
 90
        5
176
     1
 90
        0
176
     1
 90
        0
176
     1
290
     0
176
     1
 90
       13
176
     1
 40
0.0
176
     1
 90
        0
176
     1
290
     0
176
     1
290
     1
176
     1
290
     1
176
     1
290
     0
176
     1
290
     0
176
     1
290
     0
176
     1
290
     0
176
     1
290
     0
176
     1
290
     0
176
     1
 90
       50
176
     1
 40
0.0
176
     1
 40
1.0
176
     1
 90
        0
176
     1
 62
    18
420
        0
176
     1
 90
       50
176
     1
 90
        3
176
     1
 62
     5
420
      255
176
     1
290
     0
176
     1
 90
       50
176
     1
 90
       50
176
     1
 90
       50
176
     1
290
     0
176
     1
 90
       50
176
     1
 62
   256
176
     0
 40
1.0
176
     0
 90
        2
176
     1
  1
strokes_ogs.tif
176
     1
290
     0
176
     1
 40
1.0
176
     1
 40
1.0
176
     1
  0
VISUALSTYLE
  5
83BE
102
{ACAD_REACTORS
330
83BA
102
}
330
83BA
100
AcDbVisualStyle
  2
GouraudWithEdges
 70
     3
177
     3
291
     1
 70
    58
 90
        2
176
     1
 90
        2
176
     1
 90
        1
176
     1
 90
        2
176
     1
 40
0.6
176
     1
 40
30.0
176
     1
 62
     7
420
 16777215
176
     1
 90
        1
176
     1
 90
        0
176
     1
 62
     7
176
     1
 62
   257
176
     1
 90
        1
176
     1
 90
        1
176
     1
 40
1.0
176
     1
 90
        0
176
     1
 62
   257
176
     1
 40
1.0
176
     1
 90
        1
176
     1
 90
        6
176
     1
 90
        2
176
     1
 62
     7
176
     1
 90
        5
176
     1
 90
        0
176
     1
 90
        0
176
     1
290
     0
176
     1
 90
       13
176
     1
 40
0.0
176
     1
 90
        0
176
     1
290
     0
176
     1
290
     1
176
     1
290
     1
176
     1
290
     0
176
     1
290
     0
176
     1
290
     0
176
     1
290
     0
176
     1
290
     0
176
     1
290
     0
176
     1
 90
       50
176
     1
 40
0.0
176
     1
 40
1.0
176
     1
 90
        0
176
     1
 62
    18
420
        0
176
     1
 90
       50
176
     1
 90
        3
176
     1
 62
     5
420
      255
176
     1
290
     0
176
     1
 90
       50
176
     1
 90
       50
176
     1
 90
       50
176
     1
290
     0
176
     1
 90
       50
176
     1
 62
   256
176
     0
 40
1.0
176
     0
 90
        2
176
     1
  1
strokes_ogs.tif
176
     1
290
     0
176
     1
 40
1.0
176
     1
 40
1.0
176
     1
  0
VISUALSTYLE
  5
83C2
102
{ACAD_REACTORS
330
83BA
102
}
330
83BA
100
AcDbVisualStyle
  2
Hidden
 70
     6
177
     3
291
     0
 70
    58
 90
        1
176
     1
 90
        2
176
     1
 90
        2
176
     1
 90
        0
176
     1
 40
0.6
176
     1
 40
30.0
176
     1
 62
     7
420
 16777215
176
     1
 90
        2
176
     1
 90
        2
176
     1
 62
     7
176
     1
 62
   257
176
     1
 90
        2
176
     1
 90
        1
176
     1
 40
40.0
176
     1
 90
        0
176
     1
 62
   257
176
     1
 40
1.0
176
     1
 90
        1
176
     1
 90
        6
176
     1
 90
        2
176
     1
 62
     7
176
     1
 90
        3
176
     1
 90
        0
176
     1
 90
        0
176
     1
290
     0
176
     1
 90
        1
176
     1
 40
0.0
176
     1
 90
        0
176
     1
290
     0
176
     1
290
     1
176
     1
290
     1
176
     1
290
     0
176
     1
290
     0
176
     1
290
     0
176
     1
290
     0
176
     1
290
     0
176
     1
290
     0
176
     1
 90
       50
176
     1
 40
0.0
176
     1
 40
1.0
176
     1
 90
        0
176
     1
 62
    18
420
        0
176
     1
 90
       50
176
     1
 90
        3
176
     1
 62
     5
420
      255
176
     1
290
     0
176
     1
 90
       50
176
     1
 90
       50
176
     1
 90
       50
176
     1
290
     0
176
     1
 90
       50
176
     1
 62
   256
176
     0
 40
1.0
176
     0
 90
        2
176
     1
  1
strokes_ogs.tif
176
     1
290
     0
176
     1
 40
1.0
176
     1
 40
1.0
176
     1
  0
VISUALSTYLE
  5
83D0
102
{ACAD_REACTORS
330
83BA
102
}
330
83BA
100
AcDbVisualStyle
  2
JitterOff
 70
    20
177
     3
291
     1
 70
    58
 90
        2
176
     0
 90
        2
176
     0
 90
        0
176
     0
 90
        0
176
     0
 40
0.6
176
     0
 40
30.0
176
     0
 62
     7
420
 16777215
176
     0
 90
        1
176
     0
 90
        4
176
     0
 62
     7
176
     0
 62
   257
176
     0
 90
        1
176
     0
 90
        1
176
     0
 40
1.0
176
     0
 90
       10
176
     2
 62
     7
176
     0
 40
1.0
176
     0
 90
        1
176
     0
 90
        6
176
     0
 90
        2
176
     0
 62
     7
176
     0
 90
        5
176
     0
 90
        0
176
     0
 90
        0
176
     0
290
     0
176
     0
 90
        1
176
     0
 40
0.0
176
     0
 90
        0
176
     0
290
     0
176
     0
290
     1
176
     0
290
     1
176
     0
290
     0
176
     0
290
     0
176
     0
290
     0
176
     0
290
     0
176
     0
290
     0
176
     0
290
     0
176
     0
 90
       50
176
     0
 40
0.0
176
     0
 40
1.0
176
     0
 90
        0
176
     0
 62
    18
420
        0
176
     0
 90
       50
176
     0
 90
        3
176
     0
 62
     5
420
      255
176
     0
290
     0
176
     0
 90
       50
176
     0
 90
       50
176
     0
 90
       50
176
     0
290
     0
176
     0
 90
       50
176
     0
 62
   256
176
     0
 40
1.0
176
     0
 90
        2
176
     0
  1
strokes_ogs.tif
176
     0
290
     0
176
     0
 40
1.0
176
     0
 40
1.0
176
     0
  0
VISUALSTYLE
  5
83C8
102
{ACAD_REACTORS
330
83BA
102
}
330
83BA
100
AcDbVisualStyle
  2
Linepattern
 70
    14
177
     3
291
     1
 70
    58
 90
        2
176
     1
 90
        2
176
     1
 90
        0
176
     1
 90
        0
176
     1
 40
0.6
176
     1
 40
30.0
176
     1
 62
     7
420
 16777215
176
     1
 90
        1
176
     1
 90
        4
176
     1
 62
     7
176
     1
 62
   257
176
     1
 90
        7
176
     1
 90
        7
176
     1
 40
1.0
176
     1
 90
        8
176
     1
 62
     7
176
     1
 40
1.0
176
     1
 90
        1
176
     1
 90
        6
176
     1
 90
        2
176
     1
 62
     7
176
     1
 90
        5
176
     1
 90
        0
176
     1
 90
        0
176
     1
290
     0
176
     1
 90
        1
176
     1
 40
0.0
176
     1
 90
        0
176
     1
290
     0
176
     1
290
     1
176
     1
290
     1
176
     1
290
     0
176
     1
290
     0
176
     1
290
     0
176
     1
290
     0
176
     1
290
     0
176
     1
290
     0
176
     1
 90
       50
176
     1
 40
0.0
176
     1
 40
1.0
176
     1
 90
        0
176
     1
 62
    18
420
        0
176
     1
 90
       50
176
     1
 90
        3
176
     1
 62
     5
420
      255
176
     1
290
     0
176
     1
 90
       50
176
     1
 90
       50
176
     1
 90
       50
176
     1
290
     0
176
     1
 90
       50
176
     1
 62
   256
176
     0
 40
1.0
176
     0
 90
        2
176
     1
  1
strokes_ogs.tif
176
     1
290
     0
176
     1
 40
1.0
176
     1
 40
1.0
176
     1
  0
VISUALSTYLE
  5
83D1
102
{ACAD_REACTORS
330
83BA
102
}
330
83BA
100
AcDbVisualStyle
  2
OverhangOff
 70
    21
177
     3
291
     1
 70
    58
 90
        2
176
     0
 90
        2
176
     0
 90
        0
176
     0
 90
        0
176
     0
 40
0.6
176
     0
 40
30.0
176
     0
 62
     7
420
 16777215
176
     0
 90
        1
176
     0
 90
        4
176
     0
 62
     7
176
     0
 62
   257
176
     0
 90
        1
176
     0
 90
        1
176
     0
 40
1.0
176
     0
 90
        9
176
     2
 62
     7
176
     0
 40
1.0
176
     0
 90
        1
176
     0
 90
        6
176
     0
 90
        2
176
     0
 62
     7
176
     0
 90
        5
176
     0
 90
        0
176
     0
 90
        0
176
     0
290
     0
176
     0
 90
        1
176
     0
 40
0.0
176
     0
 90
        0
176
     0
290
     0
176
     0
290
     1
176
     0
290
     1
176
     0
290
     0
176
     0
290
     0
176
     0
290
     0
176
     0
290
     0
176
     0
290
     0
176
     0
290
     0
176
     0
 90
       50
176
     0
 40
0.0
176
     0
 40
1.0
176
     0
 90
        0
176
     0
 62
    18
420
        0
176
     0
 90
       50
176
     0
 90
        3
176
     0
 62
     5
420
      255
176
     0
290
     0
176
     0
 90
       50
176
     0
 90
       50
176
     0
 90
       50
176
     0
290
     0
176
     0
 90
       50
176
     0
 62
   256
176
     0
 40
1.0
176
     0
 90
        2
176
     0
  1
strokes_ogs.tif
176
     0
290
     0
176
     0
 40
1.0
176
     0
 40
1.0
176
     0
  0
VISUALSTYLE
  5
83C4
102
{ACAD_REACTORS
330
83BA
102
}
330
83BA
100
AcDbVisualStyle
  2
Realistic
 70
     8
177
     3
291
     0
 70
    58
 90
        2
176
     1
 90
        3
176
     1
 90
        0
176
     1
 90
        2
176
     1
 40
0.6
176
     1
 40
30.0
176
     1
 62
     7
420
 16777215
176
     1
 90
        0
176
     1
 90
        0
176
     1
 62
     7
176
     1
 62
   257
176
     1
 90
        1
176
     1
 90
        1
176
     1
 40
1.0
176
     1
 90
        8
176
     1
 62
   257
176
     1
 40
1.0
176
     1
 90
        1
176
     1
 90
        6
176
     1
 90
        2
176
     1
 62
     7
176
     1
 90
        3
176
     1
 90
        0
176
     1
 90
        0
176
     1
290
     0
176
     1
 90
       13
176
     1
 40
0.0
176
     1
 90
        0
176
     1
290
     0
176
     1
290
     1
176
     1
290
     1
176
     1
290
     0
176
     1
290
     0
176
     1
290
     0
176
     1
290
     0
176
     1
290
     0
176
     1
290
     0
176
     1
 90
       50
176
     1
 40
0.0
176
     1
 40
1.0
176
     1
 90
        0
176
     1
 62
    18
420
        0
176
     1
 90
       50
176
     1
 90
        3
176
     1
 62
     5
420
      255
176
     1
290
     0
176
     1
 90
       50
176
     1
 90
       50
176
     1
 90
       50
176
     1
290
     0
176
     1
 90
       50
176
     1
 62
   256
176
     0
 40
1.0
176
     0
 90
        2
176
     1
  1
strokes_ogs.tif
176
     1
290
     0
176
     1
 40
1.0
176
     1
 40
1.0
176
     1
  0
VISUALSTYLE
  5
83CF
102
{ACAD_REACTORS
330
83BA
102
}
330
83BA
100
AcDbVisualStyle
  2
Shaded
 70
    27
177
     3
291
     0
 70
    58
 90
        2
176
     1
 90
        2
176
     1
 90
        1
176
     1
 90
        2
176
     1
 40
0.6
176
     1
 40
30.0
176
     1
 62
     7
420
 16777215
176
     1
 90
        0
176
     1
 90
        4
176
     1
 62
     7
176
     1
 62
   257
176
     1
 90
        1
176
     1
 90
        1
176
     1
 40
1.0
176
     1
 90
        8
176
     1
 62
   257
176
     1
 40
1.0
176
     1
 90
        1
176
     1
 90
        6
176
     1
 90
        2
176
     1
 62
     8
420
  7895160
176
     1
 90
        3
176
     1
 90
        0
176
     1
 90
        0
176
     1
290
     0
176
     1
 90
        5
176
     1
 40
0.0
176
     1
 90
        0
176
     1
290
     0
176
     1
290
     1
176
     1
290
     1
176
     1
290
     0
176
     1
290
     0
176
     1
290
     0
176
     1
290
     0
176
     1
290
     0
176
     1
290
     0
176
     1
 90
       50
176
     1
 40
0.0
176
     1
 40
1.0
176
     1
 90
        0
176
     1
 62
    18
420
        0
176
     1
 90
       50
176
     1
 90
        3
176
     1
 62
     5
420
      255
176
     1
290
     0
176
     1
 90
       50
176
     1
 90
       50
176
     1
 90
       50
176
     1
290
     0
176
     1
 90
       50
176
     1
 62
   256
176
     0
 40
1.0
176
     0
 90
        2
176
     1
  1
strokes_ogs.tif
176
     1
290
     0
176
     1
 40
1.0
176
     1
 40
1.0
176
     1
  0
VISUALSTYLE
  5
83CE
102
{ACAD_REACTORS
330
83BA
102
}
330
83BA
100
AcDbVisualStyle
  2
Shaded with edges
 70
    26
177
     3
291
     0
 70
    58
 90
        2
176
     1
 90
        2
176
     1
 90
        1
176
     1
 90
        2
176
     1
 40
0.6
176
     1
 40
30.0
176
     1
 62
     7
420
 16777215
176
     1
 90
        1
176
     1
 90
       10
176
     1
 62
     7
176
     1
 62
   257
176
     1
 90
        2
176
     1
 90
        1
176
     1
 40
1.0
176
     1
 90
        8
176
     1
 62
   257
176
     1
 40
1.0
176
     1
 90
        1
176
     1
 90
        6
176
     1
 90
        2
176
     1
 62
     7
176
     1
 90
        3
176
     1
 90
        0
176
     1
 90
        0
176
     1
290
     0
176
     1
 90
        5
176
     1
 40
0.0
176
     1
 90
        0
176
     1
290
     0
176
     1
290
     1
176
     1
290
     1
176
     1
290
     0
176
     1
290
     0
176
     1
290
     0
176
     1
290
     0
176
     1
290
     0
176
     1
290
     0
176
     1
 90
       50
176
     1
 40
0.0
176
     1
 40
1.0
176
     1
 90
        0
176
     1
 62
    18
420
        0
176
     1
 90
       50
176
     1
 90
        3
176
     1
 62
     5
420
      255
176
     1
290
     0
176
     1
 90
       50
176
     1
 90
       50
176
     1
 90
       50
176
     1
290
     0
176
     1
 90
       50
176
     1
 62
   256
176
     0
 40
1.0
176
     0
 90
        2
176
     1
  1
strokes_ogs.tif
176
     1
290
     0
176
     1
 40
1.0
176
     1
 40
1.0
176
     1
  0
VISUALSTYLE
  5
83CB
102
{ACAD_REACTORS
330
83BA
102
}
330
83BA
100
AcDbVisualStyle
  2
Shades of Gray
 70
    23
177
     3
291
     0
 70
    58
 90
        2
176
     1
 90
        2
176
     1
 90
        3
176
     1
 90
        0
176
     1
 40
0.6
176
     1
 40
30.0
176
     1
 62
     7
420
 16777215
176
     1
 90
        2
176
     1
 90
        2
176
     1
 62
     7
176
     1
 62
     7
176
     1
 90
        1
176
     1
 90
        1
176
     1
 40
40.0
176
     1
 90
        8
176
     1
 62
     7
176
     1
 40
1.0
176
     1
 90
        1
176
     1
 90
        6
176
     1
 90
        2
176
     1
 62
     7
176
     1
 90
        3
176
     1
 90
        0
176
     1
 90
        0
176
     1
290
     0
176
     1
 90
        1
176
     1
 40
0.0
176
     1
 90
        0
176
     1
290
     0
176
     1
290
     1
176
     1
290
     1
176
     1
290
     0
176
     1
290
     0
176
     1
290
     0
176
     1
290
     0
176
     1
290
     0
176
     1
290
     0
176
     1
 90
       50
176
     1
 40
0.0
176
     1
 40
1.0
176
     1
 90
        0
176
     1
 62
    18
420
        0
176
     1
 90
       50
176
     1
 90
        3
176
     1
 62
     5
420
      255
176
     1
290
     0
176
     1
 90
       50
176
     1
 90
       50
176
     1
 90
       50
176
     1
290
     0
176
     1
 90
       50
176
     1
 62
   256
176
     0
 40
1.0
176
     0
 90
        2
176
     1
  1
strokes_ogs.tif
176
     1
290
     0
176
     1
 40
1.0
176
     1
 40
1.0
176
     1
  0
VISUALSTYLE
  5
83CC
102
{ACAD_REACTORS
330
83BA
102
}
330
83BA
100
AcDbVisualStyle
  2
Sketchy
 70
    24
177
     3
291
     0
 70
    58
 90
        1
176
     1
 90
        2
176
     1
 90
        2
176
     1
 90
        0
176
     1
 40
0.6
176
     1
 40
30.0
176
     1
 62
     7
420
 16777215
176
     1
 90
        2
176
     1
 90
        2
176
     1
 62
     7
176
     1
 62
     7
176
     1
 90
        1
176
     1
 90
        1
176
     1
 40
40.0
176
     1
 90
       11
176
     1
 62
     7
176
     1
 40
1.0
176
     1
 90
        1
176
     1
 90
        6
176
     1
 90
        2
176
     1
 62
     7
176
     1
 90
        6
176
     1
 90
        0
176
     1
 90
        0
176
     1
290
     0
176
     1
 90
        1
176
     1
 40
0.0
176
     1
 90
        0
176
     1
290
     0
176
     1
290
     1
176
     1
290
     1
176
     1
290
     0
176
     1
290
     0
176
     1
290
     0
176
     1
290
     0
176
     1
290
     0
176
     1
290
     0
176
     1
 90
       50
176
     1
 40
0.0
176
     1
 40
1.0
176
     1
 90
        0
176
     1
 62
    18
420
        0
176
     1
 90
       50
176
     1
 90
        3
176
     1
 62
     5
420
      255
176
     1
290
     0
176
     1
 90
       50
176
     1
 90
       50
176
     1
 90
       50
176
     1
290
     0
176
     1
 90
       50
176
     1
 62
   256
176
     0
 40
1.0
176
     0
 90
        2
176
     1
  1
strokes_ogs.tif
176
     1
290
     0
176
     1
 40
1.0
176
     1
 40
1.0
176
     1
  0
VISUALSTYLE
  5
83C7
102
{ACAD_REACTORS
330
83BA
102
}
330
83BA
100
AcDbVisualStyle
  2
Thicken
 70
    13
177
     3
291
     1
 70
    58
 90
        2
176
     1
 90
        2
176
     1
 90
        0
176
     1
 90
        0
176
     1
 40
0.6
176
     1
 40
30.0
176
     1
 62
     7
420
 16777215
176
     1
 90
        1
176
     1
 90
        4
176
     1
 62
     7
176
     1
 62
   257
176
     1
 90
        1
176
     1
 90
        1
176
     1
 40
1.0
176
     1
 90
       12
176
     1
 62
     7
176
     1
 40
1.0
176
     1
 90
        1
176
     1
 90
        6
176
     1
 90
        2
176
     1
 62
     7
176
     1
 90
        5
176
     1
 90
        0
176
     1
 90
        0
176
     1
290
     0
176
     1
 90
        1
176
     1
 40
0.0
176
     1
 90
        0
176
     1
290
     0
176
     1
290
     1
176
     1
290
     1
176
     1
290
     0
176
     1
290
     0
176
     1
290
     0
176
     1
290
     0
176
     1
290
     0
176
     1
290
     0
176
     1
 90
       50
176
     1
 40
0.0
176
     1
 40
1.0
176
     1
 90
        0
176
     1
 62
    18
420
        0
176
     1
 90
       50
176
     1
 90
        3
176
     1
 62
     5
420
      255
176
     1
290
     0
176
     1
 90
       50
176
     1
 90
       50
176
     1
 90
       50
176
     1
290
     0
176
     1
 90
       50
176
     1
 62
   256
176
     0
 40
1.0
176
     0
 90
        2
176
     1
  1
strokes_ogs.tif
176
     1
290
     0
176
     1
 40
1.0
176
     1
 40
1.0
176
     1
  0
VISUALSTYLE
  5
83C1
102
{ACAD_REACTORS
330
83BA
102
}
330
83BA
100
AcDbVisualStyle
  2
Wireframe
 70
     5
177
     3
291
     0
 70
    58
 90
        0
176
     1
 90
        2
176
     1
 90
        0
176
     1
 90
        0
176
     1
 40
0.6
176
     1
 40
30.0
176
     1
 62
     7
420
 16777215
176
     1
 90
        1
176
     1
 90
        4
176
     1
 62
     7
176
     1
 62
   257
176
     1
 90
        1
176
     1
 90
        1
176
     1
 40
1.0
176
     1
 90
        0
176
     1
 62
   257
176
     1
 40
1.0
176
     1
 90
        1
176
     1
 90
        6
176
     1
 90
        2
176
     1
 62
     7
176
     1
 90
        3
176
     1
 90
        0
176
     1
 90
        0
176
     1
290
     0
176
     1
 90
        1
176
     1
 40
0.0
176
     1
 90
        0
176
     1
290
     0
176
     1
290
     1
176
     1
290
     1
176
     1
290
     0
176
     1
290
     0
176
     1
290
     0
176
     1
290
     0
176
     1
290
     0
176
     1
290
     0
176
     1
 90
       50
176
     1
 40
0.0
176
     1
 40
1.0
176
     1
 90
        0
176
     1
 62
    18
420
        0
176
     1
 90
       50
176
     1
 90
        3
176
     1
 62
     5
420
      255
176
     1
290
     0
176
     1
 90
       50
176
     1
 90
       50
176
     1
 90
       50
176
     1
290
     0
176
     1
 90
       50
176
     1
 62
   256
176
     0
 40
1.0
176
     0
 90
        2
176
     1
  1
strokes_ogs.tif
176
     1
290
     0
176
     1
 40
1.0
176
     1
 40
1.0
176
     1
  0
VISUALSTYLE
  5
83CD
102
{ACAD_REACTORS
330
83BA
102
}
330
83BA
100
AcDbVisualStyle
  2
X-Ray
 70
    25
177
     3
291
     0
 70
    58
 90
        2
176
     1
 90
        2
176
     1
 90
        1
176
     1
 90
        1
176
     1
 40
0.5
176
     1
 40
30.0
176
     1
 62
     7
420
 16777215
176
     1
 90
        1
176
     1
 90
        0
176
     1
 62
     7
176
     1
 62
   257
176
     1
 90
        1
176
     1
 90
        1
176
     1
 40
1.0
176
     1
 90
        8
176
     1
 62
     7
176
     1
 40
1.0
176
     1
 90
        1
176
     1
 90
        6
176
     1
 90
        2
176
     1
 62
     7
176
     1
 90
        3
176
     1
 90
        0
176
     1
 90
        0
176
     1
290
     0
176
     1
 90
       13
176
     1
 40
0.0
176
     1
 90
        0
176
     1
290
     0
176
     1
290
     1
176
     1
290
     1
176
     1
290
     0
176
     1
290
     0
176
     1
290
     0
176
     1
290
     0
176
     1
290
     0
176
     1
290
     0
176
     1
 90
       50
176
     1
 40
0.0
176
     1
 40
1.0
176
     1
 90
        0
176
     1
 62
    18
420
        0
176
     1
 90
       50
176
     1
 90
        3
176
     1
 62
     5
420
      255
176
     1
290
     0
176
     1
 90
       50
176
     1
 90
       50
176
     1
 90
       50
176
     1
290
     0
176
     1
 90
       50
176
     1
 62
   256
176
     0
 40
1.0
176
     0
 90
        2
176
     1
  1
strokes_ogs.tif
176
     1
290
     0
176
     1
 40
1.0
176
     1
 40
1.0
176
     1
  0
DICTIONARYVAR
  5
846A
102
{ACAD_REACTORS
330
8464
102
}
330
8464
100
DictionaryVariables
280
     0
  1
1:1
  0
DICTIONARYVAR
  5
8466
102
{ACAD_REACTORS
330
8464
102
}
330
8464
100
DictionaryVariables
280
     0
  1
STANDARD
  0
DICTIONARYVAR
  5
8465
102
{ACAD_REACTORS
330
8464
102
}
330
8464
100
DictionaryVariables
280
     0
  1
STANDARD
  0
DICTIONARYVAR
  5
8467
102
{ACAD_REACTORS
330
8464
102
}
330
8464
100
DictionaryVariables
280
     0
  1
Metric50
  0
DICTIONARYVAR
  5
8468
102
{ACAD_REACTORS
330
8464
102
}
330
8464
100
DictionaryVariables
280
     0
  1
Metric50
  0
DICTIONARYVAR
  5
846C
102
{ACAD_REACTORS
330
8464
102
}
330
8464
100
DictionaryVariables
280
     0
  1
1
  0
DICTIONARYVAR
  5
846D
102
{ACAD_REACTORS
330
8464
102
}
330
8464
100
DictionaryVariables
280
     0
  1
15
  0
DICTIONARYVAR
  5
846B
102
{ACAD_REACTORS
330
8464
102
}
330
8464
100
DictionaryVariables
280
     0
  1
0
  0
DICTIONARYVAR
  5
8469
102
{ACAD_REACTORS
330
8464
102
}
330
8464
100
DictionaryVariables
280
     0
  1
0
  0
DICTIONARY
  5
8461
330
83ED
100
AcDbDictionary
280
     1
281
     1
  3
ACAD_XREC_ROUNDTRIP
360
84DA
  0
DICTIONARY
  5
83AB
330
83AA
100
AcDbDictionary
280
     1
281
     1
  3
BUMPTILE
360
83AD
  3
DIFFUSETILE
360
83AC
  3
OPACITYTILE
360
83B0
  3
REFLECTIONTILE
360
83AF
  3
REFRACTIONTILE
360
83B1
  3
SPECULARTILE
360
83AE
  0
DICTIONARY
  5
83A3
330
83A2
100
AcDbDictionary
280
     1
281
     1
  3
BUMPTILE
360
83A5
  3
DIFFUSETILE
360
83A4
  3
OPACITYTILE
360
83A8
  3
REFLECTIONTILE
360
83A7
  3
REFRACTIONTILE
360
83A9
  3
SPECULARTILE
360
83A6
  0
DICTIONARY
  5
83B3
330
83B2
100
AcDbDictionary
280
     1
281
     1
  3
BUMPTILE
360
83B5
  3
DIFFUSETILE
360
83B4
  3
OPACITYTILE
360
83B8
  3
REFLECTIONTILE
360
83B7
  3
REFRACTIONTILE
360
83B9
  3
SPECULARTILE
360
83B6
  0
DICTIONARY
  5
845F
330
83EB
100
AcDbDictionary
280
     1
281
     1
  3
ACAD_XREC_ROUNDTRIP
360
84D9
  0
DICTIONARY
  5
84D7
330
83D5
100
AcDbDictionary
280
     1
281
     1
  3
ACAD_ROUNDTRIP_2008_TABLESTYLE_CELLSTYLEMAP
360
84D8
  0
XRECORD
  5
84DA
102
{ACAD_REACTORS
330
8461
102
}
330
8461
100
AcDbXrecord
280
     1
102
DISPLAYNAME
  1
Metric50
102
FLAGS
 90
        0
  0
XRECORD
  5
83AD
102
{ACAD_REACTORS
330
83AB
102
}
330
83AB
100
AcDbXrecord
280
     1
270
     1
271
     1
  0
XRECORD
  5
83AC
102
{ACAD_REACTORS
330
83AB
102
}
330
83AB
100
AcDbXrecord
280
     1
270
     1
271
     1
  0
XRECORD
  5
83B0
102
{ACAD_REACTORS
330
83AB
102
}
330
83AB
100
AcDbXrecord
280
     1
270
     1
271
     1
  0
XRECORD
  5
83AF
102
{ACAD_REACTORS
330
83AB
102
}
330
83AB
100
AcDbXrecord
280
     1
270
     1
271
     1
  0
XRECORD
  5
83B1
102
{ACAD_REACTORS
330
83AB
102
}
330
83AB
100
AcDbXrecord
280
     1
270
     1
271
     1
  0
XRECORD
  5
83AE
102
{ACAD_REACTORS
330
83AB
102
}
330
83AB
100
AcDbXrecord
280
     1
270
     1
271
     1
  0
XRECORD
  5
83A5
102
{ACAD_REACTORS
330
83A3
102
}
330
83A3
100
AcDbXrecord
280
     1
270
     1
271
     1
  0
XRECORD
  5
83A4
102
{ACAD_REACTORS
330
83A3
102
}
330
83A3
100
AcDbXrecord
280
     1
270
     1
271
     1
  0
XRECORD
  5
83A8
102
{ACAD_REACTORS
330
83A3
102
}
330
83A3
100
AcDbXrecord
280
     1
270
     1
271
     1
  0
XRECORD
  5
83A7
102
{ACAD_REACTORS
330
83A3
102
}
330
83A3
100
AcDbXrecord
280
     1
270
     1
271
     1
  0
XRECORD
  5
83A9
102
{ACAD_REACTORS
330
83A3
102
}
330
83A3
100
AcDbXrecord
280
     1
270
     1
271
     1
  0
XRECORD
  5
83A6
102
{ACAD_REACTORS
330
83A3
102
}
330
83A3
100
AcDbXrecord
280
     1
270
     1
271
     1
  0
XRECORD
  5
83B5
102
{ACAD_REACTORS
330
83B3
102
}
330
83B3
100
AcDbXrecord
280
     1
270
     1
271
     1
  0
XRECORD
  5
83B4
102
{ACAD_REACTORS
330
83B3
102
}
330
83B3
100
AcDbXrecord
280
     1
270
     1
271
     1
  0
XRECORD
  5
83B8
102
{ACAD_REACTORS
330
83B3
102
}
330
83B3
100
AcDbXrecord
280
     1
270
     1
271
     1
  0
XRECORD
  5
83B7
102
{ACAD_REACTORS
330
83B3
102
}
330
83B3
100
AcDbXrecord
280
     1
270
     1
271
     1
  0
XRECORD
  5
83B9
102
{ACAD_REACTORS
330
83B3
102
}
330
83B3
100
AcDbXrecord
280
     1
270
     1
271
     1
  0
XRECORD
  5
83B6
102
{ACAD_REACTORS
330
83B3
102
}
330
83B3
100
AcDbXrecord
280
     1
270
     1
271
     1
  0
XRECORD
  5
84D9
102
{ACAD_REACTORS
330
845F
102
}
330
845F
100
AcDbXrecord
280
     1
102
DISPLAYNAME
  1
Metric50
102
FLAGS
 90
        0
  0
CELLSTYLEMAP
  5
84D8
102
{ACAD_REACTORS
330
84D7
102
}
330
84D7
100
AcDbCellStyleMap
 90
        3
300
CELLSTYLE
  1
TABLEFORMAT_BEGIN
 90
        5
170
     1
 91
        0
 92
    32768
 62
   257
 93
        1
300
CONTENTFORMAT
  1
CONTENTFORMAT_BEGIN
 90
        0
 91
        0
 92
      512
 93
        0
300

 40
0.0
140
1.0
 94
        5
 62
     0
340
10
144
6.0
309
CONTENTFORMAT_END
171
     1
301
MARGIN
  1
CELLMARGIN_BEGIN
 40
1.5
 40
1.5
 40
1.5
 40
1.5
 40
4.5
 40
4.5
309
CELLMARGIN_END
 94
        6
 95
        1
302
GRIDFORMAT
  1
GRIDFORMAT_BEGIN
 90
        0
 91
        1
 62
     0
 92
       -2
340
0
 93
        0
 40
1.125
309
GRIDFORMAT_END
 95
        2
302
GRIDFORMAT
  1
GRIDFORMAT_BEGIN
 90
        0
 91
        1
 62
     0
 92
       -2
340
0
 93
        0
 40
1.125
309
GRIDFORMAT_END
 95
        4
302
GRIDFORMAT
  1
GRIDFORMAT_BEGIN
 90
        0
 91
        1
 62
     0
 92
       -2
340
0
 93
        0
 40
1.125
309
GRIDFORMAT_END
 95
        8
302
GRIDFORMAT
  1
GRIDFORMAT_BEGIN
 90
        0
 91
        1
 62
     0
 92
       -2
340
0
 93
        0
 40
1.125
309
GRIDFORMAT_END
 95
       16
302
GRIDFORMAT
  1
GRIDFORMAT_BEGIN
 90
        0
 91
        1
 62
     0
 92
       -2
340
0
 93
        0
 40
1.125
309
GRIDFORMAT_END
 95
       32
302
GRIDFORMAT
  1
GRIDFORMAT_BEGIN
 90
        0
 91
        1
 62
     0
 92
       -2
340
0
 93
        0
 40
1.125
309
GRIDFORMAT_END
309
TABLEFORMAT_END
  1
CELLSTYLE_BEGIN
 90
        1
 91
        1
300
_TITLE
309
CELLSTYLE_END
300
CELLSTYLE
  1
TABLEFORMAT_BEGIN
 90
        5
170
     1
 91
        0
 92
        0
 62
   257
 93
        1
300
CONTENTFORMAT
  1
CONTENTFORMAT_BEGIN
 90
        0
 91
        0
 92
      512
 93
        0
300

 40
0.0
140
1.0
 94
        5
 62
     0
340
10
144
4.5
309
CONTENTFORMAT_END
171
     1
301
MARGIN
  1
CELLMARGIN_BEGIN
 40
1.5
 40
1.5
 40
1.5
 40
1.5
 40
4.5
 40
4.5
309
CELLMARGIN_END
 94
        6
 95
        1
302
GRIDFORMAT
  1
GRIDFORMAT_BEGIN
 90
        0
 91
        1
 62
     0
 92
       -2
340
0
 93
        0
 40
1.125
309
GRIDFORMAT_END
 95
        2
302
GRIDFORMAT
  1
GRIDFORMAT_BEGIN
 90
        0
 91
        1
 62
     0
 92
       -2
340
0
 93
        0
 40
1.125
309
GRIDFORMAT_END
 95
        4
302
GRIDFORMAT
  1
GRIDFORMAT_BEGIN
 90
        0
 91
        1
 62
     0
 92
       -2
340
0
 93
        0
 40
1.125
309
GRIDFORMAT_END
 95
        8
302
GRIDFORMAT
  1
GRIDFORMAT_BEGIN
 90
        0
 91
        1
 62
     0
 92
       -2
340
0
 93
        0
 40
1.125
309
GRIDFORMAT_END
 95
       16
302
GRIDFORMAT
  1
GRIDFORMAT_BEGIN
 90
        0
 91
        1
 62
     0
 92
       -2
340
0
 93
        0
 40
1.125
309
GRIDFORMAT_END
 95
       32
302
GRIDFORMAT
  1
GRIDFORMAT_BEGIN
 90
        0
 91
        1
 62
     0
 92
       -2
340
0
 93
        0
 40
1.125
309
GRIDFORMAT_END
309
TABLEFORMAT_END
  1
CELLSTYLE_BEGIN
 90
        2
 91
        1
300
_HEADER
309
CELLSTYLE_END
300
CELLSTYLE
  1
TABLEFORMAT_BEGIN
 90
        5
170
     1
 91
        0
 92
        0
 62
   257
 93
        1
300
CONTENTFORMAT
  1
CONTENTFORMAT_BEGIN
 90
        0
 91
        0
 92
      512
 93
        0
300

 40
0.0
140
1.0
 94
        2
 62
     0
340
10
144
4.5
309
CONTENTFORMAT_END
171
     1
301
MARGIN
  1
CELLMARGIN_BEGIN
 40
1.5
 40
1.5
 40
1.5
 40
1.5
 40
4.5
 40
4.5
309
CELLMARGIN_END
 94
        6
 95
        1
302
GRIDFORMAT
  1
GRIDFORMAT_BEGIN
 90
        0
 91
        1
 62
     0
 92
       -2
340
0
 93
        0
 40
1.125
309
GRIDFORMAT_END
 95
        2
302
GRIDFORMAT
  1
GRIDFORMAT_BEGIN
 90
        0
 91
        1
 62
     0
 92
       -2
340
0
 93
        0
 40
1.125
309
GRIDFORMAT_END
 95
        4
302
GRIDFORMAT
  1
GRIDFORMAT_BEGIN
 90
        0
 91
        1
 62
     0
 92
       -2
340
0
 93
        0
 40
1.125
309
GRIDFORMAT_END
 95
        8
302
GRIDFORMAT
  1
GRIDFORMAT_BEGIN
 90
        0
 91
        1
 62
     0
 92
       -2
340
0
 93
        0
 40
1.125
309
GRIDFORMAT_END
 95
       16
302
GRIDFORMAT
  1
GRIDFORMAT_BEGIN
 90
        0
 91
        1
 62
     0
 92
       -2
340
0
 93
        0
 40
1.125
309
GRIDFORMAT_END
 95
       32
302
GRIDFORMAT
  1
GRIDFORMAT_BEGIN
 90
        0
 91
        1
 62
     0
 92
       -2
340
0
 93
        0
 40
1.125
309
GRIDFORMAT_END
309
TABLEFORMAT_END
  1
CELLSTYLE_BEGIN
 90
        3
 91
        2
300
_DATA
309
CELLSTYLE_END
  0
ENDSEC
  0
SECTION
  2
ACDSDATA
 70
     2
 71
     8
  0
ACDSSCHEMA
 90
        0
  1
AcDb_Thumbnail_Schema
  2
AcDbDs::ID
280
    10
 91
        8
  2
Thumbnail_Data
280
    15
 91
        0
101
ACDSRECORD
 95
        0
 90
        1
  2
AcDbDs::TreatedAsObjectData
280
     1
291
     1
101
ACDSRECORD
 95
        0
 90
        2
  2
AcDbDs::Legacy
280
     1
291
     1
101
ACDSRECORD
  1
AcDbDs::ID
 90
        3
  2
AcDs:Indexable
280
     1
291
     1
101
ACDSRECORD
  1
AcDbDs::ID
 90
        4
  2
AcDbDs::HandleAttribute
280
     7
282
     1
  0
ACDSSCHEMA
 90
        1
  1
AcDbDs::TreatedAsObjectDataSchema
  2
AcDbDs::TreatedAsObjectData
280
     1
 91
        0
  0
ACDSSCHEMA
 90
        2
  1
AcDbDs::LegacySchema
  2
AcDbDs::Legacy
280
     1
 91
        0
  0
ACDSSCHEMA
 90
        3
  1
AcDbDs::IndexedPropertySchema
  2
AcDs:Indexable
280
     1
 91
        0
  0
ACDSSCHEMA
 90
        4
  1
AcDbDs::HandleAttributeSchema
  2
AcDbDs::HandleAttribute
280
     7
 91
        1
284
     1
  0
ACDSRECORD
 90
        0
  2
AcDbDs::ID
280
    10
320
8395
  2
Thumbnail_Data
280
    15
 94
     1683
310
89504E470D0A1A0A0000000D49484452000001000000007C0803000000B13B9E5A00000300504C5445000000000000C8C8C80000000000000000000000000000000000000000000000000000330000660000990000CC0000FF0033000033330033660033990033CC0033FF0066000066330066660066990066CC0066FF0099
310
000099330099660099990099CC0099FF00CC0000CC3300CC6600CC9900CCCC00CCFF00FF0000FF3300FF6600FF9900FFCC00FFFF3300003300333300663300993300CC3300FF3333003333333333663333993333CC3333FF3366003366333366663366993366CC3366FF3399003399333399663399993399CC3399FF33CC00
310
33CC3333CC6633CC9933CCCC33CCFF33FF0033FF3333FF6633FF9933FFCC33FFFF6600006600336600666600996600CC6600FF6633006633336633666633996633CC6633FF6666006666336666666666996666CC6666FF6699006699336699666699996699CC6699FF66CC0066CC3366CC6666CC9966CCCC66CCFF66FF0066
310
FF3366FF6666FF9966FFCC66FFFF9900009900339900669900999900CC9900FF9933009933339933669933999933CC9933FF9966009966339966669966999966CC9966FF9999009999339999669999999999CC9999FF99CC0099CC3399CC6699CC9999CCCC99CCFF99FF0099FF3399FF6699FF9999FFCC99FFFFCC0000CC00
310
33CC0066CC0099CC00CCCC00FFCC3300CC3333CC3366CC3399CC33CCCC33FFCC6600CC6633CC6666CC6699CC66CCCC66FFCC9900CC9933CC9966CC9999CC99CCCC99FFCCCC00CCCC33CCCC66CCCC99CCCCCCCCCCFFCCFF00CCFF33CCFF66CCFF99CCFFCCCCFFFFFF0000FF0033FF0066FF0099FF00CCFF00FFFF3300FF3333
310
FF3366FF3399FF33CCFF33FFFF6600FF6633FF6666FF6699FF66CCFF66FFFF9900FF9933FF9966FF9999FF99CCFF99FFFFCC00FFCC33FFCC66FFCC99FFCCCCFFCCFFFFFF00FFFF33FFFF66FFFF99FFFFCCFFFFFF0000000D0D0D1A1A1A2828283535354343435050505D5D5D6B6B6B787878868686939393A1A1A1AEAEAEBB
310
BBBBC9C9C9D6D6D6E4E4E4F1F1F1FFFFFF00000000000000000000000000000000000000000000000000000000000008F1915C000003154944415478DAED9D5D72EB200C85B51C5ED8FF66B40DDEAFCD9F01037666D2B991746893D609F6441F0749608610FD41097F54484A09A22E0B00000000000000BFF34937C1CF0A80
310
E1F4605201E60104CB00865E201BC05747002201FCD8C500E03F00C83ABEFEE4074D841E26466A0040C9DA6A325510D5FA888466437E1D0AE875D0892154416806106A9217A817410D7A014E502500EB79C057AF2014C0A4456F0D1CAE9A291466A7A8633EE0014028C65E21B2844D950AA01E408E14A522353F6A14F0B5F3
310
31270800000000000000D201B8F8EC2D02F06D3109C0BC026C0370CEBBAB1CFF1B00C047B9F57B4B0AE0C1F1997382114069F3DCECD1746F500176012405000000D80370C440000000008013340FA04D84AE238C0500C004806138DC14B6322102008B1A060170CC0BEC01E0C67EBEBF6C00C0A2580120E1B200000000F073
310
9FB4759497C3140EE013D7DF036015005E063F1E01B06C001FE701BBCAE2C702D9963D80C90B5A0070ECCEFC19004D0A78D705D6DE508102C6E737001CC906D04E82C467B79F10E17EBA8CCF3965D900BAC63D2C7F8808BE5F3DD24D20CA07701EB868235F495E2F8661B6D49F0A48D81400F00900D52EF008C06700A99602
310
0059D03B00DE4F00A47E22154036E97482A7A41F01CC26912503F02E5AE51CBB2304C4F5828D2F7C0940701788818FF22DD1BE4D93590F00223EC90AF0D1EFFBD1B6D4FC7C1B24DF6EA1A55FC100F2D2D8625BF601A50FDC01B8B3B7B8CB097AE951202B207B7F2A474B005D18280A909C07B4B95C03A00E0E1F00241FA061
310
2CD077705E2AA0CB85FA9BE952F30057333C9F139D6AD20B058807B05D20F12A0C4E2E2B07C0CAFEE5DC883600F7E256135ECFF5750220DD00CC7701BF68D1751418AA5B7082BC5500CB06D0AC90E9FC1EF76FD378427367EC3A573080A69DB9F17C6C00C0F6DEE00CC0A6BABEF5011FAE95C20A11000000000000000000D9
310
00CCEF28B9B02C6DB13A7DD7108079C36B034093AF4D2AFB2C5A53804D1F305700B51B6CAE2EA6D807D4ADB6B73B896A03B0E8178614809DA5910A030000000000000000000000000000280320E8ABB7FF011DCDBE55FB479BF80000000049454E44AE426082D35601946F1F591B00B6D7C7BD000000000000000000000000
310
000000C0AA007E555EFFB85FB9E130BA59D0CE9B0000000049454E44AE426082
  0
ENDSEC
  0
EOF
