  0
SECTION
  2
HEADER
  9
$ACADVER
  1
AC1027
  9
$ACADMAINTVER
 70
    81
  9
$DWGCODEPAGE
  3
ANSI_932
  9
$LASTSAVEDBY
  1
reiko.miyawaki
  9
$REQUIREDVERSIONS
160
                 0
  9
$INSBASE
 10
0.0
 20
0.0
 30
0.0
  9
$EXTMIN
 10
0.0
 20
0.0
 30
0.0
  9
$EXTMAX
 10
2100.0
 20
2950.0
 30
0.0
  9
$LIMMIN
 10
0.0
 20
0.0
  9
$LIMMAX
 10
297.0
 20
210.0
  9
$ORTHOMODE
 70
     0
  9
$REGENMODE
 70
     1
  9
$FILLMODE
 70
     0
  9
$QTEXTMODE
 70
     0
  9
$MIRRTEXT
 70
     1
  9
$LTSCALE
 40
100.0
  9
$ATTMODE
 70
     1
  9
$TEXTSIZE
 40
180.0
  9
$TRACEWID
 40
0.05
  9
$TEXTSTYLE
  7
STANDARD
  9
$CLAYER
  8
3
  9
$CELTYPE
  6
BYLAYER
  9
$CECOLOR
 62
   256
  9
$CELTSCALE
 40
1.0
  9
$DISPSILH
 70
     0
  9
$DIMSCALE
 40
10.0
  9
$DIMASZ
 40
2.0
  9
$DIMEXO
 40
0.5
  9
$DIMDLI
 40
10.0
  9
$DIMRND
 40
0.0
  9
$DIMDLE
 40
0.0
  9
$DIMEXE
 40
1.0
  9
$DIMTP
 40
1.0
  9
$DIMTM
 40
1.0
  9
$DIMTXT
 40
3.0
  9
$DIMCEN
 40
0.0
  9
$DIMTSZ
 40
0.0
  9
$DIMTOL
 70
     0
  9
$DIMLIM
 70
     0
  9
$DIMTIH
 70
     0
  9
$DIMTOH
 70
     0
  9
$DIMSE1
 70
     0
  9
$DIMSE2
 70
     0
  9
$DIMTAD
 70
     1
  9
$DIMZIN
 70
     8
  9
$DIMBLK
  1

  9
$DIMASO
 70
     1
  9
$DIMSHO
 70
     1
  9
$DIMPOST
  1
(<>)
  9
$DIMAPOST
  1

  9
$DIMALT
 70
     0
  9
$DIMALTD
 70
     2
  9
$DIMALTF
 40
0.039
  9
$DIMLFAC
 40
1.0
  9
$DIMTOFL
 70
     1
  9
$DIMTVP
 40
0.0
  9
$DIMTIX
 70
     0
  9
$DIMSOXD
 70
     0
  9
$DIMSAH
 70
     1
  9
$DIMBLK1
  1
OPEN
  9
$DIMBLK2
  1
OPEN
  9
$DIMSTYLE
  2
IGA
  9
$DIMCLRD
 70
     0
  9
$DIMCLRE
 70
     0
  9
$DIMCLRT
 70
     0
  9
$DIMTFAC
 40
10.0
  9
$DIMGAP
 40
1.0
  9
$DIMJUST
 70
     0
  9
$DIMSD1
 70
     0
  9
$DIMSD2
 70
     0
  9
$DIMTOLJ
 70
     1
  9
$DIMTZIN
 70
     8
  9
$DIMALTZ
 70
     0
  9
$DIMALTTZ
 70
     0
  9
$DIMUPT
 70
     0
  9
$DIMDEC
 70
     0
  9
$DIMTDEC
 70
     0
  9
$DIMALTU
 70
     2
  9
$DIMALTTD
 70
     2
  9
$DIMTXSTY
  7
STANDARD
  9
$DIMAUNIT
 70
     0
  9
$DIMADEC
 70
     0
  9
$DIMALTRND
 40
0.0
  9
$DIMAZIN
 70
     0
  9
$DIMDSEP
 70
    46
  9
$DIMATFIT
 70
     3
  9
$DIMFRAC
 70
     0
  9
$DIMLDRBLK
  1
OPEN
  9
$DIMLUNIT
 70
     2
  9
$DIMLWD
 70
    -2
  9
$DIMLWE
 70
    -2
  9
$DIMTMOVE
 70
     2
  9
$DIMFXL
 40
1.0
  9
$DIMFXLON
 70
     0
  9
$DIMJOGANG
 40
0.7853981633974483
  9
$DIMTFILL
 70
     0
  9
$DIMTFILLCLR
 70
     0
  9
$DIMARCSYM
 70
     0
  9
$DIMLTYPE
  6

  9
$DIMLTEX1
  6

  9
$DIMLTEX2
  6

  9
$DIMTXTDIRECTION
 70
     0
  9
$LUNITS
 70
     2
  9
$LUPREC
 70
     3
  9
$SKETCHINC
 40
0.1
  9
$FILLETRAD
 40
50.0
  9
$AUNITS
 70
     0
  9
$AUPREC
 70
     0
  9
$MENU
  1
acad
  9
$ELEVATION
 40
0.0
  9
$PELEVATION
 40
0.0
  9
$THICKNESS
 40
0.0
  9
$LIMCHECK
 70
     0
  9
$CHAMFERA
 40
0.5
  9
$CHAMFERB
 40
0.5
  9
$CHAMFERC
 40
20.0
  9
$CHAMFERD
 40
0.0
  9
$SKPOLY
 70
     0
  9
$TDCREATE
 40
2451935.613967130
  9
$TDUCREATE
 40
2451935.238967130
  9
$TDUPDATE
 40
2459024.394199456
  9
$TDUUPDATE
 40
2459024.019199456
  9
$TDINDWG
 40
0.2574043634
  9
$TDUSRTIMER
 40
0.2574043634
  9
$USRTIMER
 70
     1
  9
$ANGBASE
 50
0.0
  9
$ANGDIR
 70
     0
  9
$PDMODE
 70
     0
  9
$PDSIZE
 40
0.0
  9
$PLINEWID
 40
0.0
  9
$SPLFRAME
 70
     0
  9
$SPLINETYPE
 70
     6
  9
$SPLINESEGS
 70
     8
  9
$HANDSEED
  5
83BA
  9
$SURFTAB1
 70
     6
  9
$SURFTAB2
 70
     6
  9
$SURFTYPE
 70
     6
  9
$SURFU
 70
     6
  9
$SURFV
 70
     6
  9
$UCSBASE
  2

  9
$UCSNAME
  2

  9
$UCSORG
 10
0.0
 20
0.0
 30
0.0
  9
$UCSXDIR
 10
1.0
 20
0.0
 30
0.0
  9
$UCSYDIR
 10
0.0
 20
1.0
 30
0.0
  9
$UCSORTHOREF
  2

  9
$UCSORTHOVIEW
 70
     0
  9
$UCSORGTOP
 10
0.0
 20
0.0
 30
0.0
  9
$UCSORGBOTTOM
 10
0.0
 20
0.0
 30
0.0
  9
$UCSORGLEFT
 10
0.0
 20
0.0
 30
0.0
  9
$UCSORGRIGHT
 10
0.0
 20
0.0
 30
0.0
  9
$UCSORGFRONT
 10
0.0
 20
0.0
 30
0.0
  9
$UCSORGBACK
 10
0.0
 20
0.0
 30
0.0
  9
$PUCSBASE
  2

  9
$PUCSNAME
  2

  9
$PUCSORG
 10
0.0
 20
0.0
 30
0.0
  9
$PUCSXDIR
 10
1.0
 20
0.0
 30
0.0
  9
$PUCSYDIR
 10
0.0
 20
1.0
 30
0.0
  9
$PUCSORTHOREF
  2

  9
$PUCSORTHOVIEW
 70
     0
  9
$PUCSORGTOP
 10
0.0
 20
0.0
 30
0.0
  9
$PUCSORGBOTTOM
 10
0.0
 20
0.0
 30
0.0
  9
$PUCSORGLEFT
 10
0.0
 20
0.0
 30
0.0
  9
$PUCSORGRIGHT
 10
0.0
 20
0.0
 30
0.0
  9
$PUCSORGFRONT
 10
0.0
 20
0.0
 30
0.0
  9
$PUCSORGBACK
 10
0.0
 20
0.0
 30
0.0
  9
$USERI1
 70
     0
  9
$USERI2
 70
     0
  9
$USERI3
 70
     0
  9
$USERI4
 70
     0
  9
$USERI5
 70
     0
  9
$USERR1
 40
0.0
  9
$USERR2
 40
0.0
  9
$USERR3
 40
0.0
  9
$USERR4
 40
0.0
  9
$USERR5
 40
0.0
  9
$WORLDVIEW
 70
     1
  9
$SHADEDGE
 70
     3
  9
$SHADEDIF
 70
    70
  9
$TILEMODE
 70
     1
  9
$MAXACTVP
 70
    16
  9
$PINSBASE
 10
0.0
 20
0.0
 30
0.0
  9
$PLIMCHECK
 70
     0
  9
$PEXTMIN
 10
1.000000000000000E+20
 20
1.000000000000000E+20
 30
1.000000000000000E+20
  9
$PEXTMAX
 10
-1.000000000000000E+20
 20
-1.000000000000000E+20
 30
-1.000000000000000E+20
  9
$PLIMMIN
 10
0.0
 20
0.0
  9
$PLIMMAX
 10
12.0
 20
9.0
  9
$UNITMODE
 70
     0
  9
$VISRETAIN
 70
     0
  9
$PLINEGEN
 70
     0
  9
$PSLTSCALE
 70
     1
  9
$TREEDEPTH
 70
  3020
  9
$CMLSTYLE
  2
STANDARD
  9
$CMLJUST
 70
     0
  9
$CMLSCALE
 40
20.0
  9
$PROXYGRAPHICS
 70
     1
  9
$MEASUREMENT
 70
     1
  9
$CELWEIGHT
370
    -1
  9
$ENDCAPS
280
     0
  9
$JOINSTYLE
280
     0
  9
$LWDISPLAY
290
     0
  9
$INSUNITS
 70
     0
  9
$HYPERLINKBASE
  1

  9
$STYLESHEET
  1

  9
$XEDIT
290
     1
  9
$CEPSNTYPE
380
     0
  9
$PSTYLEMODE
290
     1
  9
$FINGERPRINTGUID
  2
{47CD9974-0B18-4F1B-8BB1-78D6637FAE73}
  9
$VERSIONGUID
  2
{CF50EADE-0D6B-401C-9304-7B9AC5819DFB}
  9
$EXTNAMES
290
     1
  9
$PSVPSCALE
 40
0.0
  9
$OLESTARTUP
290
     0
  9
$SORTENTS
280
   127
  9
$INDEXCTL
280
     0
  9
$HIDETEXT
280
     0
  9
$XCLIPFRAME
280
     2
  9
$HALOGAP
280
     0
  9
$OBSCOLOR
 70
   257
  9
$OBSLTYPE
280
     0
  9
$INTERSECTIONDISPLAY
280
     0
  9
$INTERSECTIONCOLOR
 70
   257
  9
$DIMASSOC
280
     1
  9
$PROJECTNAME
  1

  9
$CAMERADISPLAY
290
     0
  9
$LENSLENGTH
 40
50.0
  9
$CAMERAHEIGHT
 40
0.0
  9
$STEPSPERSEC
 40
2.0
  9
$STEPSIZE
 40
6.0
  9
$3DDWFPREC
 40
2.0
  9
$PSOLWIDTH
 40
0.25
  9
$PSOLHEIGHT
 40
4.0
  9
$LOFTANG1
 40
1.570796326794896
  9
$LOFTANG2
 40
1.570796326794896
  9
$LOFTMAG1
 40
0.0
  9
$LOFTMAG2
 40
0.0
  9
$LOFTPARAM
 70
     7
  9
$LOFTNORMALS
280
     1
  9
$LATITUDE
 40
37.795
  9
$LONGITUDE
 40
-122.394
  9
$NORTHDIRECTION
 40
0.0
  9
$TIMEZONE
 70
 -8000
  9
$LIGHTGLYPHDISPLAY
280
     1
  9
$TILEMODELIGHTSYNCH
280
     1
  9
$CMATERIAL
347
82A5
  9
$SOLIDHIST
280
     0
  9
$SHOWHIST
280
     1
  9
$DWFFRAME
280
     2
  9
$DGNFRAME
280
     0
  9
$REALWORLDSCALE
290
     1
  9
$INTERFERECOLOR
 62
     1
  9
$INTERFEREOBJVS
345
82C7
  9
$INTERFEREVPVS
346
82C4
  9
$CSHADOW
280
     0
  9
$SHADOWPLANELOCATION
 40
0.0
  0
ENDSEC
  0
SECTION
  2
CLASSES
  0
CLASS
  1
ACDBDICTIONARYWDFLT
  2
AcDbDictionaryWithDefault
  3
ObjectDBX Classes
 90
        0
 91
        1
280
     0
281
     0
  0
CLASS
  1
MATERIAL
  2
AcDbMaterial
  3
ObjectDBX Classes
 90
     1153
 91
        3
280
     0
281
     0
  0
CLASS
  1
VISUALSTYLE
  2
AcDbVisualStyle
  3
ObjectDBX Classes
 90
     4095
 91
       24
280
     0
281
     0
  0
CLASS
  1
TABLESTYLE
  2
AcDbTableStyle
  3
ObjectDBX Classes
 90
     4095
 91
        1
280
     0
281
     0
  0
CLASS
  1
SCALE
  2
AcDbScale
  3
ObjectDBX Classes
 90
     1153
 91
       17
280
     0
281
     0
  0
CLASS
  1
MLEADERSTYLE
  2
AcDbMLeaderStyle
  3
ACDB_MLEADERSTYLE_CLASS
 90
     4095
 91
        1
280
     0
281
     0
  0
CLASS
  1
ACDBSECTIONVIEWSTYLE
  2
AcDbSectionViewStyle
  3
ObjectDBX Classes
 90
     1025
 91
        1
280
     0
281
     0
  0
CLASS
  1
ACDBDETAILVIEWSTYLE
  2
AcDbDetailViewStyle
  3
ObjectDBX Classes
 90
     1025
 91
        1
280
     0
281
     0
  0
CLASS
  1
SORTENTSTABLE
  2
AcDbSortentsTable
  3
ObjectDBX Classes
 90
        0
 91
        1
280
     0
281
     0
  0
CLASS
  1
DICTIONARYVAR
  2
AcDbDictionaryVar
  3
ObjectDBX Classes
 90
        0
 91
        9
280
     0
281
     0
  0
CLASS
  1
CELLSTYLEMAP
  2
AcDbCellStyleMap
  3
ObjectDBX Classes
 90
     1152
 91
        1
280
     0
281
     0
  0
ENDSEC
  0
SECTION
  2
TABLES
  0
TABLE
  2
VPORT
  5
8
330
0
100
AcDbSymbolTable
 70
     1
  0
VPORT
  5
82A2
330
8
100
AcDbSymbolTableRecord
100
AcDbViewportTableRecord
  2
*Active
 70
     0
 10
0.0
 20
0.0
 11
1.0
 21
1.0
 12
1050.000019558817
 22
1545.653382253396
 13
0.0
 23
0.0
 14
10.0
 24
10.0
 15
10.0
 25
10.0
 16
0.0
 26
0.0
 36
1.0
 17
0.0
 27
0.0
 37
0.0
 40
3111.60903532888
 41
1.957107843137254
 42
50.0
 43
0.0
 44
0.0
 50
0.0
 51
0.0
 71
     0
 72
   100
 73
     1
 74
     0
 75
     0
 76
     0
 77
     0
 78
     0
281
     0
 65
     1
110
0.0
120
0.0
130
0.0
111
1.0
121
0.0
131
0.0
112
0.0
122
1.0
132
0.0
 79
     0
146
0.0
348
82C3
 60
     3
 61
     5
292
     1
282
     1
141
0.0
142
0.0
 63
   250
421
  3355443
1001
ACAD_NAV_VCDISPLAY
1070
     3
  0
ENDTAB
  0
TABLE
  2
LTYPE
  5
5
330
0
100
AcDbSymbolTable
 70
     2
  0
LTYPE
  5
13
330
5
100
AcDbSymbolTableRecord
100
AcDbLinetypeTableRecord
  2
BYBLOCK
 70
     0
  3

 72
    65
 73
     0
 40
0.0
  0
LTYPE
  5
14
330
5
100
AcDbSymbolTableRecord
100
AcDbLinetypeTableRecord
  2
BYLAYER
 70
     0
  3

 72
    65
 73
     0
 40
0.0
  0
LTYPE
  5
15
330
5
100
AcDbSymbolTableRecord
100
AcDbLinetypeTableRecord
  2
CONTINUOUS
 70
     0
  3
Solid line
 72
    65
 73
     0
 40
0.0
  0
LTYPE
  5
1F
330
5
100
AcDbSymbolTableRecord
100
AcDbLinetypeTableRecord
  2
CENTER
 70
     0
  3
____ _ ____ _ ____ _ ____ _ ____ _ ____ _ ____ 
 72
    65
 73
     4
 40
2.0
 49
1.25
 74
     0
 49
-0.25
 74
     0
 49
0.25
 74
     0
 49
-0.25
 74
     0
  0
ENDTAB
  0
TABLE
  2
LAYER
  5
2
102
{ACAD_XDICTIONARY
360
8347
102
}
330
0
100
AcDbSymbolTable
 70
     6
  0
LAYER
  5
F
102
{ACAD_XDICTIONARY
360
833A
102
}
330
2
100
AcDbSymbolTableRecord
100
AcDbLayerTableRecord
  2
0
 70
     0
 62
     7
  6
CONTINUOUS
370
    -3
390
8295
347
82B5
348
0
  0
LAYER
  5
31
102
{ACAD_XDICTIONARY
360
833C
102
}
330
2
100
AcDbSymbolTableRecord
100
AcDbLayerTableRecord
  2
3
 70
     0
 62
     2
  6
CONTINUOUS
370
    -3
390
8295
347
82B5
348
0
  0
LAYER
  5
76D0
102
{ACAD_XDICTIONARY
360
833E
102
}
330
2
100
AcDbSymbolTableRecord
100
AcDbLayerTableRecord
  2
2
 70
     0
 62
     3
  6
CENTER
370
    -3
390
8295
347
82B5
348
0
  0
LAYER
  5
76D1
102
{ACAD_XDICTIONARY
360
8340
102
}
330
2
100
AcDbSymbolTableRecord
100
AcDbLayerTableRecord
  2
1
 70
     0
 62
     4
  6
CONTINUOUS
370
    -3
390
8295
347
82B5
348
0
  0
LAYER
  5
76D2
102
{ACAD_XDICTIONARY
360
8342
102
}
330
2
100
AcDbSymbolTableRecord
100
AcDbLayerTableRecord
  2
4
 70
     0
 62
     7
  6
CONTINUOUS
370
    -3
390
8295
347
82B5
348
0
  0
LAYER
  5
7B0F
330
2
100
AcDbSymbolTableRecord
100
AcDbLayerTableRecord
  2
DEFPOINTS
 70
     0
 62
     7
  6
CONTINUOUS
290
     0
370
    -3
390
8295
347
82B5
348
0
  0
ENDTAB
  0
TABLE
  2
STYLE
  5
3
330
0
100
AcDbSymbolTable
 70
     1
  0
STYLE
  5
10
330
3
100
AcDbSymbolTableRecord
100
AcDbTextStyleTableRecord
  2
STANDARD
 70
     0
 40
0.0
 41
1.0
 50
0.0
 71
     0
 42
180.0
  3
simplex.shx
  4
extfont.shx
  0
ENDTAB
  0
TABLE
  2
VIEW
  5
6
330
0
100
AcDbSymbolTable
 70
     0
  0
ENDTAB
  0
TABLE
  2
UCS
  5
7
330
0
100
AcDbSymbolTable
 70
     0
  0
ENDTAB
  0
TABLE
  2
APPID
  5
9
330
0
100
AcDbSymbolTable
 70
     4
  0
APPID
  5
11
330
9
100
AcDbSymbolTableRecord
100
AcDbRegAppTableRecord
  2
ACAD
 70
     0
  0
APPID
  5
834D
330
9
100
AcDbSymbolTableRecord
100
AcDbRegAppTableRecord
  2
ACAD_NAV_VCDISPLAY
 70
     0
  0
APPID
  5
8385
330
9
100
AcDbSymbolTableRecord
100
AcDbRegAppTableRecord
  2
AcadAnnoMonitorAlertIconDisabled
 70
     0
  0
APPID
  5
8386
330
9
100
AcDbSymbolTableRecord
100
AcDbRegAppTableRecord
  2
ACAD_EXEMPT_FROM_CAD_STANDARDS
 70
     0
  0
ENDTAB
  0
TABLE
  2
DIMSTYLE
  5
A
330
0
100
AcDbSymbolTable
 70
     1
100
AcDbDimStyleTable
 71
     1
340
1D
  0
DIMSTYLE
105
1D
102
{ACAD_REACTORS
330
7C99
330
7C9A
330
7CBC
330
7CBD
330
7CBE
330
7CBF
330
7CEB
330
7CEC
330
7CF5
330
7CF6
330
7CF7
330
7CF9
330
8206
330
8213
330
8220
330
822F
330
8259
330
8284
330
8291
102
}
330
A
100
AcDbSymbolTableRecord
100
AcDbDimStyleTableRecord
  2
IGA
 70
     0
 40
2.0
 41
2.0
 42
0.5
 43
10.0
 44
1.0
 47
1.0
 48
1.0
 73
     0
 74
     0
 77
     1
 78
     8
140
3.0
141
0.0
143
0.03937
146
10.0
147
1.0
173
     1
271
     1
272
     0
279
     2
284
     8
340
10
341
79FC
343
79FC
344
79FC
  0
ENDTAB
  0
TABLE
  2
BLOCK_RECORD
  5
1
330
0
100
AcDbSymbolTable
 70
    22
  0
BLOCK_RECORD
  5
19
102
{ACAD_XDICTIONARY
360
82F5
102
}
330
1
100
AcDbSymbolTableRecord
100
AcDbBlockTableRecord
  2
*MODEL_SPACE
340
8298
 70
     0
280
     1
281
     0
  0
BLOCK_RECORD
  5
16
330
1
100
AcDbSymbolTableRecord
100
AcDbBlockTableRecord
  2
*PAPER_SPACE
340
8299
 70
     0
280
     1
281
     0
  0
BLOCK_RECORD
  5
79FC
330
1
100
AcDbSymbolTableRecord
100
AcDbBlockTableRecord
  2
_OPEN
340
0
102
{BLKREFS
331
7F1F
331
7F20
331
7F35
331
7F36
331
7F40
331
7F41
331
7F4B
331
7F4C
331
7FF7
331
7FF8
331
8002
331
8003
331
80D6
331
80D7
331
8165
331
8166
331
8176
331
8177
331
818E
331
818F
331
8199
331
819A
331
82FA
331
82FB
331
8303
331
8304
331
830C
331
830D
331
8317
331
8318
331
8323
331
8334
331
8335
331
8366
331
8394
331
8395
102
}
 70
     0
280
     1
281
     0
  0
BLOCK_RECORD
  5
7A02
330
1
100
AcDbSymbolTableRecord
100
AcDbBlockTableRecord
  2
YA_N
340
0
102
{BLKREFS
331
7C19
331
7C1A
102
}
 70
     0
280
     1
281
     0
  0
BLOCK_RECORD
  5
7D1C
330
1
100
AcDbSymbolTableRecord
100
AcDbBlockTableRecord
  2
*D2
340
0
 70
     0
280
     1
281
     0
  0
BLOCK_RECORD
  5
7D28
330
1
100
AcDbSymbolTableRecord
100
AcDbBlockTableRecord
  2
*D3
340
0
 70
     0
280
     1
281
     0
  0
BLOCK_RECORD
  5
7D95
330
1
100
AcDbSymbolTableRecord
100
AcDbBlockTableRecord
  2
*D4
340
0
 70
     0
280
     1
281
     0
  0
BLOCK_RECORD
  5
7DA1
330
1
100
AcDbSymbolTableRecord
100
AcDbBlockTableRecord
  2
*D5
340
0
 70
     0
280
     1
281
     0
  0
BLOCK_RECORD
  5
7DAD
330
1
100
AcDbSymbolTableRecord
100
AcDbBlockTableRecord
  2
*D6
340
0
 70
     0
280
     1
281
     0
  0
BLOCK_RECORD
  5
7DB9
330
1
100
AcDbSymbolTableRecord
100
AcDbBlockTableRecord
  2
*D7
340
0
 70
     0
280
     1
281
     0
  0
BLOCK_RECORD
  5
7DC4
330
1
100
AcDbSymbolTableRecord
100
AcDbBlockTableRecord
  2
*D8
340
0
 70
     0
280
     1
281
     0
  0
BLOCK_RECORD
  5
7DD0
330
1
100
AcDbSymbolTableRecord
100
AcDbBlockTableRecord
  2
*D9
340
0
 70
     0
280
     1
281
     0
  0
BLOCK_RECORD
  5
7DDC
330
1
100
AcDbSymbolTableRecord
100
AcDbBlockTableRecord
  2
*D10
340
0
 70
     0
280
     1
281
     0
  0
BLOCK_RECORD
  5
7DE8
330
1
100
AcDbSymbolTableRecord
100
AcDbBlockTableRecord
  2
*D11
340
0
 70
     0
280
     1
281
     0
  0
BLOCK_RECORD
  5
7DF3
330
1
100
AcDbSymbolTableRecord
100
AcDbBlockTableRecord
  2
*D12
340
0
 70
     0
280
     1
281
     0
  0
BLOCK_RECORD
  5
7E0A
330
1
100
AcDbSymbolTableRecord
100
AcDbBlockTableRecord
  2
*D13
340
0
 70
     0
280
     1
281
     0
  0
BLOCK_RECORD
  5
8093
330
1
100
AcDbSymbolTableRecord
100
AcDbBlockTableRecord
  2
_DOT
340
0
102
{BLKREFS
331
8322
331
8365
102
}
 70
     0
280
     1
281
     0
  0
BLOCK_RECORD
  5
81FA
330
1
100
AcDbSymbolTableRecord
100
AcDbBlockTableRecord
  2
*D15
340
0
 70
     0
280
     1
281
     0
  0
BLOCK_RECORD
  5
8207
330
1
100
AcDbSymbolTableRecord
100
AcDbBlockTableRecord
  2
*D16
340
0
 70
     0
280
     1
281
     0
  0
BLOCK_RECORD
  5
8214
330
1
100
AcDbSymbolTableRecord
100
AcDbBlockTableRecord
  2
*D17
340
0
 70
     0
280
     1
281
     0
  0
BLOCK_RECORD
  5
8221
330
1
100
AcDbSymbolTableRecord
100
AcDbBlockTableRecord
  2
*D18
340
0
 70
     0
280
     1
281
     0
  0
BLOCK_RECORD
  5
824B
330
1
100
AcDbSymbolTableRecord
100
AcDbBlockTableRecord
  2
*D19
340
0
 70
     0
280
     1
281
     0
  0
BLOCK_RECORD
  5
8278
330
1
100
AcDbSymbolTableRecord
100
AcDbBlockTableRecord
  2
*D20
340
0
 70
     0
280
     1
281
     0
  0
BLOCK_RECORD
  5
8285
330
1
100
AcDbSymbolTableRecord
100
AcDbBlockTableRecord
  2
*D21
340
0
 70
     0
280
     1
281
     0
  0
ENDTAB
  0
ENDSEC
  0
SECTION
  2
BLOCKS
  0
BLOCK
  5
1A
330
19
100
AcDbEntity
  8
0
100
AcDbBlockBegin
  2
*MODEL_SPACE
 70
     0
 10
0.0
 20
0.0
 30
0.0
  3
*MODEL_SPACE
  1

  0
ENDBLK
  5
1B
330
19
100
AcDbEntity
  8
0
100
AcDbBlockEnd
  0
BLOCK
  5
17
330
16
100
AcDbEntity
 67
     1
  8
0
100
AcDbBlockBegin
  2
*PAPER_SPACE
 70
     0
 10
0.0
 20
0.0
 30
0.0
  3
*PAPER_SPACE
  1

  0
ENDBLK
  5
18
330
16
100
AcDbEntity
 67
     1
  8
0
100
AcDbBlockEnd
  0
BLOCK
  5
7A00
330
79FC
100
AcDbEntity
  8
0
100
AcDbBlockBegin
  2
_OPEN
 70
     0
 10
0.0
 20
0.0
 30
0.0
  3
_OPEN
  1

  0
LINE
  5
79FD
330
79FC
100
AcDbEntity
  8
0
  6
ByBlock
 62
     0
100
AcDbLine
 10
-1.0
 20
0.1666666666666666
 30
0.0
 11
0.0
 21
0.0
 31
0.0
  0
LINE
  5
79FE
330
79FC
100
AcDbEntity
  8
0
  6
ByBlock
 62
     0
100
AcDbLine
 10
0.0
 20
0.0
 30
0.0
 11
-1.0
 21
-0.1666666666666666
 31
0.0
  0
LINE
  5
79FF
330
79FC
100
AcDbEntity
  8
0
  6
ByBlock
 62
     0
100
AcDbLine
 10
0.0
 20
0.0
 30
0.0
 11
-1.0
 21
0.0
 31
0.0
  0
ENDBLK
  5
7A01
330
79FC
100
AcDbEntity
  8
0
100
AcDbBlockEnd
  0
BLOCK
  5
7A03
330
7A02
100
AcDbEntity
  8
0
100
AcDbBlockBegin
  2
YA_N
 70
     0
 10
0.0
 20
0.0
 30
0.0
  3
YA_N
  1

  0
ENDBLK
  5
7A04
330
7A02
100
AcDbEntity
  8
0
100
AcDbBlockEnd
  0
BLOCK
  5
7FFE
330
7D1C
100
AcDbEntity
  8
0
100
AcDbBlockBegin
  2
*D2
 70
     1
 10
0.0
 20
0.0
 30
0.0
  3
*D2
  1

  0
LINE
  5
7FFF
330
7D1C
100
AcDbEntity
  8
0
  6
ByBlock
 62
     0
440
 16777216
100
AcDbLine
 10
668.5773849707928
 20
1127.960739463025
 30
0.0
 11
668.577384970793
 21
1207.803017680295
 31
0.0
  0
LINE
  5
8000
330
7D1C
100
AcDbEntity
  8
0
  6
ByBlock
 62
     0
440
 16777216
100
AcDbLine
 10
508.5773849707927
 20
1127.960739463026
 30
0.0
 11
508.577384970793
 21
1207.803017680296
 31
0.0
  0
LINE
  5
8001
330
7D1C
100
AcDbEntity
  8
0
  6
ByBlock
 62
     0
440
 16777216
100
AcDbLine
 10
648.5773849707929
 20
1197.803017680295
 30
0.0
 11
528.5773849707929
 21
1197.803017680296
 31
0.0
  0
INSERT
  5
8002
330
7D1C
100
AcDbEntity
  8
0
  6
ByBlock
 62
     0
440
 16777216
100
AcDbBlockReference
  2
_OPEN
 10
668.5773849707929
 20
1197.803017680295
 30
0.0
 41
20.0
 42
20.0
 43
20.0
 50
359.9999999999998
  0
INSERT
  5
8003
330
7D1C
100
AcDbEntity
  8
0
  6
ByBlock
 62
     0
440
 16777216
100
AcDbBlockReference
  2
_OPEN
 10
508.577384970793
 20
1197.803017680296
 30
0.0
 41
20.0
 42
20.0
 43
20.0
 50
179.9999999999998
  0
MTEXT
  5
8004
330
7D1C
100
AcDbEntity
  8
0
  6
ByBlock
 62
     0
440
 16777216
100
AcDbMText
 10
588.5773849707931
 20
1222.803017680295
 30
0.0
 40
30.0
 41
0.0
 46
0.0
 71
     5
 72
     5
  1
\A1;160
 73
     1
 44
1.0
  0
POINT
  5
8005
330
7D1C
100
AcDbEntity
  8
DEFPOINTS
  6
ByBlock
 62
     0
440
 16777216
100
AcDbPoint
 10
668.5773849707928
 20
1122.960739463025
 30
0.0
  0
POINT
  5
8006
330
7D1C
100
AcDbEntity
  8
DEFPOINTS
  6
ByBlock
 62
     0
440
 16777216
100
AcDbPoint
 10
508.5773849707927
 20
1122.960739463026
 30
0.0
  0
POINT
  5
8007
330
7D1C
100
AcDbEntity
  8
DEFPOINTS
  6
ByBlock
 62
     0
440
 16777216
100
AcDbPoint
 10
508.577384970793
 20
1197.803017680296
 30
0.0
  0
ENDBLK
  5
8008
330
7D1C
100
AcDbEntity
  8
0
100
AcDbBlockEnd
  0
BLOCK
  5
7FF3
330
7D28
100
AcDbEntity
  8
0
100
AcDbBlockBegin
  2
*D3
 70
     1
 10
0.0
 20
0.0
 30
0.0
  3
*D3
  1

  0
LINE
  5
7FF4
330
7D28
100
AcDbEntity
  8
0
  6
ByBlock
 62
     0
440
 16777216
100
AcDbLine
 10
668.5773849707928
 20
1127.960739463025
 30
0.0
 11
668.5773849707932
 21
1263.676463388955
 31
0.0
  0
LINE
  5
7FF5
330
7D28
100
AcDbEntity
  8
0
  6
ByBlock
 62
     0
440
 16777216
100
AcDbLine
 10
514.5773849707929
 20
1164.706983460368
 30
0.0
 11
514.5773849707933
 21
1263.676463388955
 31
0.0
  0
LINE
  5
7FF6
330
7D28
100
AcDbEntity
  8
0
  6
ByBlock
 62
     0
440
 16777216
100
AcDbLine
 10
648.5773849707932
 20
1253.676463388954
 30
0.0
 11
534.5773849707933
 21
1253.676463388955
 31
0.0
  0
INSERT
  5
7FF7
330
7D28
100
AcDbEntity
  8
0
  6
ByBlock
 62
     0
440
 16777216
100
AcDbBlockReference
  2
_OPEN
 10
668.5773849707932
 20
1253.676463388954
 30
0.0
 41
20.0
 42
20.0
 43
20.0
 50
359.9999999999998
  0
INSERT
  5
7FF8
330
7D28
100
AcDbEntity
  8
0
  6
ByBlock
 62
     0
440
 16777216
100
AcDbBlockReference
  2
_OPEN
 10
514.5773849707933
 20
1253.676463388955
 30
0.0
 41
20.0
 42
20.0
 43
20.0
 50
179.9999999999998
  0
MTEXT
  5
7FF9
330
7D28
100
AcDbEntity
  8
0
  6
ByBlock
 62
     0
440
 16777216
100
AcDbMText
 10
591.5773849707934
 20
1278.676463388955
 30
0.0
 40
30.0
 41
0.0
 46
0.0
 71
     5
 72
     5
  1
\A1;154
 73
     1
 44
1.0
  0
POINT
  5
7FFA
330
7D28
100
AcDbEntity
  8
DEFPOINTS
  6
ByBlock
 62
     0
440
 16777216
100
AcDbPoint
 10
668.5773849707928
 20
1122.960739463025
 30
0.0
  0
POINT
  5
7FFB
330
7D28
100
AcDbEntity
  8
DEFPOINTS
  6
ByBlock
 62
     0
440
 16777216
100
AcDbPoint
 10
514.5773849707929
 20
1159.706983460367
 30
0.0
  0
POINT
  5
7FFC
330
7D28
100
AcDbEntity
  8
DEFPOINTS
  6
ByBlock
 62
     0
440
 16777216
100
AcDbPoint
 10
514.5773849707933
 20
1253.676463388955
 30
0.0
  0
ENDBLK
  5
7FFD
330
7D28
100
AcDbEntity
  8
0
100
AcDbBlockEnd
  0
BLOCK
  5
80D2
330
7D95
100
AcDbEntity
  8
0
100
AcDbBlockBegin
  2
*D4
 70
     1
 10
0.0
 20
0.0
 30
0.0
  3
*D4
  1

  0
LINE
  5
80D3
330
7D95
100
AcDbEntity
  8
0
  6
ByBlock
 62
     0
440
 16777216
100
AcDbLine
 10
1914.707444793935
 20
1070.910744761167
 30
0.0
 11
2000.348108603472
 21
1070.910744761167
 31
0.0
  0
LINE
  5
80D4
330
7D95
100
AcDbEntity
  8
0
  6
ByBlock
 62
     0
440
 16777216
100
AcDbLine
 10
1914.707444793935
 20
894.9107447611678
 30
0.0
 11
2000.348108603472
 21
894.9107447611678
 31
0.0
  0
LINE
  5
80D5
330
7D95
100
AcDbEntity
  8
0
  6
ByBlock
 62
     0
440
 16777216
100
AcDbLine
 10
1990.348108603471
 20
1050.910744761168
 30
0.0
 11
1990.348108603471
 21
914.9107447611678
 31
0.0
  0
INSERT
  5
80D6
330
7D95
100
AcDbEntity
  8
0
  6
ByBlock
 62
     0
440
 16777216
100
AcDbBlockReference
  2
_OPEN
 10
1990.348108603471
 20
1070.910744761167
 30
0.0
 41
20.0
 42
20.0
 43
20.0
 50
90.0
  0
INSERT
  5
80D7
330
7D95
100
AcDbEntity
  8
0
  6
ByBlock
 62
     0
440
 16777216
100
AcDbBlockReference
  2
_OPEN
 10
1990.348108603471
 20
894.9107447611678
 30
0.0
 41
20.0
 42
20.0
 43
20.0
 50
270.0
  0
MTEXT
  5
80D8
330
7D95
100
AcDbEntity
  8
0
  6
ByBlock
 62
     0
440
 16777216
100
AcDbMText
 10
1965.348108603471
 20
982.9107447611677
 30
0.0
 40
30.0
 41
0.0
 46
0.0
 71
     5
 72
     5
  1
\A1;φ176
 11
0.0
 21
1.0
 31
0.0
 73
     1
 44
1.0
  0
POINT
  5
80D9
330
7D95
100
AcDbEntity
  8
DEFPOINTS
  6
ByBlock
 62
     0
440
 16777216
100
AcDbPoint
 10
1909.707444793935
 20
1070.910744761167
 30
0.0
  0
POINT
  5
80DA
330
7D95
100
AcDbEntity
  8
DEFPOINTS
  6
ByBlock
 62
     0
440
 16777216
100
AcDbPoint
 10
1909.707444793935
 20
894.9107447611678
 30
0.0
  0
POINT
  5
80DB
330
7D95
100
AcDbEntity
  8
DEFPOINTS
  6
ByBlock
 62
     0
440
 16777216
100
AcDbPoint
 10
1990.348108603471
 20
894.9107447611678
 30
0.0
  0
ENDBLK
  5
80DC
330
7D95
100
AcDbEntity
  8
0
100
AcDbBlockEnd
  0
BLOCK
  5
8194
330
7DA1
100
AcDbEntity
  8
0
100
AcDbBlockBegin
  2
*D5
 70
     1
 10
0.0
 20
0.0
 30
0.0
  3
*D5
  1

  0
LINE
  5
8195
330
7DA1
100
AcDbEntity
  8
0
  6
ByBlock
 62
     0
440
 16777216
100
AcDbLine
 10
1765.707444793934
 20
1121.946781979497
 30
0.0
 11
1765.707444793934
 21
1185.015631336553
 31
0.0
  0
LINE
  5
8196
330
7DA1
100
AcDbEntity
  8
0
  6
ByBlock
 62
     0
440
 16777216
100
AcDbLine
 10
1885.707444793934
 20
1121.946781979497
 30
0.0
 11
1885.707444793934
 21
1185.015631336553
 31
0.0
  0
LINE
  5
8197
330
7DA1
100
AcDbEntity
  8
0
  6
ByBlock
 62
     0
440
 16777216
100
AcDbLine
 10
1785.707444793934
 20
1175.015631336553
 30
0.0
 11
1865.707444793934
 21
1175.015631336553
 31
0.0
  0
MTEXT
  5
8198
330
7DA1
100
AcDbEntity
  8
0
  6
ByBlock
 62
     0
440
 16777216
100
AcDbMText
 10
1825.707444793934
 20
1200.966598990806
 30
0.0
 40
30.0
 41
0.0
 46
0.0
 71
     5
 72
     5
  1
\A1;120
 73
     1
 44
1.0
  0
INSERT
  5
8199
330
7DA1
100
AcDbEntity
  8
0
  6
ByBlock
 62
     0
440
 16777216
100
AcDbBlockReference
  2
_OPEN
 10
1765.707444793934
 20
1175.015631336553
 30
0.0
 41
20.0
 42
20.0
 43
20.0
 50
180.0
  0
INSERT
  5
819A
330
7DA1
100
AcDbEntity
  8
0
  6
ByBlock
 62
     0
440
 16777216
100
AcDbBlockReference
  2
_OPEN
 10
1885.707444793934
 20
1175.015631336553
 30
0.0
 41
20.0
 42
20.0
 43
20.0
  0
POINT
  5
819B
330
7DA1
100
AcDbEntity
  8
DEFPOINTS
  6
ByBlock
 62
     0
440
 16777216
100
AcDbPoint
 10
1765.707444793934
 20
1116.946781979497
 30
0.0
  0
POINT
  5
819C
330
7DA1
100
AcDbEntity
  8
DEFPOINTS
  6
ByBlock
 62
     0
440
 16777216
100
AcDbPoint
 10
1885.707444793934
 20
1116.946781979497
 30
0.0
  0
POINT
  5
819D
330
7DA1
100
AcDbEntity
  8
DEFPOINTS
  6
ByBlock
 62
     0
440
 16777216
100
AcDbPoint
 10
1885.707444793934
 20
1175.015631336553
 30
0.0
  0
ENDBLK
  5
819E
330
7DA1
100
AcDbEntity
  8
0
100
AcDbBlockEnd
  0
BLOCK
  5
8189
330
7DAD
100
AcDbEntity
  8
0
100
AcDbBlockBegin
  2
*D6
 70
     1
 10
0.0
 20
0.0
 30
0.0
  3
*D6
  1

  0
LINE
  5
818A
330
7DAD
100
AcDbEntity
  8
0
  6
ByBlock
 62
     0
440
 16777216
100
AcDbLine
 10
1889.707444793935
 20
1098.910744761168
 30
0.0
 11
1889.707444793935
 21
1268.400228699145
 31
0.0
  0
LINE
  5
818B
330
7DAD
100
AcDbEntity
  8
0
  6
ByBlock
 62
     0
440
 16777216
100
AcDbLine
 10
1825.707444793935
 20
1229.310671997804
 30
0.0
 11
1825.707444793935
 21
1268.400228699145
 31
0.0
  0
LINE
  5
818C
330
7DAD
100
AcDbEntity
  8
0
  6
ByBlock
 62
     0
440
 16777216
100
AcDbLine
 10
1869.707444793935
 20
1258.400228699145
 30
0.0
 11
1845.707444793935
 21
1258.400228699145
 31
0.0
  0
MTEXT
  5
818D
330
7DAD
100
AcDbEntity
  8
0
  6
ByBlock
 62
     0
440
 16777216
100
AcDbMText
 10
1857.707444793935
 20
1283.549040226309
 30
0.0
 40
30.0
 41
0.0
 46
0.0
 71
     5
 72
     5
  1
\A1;64
 73
     1
 44
1.0
  0
INSERT
  5
818E
330
7DAD
100
AcDbEntity
  8
0
  6
ByBlock
 62
     0
440
 16777216
100
AcDbBlockReference
  2
_OPEN
 10
1889.707444793935
 20
1258.400228699145
 30
0.0
 41
20.0
 42
20.0
 43
20.0
  0
INSERT
  5
818F
330
7DAD
100
AcDbEntity
  8
0
  6
ByBlock
 62
     0
440
 16777216
100
AcDbBlockReference
  2
_OPEN
 10
1825.707444793935
 20
1258.400228699145
 30
0.0
 41
20.0
 42
20.0
 43
20.0
 50
180.0
  0
POINT
  5
8190
330
7DAD
100
AcDbEntity
  8
DEFPOINTS
  6
ByBlock
 62
     0
440
 16777216
100
AcDbPoint
 10
1889.707444793935
 20
1093.910744761168
 30
0.0
  0
POINT
  5
8191
330
7DAD
100
AcDbEntity
  8
DEFPOINTS
  6
ByBlock
 62
     0
440
 16777216
100
AcDbPoint
 10
1825.707444793935
 20
1224.310671997804
 30
0.0
  0
POINT
  5
8192
330
7DAD
100
AcDbEntity
  8
DEFPOINTS
  6
ByBlock
 62
     0
440
 16777216
100
AcDbPoint
 10
1825.707444793935
 20
1258.400228699145
 30
0.0
  0
ENDBLK
  5
8193
330
7DAD
100
AcDbEntity
  8
0
100
AcDbBlockEnd
  0
BLOCK
  5
817E
330
7DB9
100
AcDbEntity
  8
0
100
AcDbBlockBegin
  2
*D7
 70
     1
 10
0.0
 20
0.0
 30
0.0
  3
*D7
  1

  0
LINE
  5
8391
330
7DB9
100
AcDbEntity
  8
3
 62
     0
440
 16777216
370
    -2
100
AcDbLine
 10
1825.707444793935
 20
1229.310671997804
 30
0.0
 11
1825.707444793935
 21
1268.400228699145
 31
0.0
  0
LINE
  5
8392
330
7DB9
100
AcDbEntity
  8
3
 62
     0
440
 16777216
370
    -2
100
AcDbLine
 10
1409.962394398637
 20
1142.916709847287
 30
0.0
 11
1409.962394398637
 21
1268.400228699145
 31
0.0
  0
LINE
  5
8393
330
7DB9
100
AcDbEntity
  8
3
 62
     0
440
 16777216
370
    -2
100
AcDbLine
 10
1805.707444793935
 20
1258.400228699145
 30
0.0
 11
1429.962394398637
 21
1258.400228699145
 31
0.0
  0
INSERT
  5
8394
330
7DB9
100
AcDbEntity
  8
3
 62
     0
440
 16777216
370
    -2
100
AcDbBlockReference
  2
_OPEN
 10
1825.707444793935
 20
1258.400228699145
 30
0.0
 41
20.0
 42
20.0
 43
20.0
  0
INSERT
  5
8395
330
7DB9
100
AcDbEntity
  8
3
 62
     0
440
 16777216
370
    -2
100
AcDbBlockReference
  2
_OPEN
 10
1409.962394398637
 20
1258.400228699145
 30
0.0
 41
20.0
 42
20.0
 43
20.0
 50
180.0
  0
MTEXT
  5
8396
330
7DB9
100
AcDbEntity
  8
3
 62
     0
440
 16777216
100
AcDbMText
 10
1617.834919596286
 20
1316.257371556288
 30
0.0
 40
30.0
 41
0.0
 46
0.0
 71
     5
 72
     1
  1
\A1;\P(500)
 73
     1
 44
1.0
  0
POINT
  5
8397
330
7DB9
100
AcDbEntity
  8
DEFPOINTS
 62
     0
440
 16777216
100
AcDbPoint
 10
1825.707444793935
 20
1224.310671997804
 30
0.0
  0
POINT
  5
8398
330
7DB9
100
AcDbEntity
  8
DEFPOINTS
 62
     0
440
 16777216
100
AcDbPoint
 10
1409.962394398637
 20
1137.916709847287
 30
0.0
  0
POINT
  5
8399
330
7DB9
100
AcDbEntity
  8
DEFPOINTS
 62
     0
440
 16777216
100
AcDbPoint
 10
1409.962394398637
 20
1258.400228699145
 30
0.0
  0
ENDBLK
  5
8188
330
7DB9
100
AcDbEntity
  8
0
100
AcDbBlockEnd
  0
BLOCK
  5
8161
330
7DC4
100
AcDbEntity
  8
0
100
AcDbBlockBegin
  2
*D8
 70
     1
 10
0.0
 20
0.0
 30
0.0
  3
*D8
  1

  0
LINE
  5
8162
330
7DC4
100
AcDbEntity
  8
0
  6
ByBlock
 62
     0
440
 16777216
100
AcDbLine
 10
359.5773849707967
 20
1984.066204540416
 30
0.0
 11
242.6815938540837
 21
1984.066204540416
 31
0.0
  0
LINE
  5
8163
330
7DC4
100
AcDbEntity
  8
0
  6
ByBlock
 62
     0
440
 16777216
100
AcDbLine
 10
359.5773849707954
 20
1604.066204540416
 30
0.0
 11
242.6815938540837
 21
1604.066204540416
 31
0.0
  0
LINE
  5
8164
330
7DC4
100
AcDbEntity
  8
0
  6
ByBlock
 62
     0
440
 16777216
100
AcDbLine
 10
252.6815938540837
 20
1964.066204540416
 30
0.0
 11
252.6815938540837
 21
1624.066204540415
 31
0.0
  0
INSERT
  5
8165
330
7DC4
100
AcDbEntity
  8
0
  6
ByBlock
 62
     0
440
 16777216
100
AcDbBlockReference
  2
_OPEN
 10
252.6815938540837
 20
1984.066204540416
 30
0.0
 41
20.0
 42
20.0
 43
20.0
 50
90.0
  0
INSERT
  5
8166
330
7DC4
100
AcDbEntity
  8
0
  6
ByBlock
 62
     0
440
 16777216
100
AcDbBlockReference
  2
_OPEN
 10
252.6815938540837
 20
1604.066204540416
 30
0.0
 41
20.0
 42
20.0
 43
20.0
 50
270.0
  0
MTEXT
  5
8167
330
7DC4
100
AcDbEntity
  8
0
  6
ByBlock
 62
     0
440
 16777216
100
AcDbMText
 10
227.6815938540837
 20
1794.066204540416
 30
0.0
 40
30.0
 41
0.0
 46
0.0
 71
     5
 72
     5
  1
\A1;380
 11
0.0
 21
1.0
 31
0.0
 73
     1
 44
1.0
  0
POINT
  5
8168
330
7DC4
100
AcDbEntity
  8
DEFPOINTS
  6
ByBlock
 62
     0
440
 16777216
100
AcDbPoint
 10
364.5773849707968
 20
1984.066204540416
 30
0.0
  0
POINT
  5
8169
330
7DC4
100
AcDbEntity
  8
DEFPOINTS
  6
ByBlock
 62
     0
440
 16777216
100
AcDbPoint
 10
364.5773849707954
 20
1604.066204540416
 30
0.0
  0
POINT
  5
816A
330
7DC4
100
AcDbEntity
  8
DEFPOINTS
  6
ByBlock
 62
     0
440
 16777216
100
AcDbPoint
 10
252.6815938540837
 20
1604.066204540416
 30
0.0
  0
ENDBLK
  5
816B
330
7DC4
100
AcDbEntity
  8
0
100
AcDbBlockEnd
  0
BLOCK
  5
8172
330
7DD0
100
AcDbEntity
  8
0
100
AcDbBlockBegin
  2
*D9
 70
     1
 10
0.0
 20
0.0
 30
0.0
  3
*D9
  1

  0
LINE
  5
8173
330
7DD0
100
AcDbEntity
  8
0
  6
ByBlock
 62
     0
440
 16777216
100
AcDbLine
 10
944.5773849707963
 20
1989.066204540414
 30
0.0
 11
944.5773849707963
 21
2144.732972129467
 31
0.0
  0
LINE
  5
8174
330
7DD0
100
AcDbEntity
  8
0
  6
ByBlock
 62
     0
440
 16777216
100
AcDbLine
 10
364.5773849707968
 20
1989.066204540416
 30
0.0
 11
364.5773849707968
 21
2144.732972129467
 31
0.0
  0
LINE
  5
8175
330
7DD0
100
AcDbEntity
  8
0
  6
ByBlock
 62
     0
440
 16777216
100
AcDbLine
 10
924.5773849707962
 20
2134.732972129466
 30
0.0
 11
384.5773849707967
 21
2134.732972129466
 31
0.0
  0
INSERT
  5
8176
330
7DD0
100
AcDbEntity
  8
0
  6
ByBlock
 62
     0
440
 16777216
100
AcDbBlockReference
  2
_OPEN
 10
944.5773849707963
 20
2134.732972129466
 30
0.0
 41
20.0
 42
20.0
 43
20.0
  0
INSERT
  5
8177
330
7DD0
100
AcDbEntity
  8
0
  6
ByBlock
 62
     0
440
 16777216
100
AcDbBlockReference
  2
_OPEN
 10
364.5773849707968
 20
2134.732972129466
 30
0.0
 41
20.0
 42
20.0
 43
20.0
 50
180.0
  0
MTEXT
  5
8178
330
7DD0
100
AcDbEntity
  8
0
  6
ByBlock
 62
     0
440
 16777216
100
AcDbMText
 10
649.0963268653558
 20
2159.732972129466
 30
0.0
 40
30.0
 41
0.0
 46
0.0
 71
     5
 72
     5
  1
\A1;580
 73
     1
 44
1.0
  0
POINT
  5
8179
330
7DD0
100
AcDbEntity
  8
DEFPOINTS
  6
ByBlock
 62
     0
440
 16777216
100
AcDbPoint
 10
944.5773849707963
 20
1984.066204540414
 30
0.0
  0
POINT
  5
817A
330
7DD0
100
AcDbEntity
  8
DEFPOINTS
  6
ByBlock
 62
     0
440
 16777216
100
AcDbPoint
 10
364.5773849707968
 20
1984.066204540416
 30
0.0
  0
POINT
  5
817B
330
7DD0
100
AcDbEntity
  8
DEFPOINTS
  6
ByBlock
 62
     0
440
 16777216
100
AcDbPoint
 10
364.5773849707968
 20
2134.732972129466
 30
0.0
  0
ENDBLK
  5
817C
330
7DD0
100
AcDbEntity
  8
0
100
AcDbBlockEnd
  0
BLOCK
  5
7F47
330
7DDC
100
AcDbEntity
  8
0
100
AcDbBlockBegin
  2
*D10
 70
     1
 10
0.0
 20
0.0
 30
0.0
  3
*D10
  1

  0
LINE
  5
7F48
330
7DDC
100
AcDbEntity
  8
0
  6
ByBlock
 62
     0
440
 16777216
100
AcDbLine
 10
332.8311409734508
 20
982.9607394630269
 30
0.0
 11
233.2219856216168
 21
982.9607394630269
 31
0.0
  0
LINE
  5
7F49
330
7DDC
100
AcDbEntity
  8
0
  6
ByBlock
 62
     0
440
 16777216
100
AcDbLine
 10
359.5773849707919
 20
762.9607394630266
 30
0.0
 11
233.2219856216168
 21
762.9607394630266
 31
0.0
  0
LINE
  5
7F4A
330
7DDC
100
AcDbEntity
  8
0
  6
ByBlock
 62
     0
440
 16777216
100
AcDbLine
 10
243.2219856216168
 20
962.9607394630268
 30
0.0
 11
243.2219856216168
 21
782.9607394630266
 31
0.0
  0
INSERT
  5
7F4B
330
7DDC
100
AcDbEntity
  8
0
  6
ByBlock
 62
     0
440
 16777216
100
AcDbBlockReference
  2
_OPEN
 10
243.2219856216168
 20
982.9607394630269
 30
0.0
 41
20.0
 42
20.0
 43
20.0
 50
90.0
  0
INSERT
  5
7F4C
330
7DDC
100
AcDbEntity
  8
0
  6
ByBlock
 62
     0
440
 16777216
100
AcDbBlockReference
  2
_OPEN
 10
243.2219856216168
 20
762.9607394630266
 30
0.0
 41
20.0
 42
20.0
 43
20.0
 50
270.0
  0
MTEXT
  5
7F4D
330
7DDC
100
AcDbEntity
  8
0
  6
ByBlock
 62
     0
440
 16777216
100
AcDbMText
 10
218.2219856216168
 20
872.9607394630267
 30
0.0
 40
30.0
 41
0.0
 46
0.0
 71
     5
 72
     5
  1
\A1;220
 11
0.0
 21
1.0
 31
0.0
 73
     1
 44
1.0
  0
POINT
  5
7F4E
330
7DDC
100
AcDbEntity
  8
DEFPOINTS
  6
ByBlock
 62
     0
440
 16777216
100
AcDbPoint
 10
337.8311409734508
 20
982.9607394630269
 30
0.0
  0
POINT
  5
7F4F
330
7DDC
100
AcDbEntity
  8
DEFPOINTS
  6
ByBlock
 62
     0
440
 16777216
100
AcDbPoint
 10
364.5773849707918
 20
762.9607394630266
 30
0.0
  0
POINT
  5
7F50
330
7DDC
100
AcDbEntity
  8
DEFPOINTS
  6
ByBlock
 62
     0
440
 16777216
100
AcDbPoint
 10
243.2219856216168
 20
762.9607394630266
 30
0.0
  0
ENDBLK
  5
7F51
330
7DDC
100
AcDbEntity
  8
0
100
AcDbBlockEnd
  0
BLOCK
  5
7F3C
330
7DE8
100
AcDbEntity
  8
0
100
AcDbBlockBegin
  2
*D11
 70
     1
 10
0.0
 20
0.0
 30
0.0
  3
*D11
  1

  0
LINE
  5
7F3D
330
7DE8
100
AcDbEntity
  8
0
  6
ByBlock
 62
     0
440
 16777216
100
AcDbLine
 10
332.8311409734508
 20
982.9607394630269
 30
0.0
 11
233.2219856216184
 21
982.9607394630269
 31
0.0
  0
LINE
  5
7F3E
330
7DE8
100
AcDbEntity
  8
0
  6
ByBlock
 62
     0
440
 16777216
100
AcDbLine
 10
481.2773849707927
 20
1142.960739463026
 30
0.0
 11
233.2219856216184
 21
1142.960739463026
 31
0.0
  0
LINE
  5
7F3F
330
7DE8
100
AcDbEntity
  8
0
  6
ByBlock
 62
     0
440
 16777216
100
AcDbLine
 10
243.2219856216184
 20
1002.960739463027
 30
0.0
 11
243.2219856216184
 21
1122.960739463026
 31
0.0
  0
INSERT
  5
7F40
330
7DE8
100
AcDbEntity
  8
0
  6
ByBlock
 62
     0
440
 16777216
100
AcDbBlockReference
  2
_OPEN
 10
243.2219856216184
 20
982.9607394630269
 30
0.0
 41
20.0
 42
20.0
 43
20.0
 50
270.0
  0
INSERT
  5
7F41
330
7DE8
100
AcDbEntity
  8
0
  6
ByBlock
 62
     0
440
 16777216
100
AcDbBlockReference
  2
_OPEN
 10
243.2219856216184
 20
1142.960739463026
 30
0.0
 41
20.0
 42
20.0
 43
20.0
 50
90.0
  0
MTEXT
  5
7F42
330
7DE8
100
AcDbEntity
  8
0
  6
ByBlock
 62
     0
440
 16777216
100
AcDbMText
 10
218.2219856216184
 20
1062.960739463026
 30
0.0
 40
30.0
 41
0.0
 46
0.0
 71
     5
 72
     5
  1
\A1;160
 11
0.0
 21
1.0
 31
0.0
 73
     1
 44
1.0
  0
POINT
  5
7F43
330
7DE8
100
AcDbEntity
  8
DEFPOINTS
  6
ByBlock
 62
     0
440
 16777216
100
AcDbPoint
 10
337.8311409734508
 20
982.9607394630269
 30
0.0
  0
POINT
  5
7F44
330
7DE8
100
AcDbEntity
  8
DEFPOINTS
  6
ByBlock
 62
     0
440
 16777216
100
AcDbPoint
 10
486.2773849707927
 20
1142.960739463026
 30
0.0
  0
POINT
  5
7F45
330
7DE8
100
AcDbEntity
  8
DEFPOINTS
  6
ByBlock
 62
     0
440
 16777216
100
AcDbPoint
 10
243.2219856216184
 20
1142.960739463026
 30
0.0
  0
ENDBLK
  5
7F46
330
7DE8
100
AcDbEntity
  8
0
100
AcDbBlockEnd
  0
BLOCK
  5
7F31
330
7DF3
100
AcDbEntity
  8
0
100
AcDbBlockBegin
  2
*D12
 70
     1
 10
0.0
 20
0.0
 30
0.0
  3
*D12
  1

  0
LINE
  5
7F32
330
7DF3
100
AcDbEntity
  8
0
  6
ByBlock
 62
     0
440
 16777216
100
AcDbLine
 10
514.5773849707929
 20
1164.706983460368
 30
0.0
 11
514.5773849707929
 21
1263.676463388956
 31
0.0
  0
LINE
  5
7F33
330
7DF3
100
AcDbEntity
  8
0
  6
ByBlock
 62
     0
440
 16777216
100
AcDbLine
 10
393.0773849707923
 20
980.4607394630265
 30
0.0
 11
393.0773849707923
 21
1263.676463388956
 31
0.0
  0
LINE
  5
7F34
330
7DF3
100
AcDbEntity
  8
0
  6
ByBlock
 62
     0
440
 16777216
100
AcDbLine
 10
494.5773849707929
 20
1253.676463388956
 30
0.0
 11
413.0773849707923
 21
1253.676463388956
 31
0.0
  0
INSERT
  5
7F35
330
7DF3
100
AcDbEntity
  8
0
  6
ByBlock
 62
     0
440
 16777216
100
AcDbBlockReference
  2
_OPEN
 10
514.5773849707929
 20
1253.676463388956
 30
0.0
 41
20.0
 42
20.0
 43
20.0
  0
INSERT
  5
7F36
330
7DF3
100
AcDbEntity
  8
0
  6
ByBlock
 62
     0
440
 16777216
100
AcDbBlockReference
  2
_OPEN
 10
393.0773849707923
 20
1253.676463388956
 30
0.0
 41
20.0
 42
20.0
 43
20.0
 50
180.0
  0
MTEXT
  5
7F37
330
7DF3
100
AcDbEntity
  8
0
  6
ByBlock
 62
     0
440
 16777216
100
AcDbMText
 10
453.8273849707926
 20
1278.676463388956
 30
0.0
 40
30.0
 41
0.0
 46
0.0
 71
     5
 72
     5
  1
\A1;121
 73
     1
 44
1.0
  0
POINT
  5
7F38
330
7DF3
100
AcDbEntity
  8
DEFPOINTS
  6
ByBlock
 62
     0
440
 16777216
100
AcDbPoint
 10
514.5773849707929
 20
1159.706983460367
 30
0.0
  0
POINT
  5
7F39
330
7DF3
100
AcDbEntity
  8
DEFPOINTS
  6
ByBlock
 62
     0
440
 16777216
100
AcDbPoint
 10
393.0773849707923
 20
975.4607394630266
 30
0.0
  0
POINT
  5
7F3A
330
7DF3
100
AcDbEntity
  8
DEFPOINTS
  6
ByBlock
 62
     0
440
 16777216
100
AcDbPoint
 10
393.0773849707923
 20
1253.676463388956
 30
0.0
  0
ENDBLK
  5
7F3B
330
7DF3
100
AcDbEntity
  8
0
100
AcDbBlockEnd
  0
BLOCK
  5
7F1B
330
7E0A
100
AcDbEntity
  8
0
100
AcDbBlockBegin
  2
*D13
 70
     1
 10
0.0
 20
0.0
 30
0.0
  3
*D13
  1

  0
LINE
  5
7F1C
330
7E0A
100
AcDbEntity
  8
0
  6
ByBlock
 62
     0
440
 16777216
100
AcDbLine
 10
393.0773849707918
 20
980.4607394630265
 30
0.0
 11
393.0773849707918
 21
1318.408664222387
 31
0.0
  0
LINE
  5
7F1D
330
7E0A
100
AcDbEntity
  8
0
  6
ByBlock
 62
     0
440
 16777216
100
AcDbLine
 10
944.5773849707917
 20
807.9607394630247
 30
0.0
 11
944.5773849707917
 21
1318.408664222387
 31
0.0
  0
LINE
  5
7F1E
330
7E0A
100
AcDbEntity
  8
0
  6
ByBlock
 62
     0
440
 16777216
100
AcDbLine
 10
413.0773849707918
 20
1308.408664222387
 30
0.0
 11
924.5773849707916
 21
1308.408664222387
 31
0.0
  0
INSERT
  5
7F1F
330
7E0A
100
AcDbEntity
  8
0
  6
ByBlock
 62
     0
440
 16777216
100
AcDbBlockReference
  2
_OPEN
 10
393.0773849707918
 20
1308.408664222387
 30
0.0
 41
20.0
 42
20.0
 43
20.0
 50
180.0
  0
INSERT
  5
7F20
330
7E0A
100
AcDbEntity
  8
0
  6
ByBlock
 62
     0
440
 16777216
100
AcDbBlockReference
  2
_OPEN
 10
944.5773849707917
 20
1308.408664222387
 30
0.0
 41
20.0
 42
20.0
 43
20.0
  0
MTEXT
  5
7F21
330
7E0A
100
AcDbEntity
  8
0
  6
ByBlock
 62
     0
440
 16777216
100
AcDbMText
 10
668.8273849707917
 20
1333.408664222387
 30
0.0
 40
30.0
 41
0.0
 46
0.0
 71
     5
 72
     5
  1
\A1;551
 73
     1
 44
1.0
  0
POINT
  5
7F22
330
7E0A
100
AcDbEntity
  8
DEFPOINTS
  6
ByBlock
 62
     0
440
 16777216
100
AcDbPoint
 10
393.0773849707918
 20
975.4607394630266
 30
0.0
  0
POINT
  5
7F23
330
7E0A
100
AcDbEntity
  8
DEFPOINTS
  6
ByBlock
 62
     0
440
 16777216
100
AcDbPoint
 10
944.5773849707917
 20
802.9607394630247
 30
0.0
  0
POINT
  5
7F24
330
7E0A
100
AcDbEntity
  8
DEFPOINTS
  6
ByBlock
 62
     0
440
 16777216
100
AcDbPoint
 10
944.5773849707917
 20
1308.408664222387
 30
0.0
  0
ENDBLK
  5
7F25
330
7E0A
100
AcDbEntity
  8
0
100
AcDbBlockEnd
  0
BLOCK
  5
8094
330
8093
100
AcDbEntity
  8
0
100
AcDbBlockBegin
  2
_DOT
 70
     0
 10
0.0
 20
0.0
 30
0.0
  3
_DOT
  1

  0
LINE
  5
80E1
330
8093
100
AcDbEntity
  8
0
  6
ByBlock
 62
     0
100
AcDbLine
 10
0.0
 20
0.0
 30
0.0
 11
-1.0
 21
-0.0000000000000284
 31
0.0
  0
LWPOLYLINE
  5
80E2
330
8093
100
AcDbEntity
  8
0
  6
ByBlock
 62
     0
100
AcDbPolyline
 90
        2
 70
     1
 43
0.1666666666666666
 10
-0.0833333333333286
 20
-0.0000000000000284
 42
1.0
 10
0.0833333333333286
 20
-0.0000000000000284
 42
1.0
  0
ENDBLK
  5
809A
330
8093
100
AcDbEntity
  8
0
100
AcDbBlockEnd
  0
BLOCK
  5
81FB
330
81FA
100
AcDbEntity
  8
0
100
AcDbBlockBegin
  2
*D15
 70
     1
 10
0.0
 20
0.0
 30
0.0
  3
*D15
  1

  0
LINE
  5
82F7
330
81FA
100
AcDbEntity
  8
3
 62
     0
440
 16777216
370
    -2
100
AcDbLine
 10
527.6310772739131
 20
647.9607394630264
 30
0.0
 11
527.6310772739131
 21
571.3739556249882
 31
0.0
  0
LINE
  5
82F8
330
81FA
100
AcDbEntity
  8
3
 62
     0
440
 16777216
370
    -2
100
AcDbLine
 10
677.6310772739127
 20
647.9607394630258
 30
0.0
 11
677.6310772739127
 21
571.3739556249882
 31
0.0
  0
LINE
  5
82F9
330
81FA
100
AcDbEntity
  8
3
 62
     0
440
 16777216
370
    -2
100
AcDbLine
 10
547.6310772739132
 20
581.3739556249881
 30
0.0
 11
657.6310772739127
 21
581.3739556249881
 31
0.0
  0
INSERT
  5
82FA
330
81FA
100
AcDbEntity
  8
3
 62
     0
440
 16777216
370
    -2
100
AcDbBlockReference
  2
_OPEN
 10
527.6310772739131
 20
581.3739556249881
 30
0.0
 41
20.0
 42
20.0
 43
20.0
 50
180.0
  0
INSERT
  5
82FB
330
81FA
100
AcDbEntity
  8
3
 62
     0
440
 16777216
370
    -2
100
AcDbBlockReference
  2
_OPEN
 10
677.6310772739127
 20
581.3739556249881
 30
0.0
 41
20.0
 42
20.0
 43
20.0
  0
MTEXT
  5
82FC
330
81FA
100
AcDbEntity
  8
3
 62
     0
440
 16777216
100
AcDbMText
 10
602.631077273913
 20
606.3739556249881
 30
0.0
 40
30.0
 41
0.0
 46
0.0
 71
     5
 72
     1
  1
\A1;150
 73
     1
 44
1.0
  0
POINT
  5
82FD
330
81FA
100
AcDbEntity
  8
DEFPOINTS
 62
     0
440
 16777216
100
AcDbPoint
 10
527.6310772739131
 20
652.9607394630263
 30
0.0
  0
POINT
  5
82FE
330
81FA
100
AcDbEntity
  8
DEFPOINTS
 62
     0
440
 16777216
100
AcDbPoint
 10
677.6310772739127
 20
652.9607394630259
 30
0.0
  0
POINT
  5
82FF
330
81FA
100
AcDbEntity
  8
DEFPOINTS
 62
     0
440
 16777216
100
AcDbPoint
 10
677.6310772739127
 20
581.3739556249881
 30
0.0
  0
ENDBLK
  5
8205
330
81FA
100
AcDbEntity
  8
0
100
AcDbBlockEnd
  0
BLOCK
  5
8208
330
8207
100
AcDbEntity
  8
0
100
AcDbBlockBegin
  2
*D16
 70
     1
 10
0.0
 20
0.0
 30
0.0
  3
*D16
  1

  0
LINE
  5
8300
330
8207
100
AcDbEntity
  8
3
 62
     0
440
 16777216
370
    -2
100
AcDbLine
 10
677.6310772739127
 20
647.9607394630258
 30
0.0
 11
677.6310772739127
 21
571.3739556249882
 31
0.0
  0
LINE
  5
8301
330
8207
100
AcDbEntity
  8
3
 62
     0
440
 16777216
370
    -2
100
AcDbLine
 10
1107.631077273913
 20
647.9607394630242
 30
0.0
 11
1107.631077273913
 21
571.3739556249882
 31
0.0
  0
LINE
  5
8302
330
8207
100
AcDbEntity
  8
3
 62
     0
440
 16777216
370
    -2
100
AcDbLine
 10
697.6310772739127
 20
581.3739556249881
 30
0.0
 11
1087.631077273913
 21
581.3739556249881
 31
0.0
  0
INSERT
  5
8303
330
8207
100
AcDbEntity
  8
3
 62
     0
440
 16777216
370
    -2
100
AcDbBlockReference
  2
_OPEN
 10
677.6310772739127
 20
581.3739556249881
 30
0.0
 41
20.0
 42
20.0
 43
20.0
 50
180.0
  0
INSERT
  5
8304
330
8207
100
AcDbEntity
  8
3
 62
     0
440
 16777216
370
    -2
100
AcDbBlockReference
  2
_OPEN
 10
1107.631077273913
 20
581.3739556249881
 30
0.0
 41
20.0
 42
20.0
 43
20.0
  0
MTEXT
  5
8305
330
8207
100
AcDbEntity
  8
3
 62
     0
440
 16777216
100
AcDbMText
 10
892.6310772739128
 20
606.3739556249881
 30
0.0
 40
30.0
 41
0.0
 46
0.0
 71
     5
 72
     1
  1
\A1;430
 73
     1
 44
1.0
  0
POINT
  5
8306
330
8207
100
AcDbEntity
  8
DEFPOINTS
 62
     0
440
 16777216
100
AcDbPoint
 10
677.6310772739127
 20
652.9607394630259
 30
0.0
  0
POINT
  5
8307
330
8207
100
AcDbEntity
  8
DEFPOINTS
 62
     0
440
 16777216
100
AcDbPoint
 10
1107.631077273913
 20
652.9607394630243
 30
0.0
  0
POINT
  5
8308
330
8207
100
AcDbEntity
  8
DEFPOINTS
 62
     0
440
 16777216
100
AcDbPoint
 10
1107.631077273913
 20
581.3739556249881
 30
0.0
  0
ENDBLK
  5
8212
330
8207
100
AcDbEntity
  8
0
100
AcDbBlockEnd
  0
BLOCK
  5
8215
330
8214
100
AcDbEntity
  8
0
100
AcDbBlockBegin
  2
*D17
 70
     1
 10
0.0
 20
0.0
 30
0.0
  3
*D17
  1

  0
LINE
  5
8309
330
8214
100
AcDbEntity
  8
3
 62
     0
440
 16777216
370
    -2
100
AcDbLine
 10
1420.707444793934
 20
647.9107447611676
 30
0.0
 11
1420.707444793934
 21
571.3739556249882
 31
0.0
  0
LINE
  5
830A
330
8214
100
AcDbEntity
  8
3
 62
     0
440
 16777216
370
    -2
100
AcDbLine
 10
1800.707444793935
 20
647.9107447611673
 30
0.0
 11
1800.707444793935
 21
571.3739556249882
 31
0.0
  0
LINE
  5
830B
330
8214
100
AcDbEntity
  8
3
 62
     0
440
 16777216
370
    -2
100
AcDbLine
 10
1440.707444793934
 20
581.3739556249881
 30
0.0
 11
1780.707444793935
 21
581.3739556249881
 31
0.0
  0
INSERT
  5
830C
330
8214
100
AcDbEntity
  8
3
 62
     0
440
 16777216
370
    -2
100
AcDbBlockReference
  2
_OPEN
 10
1420.707444793934
 20
581.3739556249881
 30
0.0
 41
20.0
 42
20.0
 43
20.0
 50
180.0
  0
INSERT
  5
830D
330
8214
100
AcDbEntity
  8
3
 62
     0
440
 16777216
370
    -2
100
AcDbBlockReference
  2
_OPEN
 10
1800.707444793935
 20
581.3739556249881
 30
0.0
 41
20.0
 42
20.0
 43
20.0
  0
MTEXT
  5
830E
330
8214
100
AcDbEntity
  8
3
 62
     0
440
 16777216
100
AcDbMText
 10
1610.707444793934
 20
606.3739556249881
 30
0.0
 40
30.0
 41
0.0
 46
0.0
 71
     5
 72
     1
  1
\A1;380
 73
     1
 44
1.0
  0
POINT
  5
830F
330
8214
100
AcDbEntity
  8
DEFPOINTS
 62
     0
440
 16777216
100
AcDbPoint
 10
1420.707444793934
 20
652.9107447611676
 30
0.0
  0
POINT
  5
8310
330
8214
100
AcDbEntity
  8
DEFPOINTS
 62
     0
440
 16777216
100
AcDbPoint
 10
1800.707444793935
 20
652.9107447611673
 30
0.0
  0
POINT
  5
8311
330
8214
100
AcDbEntity
  8
DEFPOINTS
 62
     0
440
 16777216
100
AcDbPoint
 10
1800.707444793935
 20
581.3739556249881
 30
0.0
  0
ENDBLK
  5
821F
330
8214
100
AcDbEntity
  8
0
100
AcDbBlockEnd
  0
BLOCK
  5
8222
330
8221
100
AcDbEntity
  8
0
100
AcDbBlockBegin
  2
*D18
 70
     1
 10
0.0
 20
0.0
 30
0.0
  3
*D18
  1

  0
LINE
  5
8312
330
8221
100
AcDbEntity
  8
3
 62
     0
440
 16777216
370
    -2
100
AcDbLine
 10
1800.707444793935
 20
647.9107447611674
 30
0.0
 11
1800.707444793935
 21
571.3739556249882
 31
0.0
  0
LINE
  5
8313
330
8221
100
AcDbEntity
  8
3
 62
     0
440
 16777216
370
    -2
100
AcDbLine
 10
1825.707444793934
 20
647.9107447611673
 30
0.0
 11
1825.707444793934
 21
571.3739556249882
 31
0.0
  0
LINE
  5
8314
330
8221
100
AcDbEntity
  8
3
 62
     0
440
 16777216
370
    -2
100
AcDbLine
 10
1780.707444793935
 20
581.3739556249881
 30
0.0
 11
1760.707444793935
 21
581.3739556249881
 31
0.0
  0
LINE
  5
8315
330
8221
100
AcDbEntity
  8
3
 62
     0
440
 16777216
370
    -2
100
AcDbLine
 10
1845.707444793934
 20
581.3739556249881
 30
0.0
 11
1934.278873365362
 21
581.3739556249881
 31
0.0
  0
LINE
  5
8316
330
8221
100
AcDbEntity
  8
3
 62
     0
440
 16777216
370
    -2
100
AcDbLine
 10
1800.707444793935
 20
581.3739556249881
 30
0.0
 11
1825.707444793934
 21
581.3739556249881
 31
0.0
  0
INSERT
  5
8317
330
8221
100
AcDbEntity
  8
3
 62
     0
440
 16777216
370
    -2
100
AcDbBlockReference
  2
_OPEN
 10
1800.707444793935
 20
581.3739556249881
 30
0.0
 41
20.0
 42
20.0
 43
20.0
  0
INSERT
  5
8318
330
8221
100
AcDbEntity
  8
3
 62
     0
440
 16777216
370
    -2
100
AcDbBlockReference
  2
_OPEN
 10
1825.707444793934
 20
581.3739556249881
 30
0.0
 41
20.0
 42
20.0
 43
20.0
 50
180.0
  0
MTEXT
  5
8319
330
8221
100
AcDbEntity
  8
3
 62
     0
440
 16777216
100
AcDbMText
 10
1899.993159079648
 20
606.3739556249881
 30
0.0
 40
30.0
 41
0.0
 46
0.0
 71
     5
 72
     1
  1
\A1;25
 73
     1
 44
1.0
  0
POINT
  5
831A
330
8221
100
AcDbEntity
  8
DEFPOINTS
 62
     0
440
 16777216
100
AcDbPoint
 10
1800.707444793935
 20
652.9107447611675
 30
0.0
  0
POINT
  5
831B
330
8221
100
AcDbEntity
  8
DEFPOINTS
 62
     0
440
 16777216
100
AcDbPoint
 10
1825.707444793934
 20
652.9107447611672
 30
0.0
  0
POINT
  5
831C
330
8221
100
AcDbEntity
  8
DEFPOINTS
 62
     0
440
 16777216
100
AcDbPoint
 10
1825.707444793934
 20
581.3739556249881
 30
0.0
  0
ENDBLK
  5
822E
330
8221
100
AcDbEntity
  8
0
100
AcDbBlockEnd
  0
BLOCK
  5
824C
330
824B
100
AcDbEntity
  8
0
100
AcDbBlockBegin
  2
*D19
 70
     1
 10
0.0
 20
0.0
 30
0.0
  3
*D19
  1

  0
LINE
  5
831D
330
824B
100
AcDbEntity
  8
3
 62
     0
440
 16777216
370
    -2
100
AcDbLine
 10
522.6310772739139
 20
692.9607394630263
 30
0.0
 11
395.5858373764168
 21
692.9607394630263
 31
0.0
  0
LINE
  5
831E
330
824B
100
AcDbEntity
  8
3
 62
     0
440
 16777216
370
    -2
100
AcDbLine
 10
522.6310772739132
 20
652.9607394630263
 30
0.0
 11
395.5858373764168
 21
652.9607394630263
 31
0.0
  0
LINE
  5
831F
330
824B
100
AcDbEntity
  8
3
 62
     0
440
 16777216
370
    -2
100
AcDbLine
 10
405.5858373764167
 20
712.9607394630263
 30
0.0
 11
405.5858373764167
 21
732.9607394630263
 31
0.0
  0
LINE
  5
8320
330
824B
100
AcDbEntity
  8
3
 62
     0
440
 16777216
370
    -2
100
AcDbLine
 10
405.5858373764166
 20
632.9607394630263
 30
0.0
 11
405.5858373764166
 21
544.3893108915976
 31
0.0
  0
LINE
  5
8321
330
824B
100
AcDbEntity
  8
3
 62
     0
440
 16777216
370
    -2
100
AcDbLine
 10
405.5858373764167
 20
692.9607394630263
 30
0.0
 11
405.5858373764167
 21
652.9607394630263
 31
0.0
  0
INSERT
  5
8322
330
824B
100
AcDbEntity
  8
3
 62
     0
440
 16777216
370
    -2
100
AcDbBlockReference
  2
_DOT
 10
405.5858373764167
 20
692.9607394630263
 30
0.0
 41
20.0
 42
20.0
 43
20.0
 50
270.0
  0
INSERT
  5
8323
330
824B
100
AcDbEntity
  8
3
 62
     0
440
 16777216
370
    -2
100
AcDbBlockReference
  2
_OPEN
 10
405.5858373764167
 20
652.9607394630263
 30
0.0
 41
20.0
 42
20.0
 43
20.0
 50
90.0
  0
MTEXT
  5
8324
330
824B
100
AcDbEntity
  8
3
 62
     0
440
 16777216
100
AcDbMText
 10
380.5858373764166
 20
578.6750251773121
 30
0.0
 40
30.0
 41
0.0
 46
0.0
 71
     5
 72
     1
  1
\A1;40
 11
0.0000000000000001
 21
1.0
 31
0.0
 73
     1
 44
1.0
  0
POINT
  5
8325
330
824B
100
AcDbEntity
  8
DEFPOINTS
 62
     0
440
 16777216
100
AcDbPoint
 10
527.6310772739138
 20
692.9607394630263
 30
0.0
  0
POINT
  5
8326
330
824B
100
AcDbEntity
  8
DEFPOINTS
 62
     0
440
 16777216
100
AcDbPoint
 10
527.6310772739131
 20
652.9607394630263
 30
0.0
  0
POINT
  5
8327
330
824B
100
AcDbEntity
  8
DEFPOINTS
 62
     0
440
 16777216
100
AcDbPoint
 10
405.5858373764167
 20
652.9607394630263
 30
0.0
  0
ENDBLK
  5
8258
330
824B
100
AcDbEntity
  8
0
100
AcDbBlockEnd
  0
BLOCK
  5
8279
330
8278
100
AcDbEntity
  8
0
100
AcDbBlockBegin
  2
*D20
 70
     1
 10
0.0
 20
0.0
 30
0.0
  3
*D20
  1

  0
LINE
  5
8361
330
8278
100
AcDbEntity
  8
3
 62
     0
440
 16777216
370
    -2
100
AcDbLine
 10
522.6310772739139
 20
692.9607394630263
 30
0.0
 11
395.7893934767544
 21
692.9607394630263
 31
0.0
  0
LINE
  5
8362
330
8278
100
AcDbEntity
  8
3
 62
     0
440
 16777216
370
    -2
100
AcDbLine
 10
522.6310772739132
 20
762.9167098472871
 30
0.0
 11
395.7893934767544
 21
762.9167098472871
 31
0.0
  0
LINE
  5
8363
330
8278
100
AcDbEntity
  8
3
 62
     0
440
 16777216
370
    -2
100
AcDbLine
 10
405.7893934767544
 20
712.9607394630263
 30
0.0
 11
405.7893934767544
 21
742.9167098472872
 31
0.0
  0
MTEXT
  5
8364
330
8278
100
AcDbEntity
  8
3
 62
     0
440
 16777216
100
AcDbMText
 10
372.9724702313724
 20
724.5103594849097
 30
0.0
 40
30.0
 41
0.0
 46
0.0
 71
     5
 72
     1
  1
\A1;(70)
 11
0.0000000000000001
 21
1.0
 31
0.0
 73
     1
 44
1.0
  0
INSERT
  5
8365
330
8278
100
AcDbEntity
  8
3
 62
     0
440
 16777216
370
    -2
100
AcDbBlockReference
  2
_DOT
 10
405.7893934767544
 20
692.9607394630263
 30
0.0
 41
20.0
 42
20.0
 43
20.0
 50
270.0
  0
INSERT
  5
8366
330
8278
100
AcDbEntity
  8
3
 62
     0
440
 16777216
370
    -2
100
AcDbBlockReference
  2
_OPEN
 10
405.7893934767544
 20
762.9167098472871
 30
0.0
 41
20.0
 42
20.0
 43
20.0
 50
90.0
  0
POINT
  5
8367
330
8278
100
AcDbEntity
  8
DEFPOINTS
 62
     0
440
 16777216
100
AcDbPoint
 10
527.6310772739138
 20
692.9607394630263
 30
0.0
  0
POINT
  5
8368
330
8278
100
AcDbEntity
  8
DEFPOINTS
 62
     0
440
 16777216
100
AcDbPoint
 10
527.6310772739131
 20
762.9167098472871
 30
0.0
  0
POINT
  5
8369
330
8278
100
AcDbEntity
  8
DEFPOINTS
 62
     0
440
 16777216
100
AcDbPoint
 10
405.7893934767544
 20
762.9167098472871
 30
0.0
  0
ENDBLK
  5
8283
330
8278
100
AcDbEntity
  8
0
100
AcDbBlockEnd
  0
BLOCK
  5
8286
330
8285
100
AcDbEntity
  8
0
100
AcDbBlockBegin
  2
*D21
 70
     1
 10
0.0
 20
0.0
 30
0.0
  3
*D21
  1

  0
LINE
  5
8331
330
8285
100
AcDbEntity
  8
3
 62
     0
440
 16777216
370
    -2
100
AcDbLine
 10
644.3310772739141
 20
1142.960739463026
 30
0.0
 11
305.5626145583138
 21
1142.960739463026
 31
0.0
  0
LINE
  5
8332
330
8285
100
AcDbEntity
  8
3
 62
     0
440
 16777216
370
    -2
100
AcDbLine
 10
522.6310772739132
 20
652.9607394630263
 30
0.0
 11
305.5626145583137
 21
652.9607394630263
 31
0.0
  0
LINE
  5
8333
330
8285
100
AcDbEntity
  8
3
 62
     0
440
 16777216
370
    -2
100
AcDbLine
 10
315.5626145583138
 20
1122.960739463026
 30
0.0
 11
315.5626145583137
 21
672.9607394630264
 31
0.0
  0
INSERT
  5
8334
330
8285
100
AcDbEntity
  8
3
 62
     0
440
 16777216
370
    -2
100
AcDbBlockReference
  2
_OPEN
 10
315.5626145583138
 20
1142.960739463026
 30
0.0
 41
20.0
 42
20.0
 43
20.0
 50
90.0
  0
INSERT
  5
8335
330
8285
100
AcDbEntity
  8
3
 62
     0
440
 16777216
370
    -2
100
AcDbBlockReference
  2
_OPEN
 10
315.5626145583137
 20
652.9607394630263
 30
0.0
 41
20.0
 42
20.0
 43
20.0
 50
270.0
  0
MTEXT
  5
8336
330
8285
100
AcDbEntity
  8
3
 62
     0
440
 16777216
100
AcDbMText
 10
282.7054717011708
 20
897.9607394630265
 30
0.0
 40
30.0
 41
0.0
 46
0.0
 71
     5
 72
     1
  1
\A1;(490)
 11
0.0000000000000001
 21
1.0
 31
0.0
 73
     1
 44
1.0
  0
POINT
  5
8337
330
8285
100
AcDbEntity
  8
DEFPOINTS
 62
     0
440
 16777216
100
AcDbPoint
 10
649.3310772739142
 20
1142.960739463026
 30
0.0
  0
POINT
  5
8338
330
8285
100
AcDbEntity
  8
DEFPOINTS
 62
     0
440
 16777216
100
AcDbPoint
 10
527.6310772739131
 20
652.9607394630263
 30
0.0
  0
POINT
  5
8339
330
8285
100
AcDbEntity
  8
DEFPOINTS
 62
     0
440
 16777216
100
AcDbPoint
 10
315.5626145583137
 20
652.9607394630263
 30
0.0
  0
ENDBLK
  5
8290
330
8285
100
AcDbEntity
  8
0
100
AcDbBlockEnd
  0
ENDSEC
  0
SECTION
  2
ENTITIES
  0
INSERT
  5
7C19
330
19
100
AcDbEntity
  8
0
100
AcDbBlockReference
  2
YA_N
 10
2724.161206490659
 20
327.0207551769345
 30
0.0
  0
INSERT
  5
7C1A
330
19
100
AcDbEntity
  8
0
100
AcDbBlockReference
  2
YA_N
 10
2724.161206490659
 20
327.0207551769345
 30
0.0
  0
LINE
  5
7C1C
330
19
100
AcDbEntity
  8
1
100
AcDbLine
 10
1663.407444793935
 20
802.9107447611677
 30
0.0
 11
1463.407444793935
 21
802.9107447611677
 31
0.0
  0
LINE
  5
7C1D
330
19
100
AcDbEntity
  8
1
100
AcDbLine
 10
1420.707444793934
 20
802.9107447611679
 30
0.0
 11
1800.707444793934
 21
802.9107447611675
 31
0.0
  0
LINE
  5
7C1E
330
19
100
AcDbEntity
  8
1
100
AcDbLine
 10
1420.707444793934
 20
762.9107447611678
 30
0.0
 11
1800.707444793935
 21
762.9107447611676
 31
0.0
  0
LINE
  5
7C1F
330
19
100
AcDbEntity
  8
1
100
AcDbLine
 10
1488.407444793935
 20
944.1107447611672
 30
0.0
 11
1494.207444793932
 21
944.1107447611672
 31
0.0
  0
LINE
  5
7C20
330
19
100
AcDbEntity
  8
1
100
AcDbLine
 10
1488.407444793935
 20
946.4107447611679
 30
0.0
 11
1494.207444793932
 21
946.4107447611679
 31
0.0
  0
LINE
  5
7C21
330
19
100
AcDbEntity
  8
2
100
AcDbLine
 10
1427.453937073391
 20
982.9107447611677
 30
0.0
 11
1922.188968773762
 21
982.9107447611677
 31
0.0
  0
LINE
  5
7C22
330
19
100
AcDbEntity
  8
1
100
AcDbLine
 10
551.0167656283329
 20
1137.916709847287
 30
0.0
 11
1081.016765628333
 21
1137.916709847285
 31
0.0
  0
LINE
  5
7C23
330
19
100
AcDbEntity
  8
1
100
AcDbLine
 10
665.5194366965824
 20
939.6212867377604
 30
0.0
 11
982.827961012731
 21
859.9902972432557
 31
0.0
  0
LINE
  5
7C24
330
19
100
AcDbEntity
  8
1
100
AcDbLine
 10
687.0919547475137
 20
1026.954964054778
 30
0.0
 11
1009.194371963869
 21
966.7314584084998
 31
0.0
  0
LINE
  5
7C25
330
19
100
AcDbEntity
  8
1
100
AcDbLine
 10
1081.016765628333
 20
1137.916709847285
 30
0.0
 11
1081.016765628331
 21
802.9167098472857
 31
0.0
  0
LINE
  5
7C26
330
19
100
AcDbEntity
  8
1
100
AcDbLine
 10
1092.631077273912
 20
802.9607394630247
 30
0.0
 11
902.6310772739122
 21
802.9607394630257
 31
0.0
  0
LINE
  5
7C27
330
19
100
AcDbEntity
  8
1
100
AcDbLine
 10
1107.631077273913
 20
802.9607394630247
 30
0.0
 11
1107.631077273913
 21
762.9167098472855
 31
0.0
  0
CIRCLE
  5
7C28
330
19
100
AcDbEntity
  8
1
100
AcDbCircle
 10
997.6310772739132
 20
912.9607394630252
 30
0.0
 40
55.0
  0
LINE
  5
7C29
330
19
100
AcDbEntity
  8
2
100
AcDbLine
 10
900.4725317982662
 20
912.9607394630255
 30
0.0
 11
1092.0177570483
 21
912.9607394630248
 31
0.0
  0
LINE
  5
7C2A
330
19
100
AcDbEntity
  8
2
100
AcDbLine
 10
997.6310772739134
 20
994.3502394630252
 30
0.0
 11
997.6310772739127
 21
784.9663413035155
 31
0.0
  0
LINE
  5
7C2B
330
19
100
AcDbEntity
  8
1
100
AcDbLine
 10
1495.407444793934
 20
827.916709847287
 30
0.0
 11
1495.407444793934
 21
802.9107447611677
 31
0.0
  0
LINE
  5
7C2C
330
19
100
AcDbEntity
  8
2
100
AcDbLine
 10
677.6310772739143
 20
1161.516803258259
 30
0.0
 11
677.6310772739122
 21
652.9607394630259
 31
0.0
  0
LINE
  5
7C2D
330
19
100
AcDbEntity
  8
1
100
AcDbLine
 10
777.6310772739134
 20
943.2607394630259
 30
0.0
 11
777.631077273913
 21
802.9167098472866
 31
0.0
  0
LINE
  5
7C2E
330
19
100
AcDbEntity
  8
1
100
AcDbLine
 10
551.0167656283315
 20
802.9167098472877
 30
0.0
 11
551.0167656283329
 21
1137.916709847287
 31
0.0
  0
LINE
  5
7C2F
330
19
100
AcDbEntity
  8
1
100
AcDbLine
 10
577.6310772739134
 20
943.2607394630267
 30
0.0
 11
577.631077273913
 21
802.9167098472871
 31
0.0
  0
LINE
  5
7C30
330
19
100
AcDbEntity
  8
1
100
AcDbLine
 10
1484.962394398637
 20
811.9107447611678
 30
0.0
 11
1484.962394398637
 21
853.1736145640444
 31
0.0
  0
LINE
  5
7C31
330
19
100
AcDbEntity
  8
1
100
AcDbLine
 10
1409.962394398637
 20
811.9107447611678
 30
0.0
 11
1409.962394398637
 21
1137.916709847287
 31
0.0
  0
LINE
  5
7C32
330
19
100
AcDbEntity
  8
1
100
AcDbLine
 10
1484.962394398637
 20
811.9107447611677
 30
0.0
 11
1409.962394398637
 21
811.9107447611677
 31
0.0
  0
LINE
  5
7C33
330
19
100
AcDbEntity
  8
1
100
AcDbLine
 10
527.6310772739134
 20
802.9607394630266
 30
0.0
 11
527.6310772739131
 21
762.9167098472871
 31
0.0
  0
POINT
  5
7C34
330
19
100
AcDbEntity
  8
1
100
AcDbPoint
 10
1460.707444793934
 20
762.9107447611677
 30
0.0
  0
POINT
  5
7C35
330
19
100
AcDbEntity
  8
1
100
AcDbPoint
 10
1493.107444793934
 20
802.9107447611677
 30
0.0
  0
POINT
  5
7C36
330
19
100
AcDbEntity
  8
1
100
AcDbPoint
 10
1493.107444793934
 20
802.9107447611677
 30
0.0
  0
ARC
  5
7C37
330
19
100
AcDbEntity
  8
1
100
AcDbCircle
 10
685.1310772739132
 20
975.460739463026
 30
0.0
 40
129.0
100
AcDbArc
 50
179.9999999999998
 51
269.9999999999998
  0
ARC
  5
7C38
330
19
100
AcDbEntity
  8
1
100
AcDbCircle
 10
670.1310772739137
 20
975.4607394630262
 30
0.0
 40
114.0
100
AcDbArc
 50
89.99999999999978
 51
179.9999999999998
  0
LINE
  5
7C39
330
19
100
AcDbEntity
  8
2
100
AcDbLine
 10
500.8848332765722
 20
982.9607394630269
 30
0.0
 11
853.8033900371541
 21
982.9607394630256
 31
0.0
  0
LINE
  5
7C3A
330
19
100
AcDbEntity
  8
1
100
AcDbLine
 10
769.931077273914
 20
1046.460744761167
 30
0.0
 11
769.9310772739136
 21
946.4607394630258
 31
0.0
  0
LINE
  5
7C3B
330
19
100
AcDbEntity
  8
1
100
AcDbLine
 10
775.9310772739141
 20
1046.460744761167
 30
0.0
 11
775.9310772739135
 21
946.4607394630258
 31
0.0
  0
LINE
  5
7C3C
330
19
100
AcDbEntity
  8
1
100
AcDbLine
 10
579.3310772739141
 20
1046.460744761168
 30
0.0
 11
579.3310772739132
 21
946.4607394630265
 31
0.0
  0
LINE
  5
7C3D
330
19
100
AcDbEntity
  8
1
100
AcDbLine
 10
585.3310772739141
 20
1046.460744761168
 30
0.0
 11
585.3310772739132
 21
946.4607394630265
 31
0.0
  0
LINE
  5
7C3E
330
19
100
AcDbEntity
  8
1
100
AcDbLine
 10
831.6310772739141
 20
1122.960739463025
 30
0.0
 11
829.0536995200179
 21
985.7406964753904
 31
0.0
  0
ARC
  5
7C3F
330
19
100
AcDbEntity
  8
1
100
AcDbCircle
 10
685.1310772739132
 20
990.4607394630261
 30
0.0
 40
144.0
100
AcDbArc
 50
269.9999999999998
 51
359.999999999998
  0
CIRCLE
  5
7C40
330
19
100
AcDbEntity
  8
1
100
AcDbCircle
 10
677.6310772739131
 20
872.9167098472869
 30
0.0
 40
60.0
  0
LINE
  5
7C42
330
19
100
AcDbEntity
  8
1
100
AcDbLine
 10
572.6310772739134
 20
943.2607394630267
 30
0.0
 11
782.6310772739134
 21
943.2607394630259
 31
0.0
  0
LINE
  5
7C43
330
19
100
AcDbEntity
  8
1
100
AcDbLine
 10
572.6310772739134
 20
946.4607394630265
 30
0.0
 11
782.6310772739134
 21
946.4607394630258
 31
0.0
  0
CIRCLE
  5
7C44
330
19
100
AcDbEntity
  8
1
100
AcDbCircle
 10
677.6310772739137
 20
982.9607394630262
 30
0.0
 40
45.0
  0
LINE
  5
7C45
330
19
100
AcDbEntity
  8
1
100
AcDbLine
 10
752.6310772739134
 20
949.660739463026
 30
0.0
 11
602.6310772739134
 21
949.6607394630265
 31
0.0
  0
LINE
  5
7C46
330
19
100
AcDbEntity
  8
1
100
AcDbLine
 10
602.6310772739134
 20
946.4607394630265
 30
0.0
 11
752.6310772739134
 21
946.460739463026
 31
0.0
  0
LINE
  5
7C47
330
19
100
AcDbEntity
  8
1
100
AcDbLine
 10
782.6310772739134
 20
946.4607394630258
 30
0.0
 11
782.6310772739134
 21
943.2607394630259
 31
0.0
  0
LINE
  5
7C48
330
19
100
AcDbEntity
  8
1
100
AcDbLine
 10
752.6310772739134
 20
946.460739463026
 30
0.0
 11
752.6310772739134
 21
949.660739463026
 31
0.0
  0
LINE
  5
7C49
330
19
100
AcDbEntity
  8
1
100
AcDbLine
 10
602.6310772739134
 20
949.6607394630265
 30
0.0
 11
602.6310772739134
 21
946.4607394630265
 31
0.0
  0
LINE
  5
7C4A
330
19
100
AcDbEntity
  8
1
100
AcDbLine
 10
572.6310772739134
 20
946.4607394630265
 30
0.0
 11
572.6310772739134
 21
943.2607394630267
 31
0.0
  0
LINE
  5
7C4B
330
19
100
AcDbEntity
  8
1
100
AcDbLine
 10
853.9307682794877
 20
1122.960739463025
 30
0.0
 11
649.3310772739139
 21
1122.960739463026
 31
0.0
  0
LINE
  5
7C4C
330
19
100
AcDbEntity
  8
1
100
AcDbLine
 10
853.9307682794879
 20
1142.960739463025
 30
0.0
 11
649.3310772739142
 21
1142.960739463026
 31
0.0
  0
LINE
  5
7C4D
330
19
100
AcDbEntity
  8
1
100
AcDbLine
 10
853.9307682794877
 20
1122.960739463025
 30
0.0
 11
853.9307682794879
 21
1142.960739463025
 31
0.0
  0
LINE
  5
7C4E
330
19
100
AcDbEntity
  8
1
100
AcDbLine
 10
769.931077273914
 20
1046.460744761167
 30
0.0
 11
775.9310772739141
 21
1046.460744761167
 31
0.0
  0
CIRCLE
  5
7C4F
330
19
100
AcDbEntity
  8
1
100
AcDbCircle
 10
700.6310772739136
 20
1090.933372552838
 30
0.0
 40
6.0
  0
LINE
  5
7C50
330
19
100
AcDbEntity
  8
1
100
AcDbLine
 10
671.6310772739141
 20
1122.960739463026
 30
0.0
 11
671.6310772739141
 21
1089.449375174404
 31
0.0
  0
ARC
  5
7C51
330
19
100
AcDbEntity
  8
1
100
AcDbCircle
 10
670.1310772739137
 20
990.4607394630263
 30
0.0
 40
99.0
100
AcDbArc
 50
73.11353300243826
 51
89.99999999999978
  0
LINE
  5
7C52
330
19
100
AcDbEntity
  8
1
100
AcDbLine
 10
649.3310772739142
 20
1142.960739463026
 30
0.0
 11
649.3310772739139
 21
1122.960739463026
 31
0.0
  0
LINE
  5
7C53
330
19
100
AcDbEntity
  8
1
100
AcDbLine
 10
579.3310772739141
 20
1046.460744761168
 30
0.0
 11
585.3310772739141
 21
1046.460744761168
 31
0.0
  0
LINE
  5
7C54
330
19
100
AcDbEntity
  8
1
100
AcDbLine
 10
1462.462394398637
 20
1027.910744761168
 30
0.0
 11
1462.462394398637
 21
858.9107447611677
 31
0.0
  0
LINE
  5
7C55
330
19
100
AcDbEntity
  8
1
100
AcDbLine
 10
1432.462394398637
 20
1027.910744761167
 30
0.0
 11
1432.462394398637
 21
858.9107447611677
 31
0.0
  0
LINE
  5
7C56
330
19
100
AcDbEntity
  8
2
100
AcDbLine
 10
1429.070146189467
 20
912.9167098472871
 30
0.0
 11
1501.109643095428
 21
912.9167098472871
 31
0.0
  0
LINE
  5
7C57
330
19
100
AcDbEntity
  8
1
100
AcDbLine
 10
1462.462394398637
 20
858.9107447611677
 30
0.0
 11
1432.462394398637
 21
858.9107447611677
 31
0.0
  0
LINE
  5
7C58
330
19
100
AcDbEntity
  8
1
100
AcDbLine
 10
1472.462394398637
 20
972.9107447611678
 30
0.0
 11
1494.207444793932
 21
972.9107447611678
 31
0.0
  0
LINE
  5
7C59
330
19
100
AcDbEntity
  8
1
100
AcDbLine
 10
1472.462394398637
 20
992.9107447611675
 30
0.0
 11
1494.207444793932
 21
992.9107447611675
 31
0.0
  0
LINE
  5
7C5A
330
19
100
AcDbEntity
  8
1
100
AcDbLine
 10
1472.462394398637
 20
992.9107447611677
 30
0.0
 11
1472.462394398637
 21
972.9107447611678
 31
0.0
  0
LINE
  5
7C5B
330
19
100
AcDbEntity
  8
1
100
AcDbLine
 10
1462.462394398637
 20
968.9107447611677
 30
0.0
 11
1432.462394398637
 21
968.9107447611677
 31
0.0
  0
LINE
  5
7C5C
330
19
100
AcDbEntity
  8
1
100
AcDbLine
 10
1432.462394398637
 20
937.9107447611678
 30
0.0
 11
1462.462394398637
 21
937.9107447611678
 31
0.0
  0
LINE
  5
7C5D
330
19
100
AcDbEntity
  8
1
100
AcDbLine
 10
1488.407444793934
 20
946.4107447611679
 30
0.0
 11
1488.407444793934
 21
944.1107447611672
 31
0.0
  0
LINE
  5
7C5E
330
19
100
AcDbEntity
  8
1
100
AcDbLine
 10
1462.462394398637
 20
973.4107447611675
 30
0.0
 11
1472.462394398637
 21
973.4107447611677
 31
0.0
  0
LINE
  5
7C5F
330
19
100
AcDbEntity
  8
1
100
AcDbLine
 10
1432.462394398637
 20
1027.910744761167
 30
0.0
 11
1462.462394398637
 21
1027.910744761167
 31
0.0
  0
LINE
  5
7C60
330
19
100
AcDbEntity
  8
1
100
AcDbLine
 10
1462.462394398637
 20
992.4107447611676
 30
0.0
 11
1472.462394398637
 21
992.4107447611676
 31
0.0
  0
LINE
  5
7C61
330
19
100
AcDbEntity
  8
1
100
AcDbLine
 10
1409.962394398637
 20
1137.916709847287
 30
0.0
 11
1484.962394398637
 21
1137.916709847287
 31
0.0
  0
LINE
  5
7C66
330
19
100
AcDbEntity
  8
1
100
AcDbLine
 10
1067.631077273917
 20
1604.066204540413
 30
0.0
 11
1067.631077273917
 21
1676.069706913354
 31
0.0
  0
LINE
  5
7C67
330
19
100
AcDbEntity
  8
1
100
AcDbLine
 10
1107.631077273917
 20
1644.066204540414
 30
0.0
 11
1107.631077273918
 21
1984.066204540414
 31
0.0
  0
LINE
  5
7C68
330
19
100
AcDbEntity
  8
2
100
AcDbLine
 10
997.6310772739164
 20
1603.3046127677
 30
0.0
 11
997.631077273917
 21
1950.395332137285
 31
0.0
  0
LINE
  5
7C69
330
19
100
AcDbEntity
  8
1
100
AcDbLine
 10
1107.631077273917
 20
1604.066204540413
 30
0.0
 11
1107.631077273917
 21
1644.066204540413
 31
0.0
  0
LINE
  5
7C6B
330
19
100
AcDbEntity
  8
2
100
AcDbLine
 10
677.6310772739163
 20
1610.696602033984
 30
0.0
 11
677.6310772739172
 21
2090.810935654975
 31
0.0
  0
LINE
  5
7C6C
330
19
100
AcDbEntity
  8
1
100
AcDbLine
 10
527.631077273917
 20
1644.066204540416
 30
0.0
 11
527.6310772739182
 21
1984.066204540416
 31
0.0
  0
LINE
  5
7C6D
330
19
100
AcDbEntity
  8
1
100
AcDbLine
 10
567.6310772739167
 20
1604.066204540416
 30
0.0
 11
567.631077273918
 21
1947.569706913357
 31
0.0
  0
LINE
  5
7C6E
330
19
100
AcDbEntity
  8
1
100
AcDbLine
 10
527.6310772739167
 20
1604.066204540416
 30
0.0
 11
527.631077273917
 21
1644.066204540416
 31
0.0
  0
LINE
  5
7C71
330
19
100
AcDbEntity
  8
2
100
AcDbLine
 10
1825.707444793935
 20
1182.920595850161
 30
0.0
 11
1825.707444793934
 21
652.9107447611672
 31
0.0
  0
LINE
  5
7C72
330
19
100
AcDbEntity
  8
1
100
AcDbLine
 10
1909.707444793935
 20
894.9107447611678
 30
0.0
 11
1889.707444793935
 21
894.9107447611678
 31
0.0
  0
LINE
  5
7C73
330
19
100
AcDbEntity
  8
1
100
AcDbLine
 10
1889.707444793936
 20
982.9107447611677
 30
0.0
 11
1889.707444793935
 21
871.910744761168
 31
0.0
  0
LINE
  5
7C75
330
19
100
AcDbEntity
  8
1
100
AcDbLine
 10
1885.707444793934
 20
1122.960739463026
 30
0.0
 11
1885.707444793934
 21
982.9107447611677
 31
0.0
  0
LINE
  5
7C76
330
19
100
AcDbEntity
  8
1
100
AcDbLine
 10
1765.707444793934
 20
1122.960739463026
 30
0.0
 11
1765.707444793934
 21
982.9107447611677
 31
0.0
  0
LINE
  5
7C7C
330
19
100
AcDbEntity
  8
1
100
AcDbLine
 10
1765.707444793935
 20
846.9607394630264
 30
0.0
 11
1885.707444793935
 21
846.9607394630266
 31
0.0
  0
LINE
  5
7C7F
330
19
100
AcDbEntity
  8
1
100
AcDbLine
 10
1889.707444793935
 20
894.9107447611678
 30
0.0
 11
1889.707444793935
 21
874.9107447611677
 31
0.0
  0
LINE
  5
7C80
330
19
100
AcDbEntity
  8
1
100
AcDbLine
 10
1885.707444793935
 20
871.910744761168
 30
0.0
 11
1889.707444793935
 21
871.9107447611676
 31
0.0
  0
LINE
  5
7C85
330
19
100
AcDbEntity
  8
1
100
AcDbLine
 10
1738.407444793934
 20
1046.460744761167
 30
0.0
 11
1763.407444793935
 21
1046.460744761167
 31
0.0
  0
POINT
  5
7C86
330
19
100
AcDbEntity
  8
1
100
AcDbPoint
 10
1825.707444793935
 20
1135.027377187199
 30
0.0
  0
LINE
  5
7C87
330
19
100
AcDbEntity
  8
1
100
AcDbLine
 10
1892.707444793934
 20
982.9107447611677
 30
0.0
 11
1892.707444793935
 21
894.9107447611678
 31
0.0
  0
ARC
  5
7C88
330
19
100
AcDbEntity
  8
1
100
AcDbCircle
 10
997.6310772739132
 20
912.9607394630252
 30
0.0
 40
85.000008
100
AcDbArc
 50
295.9177259999998
 51
359.9999999999998
  0
ARC
  5
7C89
330
19
100
AcDbEntity
  8
1
100
AcDbCircle
 10
997.6310772739132
 20
912.9607394630252
 30
0.0
 40
85.0
100
AcDbArc
 50
359.9999999999998
 51
244.1244659999998
  0
LINE
  5
7C8A
330
19
100
AcDbEntity
  8
1
100
AcDbLine
 10
960.5355782739129
 20
836.5098114630253
 30
0.0
 11
1034.782886273913
 21
836.5098114630249
 31
0.0
  0
LINE
  5
7C8B
330
19
100
AcDbEntity
  8
1
100
AcDbLine
 10
915.856479708149
 20
832.9607394630253
 30
0.0
 11
935.3079092739131
 21
855.1422354630254
 31
0.0
  0
LINE
  5
7C8C
330
19
100
AcDbEntity
  8
1
100
AcDbLine
 10
920.131077273913
 20
832.9607394630254
 30
0.0
 11
955.131077273913
 21
832.9607394630253
 31
0.0
  0
LINE
  5
7C8D
330
19
100
AcDbEntity
  8
1
100
AcDbLine
 10
1079.405585948507
 20
832.9607394630249
 30
0.0
 11
1059.952385273913
 21
855.144377463025
 31
0.0
  0
LINE
  5
7C8E
330
19
100
AcDbEntity
  8
1
100
AcDbLine
 10
1075.131077273913
 20
832.9607394630249
 30
0.0
 11
1040.131077273913
 21
832.9607394630249
 31
0.0
  0
LINE
  5
7C8F
330
19
100
AcDbEntity
  8
1
100
AcDbLine
 10
1100.131077273913
 20
832.9607394630247
 30
0.0
 11
997.6310772739129
 21
832.9607394630253
 31
0.0
  0
LINE
  5
7C90
330
19
100
AcDbEntity
  8
1
100
AcDbLine
 10
1100.131077273913
 20
832.9607394630247
 30
0.0
 11
1105.131077273912
 21
802.9607394630247
 31
0.0
  0
LINE
  5
7C91
330
19
100
AcDbEntity
  8
1
100
AcDbLine
 10
895.131077273913
 20
832.9607394630253
 30
0.0
 11
890.1310772739128
 21
802.9607394630252
 31
0.0
  0
LINE
  5
7C92
330
19
100
AcDbEntity
  8
1
100
AcDbLine
 10
997.6310772739129
 20
832.9607394630253
 30
0.0
 11
895.131077273913
 21
832.9607394630253
 31
0.0
  0
LINE
  5
7C93
330
19
100
AcDbEntity
  8
1
100
AcDbLine
 10
527.631077273918
 20
1984.066204540416
 30
0.0
 11
556.1310772739175
 21
1984.066204540415
 31
0.0
  0
LINE
  5
7C94
330
19
100
AcDbEntity
  8
1
100
AcDbLine
 10
527.6310772739167
 20
1604.066204540416
 30
0.0
 11
1107.631077273917
 21
1604.066204540412
 31
0.0
  0
DIMENSION
  5
7C99
330
19
100
AcDbEntity
  8
3
100
AcDbDimension
280
     0
  2
*D2
 10
671.6310772739143
 20
1197.803017680296
 30
0.0
 11
751.6310772739144
 21
1222.803017680295
 31
0.0
 12
163.0536923031213
 22
0.0
 32
0.0
 70
    32
 71
     5
 42
-1.0
 73
     0
 74
     0
 75
     0
  3
IGA
100
AcDbAlignedDimension
 13
831.6310772739141
 23
1122.960739463025
 33
0.0
 14
671.6310772739141
 24
1122.960739463026
 34
0.0
 50
179.9999999999998
100
AcDbRotatedDimension
1001
ACAD
1000
DSTYLE
1002
{
1070
    40
1040
10.0
1070
   143
1040
0.039
1070
   172
1070
     1
1070
   271
1070
     0
1070
   279
1070
     0
1070
   288
1070
     1
1002
}
  0
DIMENSION
  5
7C9A
330
19
100
AcDbEntity
  8
3
100
AcDbDimension
280
     0
  2
*D3
 10
677.6310772739146
 20
1253.676463388955
 30
0.0
 11
754.6310772739148
 21
1278.676463388955
 31
0.0
 12
163.0536923031213
 22
0.0
 32
0.0
 70
    32
 71
     5
 42
-1.0
 73
     0
 74
     0
 75
     0
  3
IGA
100
AcDbAlignedDimension
 13
831.6310772739141
 23
1122.960739463025
 33
0.0
 14
677.6310772739143
 24
1159.706983460367
 34
0.0
 50
179.9999999999998
100
AcDbRotatedDimension
1001
ACAD
1000
DSTYLE
1002
{
1070
    40
1040
10.0
1070
   143
1040
0.039
1070
   172
1070
     1
1070
   271
1070
     0
1070
   279
1070
     0
1070
   288
1070
     1
1002
}
  0
LINE
  5
7C9B
330
19
100
AcDbEntity
  8
1
100
AcDbLine
 10
527.6310772739131
 20
762.9607394630266
 30
0.0
 11
1107.631077273913
 21
762.9607394630245
 31
0.0
  0
LINE
  5
7C9C
330
19
100
AcDbEntity
  8
1
100
AcDbLine
 10
527.6310772739138
 20
802.9607394630266
 30
0.0
 11
1107.631077273913
 21
802.9607394630247
 31
0.0
  0
LINE
  5
7CAB
330
19
100
AcDbEntity
  8
1
100
AcDbLine
 10
1885.707444793934
 20
982.9107447611677
 30
0.0
 11
1885.707444793935
 21
846.910744761168
 31
0.0
  0
LINE
  5
7CAC
330
19
100
AcDbEntity
  8
1
100
AcDbLine
 10
1765.707444793934
 20
982.9107447611677
 30
0.0
 11
1765.707444793935
 21
802.9107447611677
 31
0.0
  0
LINE
  5
7CAF
330
19
100
AcDbEntity
  8
1
100
AcDbLine
 10
1909.707444793935
 20
1070.910744761168
 30
0.0
 11
1909.707444793935
 21
894.9107447611677
 31
0.0
  0
LINE
  5
7CB0
330
19
100
AcDbEntity
  8
1
100
AcDbLine
 10
1909.707444793935
 20
1070.910744761167
 30
0.0
 11
1908.007444793936
 21
1070.910744761167
 31
0.0
  0
ARC
  5
7CB1
330
19
100
AcDbEntity
  8
1
100
AcDbCircle
 10
1907.707444793935
 20
1071.910744761167
 30
0.0
 40
2.0
100
AcDbArc
 50
0.0
 51
90.0
  0
LINE
  5
7CB2
330
19
100
AcDbEntity
  8
1
100
AcDbLine
 10
1909.707444793935
 20
1071.910744761167
 30
0.0
 11
1909.707444793935
 21
1070.910744761167
 31
0.0
  0
LINE
  5
7CB3
330
19
100
AcDbEntity
  8
1
100
AcDbLine
 10
1892.707444793935
 20
876.9107447611679
 30
0.0
 11
1892.707444793935
 21
887.9107447611678
 31
0.0
  0
LINE
  5
7CB4
330
19
100
AcDbEntity
  8
1
100
AcDbLine
 10
1889.707444793935
 20
874.9107447611677
 30
0.0
 11
1889.707444793935
 21
894.9107447611678
 31
0.0
  0
LINE
  5
7CB5
330
19
100
AcDbEntity
  8
1
100
AcDbLine
 10
1896.707444793935
 20
891.9107447611677
 30
0.0
 11
1907.707444793935
 21
891.9107447611677
 31
0.0
  0
LINE
  5
7CB6
330
19
100
AcDbEntity
  8
1
100
AcDbLine
 10
1889.707444793935
 20
894.9107447611678
 30
0.0
 11
1909.707444793935
 21
894.9107447611678
 31
0.0
  0
ARC
  5
7CB7
330
19
100
AcDbEntity
  8
1
100
AcDbCircle
 10
1896.707444793935
 20
887.9107447611678
 30
0.0
 40
4.0
100
AcDbArc
 50
90.0
 51
180.0
  0
LINE
  5
7CB8
330
19
100
AcDbEntity
  8
1
100
AcDbLine
 10
1909.707444793935
 20
894.9107447611678
 30
0.0
 11
1909.707444793935
 21
893.9107447611679
 31
0.0
  0
ARC
  5
7CB9
330
19
100
AcDbEntity
  8
1
100
AcDbCircle
 10
1907.707444793935
 20
893.9107447611679
 30
0.0
 40
2.0
100
AcDbArc
 50
270.0
 51
0.0
  0
ARC
  5
7CBA
330
19
100
AcDbEntity
  8
1
100
AcDbCircle
 10
1890.707444793935
 20
876.9107447611679
 30
0.0
 40
2.0
100
AcDbArc
 50
270.0
 51
0.0
  0
LINE
  5
7CBB
330
19
100
AcDbEntity
  8
1
100
AcDbLine
 10
1890.707444793935
 20
874.9107447611679
 30
0.0
 11
1889.707444793935
 21
874.9107447611677
 31
0.0
  0
DIMENSION
  5
7CBC
330
19
100
AcDbEntity
  8
3
100
AcDbDimension
280
     0
  2
*D4
 10
1990.348108603471
 20
894.9107447611678
 30
0.0
 11
1965.348108603471
 21
982.9107447611677
 31
0.0
 70
    32
 71
     5
 42
-1.0
 73
     0
 74
     0
 75
     0
  3
IGA
100
AcDbAlignedDimension
 13
1909.707444793935
 23
1070.910744761167
 33
0.0
 14
1909.707444793935
 24
894.9107447611678
 34
0.0
 50
90.0
100
AcDbRotatedDimension
1001
ACAD
1000
DSTYLE
1002
{
1070
     3
1000
φ<>
1070
    40
1040
10.0
1070
   143
1040
0.039
1070
   172
1070
     1
1070
   271
1070
     0
1070
   279
1070
     0
1070
   288
1070
     1
1002
}
  0
DIMENSION
  5
7CBD
330
19
100
AcDbEntity
  8
3
100
AcDbDimension
280
     0
  2
*D5
 10
1885.707444793934
 20
1175.015631336553
 30
0.0
 11
1825.707444793934
 21
1200.966598990806
 31
0.0
 70
   160
 71
     5
 42
-1.0
 73
     0
 74
     0
 75
     0
  3
IGA
100
AcDbAlignedDimension
 13
1765.707444793934
 23
1116.946781979497
 33
0.0
 14
1885.707444793934
 24
1116.946781979497
 34
0.0
100
AcDbRotatedDimension
1001
ACAD
1000
DSTYLE
1002
{
1070
   288
1070
     1
1070
   172
1070
     1
1070
    40
1040
10.0
1070
   271
1070
     0
1070
   143
1040
0.039
1002
}
  0
DIMENSION
  5
7CBE
330
19
100
AcDbEntity
  8
3
100
AcDbDimension
280
     0
  2
*D6
 10
1825.707444793935
 20
1258.400228699145
 30
0.0
 11
1857.707444793935
 21
1283.549040226309
 31
0.0
 70
   160
 71
     5
 42
-1.0
 73
     0
 74
     0
 75
     0
  3
IGA
100
AcDbAlignedDimension
 13
1889.707444793935
 23
1093.910744761168
 33
0.0
 14
1825.707444793935
 24
1224.310671997804
 34
0.0
100
AcDbRotatedDimension
1001
ACAD
1000
DSTYLE
1002
{
1070
   288
1070
     1
1070
   172
1070
     1
1070
    40
1040
10.0
1070
   271
1070
     0
1070
   143
1040
0.039
1002
}
  0
DIMENSION
  5
7CBF
330
19
100
AcDbEntity
  8
3
100
AcDbDimension
280
     0
  2
*D7
 10
1409.962394398637
 20
1258.400228699145
 30
0.0
 11
1617.834919596286
 21
1316.257371556288
 31
0.0
 70
    32
  1
\P(500)
 71
     5
 42
415.7450503952977
 73
     0
 74
     0
 75
     0
  3
IGA
100
AcDbAlignedDimension
 13
1825.707444793935
 23
1224.310671997804
 33
0.0
 14
1409.962394398637
 24
1137.916709847287
 34
0.0
100
AcDbRotatedDimension
1001
ACAD
1000
DSTYLE
1002
{
1070
    40
1040
10.0
1070
   143
1040
0.039
1070
   172
1070
     1
1070
   271
1070
     0
1070
   279
1070
     0
1070
   288
1070
     1
1002
}
  0
LINE
  5
7CC0
330
19
100
AcDbEntity
  8
2
100
AcDbLine
 10
545.2696351220656
 20
2009.066204540416
 30
0.0
 11
862.5673362593587
 21
2009.066204540415
 31
0.0
  0
LINE
  5
7CC1
330
19
100
AcDbEntity
  8
1
100
AcDbLine
 10
831.6310772739184
 20
1947.569706913355
 30
0.0
 11
831.6310772739184
 21
2067.569706913356
 31
0.0
  0
LINE
  5
7CC2
330
19
100
AcDbEntity
  8
1
100
AcDbLine
 10
831.6310772739184
 20
1947.569706913355
 30
0.0
 11
831.6310772739182
 21
2067.569706913356
 31
0.0
  0
LINE
  5
7CC3
330
19
100
AcDbEntity
  8
1
100
AcDbLine
 10
556.1310772739179
 20
2067.569706913356
 30
0.0
 11
649.3310772739178
 21
2067.569706913356
 31
0.0
  0
LINE
  5
7CC4
330
19
100
AcDbEntity
  8
1
100
AcDbLine
 10
556.1310772739175
 20
1947.569706913357
 30
0.0
 11
649.3310772739173
 21
1947.569706913356
 31
0.0
  0
LINE
  5
7CC5
330
19
100
AcDbEntity
  8
1
100
AcDbLine
 10
851.6310772739187
 20
1927.569706913356
 30
0.0
 11
851.6310772739196
 21
2087.569706913356
 31
0.0
  0
LINE
  5
7CC6
330
19
100
AcDbEntity
  8
1
100
AcDbLine
 10
649.331077273918
 20
2087.569706913356
 30
0.0
 11
851.6310772739196
 21
2087.569706913356
 31
0.0
  0
LINE
  5
7CC7
330
19
100
AcDbEntity
  8
1
100
AcDbLine
 10
649.3310772739171
 20
1927.569706913359
 30
0.0
 11
851.6310772739187
 21
1927.569706913356
 31
0.0
  0
LINE
  5
7CC9
330
19
100
AcDbEntity
  8
1
100
AcDbLine
 10
632.6310772739166
 20
1614.32465651806
 30
0.0
 11
632.6310772739166
 21
1644.32465651806
 31
0.0
  0
LINE
  5
7CCA
330
19
100
AcDbEntity
  8
1
100
AcDbLine
 10
722.6310772739166
 20
1614.324656518059
 30
0.0
 11
722.6310772739166
 21
1644.32465651806
 31
0.0
  0
LINE
  5
7CCB
330
19
100
AcDbEntity
  8
1
100
AcDbLine
 10
941.6370423600355
 20
1644.324656518059
 30
0.0
 11
941.6370423600355
 21
1614.324656518059
 31
0.0
  0
LINE
  5
7CCC
330
19
100
AcDbEntity
  8
1
100
AcDbLine
 10
1051.637042360035
 20
1644.324656518059
 30
0.0
 11
1051.637042360035
 21
1614.324656518059
 31
0.0
  0
LINE
  5
7CCF
330
19
100
AcDbEntity
  8
1
100
AcDbLine
 10
1081.016765628333
 20
1591.82465651806
 30
0.0
 11
551.0167656283329
 21
1591.82465651806
 31
0.0
  0
LINE
  5
7CD0
330
19
100
AcDbEntity
  8
1
100
AcDbLine
 10
632.6310772739166
 20
1614.32465651806
 30
0.0
 11
722.6310772739168
 21
1614.324656518059
 31
0.0
  0
LINE
  5
7CD1
330
19
100
AcDbEntity
  8
1
100
AcDbLine
 10
1081.016765628333
 20
1666.824656518059
 30
0.0
 11
551.0167656283329
 21
1666.82465651806
 31
0.0
  0
LINE
  5
7CD2
330
19
100
AcDbEntity
  8
1
100
AcDbLine
 10
667.6310772739168
 20
1654.32465651806
 30
0.0
 11
667.6310772739165
 21
1927.569706913358
 31
0.0
  0
LINE
  5
7CD3
330
19
100
AcDbEntity
  8
1
100
AcDbLine
 10
687.6310772739168
 20
1654.32465651806
 30
0.0
 11
687.631077273917
 21
1927.569706913358
 31
0.0
  0
LINE
  5
7CD4
330
19
100
AcDbEntity
  8
1
100
AcDbLine
 10
667.6310772739168
 20
1654.32465651806
 30
0.0
 11
687.6310772739168
 21
1654.32465651806
 31
0.0
  0
LINE
  5
7CD5
330
19
100
AcDbEntity
  8
1
100
AcDbLine
 10
632.6310772739166
 20
1644.32465651806
 30
0.0
 11
722.6310772739168
 21
1644.324656518059
 31
0.0
  0
LINE
  5
7CD6
330
19
100
AcDbEntity
  8
1
100
AcDbLine
 10
687.1310772739168
 20
1644.32465651806
 30
0.0
 11
687.1310772739168
 21
1654.32465651806
 31
0.0
  0
LINE
  5
7CD7
330
19
100
AcDbEntity
  8
1
100
AcDbLine
 10
668.1310772739168
 20
1644.32465651806
 30
0.0
 11
668.1310772739168
 21
1654.32465651806
 31
0.0
  0
LINE
  5
7CD9
330
19
100
AcDbEntity
  8
1
100
AcDbLine
 10
572.6310772739161
 20
1678.766204540416
 30
0.0
 11
572.6310772739172
 21
1947.569706913357
 31
0.0
  0
LINE
  5
7CDA
330
19
100
AcDbEntity
  8
1
100
AcDbLine
 10
782.6310772739163
 20
1678.766204540415
 30
0.0
 11
782.631077273917
 21
1927.569706913356
 31
0.0
  0
LINE
  5
7CDB
330
19
100
AcDbEntity
  8
1
100
AcDbLine
 10
572.6310772739161
 20
1678.766204540416
 30
0.0
 11
667.6310772739171
 21
1678.766204540415
 31
0.0
  0
LINE
  5
7CDC
330
19
100
AcDbEntity
  8
1
100
AcDbLine
 10
687.631077273917
 20
1678.766204540415
 30
0.0
 11
782.6310772739163
 21
1678.766204540415
 31
0.0
  0
LINE
  5
7CDD
330
19
100
AcDbEntity
  8
1
100
AcDbLine
 10
912.6310772739167
 20
1676.069706913355
 30
0.0
 11
912.631077273917
 21
1904.069706913355
 31
0.0
  0
LINE
  5
7CDE
330
19
100
AcDbEntity
  8
1
100
AcDbLine
 10
1082.631085273916
 20
1676.069706913354
 30
0.0
 11
1082.631085273917
 21
1904.069706913355
 31
0.0
  0
LINE
  5
7CDF
330
19
100
AcDbEntity
  8
1
100
AcDbLine
 10
912.631077273917
 20
1904.069706913355
 30
0.0
 11
1082.631085273917
 21
1904.069706913355
 31
0.0
  0
LINE
  5
7CE0
330
19
100
AcDbEntity
  8
1
100
AcDbLine
 10
912.6310772739161
 20
1676.069706913355
 30
0.0
 11
1082.631085273916
 21
1676.069706913354
 31
0.0
  0
LINE
  5
7CE1
330
19
100
AcDbEntity
  8
1
100
AcDbLine
 10
988.1310772739171
 20
1644.32465651806
 30
0.0
 11
988.1310772739171
 21
1676.069706913355
 31
0.0
  0
LINE
  5
7CE2
330
19
100
AcDbEntity
  8
1
100
AcDbLine
 10
1007.131077273917
 20
1644.32465651806
 30
0.0
 11
1007.131077273917
 21
1676.069706913355
 31
0.0
  0
LINE
  5
7CE3
330
19
100
AcDbEntity
  8
1
100
AcDbLine
 10
1067.631077273918
 20
1904.069706913355
 30
0.0
 11
1067.631077273918
 21
1984.066204540414
 31
0.0
  0
LINE
  5
7CE9
330
19
100
AcDbEntity
  8
1
100
AcDbLine
 10
941.6370423600358
 20
1644.32465651806
 30
0.0
 11
1051.637042360035
 21
1644.32465651806
 31
0.0
  0
LINE
  5
7CEA
330
19
100
AcDbEntity
  8
1
100
AcDbLine
 10
941.6370423600358
 20
1614.324656518059
 30
0.0
 11
1051.637042360035
 21
1614.324656518059
 31
0.0
  0
DIMENSION
  5
7CEB
330
19
100
AcDbEntity
  8
3
100
AcDbDimension
280
     0
  2
*D8
 10
415.7352861572051
 20
1604.066204540416
 30
0.0
 11
390.7352861572051
 21
1794.066204540416
 31
0.0
 12
163.0536923031213
 22
0.0
 32
0.0
 70
    32
 71
     5
 42
-1.0
 73
     0
 74
     0
 75
     0
  3
IGA
100
AcDbAlignedDimension
 13
527.631077273918
 23
1984.066204540416
 33
0.0
 14
527.6310772739167
 24
1604.066204540416
 34
0.0
 50
269.9999999999998
100
AcDbRotatedDimension
1001
ACAD
1000
DSTYLE
1002
{
1070
    40
1040
10.0
1070
   143
1040
0.039
1070
   172
1070
     1
1070
   271
1070
     0
1070
   279
1070
     0
1070
   288
1070
     1
1002
}
  0
DIMENSION
  5
7CEC
330
19
100
AcDbEntity
  8
3
100
AcDbDimension
280
     0
  2
*D9
 10
527.631077273918
 20
2134.732972129466
 30
0.0
 11
812.1500191684772
 21
2134.732972129466
 31
0.0
 12
163.0536923031213
 22
0.0
 32
0.0
 70
   160
 71
     5
 42
-1.0
 73
     0
 74
     0
 75
     0
  3
IGA
100
AcDbAlignedDimension
 13
1107.631077273917
 23
1984.066204540414
 33
0.0
 14
527.631077273918
 24
1984.066204540416
 34
0.0
 50
359.9999999999998
100
AcDbRotatedDimension
1001
ACAD
1000
DSTYLE
1002
{
1070
    40
1040
10.0
1070
   143
1040
0.039
1070
   172
1070
     1
1070
   271
1070
     0
1070
   279
1070
     0
1070
   288
1070
     1
1002
}
  0
LINE
  5
7CED
330
19
100
AcDbEntity
  8
1
100
AcDbLine
 10
1420.707444793934
 20
762.9107447611677
 30
0.0
 11
1420.707444793934
 21
802.9107447611677
 31
0.0
  0
LINE
  5
7CEE
330
19
100
AcDbEntity
  8
1
100
AcDbLine
 10
1800.707444793935
 20
762.9107447611677
 30
0.0
 11
1800.707444793934
 21
802.9107447611675
 31
0.0
  0
LINE
  5
7CEF
330
19
100
AcDbEntity
  8
1
100
AcDbLine
 10
1494.207444793932
 20
997.9167178472868
 30
0.0
 11
1722.207444793932
 21
997.9167178472865
 31
0.0
  0
LINE
  5
7CF0
330
19
100
AcDbEntity
  8
1
100
AcDbLine
 10
1494.207444793932
 20
827.916709847287
 30
0.0
 11
1722.207444793932
 21
827.916709847287
 31
0.0
  0
LINE
  5
7CF1
330
19
100
AcDbEntity
  8
1
100
AcDbLine
 10
1494.207444793932
 20
827.9167098472864
 30
0.0
 11
1494.207444793932
 21
997.916717847287
 31
0.0
  0
LINE
  5
7CF2
330
19
100
AcDbEntity
  8
1
100
AcDbLine
 10
1462.462394398637
 20
903.4167098472874
 30
0.0
 11
1494.207444793932
 21
903.4167098472874
 31
0.0
  0
LINE
  5
7CF3
330
19
100
AcDbEntity
  8
1
100
AcDbLine
 10
1462.462394398637
 20
922.4167098472873
 30
0.0
 11
1494.207444793932
 21
922.4167098472873
 31
0.0
  0
LINE
  5
7CF4
330
19
100
AcDbEntity
  8
1
100
AcDbLine
 10
1722.207444793932
 20
827.916709847287
 30
0.0
 11
1722.207444793933
 21
997.9167178472865
 31
0.0
  0
DIMENSION
  5
7CF5
330
19
100
AcDbEntity
  8
3
100
AcDbDimension
280
     0
  2
*D10
 10
406.2756779247381
 20
762.9607394630266
 30
0.0
 11
381.2756779247381
 21
872.9607394630267
 31
0.0
 12
163.0536923031213
 22
0.0
 32
0.0
 70
    32
 71
     5
 42
-1.0
 73
     0
 74
     0
 75
     0
  3
IGA
100
AcDbAlignedDimension
 13
500.8848332765722
 23
982.9607394630269
 33
0.0
 14
527.6310772739131
 24
762.9607394630266
 34
0.0
 50
269.9999999999998
100
AcDbRotatedDimension
1001
ACAD
1000
DSTYLE
1002
{
1070
    40
1040
10.0
1070
   143
1040
0.039
1070
   172
1070
     1
1070
   271
1070
     0
1070
   279
1070
     0
1070
   288
1070
     1
1002
}
  0
DIMENSION
  5
7CF6
330
19
100
AcDbEntity
  8
3
100
AcDbDimension
280
     0
  2
*D11
 10
406.2756779247397
 20
1142.960739463026
 30
0.0
 11
381.2756779247397
 21
1062.960739463026
 31
0.0
 12
163.0536923031213
 22
0.0
 32
0.0
 70
    32
 71
     5
 42
-1.0
 73
     0
 74
     0
 75
     0
  3
IGA
100
AcDbAlignedDimension
 13
500.8848332765722
 23
982.9607394630269
 33
0.0
 14
649.3310772739142
 24
1142.960739463026
 34
0.0
 50
269.9999999999998
100
AcDbRotatedDimension
1001
ACAD
1000
DSTYLE
1002
{
1070
    40
1040
10.0
1070
   143
1040
0.039
1070
   172
1070
     1
1070
   271
1070
     0
1070
   279
1070
     0
1070
   288
1070
     1
1002
}
  0
DIMENSION
  5
7CF7
330
19
100
AcDbEntity
  8
3
100
AcDbDimension
280
     0
  2
*D12
 10
556.1310772739136
 20
1253.676463388956
 30
0.0
 11
616.8810772739139
 21
1278.676463388956
 31
0.0
 12
163.0536923031213
 22
0.0
 32
0.0
 70
    32
  1
121
 71
     5
 42
-1.0
 73
     0
 74
     0
 75
     0
  3
IGA
100
AcDbAlignedDimension
 13
677.6310772739143
 23
1159.706983460367
 33
0.0
 14
556.1310772739136
 24
975.4607394630266
 34
0.0
 50
359.9999999999998
100
AcDbRotatedDimension
1001
ACAD
1000
DSTYLE
1002
{
1070
    40
1040
10.0
1070
   143
1040
0.039
1070
   172
1070
     1
1070
   271
1070
     0
1070
   279
1070
     0
1070
   288
1070
     1
1002
}
  0
DIMENSION
  5
7CF9
330
19
100
AcDbEntity
  8
3
100
AcDbDimension
280
     0
  2
*D13
 10
1107.631077273913
 20
1308.408664222387
 30
0.0
 11
831.881077273913
 21
1333.408664222387
 31
0.0
 12
163.0536923031213
 22
0.0
 32
0.0
 70
    32
  1
551
 71
     5
 42
-1.0
 73
     0
 74
     0
 75
     0
  3
IGA
100
AcDbAlignedDimension
 13
556.1310772739131
 23
975.4607394630266
 33
0.0
 14
1107.631077273913
 24
802.9607394630247
 34
0.0
 50
359.9999999999998
100
AcDbRotatedDimension
1001
ACAD
1000
DSTYLE
1002
{
1070
    40
1040
10.0
1070
   143
1040
0.039
1070
   172
1070
     1
1070
   271
1070
     0
1070
   279
1070
     0
1070
   288
1070
     1
1002
}
  0
LINE
  5
7CFA
330
19
100
AcDbEntity
  8
1
100
AcDbLine
 10
1745.707444793934
 20
1142.960739463026
 30
0.0
 11
1905.707444793934
 21
1142.960739463026
 31
0.0
  0
LINE
  5
7CFB
330
19
100
AcDbEntity
  8
1
100
AcDbLine
 10
1745.707444793934
 20
1122.960739463026
 30
0.0
 11
1905.707444793934
 21
1122.960739463026
 31
0.0
  0
LINE
  5
7CFC
330
19
100
AcDbEntity
  8
1
100
AcDbLine
 10
1745.707444793934
 20
1142.960739463026
 30
0.0
 11
1745.707444793934
 21
1122.960739463026
 31
0.0
  0
LINE
  5
7CFD
330
19
100
AcDbEntity
  8
1
100
AcDbLine
 10
1905.707444793934
 20
1142.960739463026
 30
0.0
 11
1905.707444793934
 21
1122.960739463026
 31
0.0
  0
LINE
  5
7CFE
330
19
100
AcDbEntity
  8
1
100
AcDbLine
 10
1889.707444793935
 20
1070.910744761167
 30
0.0
 11
1909.707444793935
 21
1070.910744761167
 31
0.0
  0
LINE
  5
7CFF
330
19
100
AcDbEntity
  8
1
100
AcDbLine
 10
1896.707444793935
 20
1073.910744761167
 30
0.0
 11
1907.707444793935
 21
1073.910744761167
 31
0.0
  0
LINE
  5
7D00
330
19
100
AcDbEntity
  8
1
100
AcDbLine
 10
1909.707444793935
 20
1070.910744761167
 30
0.0
 11
1889.707444793935
 21
1070.910744761167
 31
0.0
  0
LINE
  5
7D01
330
19
100
AcDbEntity
  8
1
100
AcDbLine
 10
1889.707444793936
 20
982.9107447611677
 30
0.0
 11
1889.707444793935
 21
1093.910744761168
 31
0.0
  0
LINE
  5
7D02
330
19
100
AcDbEntity
  8
1
100
AcDbLine
 10
1892.707444793934
 20
982.9107447611677
 30
0.0
 11
1892.707444793935
 21
1070.910744761167
 31
0.0
  0
LINE
  5
7D03
330
19
100
AcDbEntity
  8
1
100
AcDbLine
 10
1890.707444793935
 20
1090.910744761168
 30
0.0
 11
1889.707444793935
 21
1090.910744761168
 31
0.0
  0
ARC
  5
7D04
330
19
100
AcDbEntity
  8
1
100
AcDbCircle
 10
1890.707444793935
 20
1088.910744761167
 30
0.0
 40
2.0
100
AcDbArc
 50
0.0
 51
90.0
  0
ARC
  5
7D05
330
19
100
AcDbEntity
  8
1
100
AcDbCircle
 10
1896.707444793935
 20
1077.910744761167
 30
0.0
 40
4.0
100
AcDbArc
 50
180.0
 51
270.0
  0
LINE
  5
7D06
330
19
100
AcDbEntity
  8
1
100
AcDbLine
 10
1889.707444793935
 20
1090.910744761168
 30
0.0
 11
1889.707444793935
 21
1070.910744761167
 31
0.0
  0
LINE
  5
7D07
330
19
100
AcDbEntity
  8
1
100
AcDbLine
 10
1892.707444793935
 20
1088.910744761167
 30
0.0
 11
1892.707444793935
 21
1077.910744761167
 31
0.0
  0
LINE
  5
7D08
330
19
100
AcDbEntity
  8
1
100
AcDbLine
 10
1885.707444793934
 20
1093.910744761167
 30
0.0
 11
1889.707444793935
 21
1093.910744761168
 31
0.0
  0
LINE
  5
7D09
330
19
100
AcDbEntity
  8
1
100
AcDbLine
 10
1889.707444793935
 20
1070.910744761167
 30
0.0
 11
1889.707444793935
 21
1090.910744761168
 31
0.0
  0
LINE
  5
7D0A
330
19
100
AcDbEntity
  8
1
100
AcDbLine
 10
1909.707444793935
 20
894.9107447611677
 30
0.0
 11
1909.707444793935
 21
1070.910744761168
 31
0.0
  0
ARC
  5
7D0B
330
19
100
AcDbEntity
  8
1
100
AcDbCircle
 10
1907.707444793935
 20
1071.910744761167
 30
0.0
 40
2.0
100
AcDbArc
 50
0.0
 51
90.0
  0
LINE
  5
7D0C
330
19
100
AcDbEntity
  8
1
100
AcDbLine
 10
1909.707444793935
 20
1070.910744761167
 30
0.0
 11
1909.707444793935
 21
1071.910744761167
 31
0.0
  0
LINE
  5
7D0D
330
19
100
AcDbEntity
  8
1
100
AcDbLine
 10
556.1310772739175
 20
1947.569706913357
 30
0.0
 11
556.1310772739177
 21
2067.569706913356
 31
0.0
  0
LINE
  5
7D0E
330
19
100
AcDbEntity
  8
1
100
AcDbLine
 10
671.6310772739186
 20
1947.569706913356
 30
0.0
 11
671.6310772739186
 21
2067.569706913356
 31
0.0
  0
LINE
  5
7D0F
330
19
100
AcDbEntity
  8
1
100
AcDbLine
 10
649.3310772739173
 20
1927.569706913359
 30
0.0
 11
649.331077273918
 21
2087.569706913358
 31
0.0
  0
LINE
  5
7D10
330
19
100
AcDbEntity
  8
1
100
AcDbLine
 10
671.6310772739186
 20
1947.569706913356
 30
0.0
 11
831.631077273918
 21
1947.569706913355
 31
0.0
  0
LINE
  5
7D11
330
19
100
AcDbEntity
  8
1
100
AcDbLine
 10
671.6310772739186
 20
2067.569706913356
 30
0.0
 11
831.6310772739182
 21
2067.569706913356
 31
0.0
  0
LINE
  5
7D12
330
19
100
AcDbEntity
  8
1
100
AcDbLine
 10
671.6310772739186
 20
2067.569706913356
 30
0.0
 11
831.6310772739184
 21
1947.569706913355
 31
0.0
  0
LINE
  5
7D13
330
19
100
AcDbEntity
  8
1
100
AcDbLine
 10
831.6310772739182
 20
2067.569706913356
 30
0.0
 11
671.6310772739186
 21
1947.569706913356
 31
0.0
  0
LINE
  5
7D14
330
19
100
AcDbEntity
  8
1
100
AcDbLine
 10
1722.207444793933
 20
992.9107447611675
 30
0.0
 11
1738.407444793934
 21
992.9107447611674
 31
0.0
  0
LINE
  5
7D15
330
19
100
AcDbEntity
  8
1
100
AcDbLine
 10
1722.207444793933
 20
972.9107447611678
 30
0.0
 11
1738.407444793934
 21
972.9107447611676
 31
0.0
  0
LINE
  5
7D16
330
19
100
AcDbEntity
  8
1
100
AcDbLine
 10
1722.207444793932
 20
946.4107447611677
 30
0.0
 11
1738.407444793935
 21
946.4107447611677
 31
0.0
  0
LINE
  5
7D17
330
19
100
AcDbEntity
  8
1
100
AcDbLine
 10
1722.207444793932
 20
944.1107447611676
 30
0.0
 11
1738.407444793935
 21
944.1107447611676
 31
0.0
  0
LINE
  5
7D18
330
19
100
AcDbEntity
  8
1
100
AcDbLine
 10
1525.769773327064
 20
827.916709847287
 30
0.0
 11
1525.769773327064
 21
802.9107447611675
 31
0.0
  0
LINE
  5
7D19
330
19
100
AcDbEntity
  8
1
100
AcDbLine
 10
1697.201420823011
 20
827.916709847287
 30
0.0
 11
1697.201420823011
 21
802.9107447611675
 31
0.0
  0
LINE
  5
7D1A
330
19
100
AcDbEntity
  8
1
100
AcDbLine
 10
1738.407444793935
 20
826.4607447611675
 30
0.0
 11
1765.707444793935
 21
826.4607447611675
 31
0.0
  0
LINE
  5
7D1B
330
19
100
AcDbEntity
  8
1
100
AcDbLine
 10
1738.407444793934
 20
1046.460744761167
 30
0.0
 11
1738.407444793935
 21
826.4607447611675
 31
0.0
  0
LINE
  5
7EFB
330
19
100
AcDbEntity
  8
4
100
AcDbLine
 10
1850.0
 20
500.0
 30
0.0
 11
1850.0
 21
300.0
 31
0.0
  0
LINE
  5
7EFC
330
19
100
AcDbEntity
  8
4
100
AcDbLine
 10
1150.0
 20
500.0
 30
0.0
 11
1150.0
 21
300.0
 31
0.0
  0
LINE
  5
7EFD
330
19
100
AcDbEntity
  8
4
100
AcDbLine
 10
650.0
 20
500.0
 30
0.0
 11
650.0
 21
300.0
 31
0.0
  0
LINE
  5
7F00
330
19
100
AcDbEntity
  8
4
100
AcDbLine
 10
650.0
 20
300.0
 30
0.0
 11
1850.0
 21
300.0
 31
0.0
  0
LINE
  5
7F01
330
19
100
AcDbEntity
  8
4
100
AcDbLine
 10
650.0
 20
400.0
 30
0.0
 11
1850.0
 21
400.0
 31
0.0
  0
TEXT
  5
7F02
330
19
100
AcDbEntity
  8
4
100
AcDbText
 10
688.5020808469016
 20
431.5430258666128
 30
0.0
 40
50.0
  1
機器名称
100
AcDbText
  0
TEXT
  5
7F03
330
19
100
AcDbEntity
  8
4
100
AcDbText
 10
686.2581060247975
 20
321.645156732011
 30
0.0
 40
50.0
  1
機器型番
100
AcDbText
  0
TEXT
  5
7F04
330
19
100
AcDbEntity
  8
4
100
AcDbText
 10
1177.678745487665
 20
422.5717689575685
 30
0.0
 40
50.0
  1
ミツヤ多翼送風機
100
AcDbText
  0
TEXT
  5
7F05
330
19
100
AcDbEntity
  8
4
100
AcDbText
 10
1186.65449558548
 20
317.1595842799434
 30
0.0
 40
50.0
  1
MF#1-1
100
AcDbText
  0
TEXT
  5
7F07
330
19
100
AcDbEntity
  8
4
100
AcDbText
 10
742.0541109290006
 20
2383.428841332516
 30
0.0
 40
53.99999999999999
  1
床置防振ベット
100
AcDbText
  0
TEXT
  5
7F08
330
19
100
AcDbEntity
  8
4
100
AcDbText
 10
316.1675933294464
 20
2533.880976199298
 30
0.0
 40
72.0
  1
遠心式片吸込片持多翼ファン
100
AcDbText
  0
LINE
  5
7F09
330
19
100
AcDbEntity
  8
4
100
AcDbLine
 10
250.0
 20
2469.408754264805
 30
0.0
 11
1850.0
 21
2469.408754264805
 31
0.0
  0
LINE
  5
7F0A
330
19
100
AcDbEntity
  8
4
100
AcDbLine
 10
250.0
 20
2669.408754264805
 30
0.0
 11
1850.0
 21
2669.408754264805
 31
0.0
  0
LINE
  5
7F0B
330
19
100
AcDbEntity
  8
4
100
AcDbLine
 10
650.0
 20
500.0
 30
0.0
 11
1850.0
 21
500.0
 31
0.0
  0
LINE
  5
7F0C
330
19
100
AcDbEntity
  8
4
100
AcDbLine
 10
250.0
 20
2669.408754264805
 30
0.0
 11
250.0
 21
2469.408754264805
 31
0.0
  0
TEXT
  5
7F0D
330
19
100
AcDbEntity
  8
4
100
AcDbText
 10
306.1952786862985
 20
2382.319477546344
 30
0.0
 40
53.99999999999999
  1
左回転上向
100
AcDbText
  0
TEXT
  5
7F0E
330
19
100
AcDbEntity
  8
4
100
AcDbText
 10
1468.96955924929
 20
2706.061081495309
 30
0.0
 40
56.00000000000001
  1
No.
100
AcDbText
  0
TEXT
  5
7F0F
330
19
100
AcDbEntity
  8
4
100
AcDbText
 10
1311.296062600013
 20
2383.428841332516
 30
0.0
 40
53.99999999999999
  1
縮尺：1/10
100
AcDbText
  0
LINE
  5
7F10
330
19
100
AcDbEntity
  8
4
100
AcDbLine
 10
1850.0
 20
2669.408754264805
 30
0.0
 11
1850.0
 21
2469.408754264805
 31
0.0
  0
LINE
  5
7F11
330
19
100
AcDbEntity
  8
4
100
AcDbLine
 10
2100.0
 20
2950.0
 30
0.0
 11
2100.0
 21
2950.0
 31
0.0
  0
LINE
  5
7F12
330
19
100
AcDbEntity
  8
4
100
AcDbLine
 10
1440.617422359864
 20
2681.263583125401
 30
0.0
 11
1440.617422359864
 21
2786.652261549753
 31
0.0
  0
LINE
  5
7F13
330
19
100
AcDbEntity
  8
4
100
AcDbLine
 10
1440.617422359864
 20
2786.652261549753
 30
0.0
 11
1850.0
 21
2786.652261549753
 31
0.0
  0
LINE
  5
7F14
330
19
100
AcDbEntity
  8
4
100
AcDbLine
 10
1850.0
 20
2786.652261549753
 30
0.0
 11
1850.0
 21
2681.263583125401
 31
0.0
  0
LINE
  5
7F15
330
19
100
AcDbEntity
  8
4
100
AcDbLine
 10
1850.0
 20
2681.263583125401
 30
0.0
 11
1440.617422359864
 21
2681.263583125401
 31
0.0
  0
LINE
  5
7F16
330
19
100
AcDbEntity
  8
4
100
AcDbLine
 10
0.0
 20
0.0
 30
0.0
 11
0.0
 21
2950.0
 31
0.0
  0
LINE
  5
7F17
330
19
100
AcDbEntity
  8
4
100
AcDbLine
 10
0.0
 20
2950.0
 30
0.0
 11
2100.0
 21
2950.0
 31
0.0
  0
LINE
  5
7F18
330
19
100
AcDbEntity
  8
4
100
AcDbLine
 10
2100.0
 20
2950.0
 30
0.0
 11
2100.0
 21
0.0
 31
0.0
  0
LINE
  5
7F19
330
19
100
AcDbEntity
  8
4
100
AcDbLine
 10
2100.0
 20
0.0
 30
0.0
 11
0.0
 21
0.0
 31
0.0
  0
LINE
  5
80EA
330
19
100
AcDbEntity
  8
1
100
AcDbLine
 10
1484.962394398637
 20
1091.768203377039
 30
0.0
 11
1484.962394398637
 21
1137.916709847287
 31
0.0
  0
LINE
  5
80EF
330
19
100
AcDbEntity
  8
1
100
AcDbLine
 10
1081.016765628333
 20
1591.82465651806
 30
0.0
 11
1081.016765628333
 21
1666.824656518059
 31
0.0
  0
LINE
  5
80F0
330
19
100
AcDbEntity
  8
1
100
AcDbLine
 10
551.0167656283329
 20
1591.82465651806
 30
0.0
 11
551.0167656283329
 21
1666.82465651806
 31
0.0
  0
LINE
  5
816C
330
19
100
AcDbEntity
  8
1
100
AcDbLine
 10
567.6310772739168
 20
1644.066204540416
 30
0.0
 11
1067.631077273917
 21
1644.066204540413
 31
0.0
  0
LINE
  5
816F
330
19
100
AcDbEntity
  8
1
100
AcDbLine
 10
567.631077273918
 20
1944.066204540416
 30
0.0
 11
572.6310772739172
 21
1944.066204540416
 31
0.0
  0
LINE
  5
8170
330
19
100
AcDbEntity
  8
1
100
AcDbLine
 10
851.6310772739187
 20
1944.066204540416
 30
0.0
 11
1067.631077273918
 21
1944.066204540416
 31
0.0
  0
LINE
  5
8171
330
19
100
AcDbEntity
  8
1
100
AcDbLine
 10
851.6310772739188
 20
1984.066204540416
 30
0.0
 11
1107.631077273918
 21
1984.066204540416
 31
0.0
  0
DIMENSION
  5
8206
330
19
100
AcDbEntity
  8
3
100
AcDbDimension
280
     0
  2
*D15
 10
677.6310772739127
 20
581.3739556249881
 30
0.0
 11
602.631077273913
 21
606.3739556249881
 31
0.0
 70
    32
 71
     5
 42
149.9999999999995
 73
     0
 74
     0
 75
     0
  3
IGA
100
AcDbAlignedDimension
 13
527.6310772739131
 23
652.9607394630263
 33
0.0
 14
677.6310772739127
 24
652.9607394630259
 34
0.0
100
AcDbRotatedDimension
1001
ACAD
1000
DSTYLE
1002
{
1070
    40
1040
10.0
1070
   143
1040
0.039
1070
   172
1070
     1
1070
   271
1070
     0
1070
   279
1070
     0
1002
}
  0
DIMENSION
  5
8213
330
19
100
AcDbEntity
  8
3
100
AcDbDimension
280
     0
  2
*D16
 10
1107.631077273913
 20
581.3739556249881
 30
0.0
 11
892.6310772739128
 21
606.3739556249881
 31
0.0
 70
    32
 71
     5
 42
430.0000000000002
 73
     0
 74
     0
 75
     0
  3
IGA
100
AcDbAlignedDimension
 13
677.6310772739127
 23
652.9607394630259
 33
0.0
 14
1107.631077273913
 24
652.9607394630243
 34
0.0
100
AcDbRotatedDimension
1001
ACAD
1000
DSTYLE
1002
{
1070
    40
1040
10.0
1070
   143
1040
0.039
1070
   172
1070
     1
1070
   271
1070
     0
1070
   279
1070
     0
1002
}
  0
DIMENSION
  5
8220
330
19
100
AcDbEntity
  8
3
100
AcDbDimension
280
     0
  2
*D17
 10
1800.707444793935
 20
581.3739556249881
 30
0.0
 11
1610.707444793934
 21
606.3739556249881
 31
0.0
 70
    32
 71
     5
 42
380.0000000000005
 73
     0
 74
     0
 75
     0
  3
IGA
100
AcDbAlignedDimension
 13
1420.707444793934
 23
652.9107447611676
 33
0.0
 14
1800.707444793935
 24
652.9107447611673
 34
0.0
100
AcDbRotatedDimension
1001
ACAD
1000
DSTYLE
1002
{
1070
    40
1040
10.0
1070
   143
1040
0.039
1070
   172
1070
     1
1070
   271
1070
     0
1070
   279
1070
     0
1002
}
  0
DIMENSION
  5
822F
330
19
100
AcDbEntity
  8
3
100
AcDbDimension
280
     0
  2
*D18
 10
1825.707444793934
 20
581.3739556249881
 30
0.0
 11
1899.993159079648
 21
606.3739556249881
 31
0.0
 70
    32
 71
     5
 42
24.99999999999909
 73
     0
 74
     0
 75
     0
  3
IGA
100
AcDbAlignedDimension
 13
1800.707444793935
 23
652.9107447611675
 33
0.0
 14
1825.707444793934
 24
652.9107447611672
 34
0.0
100
AcDbRotatedDimension
1001
ACAD
1000
DSTYLE
1002
{
1070
    40
1040
10.0
1070
   143
1040
0.039
1070
   172
1070
     1
1070
   271
1070
     0
1070
   279
1070
     0
1002
}
  0
LINE
  5
8243
330
19
100
AcDbEntity
  8
1
100
AcDbLine
 10
1420.707444793934
 20
652.9107447611676
 30
0.0
 11
1800.707444793935
 21
652.9107447611673
 31
0.0
  0
LINE
  5
8244
330
19
100
AcDbEntity
  8
1
100
AcDbLine
 10
1420.707444793934
 20
692.9107447611676
 30
0.0
 11
1800.707444793934
 21
692.9107447611674
 31
0.0
  0
LINE
  5
8245
330
19
100
AcDbEntity
  8
1
100
AcDbLine
 10
1800.707444793935
 20
652.9107447611675
 30
0.0
 11
1800.707444793934
 21
692.9107447611673
 31
0.0
  0
LINE
  5
8246
330
19
100
AcDbEntity
  8
1
100
AcDbLine
 10
1420.707444793934
 20
652.9107447611675
 30
0.0
 11
1420.707444793934
 21
692.9107447611674
 31
0.0
  0
LINE
  5
8247
330
19
100
AcDbEntity
  8
1
100
AcDbLine
 10
527.6310772739131
 20
652.9607394630263
 30
0.0
 11
1107.631077273913
 21
652.9607394630243
 31
0.0
  0
LINE
  5
8248
330
19
100
AcDbEntity
  8
1
100
AcDbLine
 10
1107.631077273913
 20
692.9607394630245
 30
0.0
 11
1107.631077273913
 21
652.9167098472854
 31
0.0
  0
LINE
  5
8249
330
19
100
AcDbEntity
  8
1
100
AcDbLine
 10
527.6310772739138
 20
692.9607394630263
 30
0.0
 11
1107.631077273913
 21
692.9607394630245
 31
0.0
  0
LINE
  5
824A
330
19
100
AcDbEntity
  8
1
100
AcDbLine
 10
527.6310772739134
 20
692.9607394630263
 30
0.0
 11
527.6310772739131
 21
652.9167098472869
 31
0.0
  0
DIMENSION
  5
8259
330
19
100
AcDbEntity
  8
3
100
AcDbDimension
280
     0
  2
*D19
 10
405.5858373764167
 20
652.9607394630263
 30
0.0
 11
380.5858373764166
 21
578.6750251773121
 31
0.0
 70
    32
 71
     5
 42
40.0
 73
     0
 74
     0
 75
     0
  3
IGA
100
AcDbAlignedDimension
 13
527.6310772739138
 23
692.9607394630263
 33
0.0
 14
527.6310772739131
 24
652.9607394630263
 34
0.0
 50
90.0
100
AcDbRotatedDimension
1001
ACAD
1000
DSTYLE
1002
{
1070
    40
1040
10.0
1070
   143
1040
0.039
1070
   172
1070
     1
1070
   271
1070
     0
1070
   279
1070
     0
1070
   343
1005
8093
1002
}
  0
DIMENSION
  5
8284
330
19
100
AcDbEntity
  8
3
100
AcDbDimension
280
     0
  2
*D20
 10
405.7893934767544
 20
762.9167098472871
 30
0.0
 11
372.9724702313724
 21
724.5103594849097
 31
0.0
 70
   160
 71
     5
 42
69.95597038426081
 73
     0
 74
     0
 75
     0
  3
IGA
100
AcDbAlignedDimension
 13
527.6310772739138
 23
692.9607394630263
 33
0.0
 14
527.6310772739131
 24
762.9167098472871
 34
0.0
 50
90.0
100
AcDbRotatedDimension
1001
ACAD
1000
DSTYLE
1002
{
1070
     3
1000
(<>)
1070
    40
1040
10.0
1070
   143
1040
0.039
1070
   172
1070
     1
1070
   271
1070
     0
1070
   343
1005
8093
1002
}
  0
DIMENSION
  5
8291
330
19
100
AcDbEntity
  8
3
100
AcDbDimension
280
     0
  2
*D21
 10
315.5626145583137
 20
652.9607394630263
 30
0.0
 11
282.7054717011708
 21
897.9607394630265
 31
0.0
 70
    32
 71
     5
 42
490.0000000000001
 73
     0
 74
     0
 75
     0
  3
IGA
100
AcDbAlignedDimension
 13
649.3310772739142
 23
1142.960739463026
 33
0.0
 14
527.6310772739131
 24
652.9607394630263
 34
0.0
 50
90.0
100
AcDbRotatedDimension
1001
ACAD
1000
DSTYLE
1002
{
1070
   172
1070
     1
1070
    40
1040
10.0
1070
     3
1000
(<>)
1070
   271
1070
     0
1070
   143
1040
0.039
1002
}
  0
ENDSEC
  0
SECTION
  2
OBJECTS
  0
DICTIONARY
  5
C
330
0
100
AcDbDictionary
281
     1
  3
ACAD_CIP_PREVIOUS_PRODUCT_INFO
350
82F3
  3
ACAD_COLOR
350
82D6
  3
ACAD_DETAILVIEWSTYLE
350
82EF
  3
ACAD_GROUP
350
D
  3
ACAD_LAYOUT
350
8296
  3
ACAD_MATERIAL
350
82A4
  3
ACAD_MLEADERSTYLE
350
82EB
  3
ACAD_MLINESTYLE
350
E
  3
ACAD_PLOTSETTINGS
350
8297
  3
ACAD_PLOTSTYLENAME
350
8294
  3
ACAD_SCALELIST
350
82D9
  3
ACAD_SECTIONVIEWSTYLE
350
82ED
  3
ACAD_TABLESTYLE
350
82D7
  3
ACAD_VISUALSTYLE
350
82BD
  3
ACDB_RECOMPOSE_DATA
350
83B9
  3
AcDbVariableDictionary
350
8353
  0
DICTIONARY
  5
8347
330
2
100
AcDbDictionary
280
     1
281
     1
  3
ACAD_LAYERSTATES
360
8348
  0
DICTIONARY
  5
833A
330
F
100
AcDbDictionary
280
     1
281
     1
  3
ADSK_XREC_LAYER_RECONCILED
360
833B
  0
DICTIONARY
  5
833C
330
31
100
AcDbDictionary
280
     1
281
     1
  3
ADSK_XREC_LAYER_RECONCILED
360
833D
  0
DICTIONARY
  5
833E
330
76D0
100
AcDbDictionary
280
     1
281
     1
  3
ADSK_XREC_LAYER_RECONCILED
360
833F
  0
DICTIONARY
  5
8340
330
76D1
100
AcDbDictionary
280
     1
281
     1
  3
ADSK_XREC_LAYER_RECONCILED
360
8341
  0
DICTIONARY
  5
8342
330
76D2
100
AcDbDictionary
280
     1
281
     1
  3
ADSK_XREC_LAYER_RECONCILED
360
8343
  0
DICTIONARY
  5
82F5
330
19
100
AcDbDictionary
280
     1
281
     1
  3
ACAD_SORTENTS
360
82F6
  0
XRECORD
  5
82F3
102
{ACAD_REACTORS
330
C
102
}
330
C
100
AcDbXrecord
280
     1
300
ACDLT
300
2015
300
INVLTS_F_S
  0
DICTIONARY
  5
82D6
102
{ACAD_REACTORS
330
C
102
}
330
C
100
AcDbDictionary
281
     1
  0
DICTIONARY
  5
82EF
102
{ACAD_REACTORS
330
C
102
}
330
C
100
AcDbDictionary
281
     1
  3
Metric50
350
82F0
  0
DICTIONARY
  5
D
102
{ACAD_REACTORS
330
C
102
}
330
C
100
AcDbDictionary
281
     1
  0
DICTIONARY
  5
8296
102
{ACAD_REACTORS
330
C
102
}
330
C
100
AcDbDictionary
281
     1
  3
Model
350
8298
  3
ﾚｲｱｳﾄ1
350
8299
  0
DICTIONARY
  5
82A4
102
{ACAD_REACTORS
330
C
102
}
330
C
100
AcDbDictionary
281
     1
  3
ByBlock
350
82AD
  3
ByLayer
350
82A5
  3
Global
350
82B5
  0
DICTIONARY
  5
82EB
102
{ACAD_REACTORS
330
C
102
}
330
C
100
AcDbDictionary
281
     1
  3
Standard
350
82EC
  0
DICTIONARY
  5
E
102
{ACAD_REACTORS
330
C
102
}
330
C
100
AcDbDictionary
281
     1
  3
STANDARD
350
1C
  0
DICTIONARY
  5
8297
102
{ACAD_REACTORS
330
C
102
}
330
C
100
AcDbDictionary
281
     1
  0
ACDBDICTIONARYWDFLT
  5
8294
102
{ACAD_REACTORS
330
C
102
}
330
C
100
AcDbDictionary
281
     1
  3
Normal
350
8295
100
AcDbDictionaryWithDefault
340
8295
  0
DICTIONARY
  5
82D9
102
{ACAD_REACTORS
330
C
102
}
330
C
100
AcDbDictionary
281
     1
  3
A0
350
82DA
  3
A1
350
82DB
  3
A2
350
82DC
  3
A3
350
82DD
  3
A4
350
82DE
  3
A5
350
82DF
  3
A6
350
82E0
  3
A7
350
82E1
  3
A8
350
82E2
  3
A9
350
82E3
  3
B0
350
82E4
  3
B1
350
82E5
  3
B2
350
82E6
  3
B3
350
82E7
  3
B4
350
82E8
  3
B5
350
82E9
  3
B6
350
82EA
  0
DICTIONARY
  5
82ED
102
{ACAD_REACTORS
330
C
102
}
330
C
100
AcDbDictionary
281
     1
  3
Metric50
350
82EE
  0
DICTIONARY
  5
82D7
102
{ACAD_REACTORS
330
C
102
}
330
C
100
AcDbDictionary
281
     1
  3
Standard
350
82D8
  0
DICTIONARY
  5
82BD
102
{ACAD_REACTORS
330
C
102
}
330
C
100
AcDbDictionary
281
     1
  3
2dWireframe
350
82C3
  3
Basic
350
82C2
  3
Brighten
350
82C9
  3
ColorChange
350
82CD
  3
Conceptual
350
82C6
  3
Dim
350
82C8
  3
EdgeColorOff
350
82D5
  3
Facepattern
350
82CC
  3
Flat
350
82BE
  3
FlatWithEdges
350
82BF
  3
Gouraud
350
82C0
  3
GouraudWithEdges
350
82C1
  3
Hidden
350
82C5
  3
JitterOff
350
82D3
  3
Linepattern
350
82CB
  3
OverhangOff
350
82D4
  3
Realistic
350
82C7
  3
Shaded
350
82D2
  3
Shaded with edges
350
82D1
  3
Shades of Gray
350
82CE
  3
Sketchy
350
82CF
  3
Thicken
350
82CA
  3
Wireframe
350
82C4
  3
X-Ray
350
82D0
  0
XRECORD
  5
83B9
102
{ACAD_REACTORS
330
C
102
}
330
C
100
AcDbXrecord
280
     1
 90
        1
330
82D8
330
82EE
330
82F0
  0
DICTIONARY
  5
8353
102
{ACAD_REACTORS
330
C
102
}
330
C
100
AcDbDictionary
281
     1
  3
CANNOSCALE
350
8359
  3
CMLEADERSTYLE
350
8355
  3
CTABLESTYLE
350
8354
  3
CVIEWDETAILSTYLE
350
8356
  3
CVIEWSECTIONSTYLE
350
8357
  3
LAYEREVAL
350
835B
  3
LAYERNOTIFY
350
835C
  3
LIGHTINGUNITS
350
835A
  3
MSLTSCALE
350
8358
  0
DICTIONARY
  5
8348
102
{ACAD_REACTORS
330
8347
102
}
330
8347
100
AcDbDictionary
281
     1
  0
XRECORD
  5
833B
102
{ACAD_REACTORS
330
833A
102
}
330
833A
100
AcDbXrecord
280
     1
290
     1
  0
XRECORD
  5
833D
102
{ACAD_REACTORS
330
833C
102
}
330
833C
100
AcDbXrecord
280
     1
290
     1
  0
XRECORD
  5
833F
102
{ACAD_REACTORS
330
833E
102
}
330
833E
100
AcDbXrecord
280
     1
290
     1
  0
XRECORD
  5
8341
102
{ACAD_REACTORS
330
8340
102
}
330
8340
100
AcDbXrecord
280
     1
290
     1
  0
XRECORD
  5
8343
102
{ACAD_REACTORS
330
8342
102
}
330
8342
100
AcDbXrecord
280
     1
290
     1
  0
SORTENTSTABLE
  5
82F6
102
{ACAD_REACTORS
330
82F5
102
}
330
82F5
100
AcDbSortentsTable
330
19
331
7D06
  5
7D07
331
7EFC
  5
7EFD
331
7D02
  5
7D03
331
7CC7
  5
7CC9
331
7C80
  5
7C80
331
7CFE
  5
7CFF
331
7CFA
  5
7CFB
331
7C7C
  5
7C7C
331
7CC3
  5
7CC4
331
7C45
  5
7C45
331
8247
  5
8248
331
8243
  5
8244
331
7CF6
  5
7CF7
331
7CBF
  5
7CC0
331
822F
  5
8243
331
7CF2
  5
7CF3
331
7CBB
  5
7CBC
331
7CB7
  5
7CB8
331
7CEE
  5
7CEF
331
7C3D
  5
7C3D
331
7CB3
  5
7CB4
331
7C6C
  5
7C6C
331
7CEA
  5
7CEB
331
7C39
  5
7C39
331
7C68
  5
7C68
331
7C35
  5
7C35
331
7C31
  5
7C31
331
7CAF
  5
7CB0
331
7CE2
  5
7CE3
331
7CAB
  5
7CAC
331
7F17
  5
7F18
331
7CDE
  5
7CDF
331
7C2D
  5
7C2D
331
7C60
  5
7C60
331
7F13
  5
7F14
331
7D19
  5
7D1A
331
7C9B
  5
7C9B
331
7C29
  5
7C29
331
7C5C
  5
7C5C
331
7CDA
  5
7CDB
331
7C25
  5
7C25
331
7C58
  5
7C58
331
7C21
  5
7C21
331
7F0F
  5
7F10
331
8213
  5
8220
331
7D15
  5
7D16
331
7CD6
  5
7CD7
331
7F0B
  5
7F0C
331
8170
  5
8171
331
7D11
  5
7D12
331
7CD2
  5
7CD3
331
7C93
  5
7C93
331
7C54
  5
7C54
331
7F07
  5
7F08
331
816C
  5
816F
331
7F03
  5
7F04
331
7C8F
  5
7C8F
331
7C1D
  5
7C1D
331
7C50
  5
7C50
331
7D0D
  5
7D0E
331
7D09
  5
7D0A
331
7C8B
  5
7C8B
331
7C19
  5
7C19
331
7C4C
  5
7C4C
331
7CCA
  5
7CCB
331
7C48
  5
7C48
331
7D05
  5
7D06
331
7C87
  5
7C87
331
7EFB
  5
7EFC
331
7D01
  5
7D02
331
824A
  5
8259
331
7CC6
  5
7CC7
331
7C7F
  5
7C7F
331
7CFD
  5
7CFE
331
7CF9
  5
7CFA
331
7CC2
  5
7CC3
331
7C44
  5
7C44
331
7C40
  5
7C40
331
8246
  5
8247
331
7CF5
  5
7CF6
331
7CBE
  5
7CBF
331
80F0
  5
816C
331
7CF1
  5
7CF2
331
7CBA
  5
7CBB
331
7C73
  5
7C73
331
7C3C
  5
7C3C
331
7CB6
  5
7CB7
331
7CED
  5
7CEE
331
7CE9
  5
7CEA
331
7C38
  5
7C38
331
7C6B
  5
7C6B
331
7CB2
  5
7CB3
331
7C34
  5
7C34
331
7C30
  5
7C30
331
8291
  5
82F4
331
7C67
  5
7C67
331
7CE1
  5
7CE2
331
7F16
  5
7F17
331
7F12
  5
7F13
331
7C5F
  5
7C5F
331
7CDD
  5
7CDE
331
7C2C
  5
7C2C
331
7D18
  5
7D19
331
7C9A
  5
7C9A
331
7C5B
  5
7C5B
331
7CD9
  5
7CDA
331
7C28
  5
7C28
331
7C24
  5
7C24
331
7C20
  5
7C20
331
7F0E
  5
7F0F
331
7D14
  5
7D15
331
7C57
  5
7C57
331
7CD5
  5
7CD6
331
7F0A
  5
7F0B
331
816F
  5
8170
331
7CD1
  5
7CD2
331
7C92
  5
7C92
331
7C53
  5
7C53
331
7D10
  5
7D11
331
8259
  5
8284
331
7F02
  5
7F03
331
7C8E
  5
7C8E
331
7C4F
  5
7C4F
331
7D0C
  5
7D0D
331
7C1C
  5
7C1C
331
7D08
  5
7D09
331
7C8A
  5
7C8A
331
7C4B
  5
7C4B
331
7CC9
  5
7CCA
331
8206
  5
8213
331
7D04
  5
7D05
331
7C86
  5
7C86
331
7D00
  5
7D01
331
8249
  5
824A
331
7CC5
  5
7CC6
331
7CFC
  5
7CFD
331
7CC1
  5
7CC2
331
7C47
  5
7C47
331
7C43
  5
7C43
331
8245
  5
8246
331
7CF4
  5
7CF5
331
7CBD
  5
7CBE
331
7C76
  5
7C76
331
80EF
  5
80F0
331
7CF0
  5
7CF1
331
7CB9
  5
7CBA
331
7C72
  5
7C72
331
7C3F
  5
7C3F
331
7CB5
  5
7CB6
331
7C6E
  5
7C6E
331
7CEC
  5
7CED
331
7C3B
  5
7C3B
331
7CB1
  5
7CB2
331
7C37
  5
7C37
331
7C33
  5
7C33
331
7F19
  5
80EA
331
7C66
  5
7C66
331
8284
  5
8291
331
7CE0
  5
7CE1
331
7F15
  5
7F16
331
7C2F
  5
7C2F
331
7F11
  5
7F12
331
7D1B
  5
7EFB
331
7C5E
  5
7C5E
331
7CDC
  5
7CDD
331
7C2B
  5
7C2B
331
7C5A
  5
7C5A
331
7C99
  5
7C99
331
7C27
  5
7C27
331
7C23
  5
7C23
331
7D17
  5
7D18
331
7F0D
  5
7F0E
331
7D13
  5
7D14
331
7C56
  5
7C56
331
7CD4
  5
7CD5
331
7F09
  5
7F0A
331
7F05
  5
7F07
331
7CD0
  5
7CD1
331
7C91
  5
7C91
331
7C52
  5
7C52
331
7D0F
  5
7D10
331
7C1F
  5
7C1F
331
7F01
  5
7F02
331
7D0B
  5
7D0C
331
7C8D
  5
7C8D
331
7C4E
  5
7C4E
331
7CCC
  5
7CCF
331
7C89
  5
7C89
331
7C4A
  5
7C4A
331
7D07
  5
7D08
331
7EFD
  5
7F00
331
7D03
  5
7D04
331
7C85
  5
7C85
331
7CFF
  5
7D00
331
8248
  5
8249
331
7CC4
  5
7CC5
331
7CFB
  5
7CFC
331
7CC0
  5
7CC1
331
7C46
  5
7C46
331
7C42
  5
7C42
331
8244
  5
8245
331
7CF7
  5
7CF9
331
7CF3
  5
7CF4
331
7CBC
  5
7CBD
331
7C75
  5
7C75
331
7CEF
  5
7CF0
331
7CB8
  5
7CB9
331
7C71
  5
7C71
331
80EA
  5
80EF
331
7C3E
  5
7C3E
331
7CB4
  5
7CB5
331
7C6D
  5
7C6D
331
7CEB
  5
7CEC
331
7C3A
  5
7C3A
331
7C69
  5
7C69
331
7CB0
  5
7CB1
331
7C36
  5
7C36
331
7C32
  5
7C32
331
8220
  5
822F
331
7CE3
  5
7CE9
331
7CAC
  5
7CAF
331
7F18
  5
7F19
331
7CDF
  5
7CE0
331
7C61
  5
7C61
331
7F14
  5
7F15
331
7C2E
  5
7C2E
331
7D1A
  5
7D1B
331
7C9C
  5
7CAB
331
7C5D
  5
7C5D
331
7CDB
  5
7CDC
331
7F10
  5
7F11
331
7C2A
  5
7C2A
331
7C59
  5
7C59
331
7C26
  5
7C26
331
7C22
  5
7C22
331
7D16
  5
7D17
331
7CD7
  5
7CD9
331
7F0C
  5
7F0D
331
8171
  5
8206
331
7D12
  5
7D13
331
7CD3
  5
7CD4
331
7C94
  5
7C94
331
7C55
  5
7C55
331
7F08
  5
7F09
331
7F04
  5
7F05
331
7CCF
  5
7CD0
331
7C90
  5
7C90
331
7C51
  5
7C51
331
7D0E
  5
7D0F
331
7C1E
  5
7C1E
331
7F00
  5
7F01
331
7D0A
  5
7D0B
331
7C8C
  5
7C8C
331
7C4D
  5
7C4D
331
7CCB
  5
7CCC
331
7C1A
  5
7C1A
331
7C49
  5
7C49
331
7C88
  5
7C88
  0
ACDBDETAILVIEWSTYLE
  5
82F0
102
{ACAD_XDICTIONARY
360
8350
102
}
102
{ACAD_REACTORS
330
82EF
102
}
330
82EF
100
AcDbModelDocViewStyle
 70
     0
  3
Metric50
290
     0
100
AcDbDetailViewStyle
 70
     0
 71
     0
 90
        3
 71
     1
340
10
 62
   256
 40
5.0
340
0
 62
   256
 40
5.0
300

 40
0.0
280
     1
 71
     2
340
15
 90
       25
 62
   256
 71
     3
340
10
 62
   256
 40
5.0
 90
        0
 40
15.0
 90
        1
300
%<\AcVar ViewDetailId>% (%<\AcVar ViewScale \f "%sn">%)
 71
     4
340
15
 90
       25
 62
   256
340
15
 90
       25
 62
   256
280
     0
  0
LAYOUT
  5
8298
102
{ACAD_REACTORS
330
8296
102
}
330
8296
100
AcDbPlotSettings
  1

  2
EPSON LP-9300
  4

  6

 40
0.0
 41
0.0
 42
0.0
 43
0.0
 44
0.0
 45
0.0
 46
0.0
 47
0.0
 48
0.0
 49
0.0
140
0.0
141
0.0
142
1.0
143
1.0
 70
  1712
 72
     0
 73
     0
 74
     0
  7

 75
     0
147
1.0
 76
     0
 77
     2
 78
   300
148
0.0
149
0.0
100
AcDbLayout
  1
Model
 70
     1
 71
     0
 10
0.0
 20
0.0
 11
12.0
 21
9.0
 12
0.0
 22
0.0
 32
0.0
 14
0.0
 24
0.0
 34
0.0
 15
0.0
 25
0.0
 35
0.0
146
0.0
 13
0.0
 23
0.0
 33
0.0
 16
1.0
 26
0.0
 36
0.0
 17
0.0
 27
1.0
 37
0.0
 76
     0
330
19
331
82A2
  0
LAYOUT
  5
8299
102
{ACAD_REACTORS
330
8296
102
}
330
8296
100
AcDbPlotSettings
  1

  2
EPSON LP-9300
  4

  6

 40
0.0
 41
0.0
 42
0.0
 43
0.0
 44
0.0
 45
0.0
 46
0.0
 47
0.0
 48
0.0
 49
0.0
140
0.0
141
0.0
142
1.0
143
1.0
 70
   688
 72
     0
 73
     0
 74
     5
  7

 75
    16
147
1.0
 76
     0
 77
     2
 78
   300
148
0.0
149
0.0
100
AcDbLayout
  1
ﾚｲｱｳﾄ1
 70
     1
 71
     1
 10
0.0
 20
0.0
 11
12.0
 21
9.0
 12
0.0
 22
0.0
 32
0.0
 14
1.000000000000000E+20
 24
1.000000000000000E+20
 34
1.000000000000000E+20
 15
-1.000000000000000E+20
 25
-1.000000000000000E+20
 35
-1.000000000000000E+20
146
0.0
 13
0.0
 23
0.0
 33
0.0
 16
1.0
 26
0.0
 36
0.0
 17
0.0
 27
1.0
 37
0.0
 76
     0
330
16
  0
MATERIAL
  5
82AD
102
{ACAD_XDICTIONARY
360
82AE
102
}
102
{ACAD_REACTORS
330
82A4
102
}
330
82A4
100
AcDbMaterial
  1
ByBlock
 72
     0
 43
0.0208333333333333
 43
0.0
 43
0.0
 43
0.0
 43
0.0
 43
0.0208333333333333
 43
0.0
 43
0.0
 43
0.0
 43
0.0
 43
1.0
 43
0.0
 43
0.0
 43
0.0
 43
0.0
 43
1.0
 77
     0
 47
0.0208333333333333
 47
0.0
 47
0.0
 47
0.0
 47
0.0
 47
0.0208333333333333
 47
0.0
 47
0.0
 47
0.0
 47
0.0
 47
1.0
 47
0.0
 47
0.0
 47
0.0
 47
0.0
 47
1.0
171
     0
 49
0.0208333333333333
 49
0.0
 49
0.0
 49
0.0
 49
0.0
 49
0.0208333333333333
 49
0.0
 49
0.0
 49
0.0
 49
0.0
 49
1.0
 49
0.0
 49
0.0
 49
0.0
 49
0.0
 49
1.0
175
     0
142
0.0208333333333333
142
0.0
142
0.0
142
0.0
142
0.0
142
0.0208333333333333
142
0.0
142
0.0
142
0.0
142
0.0
142
1.0
142
0.0
142
0.0
142
0.0
142
0.0
142
1.0
179
     0
144
0.0208333333333333
144
0.0
144
0.0
144
0.0
144
0.0
144
0.0208333333333333
144
0.0
144
0.0
144
0.0
144
0.0
144
1.0
144
0.0
144
0.0
144
0.0
144
0.0
144
1.0
147
0.0208333333333333
147
0.0
147
0.0
147
0.0
147
0.0
147
0.0208333333333333
147
0.0
147
0.0
147
0.0
147
0.0
147
1.0
147
0.0
147
0.0
147
0.0
147
0.0
147
1.0
  0
MATERIAL
  5
82A5
102
{ACAD_XDICTIONARY
360
82A6
102
}
102
{ACAD_REACTORS
330
82A4
102
}
330
82A4
100
AcDbMaterial
  1
ByLayer
 72
     0
 43
0.0208333333333333
 43
0.0
 43
0.0
 43
0.0
 43
0.0
 43
0.0208333333333333
 43
0.0
 43
0.0
 43
0.0
 43
0.0
 43
1.0
 43
0.0
 43
0.0
 43
0.0
 43
0.0
 43
1.0
 77
     0
 47
0.0208333333333333
 47
0.0
 47
0.0
 47
0.0
 47
0.0
 47
0.0208333333333333
 47
0.0
 47
0.0
 47
0.0
 47
0.0
 47
1.0
 47
0.0
 47
0.0
 47
0.0
 47
0.0
 47
1.0
171
     0
 49
0.0208333333333333
 49
0.0
 49
0.0
 49
0.0
 49
0.0
 49
0.0208333333333333
 49
0.0
 49
0.0
 49
0.0
 49
0.0
 49
1.0
 49
0.0
 49
0.0
 49
0.0
 49
0.0
 49
1.0
175
     0
142
0.0208333333333333
142
0.0
142
0.0
142
0.0
142
0.0
142
0.0208333333333333
142
0.0
142
0.0
142
0.0
142
0.0
142
1.0
142
0.0
142
0.0
142
0.0
142
0.0
142
1.0
179
     0
144
0.0208333333333333
144
0.0
144
0.0
144
0.0
144
0.0
144
0.0208333333333333
144
0.0
144
0.0
144
0.0
144
0.0
144
1.0
144
0.0
144
0.0
144
0.0
144
0.0
144
1.0
147
0.0208333333333333
147
0.0
147
0.0
147
0.0
147
0.0
147
0.0208333333333333
147
0.0
147
0.0
147
0.0
147
0.0
147
1.0
147
0.0
147
0.0
147
0.0
147
0.0
147
1.0
  0
MATERIAL
  5
82B5
102
{ACAD_XDICTIONARY
360
82B6
102
}
102
{ACAD_REACTORS
330
82A4
102
}
330
82A4
100
AcDbMaterial
  1
Global
 72
     0
 43
0.0208333333333333
 43
0.0
 43
0.0
 43
0.0
 43
0.0
 43
0.0208333333333333
 43
0.0
 43
0.0
 43
0.0
 43
0.0
 43
1.0
 43
0.0
 43
0.0
 43
0.0
 43
0.0
 43
1.0
 77
     0
 47
0.0208333333333333
 47
0.0
 47
0.0
 47
0.0
 47
0.0
 47
0.0208333333333333
 47
0.0
 47
0.0
 47
0.0
 47
0.0
 47
1.0
 47
0.0
 47
0.0
 47
0.0
 47
0.0
 47
1.0
171
     0
 49
0.0208333333333333
 49
0.0
 49
0.0
 49
0.0
 49
0.0
 49
0.0208333333333333
 49
0.0
 49
0.0
 49
0.0
 49
0.0
 49
1.0
 49
0.0
 49
0.0
 49
0.0
 49
0.0
 49
1.0
175
     0
142
0.0208333333333333
142
0.0
142
0.0
142
0.0
142
0.0
142
0.0208333333333333
142
0.0
142
0.0
142
0.0
142
0.0
142
1.0
142
0.0
142
0.0
142
0.0
142
0.0
142
1.0
179
     0
144
0.0208333333333333
144
0.0
144
0.0
144
0.0
144
0.0
144
0.0208333333333333
144
0.0
144
0.0
144
0.0
144
0.0
144
1.0
144
0.0
144
0.0
144
0.0
144
0.0
144
1.0
147
0.0208333333333333
147
0.0
147
0.0
147
0.0
147
0.0
147
0.0208333333333333
147
0.0
147
0.0
147
0.0
147
0.0
147
1.0
147
0.0
147
0.0
147
0.0
147
0.0
147
1.0
  0
MLEADERSTYLE
  5
82EC
102
{ACAD_REACTORS
330
82EB
102
}
330
82EB
100
AcDbMLeaderStyle
179
     2
170
     2
171
     1
172
     0
 90
        2
 40
0.0
 41
0.0
173
     1
 91
-1056964608
340
13
 92
       -2
290
     1
 42
2.0
291
     1
 43
0.36
  3
Standard
 44
4.0
300

342
10
174
     1
178
     6
175
     1
176
     0
 93
-1056964608
 45
4.0
292
     0
297
     0
 46
4.0
 94
-1056964608
 47
1.0
 49
1.0
140
1.0
293
     1
141
0.0
294
     1
177
     0
142
1.0
295
     1
296
     0
143
0.125
271
     0
272
     9
273
     9
298
     1
  0
MLINESTYLE
  5
1C
102
{ACAD_REACTORS
330
E
102
}
330
E
100
AcDbMlineStyle
  2
STANDARD
 70
     0
  3

 62
     0
 51
90.0
 52
90.0
 71
     2
 49
0.5
 62
   256
  6
BYLAYER
 49
-0.5
 62
   256
  6
BYLAYER
  0
ACDBPLACEHOLDER
  5
8295
102
{ACAD_REACTORS
330
8294
102
}
330
8294
  0
SCALE
  5
82DA
102
{ACAD_REACTORS
330
82D9
102
}
330
82D9
100
AcDbScale
 70
     0
300
1:1
140
1.0
141
1.0
290
     1
  0
SCALE
  5
82DB
102
{ACAD_REACTORS
330
82D9
102
}
330
82D9
100
AcDbScale
 70
     0
300
1:2
140
1.0
141
2.0
290
     0
  0
SCALE
  5
82DC
102
{ACAD_REACTORS
330
82D9
102
}
330
82D9
100
AcDbScale
 70
     0
300
1:4
140
1.0
141
4.0
290
     0
  0
SCALE
  5
82DD
102
{ACAD_REACTORS
330
82D9
102
}
330
82D9
100
AcDbScale
 70
     0
300
1:5
140
1.0
141
5.0
290
     0
  0
SCALE
  5
82DE
102
{ACAD_REACTORS
330
82D9
102
}
330
82D9
100
AcDbScale
 70
     0
300
1:8
140
1.0
141
8.0
290
     0
  0
SCALE
  5
82DF
102
{ACAD_REACTORS
330
82D9
102
}
330
82D9
100
AcDbScale
 70
     0
300
1:10
140
1.0
141
10.0
290
     0
  0
SCALE
  5
82E0
102
{ACAD_REACTORS
330
82D9
102
}
330
82D9
100
AcDbScale
 70
     0
300
1:16
140
1.0
141
16.0
290
     0
  0
SCALE
  5
82E1
102
{ACAD_REACTORS
330
82D9
102
}
330
82D9
100
AcDbScale
 70
     0
300
1:20
140
1.0
141
20.0
290
     0
  0
SCALE
  5
82E2
102
{ACAD_REACTORS
330
82D9
102
}
330
82D9
100
AcDbScale
 70
     0
300
1:30
140
1.0
141
30.0
290
     0
  0
SCALE
  5
82E3
102
{ACAD_REACTORS
330
82D9
102
}
330
82D9
100
AcDbScale
 70
     0
300
1:40
140
1.0
141
40.0
290
     0
  0
SCALE
  5
82E4
102
{ACAD_REACTORS
330
82D9
102
}
330
82D9
100
AcDbScale
 70
     0
300
1:50
140
1.0
141
50.0
290
     0
  0
SCALE
  5
82E5
102
{ACAD_REACTORS
330
82D9
102
}
330
82D9
100
AcDbScale
 70
     0
300
1:100
140
1.0
141
100.0
290
     0
  0
SCALE
  5
82E6
102
{ACAD_REACTORS
330
82D9
102
}
330
82D9
100
AcDbScale
 70
     0
300
2:1
140
2.0
141
1.0
290
     0
  0
SCALE
  5
82E7
102
{ACAD_REACTORS
330
82D9
102
}
330
82D9
100
AcDbScale
 70
     0
300
4:1
140
4.0
141
1.0
290
     0
  0
SCALE
  5
82E8
102
{ACAD_REACTORS
330
82D9
102
}
330
82D9
100
AcDbScale
 70
     0
300
8:1
140
8.0
141
1.0
290
     0
  0
SCALE
  5
82E9
102
{ACAD_REACTORS
330
82D9
102
}
330
82D9
100
AcDbScale
 70
     0
300
10:1
140
10.0
141
1.0
290
     0
  0
SCALE
  5
82EA
102
{ACAD_REACTORS
330
82D9
102
}
330
82D9
100
AcDbScale
 70
     0
300
100:1
140
100.0
141
1.0
290
     0
  0
ACDBSECTIONVIEWSTYLE
  5
82EE
102
{ACAD_XDICTIONARY
360
834E
102
}
102
{ACAD_REACTORS
330
82ED
102
}
330
82ED
100
AcDbModelDocViewStyle
 70
     0
  3
Metric50
290
     0
100
AcDbSectionViewStyle
 70
     0
 71
     0
 90
      102
 71
     1
340
10
 62
   256
 40
5.0
340
0
340
0
 62
   256
 40
5.0
300
I, O, Q, S, X, Z
 40
10.0
 90
        0
 40
2.5
 90
        0
 71
     2
340
15
 90
       25
 62
   256
340
15
 90
       50
 62
   256
 40
5.0
 40
2.5
 40
5.0
 71
     3
340
10
 62
   256
 40
5.0
 90
        0
 40
15.0
 90
        1
300
%<\AcVar ViewSectionStartId>%-%<\AcVar ViewSectionEndId>% (%<\AcVar ViewScale \f "%sn">%)
 71
     4
 62
   256
 62
   257
300
ANSI31
 40
1.0
 90
        0
290
     0
290
     0
 90
        6
 40
0.0
 40
1.570796326794896
 40
0.2617993877991494
 40
1.308996938995747
 40
-0.2617993877991494
 40
1.832595714594046
  0
TABLESTYLE
  5
82D8
102
{ACAD_XDICTIONARY
360
83B5
102
}
102
{ACAD_REACTORS
330
82D7
102
}
330
82D7
100
AcDbTableStyle
280
     0
  3
Standard
 70
     0
 71
     0
 40
1.5
 41
1.5
280
     0
281
     0
  7
STANDARD
140
4.5
170
     2
 62
     0
 63
     7
283
     0
 90
      512
 91
        0
  1

274
    -2
284
     1
 64
     0
275
    -2
285
     1
 65
     0
276
    -2
286
     1
 66
     0
277
    -2
287
     1
 67
     0
278
    -2
288
     1
 68
     0
279
    -2
289
     1
 69
     0
  7
STANDARD
140
6.0
170
     5
 62
     0
 63
     7
283
     0
 90
      512
 91
        0
  1

274
    -2
284
     1
 64
     0
275
    -2
285
     1
 65
     0
276
    -2
286
     1
 66
     0
277
    -2
287
     1
 67
     0
278
    -2
288
     1
 68
     0
279
    -2
289
     1
 69
     0
  7
STANDARD
140
4.5
170
     5
 62
     0
 63
     7
283
     0
 90
      512
 91
        0
  1

274
    -2
284
     1
 64
     0
275
    -2
285
     1
 65
     0
276
    -2
286
     1
 66
     0
277
    -2
287
     1
 67
     0
278
    -2
288
     1
 68
     0
279
    -2
289
     1
 69
     0
  0
VISUALSTYLE
  5
82C3
102
{ACAD_REACTORS
330
82BD
102
}
330
82BD
100
AcDbVisualStyle
  2
2dWireframe
 70
     4
177
     3
291
     0
 70
    58
 90
        0
176
     1
 90
        2
176
     1
 90
        0
176
     1
 90
        0
176
     1
 40
0.6
176
     1
 40
30.0
176
     1
 62
     7
420
 16777215
176
     1
 90
        1
176
     1
 90
        4
176
     1
 62
     7
176
     1
 62
   257
176
     1
 90
        1
176
     1
 90
        1
176
     1
 40
1.0
176
     1
 90
        0
176
     1
 62
   257
176
     1
 40
1.0
176
     1
 90
        1
176
     1
 90
        6
176
     1
 90
        2
176
     1
 62
     7
176
     1
 90
        5
176
     1
 90
        0
176
     1
 90
        0
176
     1
290
     0
176
     1
 90
        1
176
     1
 40
0.0
176
     1
 90
        0
176
     1
290
     1
176
     1
290
     1
176
     1
290
     0
176
     1
290
     0
176
     1
290
     0
176
     1
290
     0
176
     1
290
     0
176
     1
290
     0
176
     1
290
     0
176
     1
 90
       50
176
     1
 40
0.0
176
     1
 40
1.0
176
     1
 90
        0
176
     1
 62
    18
420
        0
176
     1
 90
       50
176
     1
 90
        3
176
     1
 62
     5
420
      255
176
     1
290
     0
176
     1
 90
       50
176
     1
 90
       50
176
     1
 90
       50
176
     1
290
     0
176
     1
 90
       50
176
     1
 62
   256
176
     0
 40
1.0
176
     0
 90
        2
176
     1
  1
strokes_ogs.tif
176
     1
290
     0
176
     1
 40
1.0
176
     1
 40
1.0
176
     1
  0
VISUALSTYLE
  5
82C2
102
{ACAD_REACTORS
330
82BD
102
}
330
82BD
100
AcDbVisualStyle
  2
Basic
 70
     7
177
     3
291
     1
 70
    58
 90
        1
176
     1
 90
        0
176
     1
 90
        1
176
     1
 90
        0
176
     1
 40
0.6
176
     1
 40
30.0
176
     1
 62
     7
420
 16777215
176
     1
 90
        0
176
     1
 90
        4
176
     1
 62
     7
176
     1
 62
   257
176
     1
 90
        1
176
     1
 90
        1
176
     1
 40
1.0
176
     1
 90
        8
176
     1
 62
     7
176
     1
 40
1.0
176
     1
 90
        1
176
     1
 90
        6
176
     1
 90
        2
176
     1
 62
     7
176
     1
 90
        5
176
     1
 90
        0
176
     1
 90
        0
176
     1
290
     0
176
     1
 90
        1
176
     1
 40
0.0
176
     1
 90
        0
176
     1
290
     0
176
     1
290
     1
176
     1
290
     1
176
     1
290
     0
176
     1
290
     0
176
     1
290
     0
176
     1
290
     0
176
     1
290
     0
176
     1
290
     0
176
     1
 90
       50
176
     1
 40
0.0
176
     1
 40
1.0
176
     1
 90
        0
176
     1
 62
    18
420
        0
176
     1
 90
       50
176
     1
 90
        3
176
     1
 62
     5
420
      255
176
     1
290
     0
176
     1
 90
       50
176
     1
 90
       50
176
     1
 90
       50
176
     1
290
     0
176
     1
 90
       50
176
     1
 62
   256
176
     0
 40
1.0
176
     0
 90
        2
176
     1
  1
strokes_ogs.tif
176
     1
290
     0
176
     1
 40
1.0
176
     1
 40
1.0
176
     1
  0
VISUALSTYLE
  5
82C9
102
{ACAD_REACTORS
330
82BD
102
}
330
82BD
100
AcDbVisualStyle
  2
Brighten
 70
    12
177
     3
291
     1
 70
    58
 90
        2
176
     1
 90
        2
176
     1
 90
        0
176
     1
 90
        0
176
     1
 40
0.6
176
     1
 40
30.0
176
     1
 62
     7
420
 16777215
176
     1
 90
        1
176
     1
 90
        4
176
     1
 62
     7
176
     1
 62
   257
176
     1
 90
        1
176
     1
 90
        1
176
     1
 40
1.0
176
     1
 90
        8
176
     1
 62
     7
176
     1
 40
1.0
176
     1
 90
        1
176
     1
 90
        6
176
     1
 90
        2
176
     1
 62
     7
176
     1
 90
        5
176
     1
 90
        0
176
     1
 90
        0
176
     1
290
     0
176
     1
 90
        1
176
     1
 40
50.0
176
     1
 90
        0
176
     1
290
     0
176
     1
290
     1
176
     1
290
     1
176
     1
290
     0
176
     1
290
     0
176
     1
290
     0
176
     1
290
     0
176
     1
290
     0
176
     1
290
     0
176
     1
 90
       50
176
     1
 40
0.0
176
     1
 40
1.0
176
     1
 90
        0
176
     1
 62
    18
420
        0
176
     1
 90
       50
176
     1
 90
        3
176
     1
 62
     5
420
      255
176
     1
290
     0
176
     1
 90
       50
176
     1
 90
       50
176
     1
 90
       50
176
     1
290
     0
176
     1
 90
       50
176
     1
 62
   256
176
     0
 40
1.0
176
     0
 90
        2
176
     1
  1
strokes_ogs.tif
176
     1
290
     0
176
     1
 40
1.0
176
     1
 40
1.0
176
     1
  0
VISUALSTYLE
  5
82CD
102
{ACAD_REACTORS
330
82BD
102
}
330
82BD
100
AcDbVisualStyle
  2
ColorChange
 70
    16
177
     3
291
     1
 70
    58
 90
        2
176
     1
 90
        2
176
     1
 90
        3
176
     1
 90
        0
176
     1
 40
0.6
176
     1
 40
30.0
176
     1
 62
     8
420
  8421504
176
     1
 90
        1
176
     1
 90
        4
176
     1
 62
     7
176
     1
 62
   257
176
     1
 90
        1
176
     1
 90
        1
176
     1
 40
1.0
176
     1
 90
        8
176
     1
 62
     8
420
  8421504
176
     1
 40
1.0
176
     1
 90
        1
176
     1
 90
        6
176
     1
 90
        2
176
     1
 62
     7
176
     1
 90
        5
176
     1
 90
        0
176
     1
 90
        0
176
     1
290
     0
176
     1
 90
        1
176
     1
 40
0.0
176
     1
 90
        0
176
     1
290
     0
176
     1
290
     1
176
     1
290
     1
176
     1
290
     0
176
     1
290
     0
176
     1
290
     0
176
     1
290
     0
176
     1
290
     0
176
     1
290
     0
176
     1
 90
       50
176
     1
 40
0.0
176
     1
 40
1.0
176
     1
 90
        0
176
     1
 62
    18
420
        0
176
     1
 90
       50
176
     1
 90
        3
176
     1
 62
     5
420
      255
176
     1
290
     0
176
     1
 90
       50
176
     1
 90
       50
176
     1
 90
       50
176
     1
290
     0
176
     1
 90
       50
176
     1
 62
   256
176
     0
 40
1.0
176
     0
 90
        2
176
     1
  1
strokes_ogs.tif
176
     1
290
     0
176
     1
 40
1.0
176
     1
 40
1.0
176
     1
  0
VISUALSTYLE
  5
82C6
102
{ACAD_REACTORS
330
82BD
102
}
330
82BD
100
AcDbVisualStyle
  2
Conceptual
 70
     9
177
     3
291
     0
 70
    58
 90
        3
176
     1
 90
        2
176
     1
 90
        0
176
     1
 90
        0
176
     1
 40
0.6
176
     1
 40
30.0
176
     1
 62
     7
420
 16777215
176
     1
 90
        2
176
     1
 90
        2
176
     1
 62
     7
176
     1
 62
   257
176
     1
 90
        1
176
     1
 90
        1
176
     1
 40
179.0
176
     1
 90
        8
176
     1
 62
     7
176
     1
 40
1.0
176
     1
 90
        1
176
     1
 90
        6
176
     1
 90
        2
176
     1
 62
     7
176
     1
 90
        3
176
     1
 90
        0
176
     1
 90
        0
176
     1
290
     0
176
     1
 90
        1
176
     1
 40
0.0
176
     1
 90
        0
176
     1
290
     0
176
     1
290
     1
176
     1
290
     1
176
     1
290
     0
176
     1
290
     0
176
     1
290
     0
176
     1
290
     0
176
     1
290
     0
176
     1
290
     0
176
     1
 90
       50
176
     1
 40
0.0
176
     1
 40
1.0
176
     1
 90
        0
176
     1
 62
    18
420
        0
176
     1
 90
       50
176
     1
 90
        3
176
     1
 62
     5
420
      255
176
     1
290
     0
176
     1
 90
       50
176
     1
 90
       50
176
     1
 90
       50
176
     1
290
     0
176
     1
 90
       50
176
     1
 62
   256
176
     0
 40
1.0
176
     0
 90
        2
176
     1
  1
strokes_ogs.tif
176
     1
290
     0
176
     1
 40
1.0
176
     1
 40
1.0
176
     1
  0
VISUALSTYLE
  5
82C8
102
{ACAD_REACTORS
330
82BD
102
}
330
82BD
100
AcDbVisualStyle
  2
Dim
 70
    11
177
     3
291
     1
 70
    58
 90
        2
176
     1
 90
        2
176
     1
 90
        0
176
     1
 90
        0
176
     1
 40
0.6
176
     1
 40
30.0
176
     1
 62
     7
420
 16777215
176
     1
 90
        1
176
     1
 90
        4
176
     1
 62
     7
176
     1
 62
   257
176
     1
 90
        1
176
     1
 90
        1
176
     1
 40
1.0
176
     1
 90
        8
176
     1
 62
     7
176
     1
 40
1.0
176
     1
 90
        1
176
     1
 90
        6
176
     1
 90
        2
176
     1
 62
     7
176
     1
 90
        5
176
     1
 90
        0
176
     1
 90
        0
176
     1
290
     0
176
     1
 90
        1
176
     1
 40
-50.0
176
     1
 90
        0
176
     1
290
     0
176
     1
290
     1
176
     1
290
     1
176
     1
290
     0
176
     1
290
     0
176
     1
290
     0
176
     1
290
     0
176
     1
290
     0
176
     1
290
     0
176
     1
 90
       50
176
     1
 40
0.0
176
     1
 40
1.0
176
     1
 90
        0
176
     1
 62
    18
420
        0
176
     1
 90
       50
176
     1
 90
        3
176
     1
 62
     5
420
      255
176
     1
290
     0
176
     1
 90
       50
176
     1
 90
       50
176
     1
 90
       50
176
     1
290
     0
176
     1
 90
       50
176
     1
 62
   256
176
     0
 40
1.0
176
     0
 90
        2
176
     1
  1
strokes_ogs.tif
176
     1
290
     0
176
     1
 40
1.0
176
     1
 40
1.0
176
     1
  0
VISUALSTYLE
  5
82D5
102
{ACAD_REACTORS
330
82BD
102
}
330
82BD
100
AcDbVisualStyle
  2
EdgeColorOff
 70
    22
177
     3
291
     1
 70
    58
 90
        2
176
     0
 90
        2
176
     0
 90
        0
176
     0
 90
        0
176
     0
 40
0.6
176
     0
 40
30.0
176
     0
 62
     7
420
 16777215
176
     0
 90
        1
176
     0
 90
        4
176
     0
 62
     7
176
     0
 62
   257
176
     0
 90
        1
176
     0
 90
        1
176
     0
 40
1.0
176
     0
 90
        8
176
     2
 62
     7
176
     0
 40
1.0
176
     0
 90
        1
176
     0
 90
        6
176
     0
 90
        2
176
     0
 62
     7
176
     0
 90
        5
176
     0
 90
        0
176
     0
 90
        0
176
     0
290
     0
176
     0
 90
        1
176
     0
 40
0.0
176
     0
 90
        0
176
     0
290
     0
176
     0
290
     1
176
     0
290
     1
176
     0
290
     0
176
     0
290
     0
176
     0
290
     0
176
     0
290
     0
176
     0
290
     0
176
     0
290
     0
176
     0
 90
       50
176
     0
 40
0.0
176
     0
 40
1.0
176
     0
 90
        0
176
     0
 62
    18
420
        0
176
     0
 90
       50
176
     0
 90
        3
176
     0
 62
     5
420
      255
176
     0
290
     0
176
     0
 90
       50
176
     0
 90
       50
176
     0
 90
       50
176
     0
290
     0
176
     0
 90
       50
176
     0
 62
   256
176
     0
 40
1.0
176
     0
 90
        2
176
     0
  1
strokes_ogs.tif
176
     0
290
     0
176
     0
 40
1.0
176
     0
 40
1.0
176
     0
  0
VISUALSTYLE
  5
82CC
102
{ACAD_REACTORS
330
82BD
102
}
330
82BD
100
AcDbVisualStyle
  2
Facepattern
 70
    15
177
     3
291
     1
 70
    58
 90
        2
176
     1
 90
        2
176
     1
 90
        0
176
     1
 90
        0
176
     1
 40
0.6
176
     1
 40
30.0
176
     1
 62
     7
420
 16777215
176
     1
 90
        1
176
     1
 90
        4
176
     1
 62
     7
176
     1
 62
   257
176
     1
 90
        1
176
     1
 90
        1
176
     1
 40
1.0
176
     1
 90
        8
176
     1
 62
     7
176
     1
 40
1.0
176
     1
 90
        1
176
     1
 90
        6
176
     1
 90
        2
176
     1
 62
     7
176
     1
 90
        5
176
     1
 90
        0
176
     1
 90
        0
176
     1
290
     0
176
     1
 90
        1
176
     1
 40
0.0
176
     1
 90
        0
176
     1
290
     0
176
     1
290
     1
176
     1
290
     1
176
     1
290
     0
176
     1
290
     0
176
     1
290
     0
176
     1
290
     0
176
     1
290
     0
176
     1
290
     0
176
     1
 90
       50
176
     1
 40
0.0
176
     1
 40
1.0
176
     1
 90
        0
176
     1
 62
    18
420
        0
176
     1
 90
       50
176
     1
 90
        3
176
     1
 62
     5
420
      255
176
     1
290
     0
176
     1
 90
       50
176
     1
 90
       50
176
     1
 90
       50
176
     1
290
     0
176
     1
 90
       50
176
     1
 62
   256
176
     0
 40
1.0
176
     0
 90
        2
176
     1
  1
strokes_ogs.tif
176
     1
290
     0
176
     1
 40
1.0
176
     1
 40
1.0
176
     1
  0
VISUALSTYLE
  5
82BE
102
{ACAD_REACTORS
330
82BD
102
}
330
82BD
100
AcDbVisualStyle
  2
Flat
 70
     0
177
     3
291
     1
 70
    58
 90
        2
176
     1
 90
        1
176
     1
 90
        1
176
     1
 90
        2
176
     1
 40
0.6
176
     1
 40
30.0
176
     1
 62
     7
420
 16777215
176
     1
 90
        0
176
     1
 90
        0
176
     1
 62
     7
176
     1
 62
   257
176
     1
 90
        1
176
     1
 90
        1
176
     1
 40
1.0
176
     1
 90
        8
176
     1
 62
     7
176
     1
 40
1.0
176
     1
 90
        1
176
     1
 90
        6
176
     1
 90
        2
176
     1
 62
     7
176
     1
 90
        5
176
     1
 90
        0
176
     1
 90
        0
176
     1
290
     0
176
     1
 90
       13
176
     1
 40
0.0
176
     1
 90
        0
176
     1
290
     0
176
     1
290
     1
176
     1
290
     1
176
     1
290
     0
176
     1
290
     0
176
     1
290
     0
176
     1
290
     0
176
     1
290
     0
176
     1
290
     0
176
     1
 90
       50
176
     1
 40
0.0
176
     1
 40
1.0
176
     1
 90
        0
176
     1
 62
    18
420
        0
176
     1
 90
       50
176
     1
 90
        3
176
     1
 62
     5
420
      255
176
     1
290
     0
176
     1
 90
       50
176
     1
 90
       50
176
     1
 90
       50
176
     1
290
     0
176
     1
 90
       50
176
     1
 62
   256
176
     0
 40
1.0
176
     0
 90
        2
176
     1
  1
strokes_ogs.tif
176
     1
290
     0
176
     1
 40
1.0
176
     1
 40
1.0
176
     1
  0
VISUALSTYLE
  5
82BF
102
{ACAD_REACTORS
330
82BD
102
}
330
82BD
100
AcDbVisualStyle
  2
FlatWithEdges
 70
     1
177
     3
291
     1
 70
    58
 90
        2
176
     1
 90
        1
176
     1
 90
        1
176
     1
 90
        2
176
     1
 40
0.6
176
     1
 40
30.0
176
     1
 62
     7
420
 16777215
176
     1
 90
        1
176
     1
 90
        0
176
     1
 62
     7
176
     1
 62
   257
176
     1
 90
        1
176
     1
 90
        1
176
     1
 40
1.0
176
     1
 90
        0
176
     1
 62
   257
176
     1
 40
1.0
176
     1
 90
        1
176
     1
 90
        6
176
     1
 90
        2
176
     1
 62
     7
176
     1
 90
        5
176
     1
 90
        0
176
     1
 90
        0
176
     1
290
     0
176
     1
 90
       13
176
     1
 40
0.0
176
     1
 90
        0
176
     1
290
     0
176
     1
290
     1
176
     1
290
     1
176
     1
290
     0
176
     1
290
     0
176
     1
290
     0
176
     1
290
     0
176
     1
290
     0
176
     1
290
     0
176
     1
 90
       50
176
     1
 40
0.0
176
     1
 40
1.0
176
     1
 90
        0
176
     1
 62
    18
420
        0
176
     1
 90
       50
176
     1
 90
        3
176
     1
 62
     5
420
      255
176
     1
290
     0
176
     1
 90
       50
176
     1
 90
       50
176
     1
 90
       50
176
     1
290
     0
176
     1
 90
       50
176
     1
 62
   256
176
     0
 40
1.0
176
     0
 90
        2
176
     1
  1
strokes_ogs.tif
176
     1
290
     0
176
     1
 40
1.0
176
     1
 40
1.0
176
     1
  0
VISUALSTYLE
  5
82C0
102
{ACAD_REACTORS
330
82BD
102
}
330
82BD
100
AcDbVisualStyle
  2
Gouraud
 70
     2
177
     3
291
     1
 70
    58
 90
        2
176
     1
 90
        2
176
     1
 90
        1
176
     1
 90
        2
176
     1
 40
0.6
176
     1
 40
30.0
176
     1
 62
     7
420
 16777215
176
     1
 90
        0
176
     1
 90
        0
176
     1
 62
     7
176
     1
 62
   257
176
     1
 90
        1
176
     1
 90
        1
176
     1
 40
1.0
176
     1
 90
        0
176
     1
 62
     7
176
     1
 40
1.0
176
     1
 90
        1
176
     1
 90
        6
176
     1
 90
        2
176
     1
 62
     7
176
     1
 90
        5
176
     1
 90
        0
176
     1
 90
        0
176
     1
290
     0
176
     1
 90
       13
176
     1
 40
0.0
176
     1
 90
        0
176
     1
290
     0
176
     1
290
     1
176
     1
290
     1
176
     1
290
     0
176
     1
290
     0
176
     1
290
     0
176
     1
290
     0
176
     1
290
     0
176
     1
290
     0
176
     1
 90
       50
176
     1
 40
0.0
176
     1
 40
1.0
176
     1
 90
        0
176
     1
 62
    18
420
        0
176
     1
 90
       50
176
     1
 90
        3
176
     1
 62
     5
420
      255
176
     1
290
     0
176
     1
 90
       50
176
     1
 90
       50
176
     1
 90
       50
176
     1
290
     0
176
     1
 90
       50
176
     1
 62
   256
176
     0
 40
1.0
176
     0
 90
        2
176
     1
  1
strokes_ogs.tif
176
     1
290
     0
176
     1
 40
1.0
176
     1
 40
1.0
176
     1
  0
VISUALSTYLE
  5
82C1
102
{ACAD_REACTORS
330
82BD
102
}
330
82BD
100
AcDbVisualStyle
  2
GouraudWithEdges
 70
     3
177
     3
291
     1
 70
    58
 90
        2
176
     1
 90
        2
176
     1
 90
        1
176
     1
 90
        2
176
     1
 40
0.6
176
     1
 40
30.0
176
     1
 62
     7
420
 16777215
176
     1
 90
        1
176
     1
 90
        0
176
     1
 62
     7
176
     1
 62
   257
176
     1
 90
        1
176
     1
 90
        1
176
     1
 40
1.0
176
     1
 90
        0
176
     1
 62
   257
176
     1
 40
1.0
176
     1
 90
        1
176
     1
 90
        6
176
     1
 90
        2
176
     1
 62
     7
176
     1
 90
        5
176
     1
 90
        0
176
     1
 90
        0
176
     1
290
     0
176
     1
 90
       13
176
     1
 40
0.0
176
     1
 90
        0
176
     1
290
     0
176
     1
290
     1
176
     1
290
     1
176
     1
290
     0
176
     1
290
     0
176
     1
290
     0
176
     1
290
     0
176
     1
290
     0
176
     1
290
     0
176
     1
 90
       50
176
     1
 40
0.0
176
     1
 40
1.0
176
     1
 90
        0
176
     1
 62
    18
420
        0
176
     1
 90
       50
176
     1
 90
        3
176
     1
 62
     5
420
      255
176
     1
290
     0
176
     1
 90
       50
176
     1
 90
       50
176
     1
 90
       50
176
     1
290
     0
176
     1
 90
       50
176
     1
 62
   256
176
     0
 40
1.0
176
     0
 90
        2
176
     1
  1
strokes_ogs.tif
176
     1
290
     0
176
     1
 40
1.0
176
     1
 40
1.0
176
     1
  0
VISUALSTYLE
  5
82C5
102
{ACAD_REACTORS
330
82BD
102
}
330
82BD
100
AcDbVisualStyle
  2
Hidden
 70
     6
177
     3
291
     0
 70
    58
 90
        1
176
     1
 90
        2
176
     1
 90
        2
176
     1
 90
        0
176
     1
 40
0.6
176
     1
 40
30.0
176
     1
 62
     7
420
 16777215
176
     1
 90
        2
176
     1
 90
        2
176
     1
 62
     7
176
     1
 62
   257
176
     1
 90
        2
176
     1
 90
        1
176
     1
 40
40.0
176
     1
 90
        0
176
     1
 62
   257
176
     1
 40
1.0
176
     1
 90
        1
176
     1
 90
        6
176
     1
 90
        2
176
     1
 62
     7
176
     1
 90
        3
176
     1
 90
        0
176
     1
 90
        0
176
     1
290
     0
176
     1
 90
        1
176
     1
 40
0.0
176
     1
 90
        0
176
     1
290
     0
176
     1
290
     1
176
     1
290
     1
176
     1
290
     0
176
     1
290
     0
176
     1
290
     0
176
     1
290
     0
176
     1
290
     0
176
     1
290
     0
176
     1
 90
       50
176
     1
 40
0.0
176
     1
 40
1.0
176
     1
 90
        0
176
     1
 62
    18
420
        0
176
     1
 90
       50
176
     1
 90
        3
176
     1
 62
     5
420
      255
176
     1
290
     0
176
     1
 90
       50
176
     1
 90
       50
176
     1
 90
       50
176
     1
290
     0
176
     1
 90
       50
176
     1
 62
   256
176
     0
 40
1.0
176
     0
 90
        2
176
     1
  1
strokes_ogs.tif
176
     1
290
     0
176
     1
 40
1.0
176
     1
 40
1.0
176
     1
  0
VISUALSTYLE
  5
82D3
102
{ACAD_REACTORS
330
82BD
102
}
330
82BD
100
AcDbVisualStyle
  2
JitterOff
 70
    20
177
     3
291
     1
 70
    58
 90
        2
176
     0
 90
        2
176
     0
 90
        0
176
     0
 90
        0
176
     0
 40
0.6
176
     0
 40
30.0
176
     0
 62
     7
420
 16777215
176
     0
 90
        1
176
     0
 90
        4
176
     0
 62
     7
176
     0
 62
   257
176
     0
 90
        1
176
     0
 90
        1
176
     0
 40
1.0
176
     0
 90
       10
176
     2
 62
     7
176
     0
 40
1.0
176
     0
 90
        1
176
     0
 90
        6
176
     0
 90
        2
176
     0
 62
     7
176
     0
 90
        5
176
     0
 90
        0
176
     0
 90
        0
176
     0
290
     0
176
     0
 90
        1
176
     0
 40
0.0
176
     0
 90
        0
176
     0
290
     0
176
     0
290
     1
176
     0
290
     1
176
     0
290
     0
176
     0
290
     0
176
     0
290
     0
176
     0
290
     0
176
     0
290
     0
176
     0
290
     0
176
     0
 90
       50
176
     0
 40
0.0
176
     0
 40
1.0
176
     0
 90
        0
176
     0
 62
    18
420
        0
176
     0
 90
       50
176
     0
 90
        3
176
     0
 62
     5
420
      255
176
     0
290
     0
176
     0
 90
       50
176
     0
 90
       50
176
     0
 90
       50
176
     0
290
     0
176
     0
 90
       50
176
     0
 62
   256
176
     0
 40
1.0
176
     0
 90
        2
176
     0
  1
strokes_ogs.tif
176
     0
290
     0
176
     0
 40
1.0
176
     0
 40
1.0
176
     0
  0
VISUALSTYLE
  5
82CB
102
{ACAD_REACTORS
330
82BD
102
}
330
82BD
100
AcDbVisualStyle
  2
Linepattern
 70
    14
177
     3
291
     1
 70
    58
 90
        2
176
     1
 90
        2
176
     1
 90
        0
176
     1
 90
        0
176
     1
 40
0.6
176
     1
 40
30.0
176
     1
 62
     7
420
 16777215
176
     1
 90
        1
176
     1
 90
        4
176
     1
 62
     7
176
     1
 62
   257
176
     1
 90
        7
176
     1
 90
        7
176
     1
 40
1.0
176
     1
 90
        8
176
     1
 62
     7
176
     1
 40
1.0
176
     1
 90
        1
176
     1
 90
        6
176
     1
 90
        2
176
     1
 62
     7
176
     1
 90
        5
176
     1
 90
        0
176
     1
 90
        0
176
     1
290
     0
176
     1
 90
        1
176
     1
 40
0.0
176
     1
 90
        0
176
     1
290
     0
176
     1
290
     1
176
     1
290
     1
176
     1
290
     0
176
     1
290
     0
176
     1
290
     0
176
     1
290
     0
176
     1
290
     0
176
     1
290
     0
176
     1
 90
       50
176
     1
 40
0.0
176
     1
 40
1.0
176
     1
 90
        0
176
     1
 62
    18
420
        0
176
     1
 90
       50
176
     1
 90
        3
176
     1
 62
     5
420
      255
176
     1
290
     0
176
     1
 90
       50
176
     1
 90
       50
176
     1
 90
       50
176
     1
290
     0
176
     1
 90
       50
176
     1
 62
   256
176
     0
 40
1.0
176
     0
 90
        2
176
     1
  1
strokes_ogs.tif
176
     1
290
     0
176
     1
 40
1.0
176
     1
 40
1.0
176
     1
  0
VISUALSTYLE
  5
82D4
102
{ACAD_REACTORS
330
82BD
102
}
330
82BD
100
AcDbVisualStyle
  2
OverhangOff
 70
    21
177
     3
291
     1
 70
    58
 90
        2
176
     0
 90
        2
176
     0
 90
        0
176
     0
 90
        0
176
     0
 40
0.6
176
     0
 40
30.0
176
     0
 62
     7
420
 16777215
176
     0
 90
        1
176
     0
 90
        4
176
     0
 62
     7
176
     0
 62
   257
176
     0
 90
        1
176
     0
 90
        1
176
     0
 40
1.0
176
     0
 90
        9
176
     2
 62
     7
176
     0
 40
1.0
176
     0
 90
        1
176
     0
 90
        6
176
     0
 90
        2
176
     0
 62
     7
176
     0
 90
        5
176
     0
 90
        0
176
     0
 90
        0
176
     0
290
     0
176
     0
 90
        1
176
     0
 40
0.0
176
     0
 90
        0
176
     0
290
     0
176
     0
290
     1
176
     0
290
     1
176
     0
290
     0
176
     0
290
     0
176
     0
290
     0
176
     0
290
     0
176
     0
290
     0
176
     0
290
     0
176
     0
 90
       50
176
     0
 40
0.0
176
     0
 40
1.0
176
     0
 90
        0
176
     0
 62
    18
420
        0
176
     0
 90
       50
176
     0
 90
        3
176
     0
 62
     5
420
      255
176
     0
290
     0
176
     0
 90
       50
176
     0
 90
       50
176
     0
 90
       50
176
     0
290
     0
176
     0
 90
       50
176
     0
 62
   256
176
     0
 40
1.0
176
     0
 90
        2
176
     0
  1
strokes_ogs.tif
176
     0
290
     0
176
     0
 40
1.0
176
     0
 40
1.0
176
     0
  0
VISUALSTYLE
  5
82C7
102
{ACAD_REACTORS
330
82BD
102
}
330
82BD
100
AcDbVisualStyle
  2
Realistic
 70
     8
177
     3
291
     0
 70
    58
 90
        2
176
     1
 90
        3
176
     1
 90
        0
176
     1
 90
        2
176
     1
 40
0.6
176
     1
 40
30.0
176
     1
 62
     7
420
 16777215
176
     1
 90
        0
176
     1
 90
        0
176
     1
 62
     7
176
     1
 62
   257
176
     1
 90
        1
176
     1
 90
        1
176
     1
 40
1.0
176
     1
 90
        8
176
     1
 62
   257
176
     1
 40
1.0
176
     1
 90
        1
176
     1
 90
        6
176
     1
 90
        2
176
     1
 62
     7
176
     1
 90
        3
176
     1
 90
        0
176
     1
 90
        0
176
     1
290
     0
176
     1
 90
       13
176
     1
 40
0.0
176
     1
 90
        0
176
     1
290
     0
176
     1
290
     1
176
     1
290
     1
176
     1
290
     0
176
     1
290
     0
176
     1
290
     0
176
     1
290
     0
176
     1
290
     0
176
     1
290
     0
176
     1
 90
       50
176
     1
 40
0.0
176
     1
 40
1.0
176
     1
 90
        0
176
     1
 62
    18
420
        0
176
     1
 90
       50
176
     1
 90
        3
176
     1
 62
     5
420
      255
176
     1
290
     0
176
     1
 90
       50
176
     1
 90
       50
176
     1
 90
       50
176
     1
290
     0
176
     1
 90
       50
176
     1
 62
   256
176
     0
 40
1.0
176
     0
 90
        2
176
     1
  1
strokes_ogs.tif
176
     1
290
     0
176
     1
 40
1.0
176
     1
 40
1.0
176
     1
  0
VISUALSTYLE
  5
82D2
102
{ACAD_REACTORS
330
82BD
102
}
330
82BD
100
AcDbVisualStyle
  2
Shaded
 70
    27
177
     3
291
     0
 70
    58
 90
        2
176
     1
 90
        2
176
     1
 90
        1
176
     1
 90
        2
176
     1
 40
0.6
176
     1
 40
30.0
176
     1
 62
     7
420
 16777215
176
     1
 90
        0
176
     1
 90
        4
176
     1
 62
     7
176
     1
 62
   257
176
     1
 90
        1
176
     1
 90
        1
176
     1
 40
1.0
176
     1
 90
        8
176
     1
 62
   257
176
     1
 40
1.0
176
     1
 90
        1
176
     1
 90
        6
176
     1
 90
        2
176
     1
 62
     8
420
  7895160
176
     1
 90
        3
176
     1
 90
        0
176
     1
 90
        0
176
     1
290
     0
176
     1
 90
        5
176
     1
 40
0.0
176
     1
 90
        0
176
     1
290
     0
176
     1
290
     1
176
     1
290
     1
176
     1
290
     0
176
     1
290
     0
176
     1
290
     0
176
     1
290
     0
176
     1
290
     0
176
     1
290
     0
176
     1
 90
       50
176
     1
 40
0.0
176
     1
 40
1.0
176
     1
 90
        0
176
     1
 62
    18
420
        0
176
     1
 90
       50
176
     1
 90
        3
176
     1
 62
     5
420
      255
176
     1
290
     0
176
     1
 90
       50
176
     1
 90
       50
176
     1
 90
       50
176
     1
290
     0
176
     1
 90
       50
176
     1
 62
   256
176
     0
 40
1.0
176
     0
 90
        2
176
     1
  1
strokes_ogs.tif
176
     1
290
     0
176
     1
 40
1.0
176
     1
 40
1.0
176
     1
  0
VISUALSTYLE
  5
82D1
102
{ACAD_REACTORS
330
82BD
102
}
330
82BD
100
AcDbVisualStyle
  2
Shaded with edges
 70
    26
177
     3
291
     0
 70
    58
 90
        2
176
     1
 90
        2
176
     1
 90
        1
176
     1
 90
        2
176
     1
 40
0.6
176
     1
 40
30.0
176
     1
 62
     7
420
 16777215
176
     1
 90
        1
176
     1
 90
       10
176
     1
 62
     7
176
     1
 62
   257
176
     1
 90
        2
176
     1
 90
        1
176
     1
 40
1.0
176
     1
 90
        8
176
     1
 62
   257
176
     1
 40
1.0
176
     1
 90
        1
176
     1
 90
        6
176
     1
 90
        2
176
     1
 62
     7
176
     1
 90
        3
176
     1
 90
        0
176
     1
 90
        0
176
     1
290
     0
176
     1
 90
        5
176
     1
 40
0.0
176
     1
 90
        0
176
     1
290
     0
176
     1
290
     1
176
     1
290
     1
176
     1
290
     0
176
     1
290
     0
176
     1
290
     0
176
     1
290
     0
176
     1
290
     0
176
     1
290
     0
176
     1
 90
       50
176
     1
 40
0.0
176
     1
 40
1.0
176
     1
 90
        0
176
     1
 62
    18
420
        0
176
     1
 90
       50
176
     1
 90
        3
176
     1
 62
     5
420
      255
176
     1
290
     0
176
     1
 90
       50
176
     1
 90
       50
176
     1
 90
       50
176
     1
290
     0
176
     1
 90
       50
176
     1
 62
   256
176
     0
 40
1.0
176
     0
 90
        2
176
     1
  1
strokes_ogs.tif
176
     1
290
     0
176
     1
 40
1.0
176
     1
 40
1.0
176
     1
  0
VISUALSTYLE
  5
82CE
102
{ACAD_REACTORS
330
82BD
102
}
330
82BD
100
AcDbVisualStyle
  2
Shades of Gray
 70
    23
177
     3
291
     0
 70
    58
 90
        2
176
     1
 90
        2
176
     1
 90
        3
176
     1
 90
        0
176
     1
 40
0.6
176
     1
 40
30.0
176
     1
 62
     7
420
 16777215
176
     1
 90
        2
176
     1
 90
        2
176
     1
 62
     7
176
     1
 62
     7
176
     1
 90
        1
176
     1
 90
        1
176
     1
 40
40.0
176
     1
 90
        8
176
     1
 62
     7
176
     1
 40
1.0
176
     1
 90
        1
176
     1
 90
        6
176
     1
 90
        2
176
     1
 62
     7
176
     1
 90
        3
176
     1
 90
        0
176
     1
 90
        0
176
     1
290
     0
176
     1
 90
        1
176
     1
 40
0.0
176
     1
 90
        0
176
     1
290
     0
176
     1
290
     1
176
     1
290
     1
176
     1
290
     0
176
     1
290
     0
176
     1
290
     0
176
     1
290
     0
176
     1
290
     0
176
     1
290
     0
176
     1
 90
       50
176
     1
 40
0.0
176
     1
 40
1.0
176
     1
 90
        0
176
     1
 62
    18
420
        0
176
     1
 90
       50
176
     1
 90
        3
176
     1
 62
     5
420
      255
176
     1
290
     0
176
     1
 90
       50
176
     1
 90
       50
176
     1
 90
       50
176
     1
290
     0
176
     1
 90
       50
176
     1
 62
   256
176
     0
 40
1.0
176
     0
 90
        2
176
     1
  1
strokes_ogs.tif
176
     1
290
     0
176
     1
 40
1.0
176
     1
 40
1.0
176
     1
  0
VISUALSTYLE
  5
82CF
102
{ACAD_REACTORS
330
82BD
102
}
330
82BD
100
AcDbVisualStyle
  2
Sketchy
 70
    24
177
     3
291
     0
 70
    58
 90
        1
176
     1
 90
        2
176
     1
 90
        2
176
     1
 90
        0
176
     1
 40
0.6
176
     1
 40
30.0
176
     1
 62
     7
420
 16777215
176
     1
 90
        2
176
     1
 90
        2
176
     1
 62
     7
176
     1
 62
     7
176
     1
 90
        1
176
     1
 90
        1
176
     1
 40
40.0
176
     1
 90
       11
176
     1
 62
     7
176
     1
 40
1.0
176
     1
 90
        1
176
     1
 90
        6
176
     1
 90
        2
176
     1
 62
     7
176
     1
 90
        6
176
     1
 90
        0
176
     1
 90
        0
176
     1
290
     0
176
     1
 90
        1
176
     1
 40
0.0
176
     1
 90
        0
176
     1
290
     0
176
     1
290
     1
176
     1
290
     1
176
     1
290
     0
176
     1
290
     0
176
     1
290
     0
176
     1
290
     0
176
     1
290
     0
176
     1
290
     0
176
     1
 90
       50
176
     1
 40
0.0
176
     1
 40
1.0
176
     1
 90
        0
176
     1
 62
    18
420
        0
176
     1
 90
       50
176
     1
 90
        3
176
     1
 62
     5
420
      255
176
     1
290
     0
176
     1
 90
       50
176
     1
 90
       50
176
     1
 90
       50
176
     1
290
     0
176
     1
 90
       50
176
     1
 62
   256
176
     0
 40
1.0
176
     0
 90
        2
176
     1
  1
strokes_ogs.tif
176
     1
290
     0
176
     1
 40
1.0
176
     1
 40
1.0
176
     1
  0
VISUALSTYLE
  5
82CA
102
{ACAD_REACTORS
330
82BD
102
}
330
82BD
100
AcDbVisualStyle
  2
Thicken
 70
    13
177
     3
291
     1
 70
    58
 90
        2
176
     1
 90
        2
176
     1
 90
        0
176
     1
 90
        0
176
     1
 40
0.6
176
     1
 40
30.0
176
     1
 62
     7
420
 16777215
176
     1
 90
        1
176
     1
 90
        4
176
     1
 62
     7
176
     1
 62
   257
176
     1
 90
        1
176
     1
 90
        1
176
     1
 40
1.0
176
     1
 90
       12
176
     1
 62
     7
176
     1
 40
1.0
176
     1
 90
        1
176
     1
 90
        6
176
     1
 90
        2
176
     1
 62
     7
176
     1
 90
        5
176
     1
 90
        0
176
     1
 90
        0
176
     1
290
     0
176
     1
 90
        1
176
     1
 40
0.0
176
     1
 90
        0
176
     1
290
     0
176
     1
290
     1
176
     1
290
     1
176
     1
290
     0
176
     1
290
     0
176
     1
290
     0
176
     1
290
     0
176
     1
290
     0
176
     1
290
     0
176
     1
 90
       50
176
     1
 40
0.0
176
     1
 40
1.0
176
     1
 90
        0
176
     1
 62
    18
420
        0
176
     1
 90
       50
176
     1
 90
        3
176
     1
 62
     5
420
      255
176
     1
290
     0
176
     1
 90
       50
176
     1
 90
       50
176
     1
 90
       50
176
     1
290
     0
176
     1
 90
       50
176
     1
 62
   256
176
     0
 40
1.0
176
     0
 90
        2
176
     1
  1
strokes_ogs.tif
176
     1
290
     0
176
     1
 40
1.0
176
     1
 40
1.0
176
     1
  0
VISUALSTYLE
  5
82C4
102
{ACAD_REACTORS
330
82BD
102
}
330
82BD
100
AcDbVisualStyle
  2
Wireframe
 70
     5
177
     3
291
     0
 70
    58
 90
        0
176
     1
 90
        2
176
     1
 90
        0
176
     1
 90
        0
176
     1
 40
0.6
176
     1
 40
30.0
176
     1
 62
     7
420
 16777215
176
     1
 90
        1
176
     1
 90
        4
176
     1
 62
     7
176
     1
 62
   257
176
     1
 90
        1
176
     1
 90
        1
176
     1
 40
1.0
176
     1
 90
        0
176
     1
 62
   257
176
     1
 40
1.0
176
     1
 90
        1
176
     1
 90
        6
176
     1
 90
        2
176
     1
 62
     7
176
     1
 90
        3
176
     1
 90
        0
176
     1
 90
        0
176
     1
290
     0
176
     1
 90
        1
176
     1
 40
0.0
176
     1
 90
        0
176
     1
290
     0
176
     1
290
     1
176
     1
290
     1
176
     1
290
     0
176
     1
290
     0
176
     1
290
     0
176
     1
290
     0
176
     1
290
     0
176
     1
290
     0
176
     1
 90
       50
176
     1
 40
0.0
176
     1
 40
1.0
176
     1
 90
        0
176
     1
 62
    18
420
        0
176
     1
 90
       50
176
     1
 90
        3
176
     1
 62
     5
420
      255
176
     1
290
     0
176
     1
 90
       50
176
     1
 90
       50
176
     1
 90
       50
176
     1
290
     0
176
     1
 90
       50
176
     1
 62
   256
176
     0
 40
1.0
176
     0
 90
        2
176
     1
  1
strokes_ogs.tif
176
     1
290
     0
176
     1
 40
1.0
176
     1
 40
1.0
176
     1
  0
VISUALSTYLE
  5
82D0
102
{ACAD_REACTORS
330
82BD
102
}
330
82BD
100
AcDbVisualStyle
  2
X-Ray
 70
    25
177
     3
291
     0
 70
    58
 90
        2
176
     1
 90
        2
176
     1
 90
        1
176
     1
 90
        1
176
     1
 40
0.5
176
     1
 40
30.0
176
     1
 62
     7
420
 16777215
176
     1
 90
        1
176
     1
 90
        0
176
     1
 62
     7
176
     1
 62
   257
176
     1
 90
        1
176
     1
 90
        1
176
     1
 40
1.0
176
     1
 90
        8
176
     1
 62
     7
176
     1
 40
1.0
176
     1
 90
        1
176
     1
 90
        6
176
     1
 90
        2
176
     1
 62
     7
176
     1
 90
        3
176
     1
 90
        0
176
     1
 90
        0
176
     1
290
     0
176
     1
 90
       13
176
     1
 40
0.0
176
     1
 90
        0
176
     1
290
     0
176
     1
290
     1
176
     1
290
     1
176
     1
290
     0
176
     1
290
     0
176
     1
290
     0
176
     1
290
     0
176
     1
290
     0
176
     1
290
     0
176
     1
 90
       50
176
     1
 40
0.0
176
     1
 40
1.0
176
     1
 90
        0
176
     1
 62
    18
420
        0
176
     1
 90
       50
176
     1
 90
        3
176
     1
 62
     5
420
      255
176
     1
290
     0
176
     1
 90
       50
176
     1
 90
       50
176
     1
 90
       50
176
     1
290
     0
176
     1
 90
       50
176
     1
 62
   256
176
     0
 40
1.0
176
     0
 90
        2
176
     1
  1
strokes_ogs.tif
176
     1
290
     0
176
     1
 40
1.0
176
     1
 40
1.0
176
     1
  0
DICTIONARYVAR
  5
8359
102
{ACAD_REACTORS
330
8353
102
}
330
8353
100
DictionaryVariables
280
     0
  1
1:1
  0
DICTIONARYVAR
  5
8355
102
{ACAD_REACTORS
330
8353
102
}
330
8353
100
DictionaryVariables
280
     0
  1
STANDARD
  0
DICTIONARYVAR
  5
8354
102
{ACAD_REACTORS
330
8353
102
}
330
8353
100
DictionaryVariables
280
     0
  1
STANDARD
  0
DICTIONARYVAR
  5
8356
102
{ACAD_REACTORS
330
8353
102
}
330
8353
100
DictionaryVariables
280
     0
  1
Metric50
  0
DICTIONARYVAR
  5
8357
102
{ACAD_REACTORS
330
8353
102
}
330
8353
100
DictionaryVariables
280
     0
  1
Metric50
  0
DICTIONARYVAR
  5
835B
102
{ACAD_REACTORS
330
8353
102
}
330
8353
100
DictionaryVariables
280
     0
  1
1
  0
DICTIONARYVAR
  5
835C
102
{ACAD_REACTORS
330
8353
102
}
330
8353
100
DictionaryVariables
280
     0
  1
15
  0
DICTIONARYVAR
  5
835A
102
{ACAD_REACTORS
330
8353
102
}
330
8353
100
DictionaryVariables
280
     0
  1
0
  0
DICTIONARYVAR
  5
8358
102
{ACAD_REACTORS
330
8353
102
}
330
8353
100
DictionaryVariables
280
     0
  1
0
  0
DICTIONARY
  5
8350
330
82F0
100
AcDbDictionary
280
     1
281
     1
  3
ACAD_XREC_ROUNDTRIP
360
83B8
  0
DICTIONARY
  5
82AE
330
82AD
100
AcDbDictionary
280
     1
281
     1
  3
BUMPTILE
360
82B0
  3
DIFFUSETILE
360
82AF
  3
OPACITYTILE
360
82B3
  3
REFLECTIONTILE
360
82B2
  3
REFRACTIONTILE
360
82B4
  3
SPECULARTILE
360
82B1
  0
DICTIONARY
  5
82A6
330
82A5
100
AcDbDictionary
280
     1
281
     1
  3
BUMPTILE
360
82A8
  3
DIFFUSETILE
360
82A7
  3
OPACITYTILE
360
82AB
  3
REFLECTIONTILE
360
82AA
  3
REFRACTIONTILE
360
82AC
  3
SPECULARTILE
360
82A9
  0
DICTIONARY
  5
82B6
330
82B5
100
AcDbDictionary
280
     1
281
     1
  3
BUMPTILE
360
82B8
  3
DIFFUSETILE
360
82B7
  3
OPACITYTILE
360
82BB
  3
REFLECTIONTILE
360
82BA
  3
REFRACTIONTILE
360
82BC
  3
SPECULARTILE
360
82B9
  0
DICTIONARY
  5
834E
330
82EE
100
AcDbDictionary
280
     1
281
     1
  3
ACAD_XREC_ROUNDTRIP
360
83B7
  0
DICTIONARY
  5
83B5
330
82D8
100
AcDbDictionary
280
     1
281
     1
  3
ACAD_ROUNDTRIP_2008_TABLESTYLE_CELLSTYLEMAP
360
83B6
  0
XRECORD
  5
83B8
102
{ACAD_REACTORS
330
8350
102
}
330
8350
100
AcDbXrecord
280
     1
102
DISPLAYNAME
  1
Metric50
102
FLAGS
 90
        0
  0
XRECORD
  5
82B0
102
{ACAD_REACTORS
330
82AE
102
}
330
82AE
100
AcDbXrecord
280
     1
270
     1
271
     1
  0
XRECORD
  5
82AF
102
{ACAD_REACTORS
330
82AE
102
}
330
82AE
100
AcDbXrecord
280
     1
270
     1
271
     1
  0
XRECORD
  5
82B3
102
{ACAD_REACTORS
330
82AE
102
}
330
82AE
100
AcDbXrecord
280
     1
270
     1
271
     1
  0
XRECORD
  5
82B2
102
{ACAD_REACTORS
330
82AE
102
}
330
82AE
100
AcDbXrecord
280
     1
270
     1
271
     1
  0
XRECORD
  5
82B4
102
{ACAD_REACTORS
330
82AE
102
}
330
82AE
100
AcDbXrecord
280
     1
270
     1
271
     1
  0
XRECORD
  5
82B1
102
{ACAD_REACTORS
330
82AE
102
}
330
82AE
100
AcDbXrecord
280
     1
270
     1
271
     1
  0
XRECORD
  5
82A8
102
{ACAD_REACTORS
330
82A6
102
}
330
82A6
100
AcDbXrecord
280
     1
270
     1
271
     1
  0
XRECORD
  5
82A7
102
{ACAD_REACTORS
330
82A6
102
}
330
82A6
100
AcDbXrecord
280
     1
270
     1
271
     1
  0
XRECORD
  5
82AB
102
{ACAD_REACTORS
330
82A6
102
}
330
82A6
100
AcDbXrecord
280
     1
270
     1
271
     1
  0
XRECORD
  5
82AA
102
{ACAD_REACTORS
330
82A6
102
}
330
82A6
100
AcDbXrecord
280
     1
270
     1
271
     1
  0
XRECORD
  5
82AC
102
{ACAD_REACTORS
330
82A6
102
}
330
82A6
100
AcDbXrecord
280
     1
270
     1
271
     1
  0
XRECORD
  5
82A9
102
{ACAD_REACTORS
330
82A6
102
}
330
82A6
100
AcDbXrecord
280
     1
270
     1
271
     1
  0
XRECORD
  5
82B8
102
{ACAD_REACTORS
330
82B6
102
}
330
82B6
100
AcDbXrecord
280
     1
270
     1
271
     1
  0
XRECORD
  5
82B7
102
{ACAD_REACTORS
330
82B6
102
}
330
82B6
100
AcDbXrecord
280
     1
270
     1
271
     1
  0
XRECORD
  5
82BB
102
{ACAD_REACTORS
330
82B6
102
}
330
82B6
100
AcDbXrecord
280
     1
270
     1
271
     1
  0
XRECORD
  5
82BA
102
{ACAD_REACTORS
330
82B6
102
}
330
82B6
100
AcDbXrecord
280
     1
270
     1
271
     1
  0
XRECORD
  5
82BC
102
{ACAD_REACTORS
330
82B6
102
}
330
82B6
100
AcDbXrecord
280
     1
270
     1
271
     1
  0
XRECORD
  5
82B9
102
{ACAD_REACTORS
330
82B6
102
}
330
82B6
100
AcDbXrecord
280
     1
270
     1
271
     1
  0
XRECORD
  5
83B7
102
{ACAD_REACTORS
330
834E
102
}
330
834E
100
AcDbXrecord
280
     1
102
DISPLAYNAME
  1
Metric50
102
FLAGS
 90
        0
  0
CELLSTYLEMAP
  5
83B6
102
{ACAD_REACTORS
330
83B5
102
}
330
83B5
100
AcDbCellStyleMap
 90
        3
300
CELLSTYLE
  1
TABLEFORMAT_BEGIN
 90
        5
170
     1
 91
        0
 92
    32768
 62
   257
 93
        1
300
CONTENTFORMAT
  1
CONTENTFORMAT_BEGIN
 90
        0
 91
        0
 92
      512
 93
        0
300

 40
0.0
140
1.0
 94
        5
 62
     0
340
10
144
6.0
309
CONTENTFORMAT_END
171
     1
301
MARGIN
  1
CELLMARGIN_BEGIN
 40
1.5
 40
1.5
 40
1.5
 40
1.5
 40
4.5
 40
4.5
309
CELLMARGIN_END
 94
        6
 95
        1
302
GRIDFORMAT
  1
GRIDFORMAT_BEGIN
 90
        0
 91
        1
 62
     0
 92
       -2
340
0
 93
        0
 40
1.125
309
GRIDFORMAT_END
 95
        2
302
GRIDFORMAT
  1
GRIDFORMAT_BEGIN
 90
        0
 91
        1
 62
     0
 92
       -2
340
0
 93
        0
 40
1.125
309
GRIDFORMAT_END
 95
        4
302
GRIDFORMAT
  1
GRIDFORMAT_BEGIN
 90
        0
 91
        1
 62
     0
 92
       -2
340
0
 93
        0
 40
1.125
309
GRIDFORMAT_END
 95
        8
302
GRIDFORMAT
  1
GRIDFORMAT_BEGIN
 90
        0
 91
        1
 62
     0
 92
       -2
340
0
 93
        0
 40
1.125
309
GRIDFORMAT_END
 95
       16
302
GRIDFORMAT
  1
GRIDFORMAT_BEGIN
 90
        0
 91
        1
 62
     0
 92
       -2
340
0
 93
        0
 40
1.125
309
GRIDFORMAT_END
 95
       32
302
GRIDFORMAT
  1
GRIDFORMAT_BEGIN
 90
        0
 91
        1
 62
     0
 92
       -2
340
0
 93
        0
 40
1.125
309
GRIDFORMAT_END
309
TABLEFORMAT_END
  1
CELLSTYLE_BEGIN
 90
        1
 91
        1
300
_TITLE
309
CELLSTYLE_END
300
CELLSTYLE
  1
TABLEFORMAT_BEGIN
 90
        5
170
     1
 91
        0
 92
        0
 62
   257
 93
        1
300
CONTENTFORMAT
  1
CONTENTFORMAT_BEGIN
 90
        0
 91
        0
 92
      512
 93
        0
300

 40
0.0
140
1.0
 94
        5
 62
     0
340
10
144
4.5
309
CONTENTFORMAT_END
171
     1
301
MARGIN
  1
CELLMARGIN_BEGIN
 40
1.5
 40
1.5
 40
1.5
 40
1.5
 40
4.5
 40
4.5
309
CELLMARGIN_END
 94
        6
 95
        1
302
GRIDFORMAT
  1
GRIDFORMAT_BEGIN
 90
        0
 91
        1
 62
     0
 92
       -2
340
0
 93
        0
 40
1.125
309
GRIDFORMAT_END
 95
        2
302
GRIDFORMAT
  1
GRIDFORMAT_BEGIN
 90
        0
 91
        1
 62
     0
 92
       -2
340
0
 93
        0
 40
1.125
309
GRIDFORMAT_END
 95
        4
302
GRIDFORMAT
  1
GRIDFORMAT_BEGIN
 90
        0
 91
        1
 62
     0
 92
       -2
340
0
 93
        0
 40
1.125
309
GRIDFORMAT_END
 95
        8
302
GRIDFORMAT
  1
GRIDFORMAT_BEGIN
 90
        0
 91
        1
 62
     0
 92
       -2
340
0
 93
        0
 40
1.125
309
GRIDFORMAT_END
 95
       16
302
GRIDFORMAT
  1
GRIDFORMAT_BEGIN
 90
        0
 91
        1
 62
     0
 92
       -2
340
0
 93
        0
 40
1.125
309
GRIDFORMAT_END
 95
       32
302
GRIDFORMAT
  1
GRIDFORMAT_BEGIN
 90
        0
 91
        1
 62
     0
 92
       -2
340
0
 93
        0
 40
1.125
309
GRIDFORMAT_END
309
TABLEFORMAT_END
  1
CELLSTYLE_BEGIN
 90
        2
 91
        1
300
_HEADER
309
CELLSTYLE_END
300
CELLSTYLE
  1
TABLEFORMAT_BEGIN
 90
        5
170
     1
 91
        0
 92
        0
 62
   257
 93
        1
300
CONTENTFORMAT
  1
CONTENTFORMAT_BEGIN
 90
        0
 91
        0
 92
      512
 93
        0
300

 40
0.0
140
1.0
 94
        2
 62
     0
340
10
144
4.5
309
CONTENTFORMAT_END
171
     1
301
MARGIN
  1
CELLMARGIN_BEGIN
 40
1.5
 40
1.5
 40
1.5
 40
1.5
 40
4.5
 40
4.5
309
CELLMARGIN_END
 94
        6
 95
        1
302
GRIDFORMAT
  1
GRIDFORMAT_BEGIN
 90
        0
 91
        1
 62
     0
 92
       -2
340
0
 93
        0
 40
1.125
309
GRIDFORMAT_END
 95
        2
302
GRIDFORMAT
  1
GRIDFORMAT_BEGIN
 90
        0
 91
        1
 62
     0
 92
       -2
340
0
 93
        0
 40
1.125
309
GRIDFORMAT_END
 95
        4
302
GRIDFORMAT
  1
GRIDFORMAT_BEGIN
 90
        0
 91
        1
 62
     0
 92
       -2
340
0
 93
        0
 40
1.125
309
GRIDFORMAT_END
 95
        8
302
GRIDFORMAT
  1
GRIDFORMAT_BEGIN
 90
        0
 91
        1
 62
     0
 92
       -2
340
0
 93
        0
 40
1.125
309
GRIDFORMAT_END
 95
       16
302
GRIDFORMAT
  1
GRIDFORMAT_BEGIN
 90
        0
 91
        1
 62
     0
 92
       -2
340
0
 93
        0
 40
1.125
309
GRIDFORMAT_END
 95
       32
302
GRIDFORMAT
  1
GRIDFORMAT_BEGIN
 90
        0
 91
        1
 62
     0
 92
       -2
340
0
 93
        0
 40
1.125
309
GRIDFORMAT_END
309
TABLEFORMAT_END
  1
CELLSTYLE_BEGIN
 90
        3
 91
        2
300
_DATA
309
CELLSTYLE_END
  0
ENDSEC
  0
SECTION
  2
ACDSDATA
 70
     2
 71
     8
  0
ACDSSCHEMA
 90
        0
  1
AcDb_Thumbnail_Schema
  2
AcDbDs::ID
280
    10
 91
        8
  2
Thumbnail_Data
280
    15
 91
        0
101
ACDSRECORD
 95
        0
 90
        1
  2
AcDbDs::TreatedAsObjectData
280
     1
291
     1
101
ACDSRECORD
 95
        0
 90
        2
  2
AcDbDs::Legacy
280
     1
291
     1
101
ACDSRECORD
  1
AcDbDs::ID
 90
        3
  2
AcDs:Indexable
280
     1
291
     1
101
ACDSRECORD
  1
AcDbDs::ID
 90
        4
  2
AcDbDs::HandleAttribute
280
     7
282
     1
  0
ACDSSCHEMA
 90
        1
  1
AcDbDs::TreatedAsObjectDataSchema
  2
AcDbDs::TreatedAsObjectData
280
     1
 91
        0
  0
ACDSSCHEMA
 90
        2
  1
AcDbDs::LegacySchema
  2
AcDbDs::Legacy
280
     1
 91
        0
  0
ACDSSCHEMA
 90
        3
  1
AcDbDs::IndexedPropertySchema
  2
AcDs:Indexable
280
     1
 91
        0
  0
ACDSSCHEMA
 90
        4
  1
AcDbDs::HandleAttributeSchema
  2
AcDbDs::HandleAttribute
280
     7
 91
        1
284
     1
  0
ACDSRECORD
 90
        0
  2
AcDbDs::ID
280
    10
320
8298
  2
Thumbnail_Data
280
    15
 94
     2092
310
89504E470D0A1A0A0000000D49484452000001000000007C0803000000B13B9E5A00000300504C5445000000000000C8C8C80000000000000000000000000000000000000000000000000000330000660000990000CC0000FF0033000033330033660033990033CC0033FF0066000066330066660066990066CC0066FF0099
310
000099330099660099990099CC0099FF00CC0000CC3300CC6600CC9900CCCC00CCFF00FF0000FF3300FF6600FF9900FFCC00FFFF3300003300333300663300993300CC3300FF3333003333333333663333993333CC3333FF3366003366333366663366993366CC3366FF3399003399333399663399993399CC3399FF33CC00
310
33CC3333CC6633CC9933CCCC33CCFF33FF0033FF3333FF6633FF9933FFCC33FFFF6600006600336600666600996600CC6600FF6633006633336633666633996633CC6633FF6666006666336666666666996666CC6666FF6699006699336699666699996699CC6699FF66CC0066CC3366CC6666CC9966CCCC66CCFF66FF0066
310
FF3366FF6666FF9966FFCC66FFFF9900009900339900669900999900CC9900FF9933009933339933669933999933CC9933FF9966009966339966669966999966CC9966FF9999009999339999669999999999CC9999FF99CC0099CC3399CC6699CC9999CCCC99CCFF99FF0099FF3399FF6699FF9999FFCC99FFFFCC0000CC00
310
33CC0066CC0099CC00CCCC00FFCC3300CC3333CC3366CC3399CC33CCCC33FFCC6600CC6633CC6666CC6699CC66CCCC66FFCC9900CC9933CC9966CC9999CC99CCCC99FFCCCC00CCCC33CCCC66CCCC99CCCCCCCCCCFFCCFF00CCFF33CCFF66CCFF99CCFFCCCCFFFFFF0000FF0033FF0066FF0099FF00CCFF00FFFF3300FF3333
310
FF3366FF3399FF33CCFF33FFFF6600FF6633FF6666FF6699FF66CCFF66FFFF9900FF9933FF9966FF9999FF99CCFF99FFFFCC00FFCC33FFCC66FFCC99FFCCCCFFCCFFFFFF00FFFF33FFFF66FFFF99FFFFCCFFFFFF0000000D0D0D1A1A1A2828283535354343435050505D5D5D6B6B6B787878868686939393A1A1A1AEAEAEBB
310
BBBBC9C9C9D6D6D6E4E4E4F1F1F1FFFFFF00000000000000000000000000000000000000000000000000000000000008F1915C000003294944415478DAED9DD17683200C86F338DCF0FE2FC36B703F118C4441EDD66D4DF2D333B755CB693E7F02249412FD42C9BF54484BC9AAAA0500000000000080CF79A7179D9F170087
310
9767970A700F207B06706805BA01BC7506A012C087550600FF00A0E978FFD57E6820F43C30D20200AAD6B2C9C420D8FA15098DA6FC3614207520C49059109601641EE4659222E04E2FC3099A04E07D1CF0D61A7402104E2F9F65D15DCFCE611B10DB8807DC00C86CEBDE455277B11D05649EE3C8FB9FA97B9ABA871505BCEF
310
F5880902000000000000000018009096E210409A153700667A7005206EC52380D8179700AA02F8E80F400821C6B03E627005A07AFB7AEFD7DB3F690D760154FF376A020B0C3F0086C51580633718BC29606B073419123803B02A8000C03E8036DF0100000000384100700E400C7D3C0E8426B30147B3C1B8A8BE9B0886436C
310
C47A3CC0AF0288AEE6C36E007C68B50000000000000000000000007FF94EBFB744443D80E72B44C6CFDB00C011B2FDD94B00DDD5461440C7BB9B6E5562B1094C018C556304403DBC02A04AC616809715600DC0C9CE0B00167CC0C9A3AD51A03E3C26018810918C19295540E29EAE1CE306603752008844F600A41E4035A737
310
F20A40C99D5802B0D8126E01D00940F303FA0114EBD66CD8430071578019006D5DD81C80F4810D807205D00E60CD0CF5D9C1010099333002A09490CA22D910B6C5B2B1D13801085BA97F2E47BD00B6F9DFE1EE524D92170C0305986A02F5AD8F01D44CE91300A41B406205B00F28DD4193BA0450146FAA179000AA41C4ABC5
310
1F2A2029F701A9F7016137B1FC43F11E80EA88D0A909F028603C198A832CBAF290183BC1D9FA88AB7140FFC912F503215E21DFB9BCF3E8F750950500321270B344C4A20264042CBC581700A009187082347382E4C009A61F2A20A957C0A682E60C929827F2497125F5A9C13D3BA8FDF302E990F3DC4D14D78AB32231A01EC0
310
93F4F8D5257A9BC0B736CC78D0B2F4F80002003EE57D47C98965758BD5E1594700C637DE1A001A7C6D52DB6B317B53804F1F305600F53B6CCE2A33EC0378ABEDCB9D44AD0198B40B470AC0CED2180A0300000000000000000000000000001803A0E8ABB7BF007E58A86BE37B84D70000000049454E44AE42608215115C8A68
310
C780FBEDB5A25D208FCB8ECD5DE9E322AE95E8173D17580D00A38022A49745447D1760226605005601105D803C462A3977880D2C80CBCF070084C50072FE9F8901A97C026615307681350084BF6A50FF2912CC00E8BA80BCB9C01800F67F70876110EC0110391B64015CE61AA89EA164497AFCD630281040BAF2710390C701
310
5BECE8BA0099F1947AE2D0C84A846A00A46CD6B2E94107005B5F62E6FE8B904CB0CE03C864D78C6683652660E9F98035004CD64C396813E034F06100FF00F6890E979190AF530000000049454E44AE4260822A6152D44CC2DD29805B3955AFD70025E4E77C0A80739ABAAC48C91F968DE0EE79F59C607A6AD45A005EA30078
310
31007E6D60CDC4CA7DF900F237058504DEB8B451005C6D881C00C0D80A90B7244C00430080D14D800985438541F2FEE232584788D9A33F1880D1BBC2230308EC13EAC40952650500AF80A46D72907C32C5D7D40C008D0E203D61829CF6231980B43F94028B991B0190F305C8A97F321440EE8A250700D405E05F9CAC8122F0
310
E96DA4C44A3926C067D121BD9E9FADF657AEF1495240C004E83326C028E056C98FBE89F5E601F803BD1F09062784C91E0000000049454E44AE426082
  0
ENDSEC
  0
EOF
