  0
SECTION
  2
HEADER
  9
$ACADVER
  1
AC1009
  9
$INSBASE
 10
0.0
 20
0.0
 30
0.0
  9
$EXTMIN
 10
0.0
 20
0.0
 30
0.0
  9
$EXTMAX
 10
2100.0
 20
2950.0
 30
0.0
  9
$LIMMIN
 10
0.0
 20
0.0
  9
$LIMMAX
 10
297.0
 20
210.0
  9
$ORTHOMODE
 70
     0
  9
$REGENMODE
 70
     1
  9
$FILLMODE
 70
     0
  9
$QTEXTMODE
 70
     0
  9
$MIRRTEXT
 70
     1
  9
$DRAGMODE
 70
     2
  9
$LTSCALE
 40
100.0
  9
$OSMODE
 70
    37
  9
$ATTMODE
 70
     1
  9
$TEXTSIZE
 40
180.0
  9
$TRACEWID
 40
0.05
  9
$TEXTSTYLE
  7
STANDARD
  9
$CLAYER
  8
3
  9
$CELTYPE
  6
BYLAYER
  9
$CECOLOR
 62
   256
  9
$DIMSCALE
 40
10.0
  9
$DIMASZ
 40
2.0
  9
$DIMEXO
 40
0.5
  9
$DIMDLI
 40
10.0
  9
$DIMRND
 40
0.0
  9
$DIMDLE
 40
0.0
  9
$DIMEXE
 40
1.0
  9
$DIMTP
 40
1.0
  9
$DIMTM
 40
1.0
  9
$DIMTXT
 40
3.0
  9
$DIMCEN
 40
0.0
  9
$DIMTSZ
 40
0.0
  9
$DIMTOL
 70
     0
  9
$DIMLIM
 70
     0
  9
$DIMTIH
 70
     0
  9
$DIMTOH
 70
     0
  9
$DIMSE1
 70
     0
  9
$DIMSE2
 70
     0
  9
$DIMTAD
 70
     1
  9
$DIMZIN
 70
     8
  9
$DIMBLK
  1

  9
$DIMASO
 70
     1
  9
$DIMSHO
 70
     1
  9
$DIMPOST
  1

  9
$DIMAPOST
  1

  9
$DIMALT
 70
     0
  9
$DIMALTD
 70
     2
  9
$DIMALTF
 40
0.039
  9
$DIMLFAC
 40
1.0
  9
$DIMTOFL
 70
     1
  9
$DIMTVP
 40
0.0
  9
$DIMTIX
 70
     0
  9
$DIMSOXD
 70
     0
  9
$DIMSAH
 70
     1
  9
$DIMBLK1
  1
OPEN
  9
$DIMBLK2
  1
OPEN
  9
$DIMSTYLE
  2
IGA
  9
$DIMCLRD
 70
     0
  9
$DIMCLRE
 70
     0
  9
$DIMCLRT
 70
     0
  9
$DIMTFAC
 40
10.0
  9
$DIMGAP
 40
1.0
  9
$LUNITS
 70
     2
  9
$LUPREC
 70
     3
  9
$SKETCHINC
 40
0.1
  9
$FILLETRAD
 40
50.0
  9
$AUNITS
 70
     0
  9
$AUPREC
 70
     0
  9
$MENU
  1
acad
  9
$ELEVATION
 40
0.0
  9
$PELEVATION
 40
0.0
  9
$THICKNESS
 40
0.0
  9
$LIMCHECK
 70
     0
  9
$BLIPMODE
 70
     0
  9
$CHAMFERA
 40
0.5
  9
$CHAMFERB
 40
0.5
  9
$SKPOLY
 70
     0
  9
$TDCREATE
 40
2451935.566007175
  9
$TDUPDATE
 40
2454953.7495493279
  9
$TDINDWG
 40
0.0589263194
  9
$TDUSRTIMER
 40
0.0589263194
  9
$USRTIMER
 70
     1
  9
$ANGBASE
 50
0.0
  9
$ANGDIR
 70
     0
  9
$PDMODE
 70
     0
  9
$PDSIZE
 40
0.0
  9
$PLINEWID
 40
0.0
  9
$COORDS
 70
     1
  9
$SPLFRAME
 70
     0
  9
$SPLINETYPE
 70
     6
  9
$SPLINESEGS
 70
     8
  9
$ATTDIA
 70
     0
  9
$ATTREQ
 70
     1
  9
$HANDLING
 70
 10241
  9
$HANDSEED
  5
830A
  9
$SURFTAB1
 70
     6
  9
$SURFTAB2
 70
     6
  9
$SURFTYPE
 70
     6
  9
$SURFU
 70
     6
  9
$SURFV
 70
     6
  9
$UCSNAME
  2

  9
$UCSORG
 10
0.0
 20
0.0
 30
0.0
  9
$UCSXDIR
 10
1.0
 20
0.0
 30
0.0
  9
$UCSYDIR
 10
0.0
 20
1.0
 30
0.0
  9
$PUCSNAME
  2

  9
$PUCSORG
 10
0.0
 20
0.0
 30
0.0
  9
$PUCSXDIR
 10
1.0
 20
0.0
 30
0.0
  9
$PUCSYDIR
 10
0.0
 20
1.0
 30
0.0
  9
$USERI1
 70
     0
  9
$USERI2
 70
     0
  9
$USERI3
 70
     0
  9
$USERI4
 70
     0
  9
$USERI5
 70
     0
  9
$USERR1
 40
0.0
  9
$USERR2
 40
0.0
  9
$USERR3
 40
0.0
  9
$USERR4
 40
0.0
  9
$USERR5
 40
0.0
  9
$WORLDVIEW
 70
     1
  9
$SHADEDGE
 70
     3
  9
$SHADEDIF
 70
    70
  9
$TILEMODE
 70
     1
  9
$MAXACTVP
 70
    16
  9
$PLIMCHECK
 70
     0
  9
$PEXTMIN
 10
1.0000000000000000E+020
 20
1.0000000000000000E+020
 30
1.0000000000000000E+020
  9
$PEXTMAX
 10
-1.0000000000000000E+020
 20
-1.0000000000000000E+020
 30
-1.0000000000000000E+020
  9
$PLIMMIN
 10
0.0
 20
0.0
  9
$PLIMMAX
 10
12.0
 20
9.0
  9
$UNITMODE
 70
     0
  9
$VISRETAIN
 70
     0
  9
$PLINEGEN
 70
     0
  9
$PSLTSCALE
 70
     1
  0
ENDSEC
  0
SECTION
  2
TABLES
  0
TABLE
  2
VPORT
 70
     2
  0
VPORT
  2
*ACTIVE
 70
     0
 10
0.0
 20
0.0
 11
1.0
 21
1.0
 12
3536.6099588513671
 22
1475.0000068685031
 13
0.0
 23
0.0
 14
10.0
 24
10.0
 15
10.0
 25
10.0
 16
0.0
 26
0.0
 36
1.0
 17
0.0
 27
0.0
 37
0.0
 40
2972.614883016935
 41
3.1666666666666661
 42
50.0
 43
0.0
 44
0.0
 50
0.0
 51
0.0
 71
     0
 72
   100
 73
     1
 74
     0
 75
     0
 76
     0
 77
     0
 78
     0
  0
ENDTAB
  0
TABLE
  2
LTYPE
 70
     2
  0
LTYPE
  2
CONTINUOUS
 70
     0
  3
Solid line
 72
    65
 73
     0
 40
0.0
  0
LTYPE
  2
CENTER
 70
     0
  3
____ _ ____ _ ____ _ ____ _ ____ _ ____ _ ____ 
 72
    65
 73
     4
 40
2.0
 49
1.25
 49
-0.25
 49
0.25
 49
-0.25
  0
ENDTAB
  0
TABLE
  2
LAYER
 70
     6
  0
LAYER
  2
0
 70
     0
 62
     7
  6
CONTINUOUS
  0
LAYER
  2
3
 70
     0
 62
     2
  6
CONTINUOUS
  0
LAYER
  2
2
 70
     0
 62
     3
  6
CENTER
  0
LAYER
  2
1
 70
     0
 62
     4
  6
CONTINUOUS
  0
LAYER
  2
4
 70
     0
 62
     7
  6
CONTINUOUS
  0
LAYER
  2
DEFPOINTS
 70
     0
 62
     7
  6
CONTINUOUS
  0
ENDTAB
  0
TABLE
  2
STYLE
 70
     1
  0
STYLE
  2
STANDARD
 70
     0
 40
0.0
 41
1.0
 50
0.0
 71
     0
 42
180.0
  3
simplex.shx
  4
extfont.shx
  0
ENDTAB
  0
TABLE
  2
VIEW
 70
     0
  0
ENDTAB
  0
TABLE
  2
UCS
 70
     0
  0
ENDTAB
  0
TABLE
  2
APPID
 70
     1
  0
APPID
  2
ACAD
 70
     0
  0
ENDTAB
  0
TABLE
  2
DIMSTYLE
 70
     1
  0
DIMSTYLE
  2
IGA
 70
     0
  3

  4

  5

  6
OPEN
  7
OPEN
 40
2.0
 41
2.0
 42
0.5
 43
10.0
 44
1.0
 45
0.0
 46
0.0
 47
1.0
 48
1.0
140
3.0
141
0.0
142
0.0
143
0.03937
144
1.0
145
0.0
146
10.0
147
1.0
 71
     0
 72
     0
 73
     0
 74
     0
 75
     0
 76
     0
 77
     1
 78
     8
170
     0
171
     2
172
     0
173
     1
174
     0
175
     0
176
     0
177
     0
178
     0
  0
ENDTAB
  0
ENDSEC
  0
SECTION
  2
BLOCKS
  0
BLOCK
  8
0
  2
$MODEL_SPACE
 70
     0
 10
0.0
 20
0.0
 30
0.0
  3
$MODEL_SPACE
  1

  0
ENDBLK
  5
1B
  8
0
  0
BLOCK
 67
     1
  8
0
  2
$PAPER_SPACE
 70
     0
 10
0.0
 20
0.0
 30
0.0
  3
$PAPER_SPACE
  1

  0
ENDBLK
  5
18
 67
     1
  8
0
  0
BLOCK
  8
0
  2
_OPEN
 70
     0
 10
0.0
 20
0.0
 30
0.0
  3
_OPEN
  1

  0
LINE
  5
79FD
  8
0
  6
BYBLOCK
 62
     0
 10
-1.0
 20
0.1666666666666666
 30
0.0
 11
0.0
 21
0.0
 31
0.0
  0
LINE
  5
79FE
  8
0
  6
BYBLOCK
 62
     0
 10
0.0
 20
0.0
 30
0.0
 11
-1.0
 21
-0.1666666666666666
 31
0.0
  0
LINE
  5
79FF
  8
0
  6
BYBLOCK
 62
     0
 10
0.0
 20
0.0
 30
0.0
 11
-1.0
 21
0.0
 31
0.0
  0
ENDBLK
  5
7A01
  8
0
  0
BLOCK
  8
0
  2
YA_N
 70
     0
 10
0.0
 20
0.0
 30
0.0
  3
YA_N
  1

  0
ENDBLK
  5
7A04
  8
0
  0
BLOCK
  8
0
  2
*D2
 70
     1
 10
0.0
 20
0.0
 30
0.0
  3
*D2
  1

  0
LINE
  5
8264
  8
3
 62
     0
 10
441.30783292765142
 20
869.61034564866623
 30
0.0
 11
380.37468018288843
 21
869.61034564866623
 31
0.0
  0
LINE
  5
8265
  8
3
 62
     0
 10
441.30783292765182
 20
1029.610345648666
 30
0.0
 11
380.37468018288848
 21
1029.610345648666
 31
0.0
  0
LINE
  5
8266
  8
3
 62
     0
 10
390.37468018288848
 20
889.61034564866611
 30
0.0
 11
390.37468018288848
 21
1009.610345648666
 31
0.0
  0
INSERT
  5
8267
  8
3
 62
     0
  2
_OPEN
 10
390.37468018288848
 20
869.61034564866623
 30
0.0
 41
20.0
 42
20.0
 43
20.0
 50
270.0
  0
INSERT
  5
8268
  8
3
 62
     0
  2
_OPEN
 10
390.37468018288848
 20
1029.610345648666
 30
0.0
 41
20.0
 42
20.0
 43
20.0
 50
90.0
  0
TEXT
  8
3
  40
30
  5
82F9
  62
0
  72
0
  71
0
 10
305.375
 20
910.796
 30
0.000000
  1
160
  0
POINT
  5
826A
  8
DEFPOINTS
 62
     0
 10
446.3078329276513
 20
869.61034564866623
 30
0.0
  0
POINT
  5
826B
  8
DEFPOINTS
 62
     0
 10
446.30783292765182
 20
1029.610345648666
 30
0.0
  0
POINT
  5
826C
  8
DEFPOINTS
 62
     0
 10
390.37468018288848
 20
1029.610345648666
 30
0.0
  0
ENDBLK
  5
8028
  8
0
  0
BLOCK
  8
0
  2
*D3
 70
     1
 10
0.0
 20
0.0
 30
0.0
  3
*D3
  1

  0
LINE
  5
826D
  8
3
 62
     0
 10
1781.474917534525
 20
1111.5603509468069
 30
0.0
 11
1867.1155813440621
 21
1111.5603509468069
 31
0.0
  0
LINE
  5
826E
  8
3
 62
     0
 10
1781.474917534525
 20
935.56035094680749
 30
0.0
 11
1867.1155813440621
 21
935.56035094680726
 31
0.0
  0
LINE
  5
826F
  8
3
 62
     0
 10
1857.1155813440621
 20
1091.5603509468069
 30
0.0
 11
1857.1155813440621
 21
955.56035094680738
 31
0.0
  0
INSERT
  5
8270
  8
3
 62
     0
  2
_OPEN
 10
1857.1155813440621
 20
1111.5603509468069
 30
0.0
 41
20.0
 42
20.0
 43
20.0
 50
90.0
  0
INSERT
  5
8271
  8
3
 62
     0
  2
_OPEN
 10
1857.1155813440621
 20
935.56035094680726
 30
0.0
 41
20.0
 42
20.0
 43
20.0
 50
270.0
  0
TEXT
  8
3
  40
30
  5
82FA
  62
0
  72
0
  71
0
 10
1772.12
 20
970.460
 30
0.000000
  1
φ176
  0
POINT
  5
8273
  8
DEFPOINTS
 62
     0
 10
1776.474917534525
 20
1111.5603509468069
 30
0.0
  0
POINT
  5
8274
  8
DEFPOINTS
 62
     0
 10
1776.474917534525
 20
935.56035094680749
 30
0.0
  0
POINT
  5
8275
  8
DEFPOINTS
 62
     0
 10
1857.1155813440621
 20
935.56035094680726
 30
0.0
  0
ENDBLK
  5
80D0
  8
0
  0
BLOCK
  8
0
  2
*D4
 70
     1
 10
0.0
 20
0.0
 30
0.0
  3
*D4
  1

  0
LINE
  5
804D
  8
0
  6
BYBLOCK
 62
     0
 10
1632.4749175345239
 20
1141.3269042767181
 30
0.0
 11
1632.4749175345239
 21
1219.670860064085
 31
0.0
  0
LINE
  5
804E
  8
0
  6
BYBLOCK
 62
     0
 10
1752.4749175345239
 20
1141.3269042767181
 30
0.0
 11
1752.4749175345239
 21
1219.670860064085
 31
0.0
  0
LINE
  5
804F
  8
0
  6
BYBLOCK
 62
     0
 10
1652.4749175345239
 20
1209.670860064085
 30
0.0
 11
1732.4749175345239
 21
1209.670860064085
 31
0.0
  0
TEXT
  5
8050
  8
3
 62
     0
 10
1657.5460930220329
 20
1219.257393024634
 30
0.0
 40
30.0
  1
120
  0
INSERT
  5
8051
  8
0
  6
BYBLOCK
 62
     0
  2
_OPEN
 10
1632.4749175345239
 20
1209.670860064085
 30
0.0
 41
20.0
 42
20.0
 43
20.0
 50
180.0
  0
INSERT
  5
8052
  8
0
  6
BYBLOCK
 62
     0
  2
_OPEN
 10
1752.4749175345239
 20
1209.670860064085
 30
0.0
 41
20.0
 42
20.0
 43
20.0
  0
POINT
  5
8053
  8
DEFPOINTS
  6
BYBLOCK
 62
     0
 10
1632.4749175345239
 20
1136.3269042767181
 30
0.0
  0
POINT
  5
8054
  8
DEFPOINTS
  6
BYBLOCK
 62
     0
 10
1752.4749175345239
 20
1136.3269042767181
 30
0.0
  0
POINT
  5
8055
  8
DEFPOINTS
  6
BYBLOCK
 62
     0
 10
1752.4749175345239
 20
1209.670860064085
 30
0.0
  0
ENDBLK
  5
8056
  8
0
  0
BLOCK
  8
0
  2
*D5
 70
     1
 10
0.0
 20
0.0
 30
0.0
  3
*D5
  1

  0
LINE
  5
80DF
  8
0
  6
BYBLOCK
 62
     0
 10
1756.474917534525
 20
1139.5603509468069
 30
0.0
 11
1756.474917534525
 21
1294.0845941436689
 31
0.0
  0
LINE
  5
80E0
  8
0
  6
BYBLOCK
 62
     0
 10
1692.474917534525
 20
1263.965900725336
 30
0.0
 11
1692.474917534525
 21
1294.0845941436689
 31
0.0
  0
LINE
  5
80E1
  8
0
  6
BYBLOCK
 62
     0
 10
1736.474917534525
 20
1284.0845941436689
 30
0.0
 11
1712.474917534525
 21
1284.0845941436689
 31
0.0
  0
TEXT
  5
80E2
  8
3
 62
     0
 10
1699.474917534525
 20
1309.0845941436689
 30
0.0
 40
30.0
  1
64
  0
INSERT
  5
80E3
  8
0
  6
BYBLOCK
 62
     0
  2
_OPEN
 10
1756.474917534525
 20
1284.0845941436689
 30
0.0
 41
20.0
 42
20.0
 43
20.0
  0
INSERT
  5
80E4
  8
0
  6
BYBLOCK
 62
     0
  2
_OPEN
 10
1692.474917534525
 20
1284.0845941436689
 30
0.0
 41
20.0
 42
20.0
 43
20.0
 50
180.0
  0
POINT
  5
80E5
  8
DEFPOINTS
  6
BYBLOCK
 62
     0
 10
1756.474917534525
 20
1134.5603509468069
 30
0.0
  0
POINT
  5
80E6
  8
DEFPOINTS
  6
BYBLOCK
 62
     0
 10
1692.474917534525
 20
1258.965900725336
 30
0.0
  0
POINT
  5
80E7
  8
DEFPOINTS
  6
BYBLOCK
 62
     0
 10
1692.474917534525
 20
1284.0845941436689
 30
0.0
  0
ENDBLK
  5
80E8
  8
0
  0
BLOCK
  8
0
  2
*D6
 70
     1
 10
0.0
 20
0.0
 30
0.0
  3
*D6
  1

  0
LINE
  5
8276
  8
3
 62
     0
 10
1692.474917534525
 20
1263.965900725336
 30
0.0
 11
1692.474917534525
 21
1294.0845941436689
 31
0.0
  0
LINE
  5
8277
  8
3
 62
     0
 10
1276.7298671392271
 20
1183.5663160329259
 30
0.0
 11
1276.7298671392271
 21
1294.0845941436689
 31
0.0
  0
LINE
  5
8278
  8
3
 62
     0
 10
1672.474917534525
 20
1284.0845941436689
 30
0.0
 11
1296.7298671392271
 21
1284.0845941436689
 31
0.0
  0
INSERT
  5
8279
  8
3
 62
     0
  2
_OPEN
 10
1692.474917534525
 20
1284.0845941436689
 30
0.0
 41
20.0
 42
20.0
 43
20.0
  0
INSERT
  5
827A
  8
3
 62
     0
  2
_OPEN
 10
1276.7298671392271
 20
1284.0845941436689
 30
0.0
 41
20.0
 42
20.0
 43
20.0
 50
180.0
  0
TEXT
  8
3
  40
30
  5
82FB
  62
0
  72
0
  71
0
 10
1424.60
 20
1280.98
 30
0.000000
  1
MAX
  0
TEXT
  8
3
  40
30
  5
82FC
  62
0
  72
0
  71
0
 10
1424.60
 20
1241.98
 30
0.000000
  1
500
  0
POINT
  5
827C
  8
DEFPOINTS
 62
     0
 10
1692.474917534525
 20
1258.965900725336
 30
0.0
  0
POINT
  5
827D
  8
DEFPOINTS
 62
     0
 10
1276.7298671392271
 20
1178.5663160329259
 30
0.0
  0
POINT
  5
827E
  8
DEFPOINTS
 62
     0
 10
1276.7298671392271
 20
1284.0845941436689
 30
0.0
  0
ENDBLK
  5
80F3
  8
0
  0
BLOCK
  8
0
  2
*D7
 70
     1
 10
0.0
 20
0.0
 30
0.0
  3
*D7
  1

  0
LINE
  5
827F
  8
3
 62
     0
 10
426.30783292765199
 20
1056.910345648666
 30
0.0
 11
426.30783292765199
 21
1236.8634425460091
 31
0.0
  0
LINE
  5
8280
  8
3
 62
     0
 10
586.30783292765227
 20
1207.1664094438991
 30
0.0
 11
586.30783292765227
 21
1236.8634425460091
 31
0.0
  0
LINE
  5
8281
  8
3
 62
     0
 10
446.30783292765199
 20
1226.8634425460091
 30
0.0
 11
566.30783292765216
 21
1226.8634425460091
 31
0.0
  0
INSERT
  5
8282
  8
3
 62
     0
  2
_OPEN
 10
426.30783292765199
 20
1226.8634425460091
 30
0.0
 41
20.0
 42
20.0
 43
20.0
 50
180.0
  0
INSERT
  5
8283
  8
3
 62
     0
  2
_OPEN
 10
586.30783292765227
 20
1226.8634425460091
 30
0.0
 41
20.0
 42
20.0
 43
20.0
  0
TEXT
  8
3
  40
30
  5
82FD
  62
0
  72
0
  71
0
 10
446.308
 20
1198.76
 30
0.000000
  1
160
  0
POINT
  5
8285
  8
DEFPOINTS
 62
     0
 10
426.30783292765199
 20
1051.910345648666
 30
0.0
  0
POINT
  5
8286
  8
DEFPOINTS
 62
     0
 10
586.30783292765227
 20
1202.1664094438991
 30
0.0
  0
POINT
  5
8287
  8
DEFPOINTS
 62
     0
 10
586.30783292765227
 20
1226.8634425460091
 30
0.0
  0
ENDBLK
  5
7F96
  8
0
  0
BLOCK
  8
0
  2
*D8
 70
     1
 10
0.0
 20
0.0
 30
0.0
  3
*D8
  1

  0
LINE
  5
8288
  8
3
 62
     0
 10
586.30783292765227
 20
1207.1664094438991
 30
0.0
 11
586.30783292765227
 21
1236.8634425460091
 31
0.0
  0
LINE
  5
8289
  8
3
 62
     0
 10
722.80783292765182
 20
1021.110345648666
 30
0.0
 11
722.80783292765182
 21
1236.8634425460091
 31
0.0
  0
LINE
  5
828A
  8
3
 62
     0
 10
606.30783292765216
 20
1226.8634425460091
 30
0.0
 11
702.8078329276517
 21
1226.8634425460091
 31
0.0
  0
INSERT
  5
828B
  8
3
 62
     0
  2
_OPEN
 10
586.30783292765227
 20
1226.8634425460091
 30
0.0
 41
20.0
 42
20.0
 43
20.0
 50
180.0
  0
INSERT
  5
828C
  8
3
 62
     0
  2
_OPEN
 10
722.80783292765182
 20
1226.8634425460091
 30
0.0
 41
20.0
 42
20.0
 43
20.0
  0
TEXT
  8
3
  40
30
  5
82FE
  62
0
  72
0
  71
0
 10
594.558
 20
1198.76
 30
0.000000
  1
136
  0
POINT
  5
828E
  8
DEFPOINTS
 62
     0
 10
586.30783292765227
 20
1202.1664094438991
 30
0.0
  0
POINT
  5
828F
  8
DEFPOINTS
 62
     0
 10
722.80783292765182
 20
1016.110345648666
 30
0.0
  0
POINT
  5
8290
  8
DEFPOINTS
 62
     0
 10
722.80783292765182
 20
1226.8634425460091
 30
0.0
  0
ENDBLK
  5
7F8B
  8
0
  0
BLOCK
  8
0
  2
*D9
 70
     1
 10
0.0
 20
0.0
 30
0.0
  3
*D9
  1

  0
LINE
  5
8291
  8
3
 62
     0
 10
588.80783292765182
 20
1145.1103456486651
 30
0.0
 11
277.51166894902047
 21
1145.1103456486651
 31
0.0
  0
LINE
  5
8292
  8
3
 62
     0
 10
404.56158893031011
 20
1023.610345648666
 30
0.0
 11
277.51166894902047
 21
1023.610345648666
 31
0.0
  0
LINE
  5
8293
  8
3
 62
     0
 10
287.51166894902047
 20
1125.110345648666
 30
0.0
 11
287.51166894902047
 21
1043.610345648666
 31
0.0
  0
INSERT
  5
8294
  8
3
 62
     0
  2
_OPEN
 10
287.51166894902047
 20
1145.1103456486651
 30
0.0
 41
20.0
 42
20.0
 43
20.0
 50
90.0
  0
INSERT
  5
8295
  8
3
 62
     0
  2
_OPEN
 10
287.51166894902047
 20
1023.610345648666
 30
0.0
 41
20.0
 42
20.0
 43
20.0
 50
270.0
  0
TEXT
  8
3
  40
30
  5
82FF
  62
0
  72
0
  71
0
 10
202.512
 20
1031.26
 30
0.000000
  1
121
  0
POINT
  5
8297
  8
DEFPOINTS
 62
     0
 10
593.80783292765182
 20
1145.1103456486651
 30
0.0
  0
POINT
  5
8298
  8
DEFPOINTS
 62
     0
 10
409.56158893030999
 20
1023.610345648666
 30
0.0
  0
POINT
  5
8299
  8
DEFPOINTS
 62
     0
 10
287.51166894902047
 20
1023.610345648666
 30
0.0
  0
ENDBLK
  5
7F80
  8
0
  0
BLOCK
  8
0
  2
*D10
 70
     1
 10
0.0
 20
0.0
 30
0.0
  3
*D10
  1

  0
LINE
  5
829A
  8
3
 62
     0
 10
404.56158893031011
 20
1023.610345648666
 30
0.0
 11
277.51166894902047
 21
1023.610345648666
 31
0.0
  0
LINE
  5
829B
  8
3
 62
     0
 10
431.30783292765108
 20
803.61034564866645
 30
0.0
 11
277.51166894902047
 21
803.61034564866645
 31
0.0
  0
LINE
  5
829C
  8
3
 62
     0
 10
287.51166894902047
 20
1003.610345648666
 30
0.0
 11
287.51166894902047
 21
823.61034564866634
 31
0.0
  0
INSERT
  5
829D
  8
3
 62
     0
  2
_OPEN
 10
287.51166894902047
 20
1023.610345648666
 30
0.0
 41
20.0
 42
20.0
 43
20.0
 50
90.0
  0
INSERT
  5
829E
  8
3
 62
     0
  2
_OPEN
 10
287.51166894902047
 20
803.61034564866645
 30
0.0
 41
20.0
 42
20.0
 43
20.0
 50
270.0
  0
TEXT
  8
3
  40
30
  5
8300
  62
0
  72
0
  71
0
 10
202.512
 20
860.510
 30
0.000000
  1
220
  0
POINT
  5
82A0
  8
DEFPOINTS
 62
     0
 10
409.56158893030999
 20
1023.610345648666
 30
0.0
  0
POINT
  5
82A1
  8
DEFPOINTS
 62
     0
 10
436.30783292765108
 20
803.61034564866645
 30
0.0
  0
POINT
  5
82A2
  8
DEFPOINTS
 62
     0
 10
287.51166894902047
 20
803.61034564866645
 30
0.0
  0
ENDBLK
  5
7F75
  8
0
  0
BLOCK
  8
0
  2
*D11
 70
     1
 10
0.0
 20
0.0
 30
0.0
  3
*D11
  1

  0
LINE
  5
82A3
  8
3
 62
     0
 10
404.56158893031011
 20
1023.610345648666
 30
0.0
 11
328.20693322209189
 21
1023.610345648666
 31
0.0
  0
LINE
  5
82A4
  8
3
 62
     0
 10
441.30783292765142
 20
869.61034564866623
 30
0.0
 11
328.20693322209178
 21
869.61034564866623
 31
0.0
  0
LINE
  5
82A5
  8
3
 62
     0
 10
338.20693322209178
 20
1003.610345648666
 30
0.0
 11
338.20693322209178
 21
889.61034564866611
 31
0.0
  0
INSERT
  5
82A6
  8
3
 62
     0
  2
_OPEN
 10
338.20693322209178
 20
1023.610345648666
 30
0.0
 41
20.0
 42
20.0
 43
20.0
 50
90.0
  0
INSERT
  5
82A7
  8
3
 62
     0
  2
_OPEN
 10
338.20693322209178
 20
869.61034564866623
 30
0.0
 41
20.0
 42
20.0
 43
20.0
 50
270.0
  0
TEXT
  8
3
  40
30
  5
8301
  62
0
  72
0
  71
0
 10
253.207
 20
893.510
 30
0.000000
  1
154
  0
POINT
  5
82A9
  8
DEFPOINTS
 62
     0
 10
409.56158893030999
 20
1023.610345648666
 30
0.0
  0
POINT
  5
82AA
  8
DEFPOINTS
 62
     0
 10
446.3078329276513
 20
869.61034564866623
 30
0.0
  0
POINT
  5
82AB
  8
DEFPOINTS
 62
     0
 10
338.20693322209178
 20
869.61034564866623
 30
0.0
  0
ENDBLK
  5
7F50
  8
0
  0
BLOCK
  8
0
  2
*D12
 70
     1
 10
0.0
 20
0.0
 30
0.0
  3
*D12
  1

  0
LINE
  5
82AC
  8
3
 62
     0
 10
426.30783292765199
 20
1056.910345648666
 30
0.0
 11
426.30783292765199
 21
1298.5181542132909
 31
0.0
  0
LINE
  5
82AD
  8
3
 62
     0
 10
1016.30783292765
 20
848.61034564866418
 30
0.0
 11
1016.30783292765
 21
1298.5181542132909
 31
0.0
  0
LINE
  5
82AE
  8
3
 62
     0
 10
446.30783292765199
 20
1288.5181542132909
 30
0.0
 11
996.30783292765091
 21
1288.5181542132909
 31
0.0
  0
INSERT
  5
82AF
  8
3
 62
     0
  2
_OPEN
 10
426.30783292765199
 20
1288.5181542132909
 30
0.0
 41
20.0
 42
20.0
 43
20.0
 50
180.0
  0
INSERT
  5
82B0
  8
3
 62
     0
  2
_OPEN
 10
1016.30783292765
 20
1288.5181542132909
 30
0.0
 41
20.0
 42
20.0
 43
20.0
  0
TEXT
  8
3
  40
30
  5
8302
  62
0
  72
0
  71
0
 10
661.308
 20
1260.42
 30
0.000000
  1
590
  0
POINT
  5
82B2
  8
DEFPOINTS
 62
     0
 10
426.30783292765199
 20
1051.910345648666
 30
0.0
  0
POINT
  5
82B3
  8
DEFPOINTS
 62
     0
 10
1016.30783292765
 20
843.61034564866429
 30
0.0
  0
POINT
  5
82B4
  8
DEFPOINTS
 62
     0
 10
1016.30783292765
 20
1288.5181542132909
 30
0.0
  0
ENDBLK
  5
7F45
  8
0
  0
BLOCK
  8
0
  2
_DOT
 70
     0
 10
0.0
 20
0.0
 30
0.0
  3
_DOT
  1

  0
LINE
  5
80D5
  8
0
  6
BYBLOCK
 62
     0
 10
0.0
 20
0.0
 30
0.0
 11
-1.0
 21
-0.0000000000000284
 31
0.0
  0
POLYLINE
  5
80D6
  8
0
  6
BYBLOCK
 62
     0
 66
     1
 10
0.0
 20
0.0
 30
0.0
 70
     1
 40
0.1666666666666666
 41
0.1666666666666666
  0
VERTEX
  5
82B5
  8
0
  6
BYBLOCK
 62
     0
 10
-0.0833333333333286
 20
-0.0000000000000284
 30
0.0
 42
1.0
  0
VERTEX
  5
82B6
  8
0
  6
BYBLOCK
 62
     0
 10
0.0833333333333286
 20
-0.0000000000000284
 30
0.0
 42
1.0
  0
SEQEND
  5
82B7
  8
0
  6
BYBLOCK
 62
     0
  0
ENDBLK
  5
8083
  8
0
  0
BLOCK
  8
0
  2
*D14
 70
     1
 10
0.0
 20
0.0
 30
0.0
  3
*D14
  1

  0
LINE
  5
82B8
  8
3
 62
     0
 10
1021.307832927656
 20
1980.322383093996
 30
0.0
 11
1121.742217886369
 21
1980.322383093996
 31
0.0
  0
LINE
  5
82B9
  8
3
 62
     0
 10
1021.307832927654
 20
1600.3223830939951
 30
0.0
 11
1121.742217886369
 21
1600.3223830939951
 31
0.0
  0
LINE
  5
82BA
  8
3
 62
     0
 10
1111.742217886369
 20
1960.322383093996
 30
0.0
 11
1111.742217886369
 21
1620.3223830939951
 31
0.0
  0
INSERT
  5
82BB
  8
3
 62
     0
  2
_OPEN
 10
1111.742217886369
 20
1980.322383093996
 30
0.0
 41
20.0
 42
20.0
 43
20.0
 50
90.0
  0
INSERT
  5
82BC
  8
3
 62
     0
  2
_OPEN
 10
1111.742217886369
 20
1600.3223830939951
 30
0.0
 41
20.0
 42
20.0
 43
20.0
 50
270.0
  0
TEXT
  8
3
  40
30
  5
8303
  62
0
  72
0
  71
0
 10
1026.74
 20
1733.09
 30
0.000000
  1
380
  0
POINT
  5
82BE
  8
DEFPOINTS
 62
     0
 10
1016.307832927656
 20
1980.322383093996
 30
0.0
  0
POINT
  5
82BF
  8
DEFPOINTS
 62
     0
 10
1016.307832927654
 20
1600.3223830939951
 30
0.0
  0
POINT
  5
82C0
  8
DEFPOINTS
 62
     0
 10
1111.742217886369
 20
1600.3223830939951
 30
0.0
  0
ENDBLK
  5
8199
  8
0
  0
BLOCK
  8
0
  2
*D15
 70
     1
 10
0.0
 20
0.0
 30
0.0
  3
*D15
  1

  0
LINE
  5
82C1
  8
3
 62
     0
 10
436.3078329276546
 20
1595.3223830939951
 30
0.0
 11
436.3078329276546
 21
1486.4666266310639
 31
0.0
  0
LINE
  5
82C2
  8
3
 62
     0
 10
1016.307832927654
 20
1595.3223830939951
 30
0.0
 11
1016.307832927654
 21
1486.4666266310639
 31
0.0
  0
LINE
  5
82C3
  8
3
 62
     0
 10
456.3078329276546
 20
1496.4666266310639
 30
0.0
 11
996.30783292765454
 21
1496.4666266310639
 31
0.0
  0
INSERT
  5
82C4
  8
3
 62
     0
  2
_OPEN
 10
436.3078329276546
 20
1496.4666266310639
 30
0.0
 41
20.0
 42
20.0
 43
20.0
 50
180.0
  0
INSERT
  5
82C5
  8
3
 62
     0
  2
_OPEN
 10
1016.307832927654
 20
1496.4666266310639
 30
0.0
 41
20.0
 42
20.0
 43
20.0
  0
TEXT
  8
3
  40
30
  5
8304
  62
0
  72
0
  71
0
 10
667.022
 20
1468.37
 30
0.000000
  1
580
  0
POINT
  5
82C7
  8
DEFPOINTS
 62
     0
 10
436.3078329276546
 20
1600.3223830939951
 30
0.0
  0
POINT
  5
82C8
  8
DEFPOINTS
 62
     0
 10
1016.307832927654
 20
1600.3223830939951
 30
0.0
  0
POINT
  5
82C9
  8
DEFPOINTS
 62
     0
 10
1016.307832927654
 20
1496.4666266310639
 30
0.0
  0
ENDBLK
  5
81A6
  8
0
  0
BLOCK
  8
0
  2
*D16
 70
     1
 10
0.0
 20
0.0
 30
0.0
  3
*D16
  1

  0
LINE
  5
82CA
  8
3
 62
     0
 10
436.30783292765108
 20
798.61034564866634
 30
0.0
 11
436.30783292765108
 21
719.30934195574901
 31
0.0
  0
LINE
  5
82CB
  8
3
 62
     0
 10
586.30783292765068
 20
798.61034564866577
 30
0.0
 11
586.30783292765068
 21
719.30934195574901
 31
0.0
  0
LINE
  5
82CC
  8
3
 62
     0
 10
456.30783292765108
 20
729.30934195574889
 30
0.0
 11
566.30783292765068
 21
729.30934195574889
 31
0.0
  0
INSERT
  5
82CD
  8
3
 62
     0
  2
_OPEN
 10
436.30783292765108
 20
729.30934195574889
 30
0.0
 41
20.0
 42
20.0
 43
20.0
 50
180.0
  0
INSERT
  5
82CE
  8
3
 62
     0
  2
_OPEN
 10
586.30783292765068
 20
729.30934195574889
 30
0.0
 41
20.0
 42
20.0
 43
20.0
  0
TEXT
  8
3
  40
30
  5
8305
  62
0
  72
0
  71
0
 10
451.308
 20
701.209
 30
0.000000
  1
150
  0
POINT
  5
82D0
  8
DEFPOINTS
 62
     0
 10
436.30783292765108
 20
803.61034564866645
 30
0.0
  0
POINT
  5
82D1
  8
DEFPOINTS
 62
     0
 10
586.30783292765068
 20
803.61034564866566
 30
0.0
  0
POINT
  5
82D2
  8
DEFPOINTS
 62
     0
 10
586.30783292765068
 20
729.30934195574889
 30
0.0
  0
ENDBLK
  5
820E
  8
0
  0
BLOCK
  8
0
  2
*D17
 70
     1
 10
0.0
 20
0.0
 30
0.0
  3
*D17
  1

  0
LINE
  5
82D3
  8
3
 62
     0
 10
586.30783292765068
 20
798.61034564866577
 30
0.0
 11
586.30783292765068
 21
719.30934195574901
 31
0.0
  0
LINE
  5
82D4
  8
3
 62
     0
 10
1016.30783292765
 20
798.56631603292499
 30
0.0
 11
1016.30783292765
 21
719.30934195574901
 31
0.0
  0
LINE
  5
82D5
  8
3
 62
     0
 10
606.30783292765068
 20
729.30934195574889
 30
0.0
 11
996.30783292765068
 21
729.30934195574889
 31
0.0
  0
INSERT
  5
82D6
  8
3
 62
     0
  2
_OPEN
 10
586.30783292765068
 20
729.30934195574889
 30
0.0
 41
20.0
 42
20.0
 43
20.0
 50
180.0
  0
INSERT
  5
82D7
  8
3
 62
     0
  2
_OPEN
 10
1016.30783292765
 20
729.30934195574889
 30
0.0
 41
20.0
 42
20.0
 43
20.0
  0
TEXT
  8
3
  40
30
  5
8306
  62
0
  72
0
  71
0
 10
741.308
 20
701.209
 30
0.000000
  1
430
  0
POINT
  5
82D9
  8
DEFPOINTS
 62
     0
 10
586.30783292765068
 20
803.61034564866566
 30
0.0
  0
POINT
  5
82DA
  8
DEFPOINTS
 62
     0
 10
1016.30783292765
 20
803.5663160329251
 30
0.0
  0
POINT
  5
82DB
  8
DEFPOINTS
 62
     0
 10
1016.30783292765
 20
729.30934195574889
 30
0.0
  0
ENDBLK
  5
821B
  8
0
  0
BLOCK
  8
0
  2
*D18
 70
     1
 10
0.0
 20
0.0
 30
0.0
  3
*D18
  1

  0
LINE
  5
82DC
  8
3
 62
     0
 10
1287.4749175345239
 20
798.56035094680749
 30
0.0
 11
1287.4749175345239
 21
719.30934195574901
 31
0.0
  0
LINE
  5
82DD
  8
3
 62
     0
 10
1667.474917534525
 20
798.56035094680715
 30
0.0
 11
1667.474917534525
 21
719.30934195574901
 31
0.0
  0
LINE
  5
82DE
  8
3
 62
     0
 10
1307.4749175345239
 20
729.30934195574889
 30
0.0
 11
1647.474917534525
 21
729.30934195574889
 31
0.0
  0
INSERT
  5
82DF
  8
3
 62
     0
  2
_OPEN
 10
1287.4749175345239
 20
729.30934195574889
 30
0.0
 41
20.0
 42
20.0
 43
20.0
 50
180.0
  0
INSERT
  5
82E0
  8
3
 62
     0
  2
_OPEN
 10
1667.474917534525
 20
729.30934195574889
 30
0.0
 41
20.0
 42
20.0
 43
20.0
  0
TEXT
  8
3
  40
30
  5
8307
  62
0
  72
0
  71
0
 10
1417.47
 20
701.209
 30
0.000000
  1
380
  0
POINT
  5
82E2
  8
DEFPOINTS
 62
     0
 10
1287.4749175345239
 20
803.56035094680738
 30
0.0
  0
POINT
  5
82E3
  8
DEFPOINTS
 62
     0
 10
1667.474917534525
 20
803.56035094680726
 30
0.0
  0
POINT
  5
82E4
  8
DEFPOINTS
 62
     0
 10
1667.474917534525
 20
729.30934195574889
 30
0.0
  0
ENDBLK
  5
8228
  8
0
  0
BLOCK
  8
0
  2
*D19
 70
     1
 10
0.0
 20
0.0
 30
0.0
  3
*D19
  1

  0
LINE
  5
82E5
  8
3
 62
     0
 10
1667.474917534525
 20
798.56035094680738
 30
0.0
 11
1667.474917534525
 21
719.30934195574901
 31
0.0
  0
LINE
  5
82E6
  8
3
 62
     0
 10
1692.4749175345239
 20
798.56035094680715
 30
0.0
 11
1692.4749175345239
 21
719.30934195574901
 31
0.0
  0
LINE
  5
82E7
  8
3
 62
     0
 10
1647.474917534525
 20
729.30934195574889
 30
0.0
 11
1627.474917534525
 21
729.30934195574889
 31
0.0
  0
LINE
  5
82E8
  8
3
 62
     0
 10
1712.4749175345239
 20
729.30934195574889
 30
0.0
 11
1801.0463461059519
 21
729.30934195574889
 31
0.0
  0
LINE
  5
82E9
  8
3
 62
     0
 10
1667.474917534525
 20
729.30934195574889
 30
0.0
 11
1692.4749175345239
 21
729.30934195574889
 31
0.0
  0
INSERT
  5
82EA
  8
3
 62
     0
  2
_OPEN
 10
1667.474917534525
 20
729.30934195574889
 30
0.0
 41
20.0
 42
20.0
 43
20.0
  0
INSERT
  5
82EB
  8
3
 62
     0
  2
_OPEN
 10
1692.4749175345239
 20
729.30934195574889
 30
0.0
 41
20.0
 42
20.0
 43
20.0
 50
180.0
  0
TEXT
  8
3
  40
30
  5
8308
  62
0
  72
0
  71
0
 10
1706.76
 20
701.209
 30
0.000000
  1
25
  0
POINT
  5
82ED
  8
DEFPOINTS
 62
     0
 10
1667.474917534525
 20
803.56035094680726
 30
0.0
  0
POINT
  5
82EE
  8
DEFPOINTS
 62
     0
 10
1692.4749175345239
 20
803.56035094680726
 30
0.0
  0
POINT
  5
82EF
  8
DEFPOINTS
 62
     0
 10
1692.4749175345239
 20
729.30934195574889
 30
0.0
  0
ENDBLK
  5
8237
  8
0
  0
BLOCK
  8
0
  2
*D20
 70
     1
 10
0.0
 20
0.0
 30
0.0
  3
*D20
  1

  0
LINE
  5
82F0
  8
3
 62
     0
 10
583.80783292765182
 20
1145.1103456486651
 30
0.0
 11
202.34099626468199
 21
1145.1103456486651
 31
0.0
  0
LINE
  5
82F1
  8
3
 62
     0
 10
431.30783292765108
 20
803.61034564866645
 30
0.0
 11
202.34099626468191
 21
803.61034564866645
 31
0.0
  0
LINE
  5
82F2
  8
3
 62
     0
 10
212.34099626468199
 20
1125.110345648666
 30
0.0
 11
212.34099626468191
 21
823.61034564866645
 31
0.0
  0
INSERT
  5
82F3
  8
3
 62
     0
  2
_OPEN
 10
212.34099626468199
 20
1145.1103456486651
 30
0.0
 41
20.0
 42
20.0
 43
20.0
 50
90.0
  0
INSERT
  5
82F4
  8
3
 62
     0
  2
_OPEN
 10
212.34099626468191
 20
803.61034564866645
 30
0.0
 41
20.0
 42
20.0
 43
20.0
 50
270.0
  0
TEXT
  8
3
  40
30
  5
8309
  62
0
  72
0
  71
0
 10
127.341
 20
921.260
 30
0.000000
  1
342
  0
POINT
  5
82F6
  8
DEFPOINTS
 62
     0
 10
588.80783292765182
 20
1145.1103456486651
 30
0.0
  0
POINT
  5
82F7
  8
DEFPOINTS
 62
     0
 10
436.30783292765108
 20
803.61034564866645
 30
0.0
  0
POINT
  5
82F8
  8
DEFPOINTS
 62
     0
 10
212.34099626468191
 20
803.61034564866645
 30
0.0
  0
ENDBLK
  5
8244
  8
0
  0
ENDSEC
  0
SECTION
  2
ENTITIES
  0
INSERT
  5
7C1E
  8
0
  2
YA_N
 10
2724.1612064906581
 20
327.02075517693441
 30
0.0
  0
INSERT
  5
7C1F
  8
0
  2
YA_N
 10
2724.1612064906581
 20
327.02075517693441
 30
0.0
  0
LINE
  5
7C21
  8
1
 10
1530.174917534524
 20
843.56035094680726
 30
0.0
 11
1330.174917534524
 21
843.56035094680726
 31
0.0
  0
LINE
  5
7C22
  8
1
 10
1287.4749175345239
 20
843.56035094680749
 30
0.0
 11
1667.4749175345239
 21
843.56035094680726
 31
0.0
  0
LINE
  5
7C23
  8
1
 10
1287.4749175345239
 20
803.56035094680738
 30
0.0
 11
1667.474917534525
 21
803.56035094680726
 31
0.0
  0
LINE
  5
7C24
  8
1
 10
1355.174917534524
 20
984.76035094680697
 30
0.0
 11
1360.9749175345221
 21
984.76035094680685
 31
0.0
  0
LINE
  5
7C25
  8
1
 10
1355.174917534524
 20
987.06035094680749
 30
0.0
 11
1360.9749175345221
 21
987.06035094680749
 31
0.0
  0
LINE
  5
7C26
  8
2
 10
1294.2214098139809
 20
1023.560350946807
 30
0.0
 11
1788.956441514352
 21
1023.560350946807
 31
0.0
  0
LINE
  5
7C27
  8
1
 10
989.69352128207072
 20
1178.566316032925
 30
0.0
 11
459.69352128207078
 21
1178.566316032927
 31
0.0
  0
LINE
  5
7C28
  8
1
 10
574.19619235032042
 20
980.27089292339986
 30
0.0
 11
891.50471666646899
 21
900.63990342889531
 31
0.0
  0
LINE
  5
7C29
  8
1
 10
595.7687104012515
 20
1067.6045702404181
 30
0.0
 11
917.87112761760682
 21
1007.381064594139
 31
0.0
  0
LINE
  5
7C2A
  8
1
 10
989.69352128207072
 20
1178.566316032925
 30
0.0
 11
989.69352128206947
 21
843.56631603292522
 31
0.0
  0
LINE
  5
7C2B
  8
1
 10
1001.30783292765
 20
843.61034564866452
 30
0.0
 11
811.30783292765022
 21
843.61034564866497
 31
0.0
  0
LINE
  5
7C2C
  8
1
 10
1016.30783292765
 20
843.61034564866429
 30
0.0
 11
1016.30783292765
 21
803.5663160329251
 31
0.0
  0
CIRCLE
  5
7C2D
  8
1
 10
906.30783292765102
 20
953.61034564866475
 30
0.0
 40
55.0
  0
LINE
  5
7C2E
  8
2
 10
809.14928745200416
 20
953.61034564866509
 30
0.0
 11
1000.6945127020369
 21
953.61034564866441
 31
0.0
  0
LINE
  5
7C2F
  8
2
 10
906.30783292765136
 20
1034.9998456486639
 30
0.0
 11
906.30783292765068
 21
825.61594748915502
 31
0.0
  0
LINE
  5
7C30
  8
1
 10
1362.174917534524
 20
868.56631603292658
 30
0.0
 11
1362.174917534524
 21
843.56035094680726
 31
0.0
  0
LINE
  5
7C31
  8
2
 10
586.30783292765227
 20
1202.1664094438991
 30
0.0
 11
586.30783292765068
 21
803.61034564866566
 31
0.0
  0
LINE
  5
7C32
  8
1
 10
686.30783292765125
 20
983.91034564866538
 30
0.0
 11
686.30783292765079
 21
843.56631603292601
 31
0.0
  0
LINE
  5
7C33
  8
1
 10
459.69352128206941
 20
843.56631603292726
 30
0.0
 11
459.69352128207078
 21
1178.566316032927
 31
0.0
  0
LINE
  5
7C34
  8
1
 10
486.3078329276513
 20
983.91034564866629
 30
0.0
 11
486.30783292765079
 21
843.56631603292658
 31
0.0
  0
LINE
  5
7C35
  8
1
 10
1351.7298671392271
 20
852.56035094680749
 30
0.0
 11
1351.7298671392271
 21
891.16053528027362
 31
0.0
  0
LINE
  5
7C36
  8
1
 10
1276.7298671392271
 20
852.56035094680749
 30
0.0
 11
1276.7298671392271
 21
1178.5663160329259
 31
0.0
  0
LINE
  5
7C37
  8
1
 10
1351.7298671392271
 20
852.56035094680726
 30
0.0
 11
1276.7298671392271
 21
852.56035094680726
 31
0.0
  0
LINE
  5
7C38
  8
1
 10
436.3078329276513
 20
843.61034564866623
 30
0.0
 11
436.30783292765108
 21
803.56631603292692
 31
0.0
  0
POINT
  5
7C39
  8
1
 10
1327.4749175345239
 20
803.56035094680726
 30
0.0
  0
POINT
  5
7C3A
  8
1
 10
1359.874917534524
 20
843.56035094680726
 30
0.0
  0
POINT
  5
7C3B
  8
1
 10
1359.874917534524
 20
843.56035094680726
 30
0.0
  0
ARC
  5
7C3C
  8
1
 10
593.80783292765182
 20
1016.110345648666
 30
0.0
 40
129.0
 50
359.99999999999972
 51
89.999999999999758
  0
ARC
  5
7C3D
  8
1
 10
593.80783292765182
 20
1031.1103456486651
 30
0.0
 40
114.0
 50
89.999999999999758
 51
179.99999999999969
  0
LINE
  5
7C3E
  8
2
 10
409.56158893030999
 20
1023.610345648666
 30
0.0
 11
762.48014569089185
 21
1023.610345648665
 31
0.0
  0
LINE
  5
7C3F
  8
1
 10
678.607832927652
 20
1087.1103509468071
 30
0.0
 11
678.60783292765154
 21
987.11034564866543
 31
0.0
  0
LINE
  5
7C40
  8
1
 10
684.607832927652
 20
1087.110350946806
 30
0.0
 11
684.60783292765154
 21
987.1103456486652
 31
0.0
  0
LINE
  5
7C41
  8
1
 10
488.00783292765198
 20
1087.1103509468071
 30
0.0
 11
488.00783292765112
 21
987.11034564866611
 31
0.0
  0
LINE
  5
7C42
  8
1
 10
494.00783292765209
 20
1087.1103509468071
 30
0.0
 11
494.00783292765112
 21
987.11034564866611
 31
0.0
  0
LINE
  5
7C43
  8
1
 10
446.30783292765182
 20
869.61034564866623
 30
0.0
 11
583.52787591528647
 21
872.18772340256135
 31
0.0
  0
ARC
  5
7C44
  8
1
 10
578.80783292765182
 20
1016.110345648666
 30
0.0
 40
144.0
 50
270.00000000000159
 51
359.99999999999972
  0
CIRCLE
  5
7C45
  8
1
 10
586.30783292765113
 20
913.56631603292647
 30
0.0
 40
60.0
  0
LINE
  5
7C47
  8
1
 10
481.3078329276513
 20
983.91034564866629
 30
0.0
 11
691.30783292765136
 21
983.91034564866538
 31
0.0
  0
LINE
  5
7C48
  8
1
 10
481.3078329276513
 20
987.11034564866611
 30
0.0
 11
691.30783292765136
 21
987.1103456486652
 31
0.0
  0
CIRCLE
  5
7C49
  8
1
 10
586.30783292765159
 20
1023.610345648665
 30
0.0
 40
45.0
  0
LINE
  5
7C4A
  8
1
 10
661.30783292765125
 20
990.31034564866536
 30
0.0
 11
511.3078329276513
 21
990.31034564866593
 31
0.0
  0
LINE
  5
7C4B
  8
1
 10
511.3078329276513
 20
987.11034564866588
 30
0.0
 11
661.30783292765125
 21
987.11034564866543
 31
0.0
  0
LINE
  5
7C4C
  8
1
 10
691.30783292765136
 20
987.1103456486652
 30
0.0
 11
691.30783292765136
 21
983.91034564866538
 31
0.0
  0
LINE
  5
7C4D
  8
1
 10
661.30783292765125
 20
987.11034564866543
 30
0.0
 11
661.30783292765125
 21
990.31034564866536
 31
0.0
  0
LINE
  5
7C4E
  8
1
 10
511.3078329276513
 20
990.31034564866593
 30
0.0
 11
511.3078329276513
 21
987.11034564866588
 31
0.0
  0
LINE
  5
7C4F
  8
1
 10
481.3078329276513
 20
987.11034564866611
 30
0.0
 11
481.3078329276513
 21
983.91034564866629
 31
0.0
  0
LINE
  5
7C50
  8
1
 10
446.30783292765108
 20
847.31065464309256
 30
0.0
 11
446.30783292765199
 21
1051.910345648666
 31
0.0
  0
LINE
  5
7C51
  8
1
 10
426.30783292765108
 20
847.31065464309256
 30
0.0
 11
426.30783292765199
 21
1051.910345648666
 31
0.0
  0
LINE
  5
7C52
  8
1
 10
446.30783292765108
 20
847.31065464309256
 30
0.0
 11
426.30783292765108
 21
847.31065464309256
 31
0.0
  0
LINE
  5
7C53
  8
1
 10
678.607832927652
 20
1087.1103509468071
 30
0.0
 11
684.607832927652
 21
1087.110350946806
 31
0.0
  0
CIRCLE
  5
7C54
  8
1
 10
478.33519983783981
 20
1000.610345648666
 30
0.0
 40
6.0
  0
LINE
  5
7C55
  8
1
 10
446.30783292765182
 20
1029.610345648666
 30
0.0
 11
479.81919721627349
 21
1029.610345648666
 31
0.0
  0
ARC
  5
7C56
  8
1
 10
578.80783292765182
 20
1031.1103456486651
 30
0.0
 40
99.0
 50
179.99999999999969
 51
196.8864669975612
  0
LINE
  5
7C57
  8
1
 10
426.30783292765199
 20
1051.910345648666
 30
0.0
 11
446.30783292765199
 21
1051.910345648666
 31
0.0
  0
LINE
  5
7C58
  8
1
 10
488.00783292765198
 20
1087.1103509468071
 30
0.0
 11
494.00783292765209
 21
1087.1103509468071
 31
0.0
  0
LINE
  5
7C59
  8
1
 10
1329.2298671392271
 20
1068.5603509468069
 30
0.0
 11
1329.2298671392271
 21
899.56035094680726
 31
0.0
  0
LINE
  5
7C5A
  8
1
 10
1299.2298671392271
 20
1068.5603509468069
 30
0.0
 11
1299.2298671392271
 21
899.56035094680726
 31
0.0
  0
LINE
  5
7C5B
  8
2
 10
1295.837618930057
 20
953.56631603292669
 30
0.0
 11
1604.821287323862
 21
953.56631603292669
 31
0.0
  0
LINE
  5
7C5C
  8
1
 10
1329.2298671392271
 20
899.56035094680726
 30
0.0
 11
1299.2298671392271
 21
899.56035094680726
 31
0.0
  0
LINE
  5
7C5D
  8
1
 10
1339.2298671392271
 20
1013.560350946807
 30
0.0
 11
1360.9749175345221
 21
1013.560350946807
 31
0.0
  0
LINE
  5
7C5E
  8
1
 10
1339.2298671392271
 20
1033.5603509468069
 30
0.0
 11
1360.9749175345221
 21
1033.5603509468069
 31
0.0
  0
LINE
  5
7C5F
  8
1
 10
1339.2298671392271
 20
1033.5603509468069
 30
0.0
 11
1339.2298671392271
 21
1013.560350946807
 31
0.0
  0
LINE
  5
7C60
  8
1
 10
1329.2298671392271
 20
1009.560350946807
 30
0.0
 11
1299.2298671392271
 21
1009.560350946807
 31
0.0
  0
LINE
  5
7C61
  8
1
 10
1299.2298671392271
 20
978.56035094680738
 30
0.0
 11
1329.2298671392271
 21
978.56035094680738
 31
0.0
  0
LINE
  5
7C62
  8
1
 10
1355.174917534524
 20
987.06035094680749
 30
0.0
 11
1355.174917534524
 21
984.76035094680697
 31
0.0
  0
LINE
  5
7C63
  8
1
 10
1329.2298671392271
 20
1014.060350946807
 30
0.0
 11
1339.2298671392271
 21
1014.060350946807
 31
0.0
  0
LINE
  5
7C64
  8
1
 10
1299.2298671392271
 20
1068.5603509468069
 30
0.0
 11
1329.2298671392271
 21
1068.5603509468069
 31
0.0
  0
LINE
  5
7C65
  8
1
 10
1329.2298671392271
 20
1033.0603509468069
 30
0.0
 11
1339.2298671392271
 21
1033.0603509468069
 31
0.0
  0
LINE
  5
7C66
  8
1
 10
1276.7298671392271
 20
1178.5663160329259
 30
0.0
 11
1351.7298671392271
 21
1178.5663160329259
 31
0.0
  0
LINE
  5
7C6A
  8
1
 10
976.30783292765454
 20
1600.322383093993
 30
0.0
 11
976.30783292765511
 21
1672.3258854669341
 31
0.0
  0
LINE
  5
7C6B
  8
1
 10
1016.307832927654
 20
1640.3223830939939
 30
0.0
 11
1016.307832927656
 21
1980.322383093996
 31
0.0
  0
LINE
  5
7C6C
  8
2
 10
906.30783292765454
 20
1601.0626437734461
 30
0.0
 11
906.30783292765489
 21
1946.6515106908651
 31
0.0
  0
LINE
  5
7C6D
  8
1
 10
1016.307832927654
 20
1600.322383093993
 30
0.0
 11
1016.307832927654
 21
1640.322383093993
 31
0.0
  0
LINE
  5
7C6F
  8
2
 10
586.30783292765432
 20
1606.9527805875639
 30
0.0
 11
586.30783292765523
 21
2087.0671142085539
 31
0.0
  0
LINE
  5
7C70
  8
1
 10
436.30783292765477
 20
1640.322383093996
 30
0.0
 11
436.30783292765568
 21
1923.82588546694
 31
0.0
  0
LINE
  5
7C71
  8
1
 10
476.30783292765449
 20
1600.3223830939951
 30
0.0
 11
476.30783292765591
 21
1943.8258854669359
 31
0.0
  0
LINE
  5
7C72
  8
1
 10
436.3078329276546
 20
1600.3223830939951
 30
0.0
 11
436.30783292765477
 21
1640.3223830939951
 31
0.0
  0
LINE
  5
7C75
  8
2
 10
1692.474917534525
 20
1217.5758245776931
 30
0.0
 11
1692.4749175345239
 21
803.56035094680726
 31
0.0
  0
LINE
  5
7C76
  8
1
 10
1776.474917534525
 20
935.56035094680749
 30
0.0
 11
1756.474917534525
 21
935.56035094680749
 31
0.0
  0
LINE
  5
7C77
  8
1
 10
1756.474917534526
 20
1023.560350946807
 30
0.0
 11
1756.474917534525
 21
912.5603509468076
 31
0.0
  0
LINE
  5
7C79
  8
1
 10
1752.4749175345239
 20
1145.110345648666
 30
0.0
 11
1752.4749175345239
 21
1029.5603509468069
 31
0.0
  0
LINE
  5
7C7A
  8
1
 10
1632.4749175345239
 20
1145.110345648666
 30
0.0
 11
1632.4749175345239
 21
1029.5603509468069
 31
0.0
  0
LINE
  5
7C80
  8
1
 10
1756.474917534525
 20
935.56035094680749
 30
0.0
 11
1756.474917534525
 21
915.56035094680749
 31
0.0
  0
LINE
  5
7C81
  8
1
 10
1752.474917534525
 20
912.56035094680738
 30
0.0
 11
1756.474917534525
 21
912.56035094680738
 31
0.0
  0
LINE
  5
7C86
  8
1
 10
1605.1749175345251
 20
1087.1103509468071
 30
0.0
 11
1630.1749175345251
 21
1087.1103509468071
 31
0.0
  0
POINT
  5
7C87
  8
1
 10
1692.474917534525
 20
1154.40749948442
 30
0.0
  0
LINE
  5
7C88
  8
1
 10
1759.4749175345239
 20
1023.560350946807
 30
0.0
 11
1759.4749175345239
 21
935.5603509468076
 31
0.0
  0
ARC
  5
7C89
  8
1
 10
906.30783292765102
 20
953.61034564866475
 30
0.0
 40
85.000007999999994
 50
295.91772599999967
 51
359.99999999999972
  0
ARC
  5
7C8A
  8
1
 10
906.30783292765102
 20
953.61034564866475
 30
0.0
 40
85.0
 50
359.99999999999972
 51
244.12446599999981
  0
LINE
  5
7C8B
  8
1
 10
869.21233392765089
 20
877.15941764866488
 30
0.0
 11
943.45964192765086
 21
877.15941764866454
 31
0.0
  0
LINE
  5
7C8C
  8
1
 10
824.5332353618868
 20
873.61034564866486
 30
0.0
 11
843.98466492765101
 21
895.79184164866479
 31
0.0
  0
LINE
  5
7C8D
  8
1
 10
828.80783292765079
 20
873.61034564866509
 30
0.0
 11
863.80783292765079
 21
873.61034564866486
 31
0.0
  0
LINE
  5
7C8E
  8
1
 10
988.08234160224561
 20
873.61034564866429
 30
0.0
 11
968.62914092765095
 21
895.79398364866438
 31
0.0
  0
LINE
  5
7C8F
  8
1
 10
983.80783292765091
 20
873.61034564866429
 30
0.0
 11
948.80783292765091
 21
873.61034564866452
 31
0.0
  0
LINE
  5
7C90
  8
1
 10
1008.807832927651
 20
873.61034564866429
 30
0.0
 11
906.30783292765091
 21
873.61034564866486
 31
0.0
  0
LINE
  5
7C91
  8
1
 10
1008.807832927651
 20
873.61034564866429
 30
0.0
 11
1013.80783292765
 21
843.61034564866429
 31
0.0
  0
LINE
  5
7C92
  8
1
 10
803.80783292765079
 20
873.61034564866486
 30
0.0
 11
798.80783292765068
 21
843.61034564866497
 31
0.0
  0
LINE
  5
7C93
  8
1
 10
906.30783292765091
 20
873.61034564866486
 30
0.0
 11
803.80783292765079
 21
873.61034564866486
 31
0.0
  0
LINE
  5
7C94
  8
1
 10
722.80783292765159
 20
1980.322383093996
 30
0.0
 11
1016.307832927656
 21
1980.322383093996
 31
0.0
  0
LINE
  5
7C95
  8
1
 10
436.3078329276546
 20
1600.3223830939951
 30
0.0
 11
1016.307832927654
 21
1600.3223830939951
 31
0.0
  0
DIMENSION
  5
7C9A
  8
3
  2
*D2
 10
390.37468018288848
 20
1029.610345648666
 30
0.0
 11
390.37468018288831
 21
963.89605993438033
 31
0.0
 70
   128
 13
446.3078329276513
 23
869.61034564866623
 33
0.0
 14
446.30783292765182
 24
1029.610345648666
 34
0.0
 50
269.99999999999972
1001
ACAD
1000
DSTYLE
1002
{
1070
   287
1070
     3
1070
    40
1040
10.0
1070
   143
1040
0.039
1070
   172
1070
     1
1070
   271
1070
     0
1070
   279
1070
     0
1070
   288
1070
     1
1002
}
  0
LINE
  5
7C9B
  8
1
 10
436.30783292765108
 20
803.61034564866645
 30
0.0
 11
1016.30783292765
 21
803.61034564866407
 31
0.0
  0
LINE
  5
7C9C
  8
1
 10
436.3078329276517
 20
843.61034564866623
 30
0.0
 11
1016.30783292765
 21
843.61034564866429
 31
0.0
  0
LINE
  5
7CA9
  8
1
 10
1752.4749175345239
 20
1029.5603509468069
 30
0.0
 11
1752.474917534525
 21
869.56035094680726
 31
0.0
  0
LINE
  5
7CAA
  8
1
 10
1632.474917534523
 20
1029.5603509468069
 30
0.0
 11
1632.4749175345239
 21
843.56035094680715
 31
0.0
  0
LINE
  5
7CAD
  8
1
 10
1776.474917534525
 20
1111.5603509468069
 30
0.0
 11
1776.474917534525
 21
935.56035094680726
 31
0.0
  0
LINE
  5
7CAE
  8
1
 10
1776.474917534525
 20
1111.5603509468069
 30
0.0
 11
1774.774917534525
 21
1111.5603509468069
 31
0.0
  0
ARC
  5
7CAF
  8
1
 10
1774.474917534525
 20
1112.5603509468069
 30
0.0
 40
2.0
 50
0.0
 51
90.0
  0
LINE
  5
7CB0
  8
1
 10
1776.474917534525
 20
1112.5603509468069
 30
0.0
 11
1776.474917534525
 21
1111.5603509468069
 31
0.0
  0
LINE
  5
7CB1
  8
1
 10
1759.4749175345239
 20
917.56035094680749
 30
0.0
 11
1759.4749175345239
 21
928.56035094680738
 31
0.0
  0
LINE
  5
7CB2
  8
1
 10
1756.474917534525
 20
915.56035094680749
 30
0.0
 11
1756.474917534525
 21
935.56035094680749
 31
0.0
  0
LINE
  5
7CB3
  8
1
 10
1763.474917534525
 20
932.56035094680749
 30
0.0
 11
1774.474917534525
 21
932.56035094680749
 31
0.0
  0
LINE
  5
7CB4
  8
1
 10
1756.474917534525
 20
935.56035094680749
 30
0.0
 11
1776.474917534525
 21
935.56035094680749
 31
0.0
  0
ARC
  5
7CB5
  8
1
 10
1763.474917534525
 20
928.56035094680738
 30
0.0
 40
4.0
 50
90.0
 51
180.0
  0
LINE
  5
7CB6
  8
1
 10
1776.474917534525
 20
935.56035094680749
 30
0.0
 11
1776.474917534525
 21
934.56035094680749
 31
0.0
  0
ARC
  5
7CB7
  8
1
 10
1774.474917534525
 20
934.56035094680749
 30
0.0
 40
2.0
 50
270.0
 51
0.0
  0
ARC
  5
7CB8
  8
1
 10
1757.474917534525
 20
917.56035094680749
 30
0.0
 40
2.0
 50
270.0
 51
0.0
  0
LINE
  5
7CB9
  8
1
 10
1757.474917534525
 20
915.56035094680749
 30
0.0
 11
1756.474917534525
 21
915.56035094680749
 31
0.0
  0
DIMENSION
  5
7CBA
  8
3
  2
*D3
 10
1857.1155813440621
 20
935.56035094680726
 30
0.0
 11
1832.115581344061
 21
1023.560350946807
 31
0.0
 70
     0
 13
1776.474917534525
 23
1111.5603509468069
 33
0.0
 14
1776.474917534525
 24
935.56035094680749
 34
0.0
 50
90.0
1001
ACAD
1000
DSTYLE
1002
{
1070
   287
1070
     3
1070
     3
1000
φ<>
1070
    40
1040
10.0
1070
   143
1040
0.039
1070
   172
1070
     1
1070
   271
1070
     0
1070
   279
1070
     0
1070
   288
1070
     1
1002
}
  0
DIMENSION
  5
7CBB
  8
3
  2
*D4
 10
1752.4749175345239
 20
1209.670860064085
 30
0.0
 11
1693.2603787363189
 21
1234.257393024634
 31
0.0
 70
   128
 13
1632.4749175345239
 23
1136.3269042767181
 33
0.0
 14
1752.4749175345239
 24
1136.3269042767181
 34
0.0
1001
ACAD
1000
DSTYLE
1002
{
1070
   288
1070
     1
1070
   172
1070
     1
1070
    40
1040
10.0
1070
   271
1070
     0
1070
   143
1040
0.039
1002
}
  0
DIMENSION
  5
7CBC
  8
3
  2
*D5
 10
1692.474917534525
 20
1284.0845941436689
 30
0.0
 11
1724.474917534525
 21
1324.0845941436689
 31
0.0
 70
     0
 13
1756.474917534525
 23
1134.5603509468069
 33
0.0
 14
1692.474917534525
 24
1258.965900725336
 34
0.0
1001
ACAD
1000
DSTYLE
1002
{
1070
   288
1070
     1
1070
   172
1070
     1
1070
    40
1040
10.0
1070
   271
1070
     0
1070
   143
1040
0.039
1002
}
  0
DIMENSION
  5
7CBD
  8
3
  2
*D6
 10
1276.7298671392271
 20
1284.0845941436689
 30
0.0
 11
1484.6023923368759
 21
1334.0845941436689
 31
0.0
 70
     0
  1
MAX\P500
 13
1692.474917534525
 23
1258.965900725336
 33
0.0
 14
1276.7298671392271
 24
1178.5663160329259
 34
0.0
1001
ACAD
1000
DSTYLE
1002
{
1070
   287
1070
     3
1070
    40
1040
10.0
1070
   143
1040
0.039
1070
   172
1070
     1
1070
   271
1070
     0
1070
   279
1070
     0
1070
   288
1070
     1
1002
}
  0
LINE
  5
7CBE
  8
2
 10
400.57616937889202
 20
2005.322383093996
 30
0.0
 11
816.56418156449035
 21
2005.3223830939939
 31
0.0
  0
LINE
  5
7CBF
  8
1
 10
446.30783292765221
 20
2063.8258854669361
 30
0.0
 11
722.80783292765159
 21
2063.8258854669361
 31
0.0
  0
LINE
  5
7CC0
  8
1
 10
446.30783292765221
 20
1943.8258854669359
 30
0.0
 11
722.80783292765159
 21
1943.825885466933
 31
0.0
  0
LINE
  5
7CC1
  8
1
 10
426.30783292765199
 20
2083.8258854669371
 30
0.0
 11
446.30783292765199
 21
2083.8258854669361
 31
0.0
  0
LINE
  5
7CC2
  8
1
 10
426.30783292765199
 20
1923.82588546694
 30
0.0
 11
446.30783292765199
 21
1923.82588546694
 31
0.0
  0
LINE
  5
7CC4
  8
1
 10
541.30783292765454
 20
1610.5808350716391
 30
0.0
 11
541.30783292765454
 21
1640.58083507164
 31
0.0
  0
LINE
  5
7CC5
  8
1
 10
631.30783292765454
 20
1610.5808350716391
 30
0.0
 11
631.30783292765454
 21
1640.58083507164
 31
0.0
  0
LINE
  5
7CC6
  8
1
 10
850.31379801377352
 20
1640.5808350716379
 30
0.0
 11
850.31379801377352
 21
1610.5808350716379
 31
0.0
  0
LINE
  5
7CC7
  8
1
 10
960.31379801377341
 20
1640.5808350716391
 30
0.0
 11
960.31379801377341
 21
1610.5808350716379
 31
0.0
  0
LINE
  5
7CCA
  8
1
 10
989.69352128207072
 20
1588.0808350716391
 30
0.0
 11
459.69352128207078
 21
1588.0808350716391
 31
0.0
  0
LINE
  5
7CCB
  8
1
 10
541.30783292765454
 20
1610.5808350716391
 30
0.0
 11
631.30783292765477
 21
1610.5808350716391
 31
0.0
  0
LINE
  5
7CCC
  8
1
 10
989.69352128207072
 20
1663.0808350716391
 30
0.0
 11
459.69352128207072
 21
1663.0808350716391
 31
0.0
  0
LINE
  5
7CCD
  8
1
 10
576.30783292765466
 20
1650.5808350716391
 30
0.0
 11
576.30783292765454
 21
1943.825885466935
 31
0.0
  0
LINE
  5
7CCE
  8
1
 10
596.30783292765466
 20
1650.5808350716391
 30
0.0
 11
596.30783292765523
 21
1943.825885466935
 31
0.0
  0
LINE
  5
7CCF
  8
1
 10
576.30783292765466
 20
1650.5808350716391
 30
0.0
 11
596.30783292765466
 21
1650.5808350716391
 31
0.0
  0
LINE
  5
7CD0
  8
1
 10
541.30783292765454
 20
1640.58083507164
 30
0.0
 11
631.30783292765477
 21
1640.5808350716391
 31
0.0
  0
LINE
  5
7CD1
  8
1
 10
595.80783292765466
 20
1640.58083507164
 30
0.0
 11
595.80783292765466
 21
1650.58083507164
 31
0.0
  0
LINE
  5
7CD2
  8
1
 10
576.80783292765466
 20
1640.58083507164
 30
0.0
 11
576.80783292765466
 21
1650.58083507164
 31
0.0
  0
LINE
  5
7CD4
  8
1
 10
481.30783292765409
 20
1675.0223830939949
 30
0.0
 11
481.30783292765523
 21
1943.8258854669359
 31
0.0
  0
LINE
  5
7CD5
  8
1
 10
691.30783292765432
 20
1675.0223830939949
 30
0.0
 11
691.307832927655
 21
1943.8258854669341
 31
0.0
  0
LINE
  5
7CD6
  8
1
 10
481.30783292765409
 20
1675.0223830939949
 30
0.0
 11
576.307832927655
 21
1675.0223830939949
 31
0.0
  0
LINE
  5
7CD7
  8
1
 10
596.307832927655
 20
1675.0223830939949
 30
0.0
 11
691.30783292765432
 21
1675.0223830939949
 31
0.0
  0
LINE
  5
7CD8
  8
1
 10
821.30783292765454
 20
1672.325885466935
 30
0.0
 11
821.307832927655
 21
1900.325885466935
 31
0.0
  0
LINE
  5
7CD9
  8
1
 10
991.30784092765452
 20
1672.3258854669341
 30
0.0
 11
991.30784092765521
 21
1900.3258854669341
 31
0.0
  0
LINE
  5
7CDA
  8
1
 10
821.307832927655
 20
1900.325885466935
 30
0.0
 11
991.30784092765521
 21
1900.3258854669341
 31
0.0
  0
LINE
  5
7CDB
  8
1
 10
821.30783292765409
 20
1672.325885466935
 30
0.0
 11
991.3078409276543
 21
1672.3258854669341
 31
0.0
  0
LINE
  5
7CDC
  8
1
 10
896.80783292765489
 20
1640.58083507164
 30
0.0
 11
896.80783292765489
 21
1672.3258854669341
 31
0.0
  0
LINE
  5
7CDD
  8
1
 10
915.80783292765466
 20
1640.58083507164
 30
0.0
 11
915.807832927655
 21
1672.3258854669341
 31
0.0
  0
LINE
  5
7CDE
  8
1
 10
976.30783292765591
 20
1900.3258854669341
 30
0.0
 11
976.30783292765625
 21
1980.3223830939939
 31
0.0
  0
LINE
  5
7CE4
  8
1
 10
850.31379801377363
 20
1640.58083507164
 30
0.0
 11
960.31379801377329
 21
1640.58083507164
 31
0.0
  0
LINE
  5
7CE5
  8
1
 10
850.31379801377363
 20
1610.5808350716391
 30
0.0
 11
960.31379801377329
 21
1610.5808350716391
 31
0.0
  0
LINE
  5
7CE8
  8
1
 10
1287.4749175345239
 20
803.56035094680726
 30
0.0
 11
1287.4749175345239
 21
843.56035094680726
 31
0.0
  0
LINE
  5
7CE9
  8
1
 10
1667.474917534525
 20
803.56035094680726
 30
0.0
 11
1667.4749175345239
 21
843.56035094680715
 31
0.0
  0
LINE
  5
7CEA
  8
1
 10
1360.9749175345221
 20
1038.5663240329261
 30
0.0
 11
1588.9749175345221
 21
1038.5663240329261
 31
0.0
  0
LINE
  5
7CEB
  8
1
 10
1588.9749175345221
 20
868.56631603292669
 30
0.0
 11
1360.9749175345221
 21
868.56631603292658
 31
0.0
  0
LINE
  5
7CEC
  8
1
 10
1360.9749175345221
 20
868.56631603292601
 30
0.0
 11
1360.9749175345221
 21
1038.5663240329261
 31
0.0
  0
LINE
  5
7CED
  8
1
 10
1329.2298671392271
 20
944.06631603292703
 30
0.0
 11
1360.9749175345221
 21
944.06631603292703
 31
0.0
  0
LINE
  5
7CEE
  8
1
 10
1329.2298671392271
 20
963.06631603292703
 30
0.0
 11
1360.9749175345221
 21
963.06631603292703
 31
0.0
  0
LINE
  5
7CEF
  8
1
 10
1588.9749175345221
 20
1038.5663240329261
 30
0.0
 11
1588.9749175345221
 21
868.56631603292635
 31
0.0
  0
LINE
  5
7CF0
  8
1
 10
1772.4749175345301
 20
847.31065464309256
 30
0.0
 11
1772.474917534528
 21
932.56035094680749
 31
0.0
  0
LINE
  5
7CF1
  8
1
 10
1756.474917534525
 20
1111.5603509468069
 30
0.0
 11
1776.474917534525
 21
1111.5603509468069
 31
0.0
  0
LINE
  5
7CF2
  8
1
 10
1763.474917534525
 20
1114.5603509468069
 30
0.0
 11
1774.474917534525
 21
1114.5603509468069
 31
0.0
  0
LINE
  5
7CF3
  8
1
 10
1776.474917534525
 20
1111.5603509468069
 30
0.0
 11
1756.474917534525
 21
1111.5603509468069
 31
0.0
  0
LINE
  5
7CF4
  8
1
 10
1756.474917534526
 20
1023.560350946807
 30
0.0
 11
1756.474917534525
 21
1134.5603509468069
 31
0.0
  0
LINE
  5
7CF5
  8
1
 10
1759.4749175345239
 20
1023.560350946807
 30
0.0
 11
1759.4749175345239
 21
1111.5603509468069
 31
0.0
  0
LINE
  5
7CF6
  8
1
 10
1757.474917534525
 20
1131.5603509468069
 30
0.0
 11
1756.474917534525
 21
1131.5603509468069
 31
0.0
  0
ARC
  5
7CF7
  8
1
 10
1757.474917534525
 20
1129.5603509468069
 30
0.0
 40
2.0
 50
0.0
 51
90.0
  0
ARC
  5
7CF8
  8
1
 10
1763.474917534525
 20
1118.5603509468069
 30
0.0
 40
4.0
 50
180.0
 51
270.0
  0
LINE
  5
7CF9
  8
1
 10
1756.474917534525
 20
1131.5603509468069
 30
0.0
 11
1756.474917534525
 21
1111.5603509468069
 31
0.0
  0
LINE
  5
7CFA
  8
1
 10
1759.4749175345239
 20
1129.5603509468069
 30
0.0
 11
1759.4749175345239
 21
1118.5603509468069
 31
0.0
  0
LINE
  5
7CFB
  8
1
 10
1752.4749175345239
 20
1134.5603509468069
 30
0.0
 11
1756.474917534525
 21
1134.5603509468069
 31
0.0
  0
LINE
  5
7CFC
  8
1
 10
1756.474917534525
 20
1111.5603509468069
 30
0.0
 11
1756.474917534525
 21
1131.5603509468069
 31
0.0
  0
LINE
  5
7CFD
  8
1
 10
1776.474917534525
 20
935.56035094680726
 30
0.0
 11
1776.474917534525
 21
1111.5603509468069
 31
0.0
  0
ARC
  5
7CFE
  8
1
 10
1774.474917534525
 20
1112.5603509468069
 30
0.0
 40
2.0
 50
0.0
 51
90.0
  0
LINE
  5
7CFF
  8
1
 10
1776.474917534525
 20
1111.5603509468069
 30
0.0
 11
1776.474917534525
 21
1112.5603509468069
 31
0.0
  0
LINE
  5
7D00
  8
1
 10
722.80783292765159
 20
1943.825885466933
 30
0.0
 11
722.80783292765182
 21
2063.8258854669361
 31
0.0
  0
LINE
  5
7D01
  8
1
 10
426.30783292765199
 20
1923.82588546694
 30
0.0
 11
426.30783292765199
 21
2083.8258854669371
 31
0.0
  0
LINE
  5
7D02
  8
1
 10
446.30783292765221
 20
1923.82588546694
 30
0.0
 11
446.30783292765199
 21
2083.8258854669361
 31
0.0
  0
LINE
  5
7D03
  8
1
 10
1588.9749175345221
 20
987.06035094680749
 30
0.0
 11
1605.1749175345251
 21
987.06035094680726
 31
0.0
  0
LINE
  5
7D04
  8
1
 10
1588.9749175345221
 20
984.76035094680719
 30
0.0
 11
1605.1749175345251
 21
984.76035094680719
 31
0.0
  0
LINE
  5
7D05
  8
1
 10
1588.9749175345221
 20
1013.560350946807
 30
0.0
 11
1605.1749175345251
 21
1013.560350946807
 31
0.0
  0
LINE
  5
7D06
  8
1
 10
1588.9749175345221
 20
1033.5603509468069
 30
0.0
 11
1605.1749175345251
 21
1033.560350946806
 31
0.0
  0
LINE
  5
7D07
  8
1
 10
1549.308708689
 20
868.56631603292658
 30
0.0
 11
1549.308708689
 21
843.56035094680715
 31
0.0
  0
LINE
  5
7D08
  8
1
 10
1405.950554169551
 20
868.56631603292635
 30
0.0
 11
1405.950554169551
 21
843.56035094680726
 31
0.0
  0
DIMENSION
  5
7D09
  8
3
  2
*D7
 10
586.30783292765227
 20
1226.8634425460091
 30
0.0
 11
506.3078329276521
 21
1251.8634425460091
 31
0.0
 70
     0
 13
426.30783292765199
 23
1051.910345648666
 33
0.0
 14
586.30783292765227
 24
1202.1664094438991
 34
0.0
1001
ACAD
1000
DSTYLE
1002
{
1070
   287
1070
     3
1070
    40
1040
10.0
1070
   143
1040
0.039
1070
   172
1070
     1
1070
   271
1070
     0
1070
   279
1070
     0
1070
   288
1070
     1
1002
}
  0
DIMENSION
  5
7D0A
  8
3
  2
*D8
 10
722.80783292765182
 20
1226.8634425460091
 30
0.0
 11
654.55783292765204
 21
1251.8634425460091
 31
0.0
 70
     0
  1
136
 13
586.30783292765227
 23
1202.1664094438991
 33
0.0
 14
722.80783292765182
 24
1016.110345648666
 34
0.0
1001
ACAD
1000
DSTYLE
1002
{
1070
   287
1070
     3
1070
    40
1040
10.0
1070
   143
1040
0.039
1070
   172
1070
     1
1070
   271
1070
     0
1070
   279
1070
     0
1070
   288
1070
     1
1002
}
  0
DIMENSION
  5
7D0B
  8
3
  2
*D9
 10
287.51166894902047
 20
1023.610345648666
 30
0.0
 11
262.5116689490203
 21
1084.360345648666
 31
0.0
 70
     0
  1
121
 13
593.80783292765182
 23
1145.1103456486651
 33
0.0
 14
409.56158893030999
 24
1023.610345648666
 34
0.0
 50
90.0
1001
ACAD
1000
DSTYLE
1002
{
1070
   287
1070
     3
1070
    40
1040
10.0
1070
   143
1040
0.039
1070
   172
1070
     1
1070
   271
1070
     0
1070
   279
1070
     0
1070
   288
1070
     1
1002
}
  0
DIMENSION
  5
7D0C
  8
3
  2
*D10
 10
287.51166894902047
 20
803.61034564866645
 30
0.0
 11
262.51166894902042
 21
913.61034564866634
 31
0.0
 70
     0
 13
409.56158893030999
 23
1023.610345648666
 33
0.0
 14
436.30783292765108
 24
803.61034564866645
 34
0.0
 50
90.0
1001
ACAD
1000
DSTYLE
1002
{
1070
   287
1070
     3
1070
    40
1040
10.0
1070
   143
1040
0.039
1070
   172
1070
     1
1070
   271
1070
     0
1070
   279
1070
     0
1070
   288
1070
     1
1002
}
  0
DIMENSION
  5
7D0F
  8
3
  2
*D11
 10
338.20693322209178
 20
869.61034564866623
 30
0.0
 11
338.20693322209172
 21
946.61034564866634
 31
0.0
 70
   128
 13
409.56158893030999
 23
1023.610345648666
 33
0.0
 14
446.3078329276513
 24
869.61034564866623
 34
0.0
 50
90.0
1001
ACAD
1000
DSTYLE
1002
{
1070
   287
1070
     3
1070
    40
1040
10.0
1070
   143
1040
0.039
1070
   172
1070
     1
1070
   271
1070
     0
1070
   279
1070
     0
1070
   288
1070
     1
1002
}
  0
DIMENSION
  5
7D10
  8
3
  2
*D12
 10
1016.30783292765
 20
1288.5181542132909
 30
0.0
 11
721.30783292765136
 21
1313.5181542132909
 31
0.0
 70
     0
 13
426.30783292765199
 23
1051.910345648666
 33
0.0
 14
1016.30783292765
 24
843.61034564866429
 34
0.0
1001
ACAD
1000
DSTYLE
1002
{
1070
   287
1070
     3
1070
    40
1040
10.0
1070
   143
1040
0.039
1070
   172
1070
     1
1070
   271
1070
     0
1070
   279
1070
     0
1070
   288
1070
     1
1002
}
  0
LINE
  5
7D12
  8
1
 10
1632.4749175345239
 20
1145.110345648666
 30
0.0
 11
1752.4749175345239
 21
1145.110345648666
 31
0.0
  0
LINE
  5
7D13
  8
1
 10
1632.4749175345239
 20
869.56035094680726
 30
0.0
 11
1752.474917534525
 21
869.56035094680715
 31
0.0
  0
LINE
  5
7D14
  8
1
 10
1632.4749175345239
 20
1029.5603509468069
 30
0.0
 11
1752.4749175345239
 21
1029.5603509468069
 31
0.0
  0
LINE
  5
7D15
  8
1
 10
1632.474917534525
 20
847.31065464309256
 30
0.0
 11
1772.4749175345301
 21
847.31065464309256
 31
0.0
  0
LINE
  5
7D16
  8
1
 10
1632.4749175345239
 20
1029.5603509468069
 30
0.0
 11
1752.474917534525
 21
869.56035094680715
 31
0.0
  0
LINE
  5
7D17
  8
1
 10
1752.4749175345239
 20
1029.5603509468069
 30
0.0
 11
1632.4749175345239
 21
869.56035094680726
 31
0.0
  0
LINE
  5
7D18
  8
1
 10
1605.174917534524
 20
1087.1103509468071
 30
0.0
 11
1605.1749175345251
 21
867.1103509468071
 31
0.0
  0
LINE
  5
7D19
  8
1
 10
1605.1749175345251
 20
867.1103509468071
 30
0.0
 11
1632.4749175345239
 21
867.1103509468071
 31
0.0
  0
LINE
  5
7F10
  8
4
 10
1850.0
 20
500.0
 30
0.0
 11
1850.0
 21
300.0
 31
0.0
  0
LINE
  5
7F11
  8
4
 10
1150.0
 20
500.0
 30
0.0
 11
1150.0
 21
300.0
 31
0.0
  0
LINE
  5
7F12
  8
4
 10
650.0
 20
500.0
 30
0.0
 11
650.0
 21
300.0
 31
0.0
  0
LINE
  5
7F15
  8
4
 10
650.0
 20
300.0
 30
0.0
 11
1850.0
 21
300.0
 31
0.0
  0
LINE
  5
7F16
  8
4
 10
650.0
 20
400.0
 30
0.0
 11
1850.0
 21
400.0
 31
0.0
  0
TEXT
  5
7F17
  8
4
 10
688.50208084690155
 20
431.54302586661282
 30
0.0
 40
50.0
  1
機器名称
  0
TEXT
  5
7F18
  8
4
 10
686.25810602479748
 20
321.64515673201089
 30
0.0
 40
50.0
  1
機器型番
  0
TEXT
  5
7F19
  8
4
 10
1177.6787454876639
 20
422.57176895756851
 30
0.0
 40
50.0
  1
ミツヤ多翼送風機
  0
TEXT
  5
7F1A
  8
4
 10
1186.6544955854799
 20
317.15958427994332
 30
0.0
 40
50.0
  1
MF#1-1
  0
TEXT
  5
7F1C
  8
4
 10
724.61858239386845
 20
2383.4288413325148
 30
0.0
 40
53.999999999999993
  1
床置ベット
  0
TEXT
  5
7F1D
  8
4
 10
316.16759332944639
 20
2533.8809761992979
 30
0.0
 40
72.0
  1
遠心式片吸込片持多翼ファン
  0
LINE
  5
7F1E
  8
4
 10
250.0
 20
2469.408754264804
 30
0.0
 11
1850.0
 21
2469.408754264804
 31
0.0
  0
LINE
  5
7F1F
  8
4
 10
250.0
 20
2669.4087542648049
 30
0.0
 11
1850.0
 21
2669.4087542648049
 31
0.0
  0
LINE
  5
7F20
  8
4
 10
650.0
 20
500.0
 30
0.0
 11
1850.0
 21
500.0
 31
0.0
  0
LINE
  5
7F21
  8
4
 10
250.0
 20
2669.4087542648049
 30
0.0
 11
250.0
 21
2469.408754264804
 31
0.0
  0
TEXT
  5
7F22
  8
4
 10
288.75975015116632
 20
2382.319477546343
 30
0.0
 40
53.999999999999993
  1
右回転左横向
  0
TEXT
  5
7F23
  8
4
 10
1468.969559249289
 20
2706.0610814953088
 30
0.0
 40
56.000000000000007
  1
No.
  0
TEXT
  5
7F24
  8
4
 10
1311.2960626000131
 20
2383.4288413325148
 30
0.0
 40
53.999999999999993
  1
縮尺：1/10
  0
LINE
  5
7F25
  8
4
 10
1850.0
 20
2669.4087542648049
 30
0.0
 11
1850.0
 21
2469.408754264804
 31
0.0
  0
LINE
  5
7F26
  8
4
 10
2100.0
 20
2950.0
 30
0.0
 11
2100.0
 21
2950.0
 31
0.0
  0
LINE
  5
7F27
  8
4
 10
1440.6174223598639
 20
2681.2635831254011
 30
0.0
 11
1440.6174223598639
 21
2786.652261549752
 31
0.0
  0
LINE
  5
7F28
  8
4
 10
1440.6174223598639
 20
2786.652261549752
 30
0.0
 11
1850.0
 21
2786.652261549752
 31
0.0
  0
LINE
  5
7F29
  8
4
 10
1850.0
 20
2786.652261549752
 30
0.0
 11
1850.0
 21
2681.2635831254011
 31
0.0
  0
LINE
  5
7F2A
  8
4
 10
1850.0
 20
2681.2635831254011
 30
0.0
 11
1440.6174223598639
 21
2681.2635831254011
 31
0.0
  0
LINE
  5
7F2B
  8
4
 10
0.0
 20
0.0
 30
0.0
 11
0.0
 21
2950.0
 31
0.0
  0
LINE
  5
7F2C
  8
4
 10
0.0
 20
2950.0
 30
0.0
 11
2100.0
 21
2950.0
 31
0.0
  0
LINE
  5
7F2D
  8
4
 10
2100.0
 20
2950.0
 30
0.0
 11
2100.0
 21
0.0
 31
0.0
  0
LINE
  5
7F2E
  8
4
 10
2100.0
 20
0.0
 30
0.0
 11
0.0
 21
0.0
 31
0.0
  0
LINE
  5
80F8
  8
1
 10
1351.7298671392271
 20
1143.6415838600501
 30
0.0
 11
1351.7298671392271
 21
1178.5663160329259
 31
0.0
  0
LINE
  5
8101
  8
1
 10
989.69352128207072
 20
1588.08083507164
 30
0.0
 11
989.69352128207072
 21
1663.0808350716391
 31
0.0
  0
LINE
  5
8102
  8
1
 10
459.69352128207078
 20
1588.0808350716391
 30
0.0
 11
459.69352128207072
 21
1663.0808350716391
 31
0.0
  0
LINE
  5
8189
  8
1
 10
476.30783292765472
 20
1640.3223830939951
 30
0.0
 11
976.30783292765466
 21
1640.3223830939951
 31
0.0
  0
LINE
  5
818C
  8
1
 10
476.30783292765591
 20
1940.322383093996
 30
0.0
 11
481.30783292765511
 21
1940.322383093996
 31
0.0
  0
LINE
  5
818D
  8
1
 10
691.307832927655
 20
1940.322383093996
 30
0.0
 11
976.30783292765591
 21
1940.322383093996
 31
0.0
  0
DIMENSION
  5
819A
  8
3
  2
*D14
 10
1111.742217886369
 20
1600.3223830939951
 30
0.0
 11
1111.7422178863681
 21
1786.1886214452679
 31
0.0
 70
   128
 13
1016.307832927656
 23
1980.322383093996
 33
0.0
 14
1016.307832927654
 24
1600.3223830939951
 34
0.0
 50
90.0
1001
ACAD
1000
DSTYLE
1002
{
1070
   287
1070
     3
1070
    40
1040
10.0
1070
   143
1040
0.039
1070
   172
1070
     1
1070
   271
1070
     0
1070
   279
1070
     0
1070
   288
1070
     1
1002
}
  0
DIMENSION
  5
81A7
  8
3
  2
*D15
 10
1016.307832927654
 20
1496.4666266310639
 30
0.0
 11
727.02234696408232
 21
1496.4666266310639
 31
0.0
 70
   128
 13
436.3078329276546
 23
1600.3223830939951
 33
0.0
 14
1016.307832927654
 24
1600.3223830939951
 34
0.0
1001
ACAD
1000
DSTYLE
1002
{
1070
   287
1070
     3
1070
    40
1040
10.0
1070
   143
1040
0.039
1070
   172
1070
     1
1070
   271
1070
     0
1070
   279
1070
     0
1070
   288
1070
     1
1002
}
  0
DIMENSION
  5
820F
  8
3
  2
*D16
 10
586.30783292765068
 20
729.30934195574889
 30
0.0
 11
511.30783292765079
 21
754.30934195574889
 31
0.0
 70
     0
 13
436.30783292765108
 23
803.61034564866645
 33
0.0
 14
586.30783292765068
 24
803.61034564866566
 34
0.0
1001
ACAD
1000
DSTYLE
1002
{
1070
   287
1070
     3
1070
    40
1040
10.0
1070
   143
1040
0.039
1070
   172
1070
     1
1070
   271
1070
     0
1070
   279
1070
     0
1002
}
  0
DIMENSION
  5
821C
  8
3
  2
*D17
 10
1016.30783292765
 20
729.30934195574889
 30
0.0
 11
801.30783292765057
 21
754.30934195574889
 31
0.0
 70
     0
 13
586.30783292765068
 23
803.61034564866566
 33
0.0
 14
1016.30783292765
 24
803.5663160329251
 34
0.0
1001
ACAD
1000
DSTYLE
1002
{
1070
   287
1070
     3
1070
    40
1040
10.0
1070
   143
1040
0.039
1070
   172
1070
     1
1070
   271
1070
     0
1070
   279
1070
     0
1002
}
  0
DIMENSION
  5
8229
  8
3
  2
*D18
 10
1667.474917534525
 20
729.30934195574889
 30
0.0
 11
1477.4749175345239
 21
754.30934195574889
 31
0.0
 70
     0
 13
1287.4749175345239
 23
803.56035094680738
 33
0.0
 14
1667.474917534525
 24
803.56035094680726
 34
0.0
1001
ACAD
1000
DSTYLE
1002
{
1070
   287
1070
     3
1070
    40
1040
10.0
1070
   143
1040
0.039
1070
   172
1070
     1
1070
   271
1070
     0
1070
   279
1070
     0
1002
}
  0
DIMENSION
  5
8238
  8
3
  2
*D19
 10
1692.4749175345239
 20
729.30934195574889
 30
0.0
 11
1766.7606318202379
 21
754.30934195574889
 31
0.0
 70
     0
 13
1667.474917534525
 23
803.56035094680726
 33
0.0
 14
1692.4749175345239
 24
803.56035094680726
 34
0.0
1001
ACAD
1000
DSTYLE
1002
{
1070
   287
1070
     3
1070
    40
1040
10.0
1070
   143
1040
0.039
1070
   172
1070
     1
1070
   271
1070
     0
1070
   279
1070
     0
1002
}
  0
DIMENSION
  5
8245
  8
3
  2
*D20
 10
212.34099626468191
 20
803.61034564866645
 30
0.0
 11
187.34099626468179
 21
974.36034564866623
 31
0.0
 70
     0
 13
588.80783292765182
 23
1145.1103456486651
 33
0.0
 14
436.30783292765108
 24
803.61034564866645
 34
0.0
 50
90.0
1001
ACAD
1000
DSTYLE
1002
{
1070
   287
1070
     3
1070
    40
1040
10.0
1070
   143
1040
0.039
1070
   172
1070
     1
1070
   271
1070
     0
1070
   279
1070
     0
1002
}
  0
ENDSEC
  0
EOF
