  0
SECTION
  2
HEADER
  9
$ACADVER
  1
AC1009
  9
$INSBASE
 10
0.0
 20
0.0
 30
0.0
  9
$EXTMIN
 10
0.0
 20
0.0
 30
0.0
  9
$EXTMAX
 10
2100.0
 20
2950.0
 30
0.0
  9
$LIMMIN
 10
0.0
 20
0.0
  9
$LIMMAX
 10
297.0
 20
210.0
  9
$ORTHOMODE
 70
     0
  9
$REGENMODE
 70
     1
  9
$FILLMODE
 70
     0
  9
$QTEXTMODE
 70
     0
  9
$MIRRTEXT
 70
     1
  9
$DRAGMODE
 70
     2
  9
$LTSCALE
 40
100.0
  9
$OSMODE
 70
    37
  9
$ATTMODE
 70
     1
  9
$TEXTSIZE
 40
180.0
  9
$TRACEWID
 40
0.05
  9
$TEXTSTYLE
  7
STANDARD
  9
$CLAYER
  8
3
  9
$CELTYPE
  6
BYLAYER
  9
$CECOLOR
 62
   256
  9
$DIMSCALE
 40
10.0
  9
$DIMASZ
 40
2.0
  9
$DIMEXO
 40
0.5
  9
$DIMDLI
 40
10.0
  9
$DIMRND
 40
0.0
  9
$DIMDLE
 40
0.0
  9
$DIMEXE
 40
1.0
  9
$DIMTP
 40
1.0
  9
$DIMTM
 40
1.0
  9
$DIMTXT
 40
3.0
  9
$DIMCEN
 40
0.0
  9
$DIMTSZ
 40
0.0
  9
$DIMTOL
 70
     0
  9
$DIMLIM
 70
     0
  9
$DIMTIH
 70
     0
  9
$DIMTOH
 70
     0
  9
$DIMSE1
 70
     0
  9
$DIMSE2
 70
     0
  9
$DIMTAD
 70
     1
  9
$DIMZIN
 70
     8
  9
$DIMBLK
  1

  9
$DIMASO
 70
     1
  9
$DIMSHO
 70
     1
  9
$DIMPOST
  1

  9
$DIMAPOST
  1

  9
$DIMALT
 70
     0
  9
$DIMALTD
 70
     2
  9
$DIMALTF
 40
0.039
  9
$DIMLFAC
 40
1.0
  9
$DIMTOFL
 70
     1
  9
$DIMTVP
 40
0.0
  9
$DIMTIX
 70
     0
  9
$DIMSOXD
 70
     0
  9
$DIMSAH
 70
     1
  9
$DIMBLK1
  1
OPEN
  9
$DIMBLK2
  1
OPEN
  9
$DIMSTYLE
  2
IGA
  9
$DIMCLRD
 70
     0
  9
$DIMCLRE
 70
     0
  9
$DIMCLRT
 70
     0
  9
$DIMTFAC
 40
10.0
  9
$DIMGAP
 40
1.0
  9
$LUNITS
 70
     2
  9
$LUPREC
 70
     3
  9
$SKETCHINC
 40
0.1
  9
$FILLETRAD
 40
50.0
  9
$AUNITS
 70
     0
  9
$AUPREC
 70
     0
  9
$MENU
  1
acad
  9
$ELEVATION
 40
0.0
  9
$PELEVATION
 40
0.0
  9
$THICKNESS
 40
0.0
  9
$LIMCHECK
 70
     0
  9
$BLIPMODE
 70
     0
  9
$CHAMFERA
 40
0.5
  9
$CHAMFERB
 40
0.5
  9
$SKPOLY
 70
     0
  9
$TDCREATE
 40
2451935.5591763882
  9
$TDUPDATE
 40
2454953.7494948958
  9
$TDINDWG
 40
0.0901528356
  9
$TDUSRTIMER
 40
0.0901528356
  9
$USRTIMER
 70
     1
  9
$ANGBASE
 50
0.0
  9
$ANGDIR
 70
     0
  9
$PDMODE
 70
     0
  9
$PDSIZE
 40
0.0
  9
$PLINEWID
 40
0.0
  9
$COORDS
 70
     1
  9
$SPLFRAME
 70
     0
  9
$SPLINETYPE
 70
     6
  9
$SPLINESEGS
 70
     8
  9
$ATTDIA
 70
     0
  9
$ATTREQ
 70
     1
  9
$HANDLING
 70
 10241
  9
$HANDSEED
  5
82E1
  9
$SURFTAB1
 70
     6
  9
$SURFTAB2
 70
     6
  9
$SURFTYPE
 70
     6
  9
$SURFU
 70
     6
  9
$SURFV
 70
     6
  9
$UCSNAME
  2

  9
$UCSORG
 10
0.0
 20
0.0
 30
0.0
  9
$UCSXDIR
 10
1.0
 20
0.0
 30
0.0
  9
$UCSYDIR
 10
0.0
 20
1.0
 30
0.0
  9
$PUCSNAME
  2

  9
$PUCSORG
 10
0.0
 20
0.0
 30
0.0
  9
$PUCSXDIR
 10
1.0
 20
0.0
 30
0.0
  9
$PUCSYDIR
 10
0.0
 20
1.0
 30
0.0
  9
$USERI1
 70
     0
  9
$USERI2
 70
     0
  9
$USERI3
 70
     0
  9
$USERI4
 70
     0
  9
$USERI5
 70
     0
  9
$USERR1
 40
0.0
  9
$USERR2
 40
0.0
  9
$USERR3
 40
0.0
  9
$USERR4
 40
0.0
  9
$USERR5
 40
0.0
  9
$WORLDVIEW
 70
     1
  9
$SHADEDGE
 70
     3
  9
$SHADEDIF
 70
    70
  9
$TILEMODE
 70
     1
  9
$MAXACTVP
 70
    16
  9
$PLIMCHECK
 70
     0
  9
$PEXTMIN
 10
1.0000000000000000E+020
 20
1.0000000000000000E+020
 30
1.0000000000000000E+020
  9
$PEXTMAX
 10
-1.0000000000000000E+020
 20
-1.0000000000000000E+020
 30
-1.0000000000000000E+020
  9
$PLIMMIN
 10
0.0
 20
0.0
  9
$PLIMMAX
 10
12.0
 20
9.0
  9
$UNITMODE
 70
     0
  9
$VISRETAIN
 70
     0
  9
$PLINEGEN
 70
     0
  9
$PSLTSCALE
 70
     1
  0
ENDSEC
  0
SECTION
  2
TABLES
  0
TABLE
  2
VPORT
 70
     2
  0
VPORT
  2
*ACTIVE
 70
     0
 10
0.0
 20
0.0
 11
1.0
 21
1.0
 12
3536.6099588513671
 22
1475.0000068685031
 13
0.0
 23
0.0
 14
10.0
 24
10.0
 15
10.0
 25
10.0
 16
0.0
 26
0.0
 36
1.0
 17
0.0
 27
0.0
 37
0.0
 40
2972.614883016935
 41
3.1666666666666661
 42
50.0
 43
0.0
 44
0.0
 50
0.0
 51
0.0
 71
     0
 72
   100
 73
     1
 74
     0
 75
     0
 76
     0
 77
     0
 78
     0
  0
ENDTAB
  0
TABLE
  2
LTYPE
 70
     2
  0
LTYPE
  2
CONTINUOUS
 70
     0
  3
Solid line
 72
    65
 73
     0
 40
0.0
  0
LTYPE
  2
CENTER
 70
     0
  3
____ _ ____ _ ____ _ ____ _ ____ _ ____ _ ____ 
 72
    65
 73
     4
 40
2.0
 49
1.25
 49
-0.25
 49
0.25
 49
-0.25
  0
ENDTAB
  0
TABLE
  2
LAYER
 70
     6
  0
LAYER
  2
0
 70
     0
 62
     7
  6
CONTINUOUS
  0
LAYER
  2
3
 70
     0
 62
     2
  6
CONTINUOUS
  0
LAYER
  2
2
 70
     0
 62
     3
  6
CENTER
  0
LAYER
  2
1
 70
     0
 62
     4
  6
CONTINUOUS
  0
LAYER
  2
4
 70
     0
 62
     7
  6
CONTINUOUS
  0
LAYER
  2
DEFPOINTS
 70
     0
 62
     7
  6
CONTINUOUS
  0
ENDTAB
  0
TABLE
  2
STYLE
 70
     1
  0
STYLE
  2
STANDARD
 70
     0
 40
0.0
 41
1.0
 50
0.0
 71
     0
 42
180.0
  3
simplex.shx
  4
extfont.shx
  0
ENDTAB
  0
TABLE
  2
VIEW
 70
     0
  0
ENDTAB
  0
TABLE
  2
UCS
 70
     0
  0
ENDTAB
  0
TABLE
  2
APPID
 70
     1
  0
APPID
  2
ACAD
 70
     0
  0
ENDTAB
  0
TABLE
  2
DIMSTYLE
 70
     1
  0
DIMSTYLE
  2
IGA
 70
     0
  3

  4

  5

  6
OPEN
  7
OPEN
 40
2.0
 41
2.0
 42
0.5
 43
10.0
 44
1.0
 45
0.0
 46
0.0
 47
1.0
 48
1.0
140
3.0
141
0.0
142
0.0
143
0.03937
144
1.0
145
0.0
146
10.0
147
1.0
 71
     0
 72
     0
 73
     0
 74
     0
 75
     0
 76
     0
 77
     1
 78
     8
170
     0
171
     2
172
     0
173
     1
174
     0
175
     0
176
     0
177
     0
178
     0
  0
ENDTAB
  0
ENDSEC
  0
SECTION
  2
BLOCKS
  0
BLOCK
  8
0
  2
$MODEL_SPACE
 70
     0
 10
0.0
 20
0.0
 30
0.0
  3
$MODEL_SPACE
  1

  0
ENDBLK
  5
1B
  8
0
  0
BLOCK
 67
     1
  8
0
  2
$PAPER_SPACE
 70
     0
 10
0.0
 20
0.0
 30
0.0
  3
$PAPER_SPACE
  1

  0
ENDBLK
  5
18
 67
     1
  8
0
  0
BLOCK
  8
0
  2
_OPEN
 70
     0
 10
0.0
 20
0.0
 30
0.0
  3
_OPEN
  1

  0
LINE
  5
79FD
  8
0
  6
BYBLOCK
 62
     0
 10
-1.0
 20
0.1666666666666666
 30
0.0
 11
0.0
 21
0.0
 31
0.0
  0
LINE
  5
79FE
  8
0
  6
BYBLOCK
 62
     0
 10
0.0
 20
0.0
 30
0.0
 11
-1.0
 21
-0.1666666666666666
 31
0.0
  0
LINE
  5
79FF
  8
0
  6
BYBLOCK
 62
     0
 10
0.0
 20
0.0
 30
0.0
 11
-1.0
 21
0.0
 31
0.0
  0
ENDBLK
  5
7A01
  8
0
  0
BLOCK
  8
0
  2
YA_N
 70
     0
 10
0.0
 20
0.0
 30
0.0
  3
YA_N
  1

  0
ENDBLK
  5
7A04
  8
0
  0
BLOCK
  8
0
  2
_DOT
 70
     0
 10
0.0
 20
0.0
 30
0.0
  3
_DOT
  1

  0
LINE
  5
80A9
  8
0
  6
BYBLOCK
 62
     0
 10
0.0
 20
0.0
 30
0.0
 11
-1.0
 21
-0.0000000000000284
 31
0.0
  0
POLYLINE
  5
80AA
  8
0
  6
BYBLOCK
 62
     0
 66
     1
 10
0.0
 20
0.0
 30
0.0
 70
     1
 40
0.1666666666666666
 41
0.1666666666666666
  0
VERTEX
  5
8296
  8
0
  6
BYBLOCK
 62
     0
 10
-0.0833333333333286
 20
-0.0000000000000284
 30
0.0
 42
1.0
  0
VERTEX
  5
8297
  8
0
  6
BYBLOCK
 62
     0
 10
0.0833333333333286
 20
-0.0000000000000284
 30
0.0
 42
1.0
  0
SEQEND
  5
8298
  8
0
  6
BYBLOCK
 62
     0
  0
ENDBLK
  5
7A62
  8
0
  0
BLOCK
  8
0
  2
*D3
 70
     1
 10
0.0
 20
0.0
 30
0.0
  3
*D3
  1

  0
LINE
  5
8245
  8
3
 62
     0
 10
526.41486613298957
 20
1133.7678260609759
 30
0.0
 11
526.41486613298957
 21
1213.610104278245
 31
0.0
  0
LINE
  5
8246
  8
3
 62
     0
 10
686.41486613298946
 20
1133.7678260609759
 30
0.0
 11
686.41486613298946
 21
1213.610104278245
 31
0.0
  0
LINE
  5
8247
  8
3
 62
     0
 10
546.41486613298946
 20
1203.610104278245
 30
0.0
 11
666.41486613298946
 21
1203.610104278245
 31
0.0
  0
INSERT
  5
8248
  8
3
 62
     0
  2
_OPEN
 10
526.41486613298957
 20
1203.610104278245
 30
0.0
 41
20.0
 42
20.0
 43
20.0
 50
180.0
  0
INSERT
  5
8249
  8
3
 62
     0
  2
_OPEN
 10
686.41486613298946
 20
1203.610104278245
 30
0.0
 41
20.0
 42
20.0
 43
20.0
  0
TEXT
  8
3
  40
30
  5
82D1
  62
0
  72
0
  71
0
 10
546.415
 20
1175.51
 30
0.000000
  1
160
  0
POINT
  5
824B
  8
DEFPOINTS
 62
     0
 10
526.41486613298957
 20
1128.767826060975
 30
0.0
  0
POINT
  5
824C
  8
DEFPOINTS
 62
     0
 10
686.41486613298946
 20
1128.767826060975
 30
0.0
  0
POINT
  5
824D
  8
DEFPOINTS
 62
     0
 10
686.41486613298946
 20
1203.610104278245
 30
0.0
  0
ENDBLK
  5
8000
  8
0
  0
BLOCK
  8
0
  2
*D4
 70
     1
 10
0.0
 20
0.0
 30
0.0
  3
*D4
  1

  0
LINE
  5
824E
  8
3
 62
     0
 10
526.41486613298957
 20
1133.7678260609759
 30
0.0
 11
526.41486613298957
 21
1269.483549986905
 31
0.0
  0
LINE
  5
824F
  8
3
 62
     0
 10
680.41486613298957
 20
1170.514070058317
 30
0.0
 11
680.41486613298957
 21
1269.483549986905
 31
0.0
  0
LINE
  5
8250
  8
3
 62
     0
 10
546.41486613298946
 20
1259.483549986905
 30
0.0
 11
660.41486613298957
 21
1259.483549986905
 31
0.0
  0
INSERT
  5
8251
  8
3
 62
     0
  2
_OPEN
 10
526.41486613298957
 20
1259.483549986905
 30
0.0
 41
20.0
 42
20.0
 43
20.0
 50
180.0
  0
INSERT
  5
8252
  8
3
 62
     0
  2
_OPEN
 10
680.41486613298957
 20
1259.483549986905
 30
0.0
 41
20.0
 42
20.0
 43
20.0
  0
TEXT
  8
3
  40
30
  5
82D2
  62
0
  72
0
  71
0
 10
543.415
 20
1231.38
 30
0.000000
  1
154
  0
POINT
  5
8254
  8
DEFPOINTS
 62
     0
 10
526.41486613298957
 20
1128.767826060975
 30
0.0
  0
POINT
  5
8255
  8
DEFPOINTS
 62
     0
 10
680.41486613298957
 20
1165.514070058317
 30
0.0
  0
POINT
  5
8256
  8
DEFPOINTS
 62
     0
 10
680.41486613298957
 20
1259.483549986905
 30
0.0
  0
ENDBLK
  5
7FF5
  8
0
  0
BLOCK
  8
0
  2
*D5
 70
     1
 10
0.0
 20
0.0
 30
0.0
  3
*D5
  1

  0
LINE
  5
8257
  8
3
 62
     0
 10
1798.470548696075
 20
1076.7178313591171
 30
0.0
 11
1884.1112125056111
 21
1076.7178313591171
 31
0.0
  0
LINE
  5
8258
  8
3
 62
     0
 10
1798.470548696075
 20
900.71783135911767
 30
0.0
 11
1884.1112125056111
 21
900.71783135911767
 31
0.0
  0
LINE
  5
8259
  8
3
 62
     0
 10
1874.1112125056111
 20
1056.7178313591171
 30
0.0
 11
1874.1112125056111
 21
920.71783135911755
 31
0.0
  0
INSERT
  5
825A
  8
3
 62
     0
  2
_OPEN
 10
1874.1112125056111
 20
1076.7178313591171
 30
0.0
 41
20.0
 42
20.0
 43
20.0
 50
90.0
  0
INSERT
  5
825B
  8
3
 62
     0
  2
_OPEN
 10
1874.1112125056111
 20
900.71783135911767
 30
0.0
 41
20.0
 42
20.0
 43
20.0
 50
270.0
  0
TEXT
  8
3
  40
30
  5
82D3
  62
0
  72
0
  71
0
 10
1789.11
 20
935.618
 30
0.000000
  1
φ176
  0
POINT
  5
825D
  8
DEFPOINTS
 62
     0
 10
1793.470548696074
 20
1076.7178313591171
 30
0.0
  0
POINT
  5
825E
  8
DEFPOINTS
 62
     0
 10
1793.470548696074
 20
900.71783135911767
 30
0.0
  0
POINT
  5
825F
  8
DEFPOINTS
 62
     0
 10
1874.1112125056111
 20
900.71783135911767
 30
0.0
  0
ENDBLK
  5
80A4
  8
0
  0
BLOCK
  8
0
  2
*D6
 70
     1
 10
0.0
 20
0.0
 30
0.0
  3
*D6
  1

  0
LINE
  5
803F
  8
0
  6
BYBLOCK
 62
     0
 10
1649.470548696074
 20
1127.7538685774471
 30
0.0
 11
1649.470548696074
 21
1206.0978243648131
 31
0.0
  0
LINE
  5
8040
  8
0
  6
BYBLOCK
 62
     0
 10
1769.470548696074
 20
1127.7538685774459
 30
0.0
 11
1769.470548696074
 21
1206.0978243648131
 31
0.0
  0
LINE
  5
8041
  8
0
  6
BYBLOCK
 62
     0
 10
1669.470548696074
 20
1196.0978243648131
 30
0.0
 11
1749.4705486960729
 21
1196.0978243648131
 31
0.0
  0
TEXT
  5
8042
  8
3
 62
     0
 10
1672.8879851409449
 20
1206.6029711618089
 30
0.0
 40
30.0
  1
120
  0
INSERT
  5
8043
  8
0
  6
BYBLOCK
 62
     0
  2
_OPEN
 10
1649.470548696074
 20
1196.0978243648131
 30
0.0
 41
20.0
 42
20.0
 43
20.0
 50
180.0
  0
INSERT
  5
8044
  8
0
  6
BYBLOCK
 62
     0
  2
_OPEN
 10
1769.470548696074
 20
1196.0978243648131
 30
0.0
 41
20.0
 42
20.0
 43
20.0
  0
POINT
  5
8045
  8
DEFPOINTS
  6
BYBLOCK
 62
     0
 10
1649.470548696074
 20
1122.7538685774471
 30
0.0
  0
POINT
  5
8046
  8
DEFPOINTS
  6
BYBLOCK
 62
     0
 10
1769.470548696074
 20
1122.7538685774459
 30
0.0
  0
POINT
  5
8047
  8
DEFPOINTS
  6
BYBLOCK
 62
     0
 10
1769.470548696074
 20
1196.0978243648131
 30
0.0
  0
ENDBLK
  5
8048
  8
0
  0
BLOCK
  8
0
  2
*D7
 70
     1
 10
0.0
 20
0.0
 30
0.0
  3
*D7
  1

  0
LINE
  5
804A
  8
0
  6
BYBLOCK
 62
     0
 10
1773.470548696074
 20
1104.7178313591171
 30
0.0
 11
1773.470548696074
 21
1274.207315297095
 31
0.0
  0
LINE
  5
804B
  8
0
  6
BYBLOCK
 62
     0
 10
1709.470548696074
 20
1250.3928650260641
 30
0.0
 11
1709.470548696074
 21
1274.207315297095
 31
0.0
  0
LINE
  5
804C
  8
0
  6
BYBLOCK
 62
     0
 10
1753.470548696074
 20
1264.207315297095
 30
0.0
 11
1729.470548696074
 21
1264.207315297095
 31
0.0
  0
TEXT
  5
804D
  8
3
 62
     0
 10
1716.4369112684451
 20
1277.8426687422591
 30
0.0
 40
30.0
  1
64
  0
INSERT
  5
804E
  8
0
  6
BYBLOCK
 62
     0
  2
_OPEN
 10
1773.470548696074
 20
1264.207315297095
 30
0.0
 41
20.0
 42
20.0
 43
20.0
  0
INSERT
  5
804F
  8
0
  6
BYBLOCK
 62
     0
  2
_OPEN
 10
1709.470548696074
 20
1264.207315297095
 30
0.0
 41
20.0
 42
20.0
 43
20.0
 50
180.0
  0
POINT
  5
8050
  8
DEFPOINTS
  6
BYBLOCK
 62
     0
 10
1773.470548696074
 20
1099.7178313591171
 30
0.0
  0
POINT
  5
8051
  8
DEFPOINTS
  6
BYBLOCK
 62
     0
 10
1709.470548696074
 20
1245.3928650260641
 30
0.0
  0
POINT
  5
8052
  8
DEFPOINTS
  6
BYBLOCK
 62
     0
 10
1709.470548696074
 20
1264.207315297095
 30
0.0
  0
ENDBLK
  5
8053
  8
0
  0
BLOCK
  8
0
  2
*D8
 70
     1
 10
0.0
 20
0.0
 30
0.0
  3
*D8
  1

  0
LINE
  5
8260
  8
3
 62
     0
 10
1709.470548696074
 20
1250.3928650260641
 30
0.0
 11
1709.470548696074
 21
1274.207315297095
 31
0.0
  0
LINE
  5
8261
  8
3
 62
     0
 10
1293.725498300777
 20
1148.723796445237
 30
0.0
 11
1293.725498300777
 21
1274.207315297095
 31
0.0
  0
LINE
  5
8262
  8
3
 62
     0
 10
1689.470548696075
 20
1264.207315297095
 30
0.0
 11
1313.725498300777
 21
1264.207315297095
 31
0.0
  0
INSERT
  5
8263
  8
3
 62
     0
  2
_OPEN
 10
1709.470548696074
 20
1264.207315297095
 30
0.0
 41
20.0
 42
20.0
 43
20.0
  0
INSERT
  5
8264
  8
3
 62
     0
  2
_OPEN
 10
1293.725498300777
 20
1264.207315297095
 30
0.0
 41
20.0
 42
20.0
 43
20.0
 50
180.0
  0
TEXT
  8
3
  40
30
  5
82D4
  62
0
  72
0
  71
0
 10
1441.60
 20
1261.11
 30
0.000000
  1
MAX
  0
TEXT
  8
3
  40
30
  5
82D5
  62
0
  72
0
  71
0
 10
1441.60
 20
1222.11
 30
0.000000
  1
500
  0
POINT
  5
8266
  8
DEFPOINTS
 62
     0
 10
1709.470548696074
 20
1245.3928650260641
 30
0.0
  0
POINT
  5
8267
  8
DEFPOINTS
 62
     0
 10
1293.725498300777
 20
1143.723796445237
 30
0.0
  0
POINT
  5
8268
  8
DEFPOINTS
 62
     0
 10
1293.725498300777
 20
1264.207315297095
 30
0.0
  0
ENDBLK
  5
8099
  8
0
  0
BLOCK
  8
0
  2
*D9
 70
     1
 10
0.0
 20
0.0
 30
0.0
  3
*D9
  1

  0
LINE
  5
8269
  8
3
 62
     0
 10
835.414866132989
 20
1966.6449447465709
 30
0.0
 11
952.31065724970006
 21
1966.6449447465709
 31
0.0
  0
LINE
  5
826A
  8
3
 62
     0
 10
835.414866132989
 20
1586.6449447465709
 30
0.0
 11
952.31065724969994
 21
1586.6449447465709
 31
0.0
  0
LINE
  5
826B
  8
3
 62
     0
 10
942.31065724970006
 20
1946.6449447465709
 30
0.0
 11
942.31065724969994
 21
1606.6449447465709
 31
0.0
  0
INSERT
  5
826C
  8
3
 62
     0
  2
_OPEN
 10
942.31065724970006
 20
1966.6449447465709
 30
0.0
 41
20.0
 42
20.0
 43
20.0
 50
90.0
  0
INSERT
  5
826D
  8
3
 62
     0
  2
_OPEN
 10
942.31065724969994
 20
1586.6449447465709
 30
0.0
 41
20.0
 42
20.0
 43
20.0
 50
270.0
  0
TEXT
  8
3
  40
30
  5
82D6
  62
0
  72
0
  71
0
 10
857.311
 20
1723.54
 30
0.000000
  1
380
  0
POINT
  5
826F
  8
DEFPOINTS
 62
     0
 10
830.41486613298912
 20
1966.6449447465709
 30
0.0
  0
POINT
  5
8270
  8
DEFPOINTS
 62
     0
 10
830.41486613298912
 20
1586.6449447465709
 30
0.0
  0
POINT
  5
8271
  8
DEFPOINTS
 62
     0
 10
942.31065724969994
 20
1586.6449447465709
 30
0.0
  0
ENDBLK
  5
8125
  8
0
  0
BLOCK
  8
0
  2
*D10
 70
     1
 10
0.0
 20
0.0
 30
0.0
  3
*D10
  1

  0
LINE
  5
8272
  8
3
 62
     0
 10
862.16111013033105
 20
988.76782606097595
 30
0.0
 11
961.77026548216406
 21
988.76782606097595
 31
0.0
  0
LINE
  5
8273
  8
3
 62
     0
 10
835.414866132989
 20
768.76782606097595
 30
0.0
 11
961.77026548216406
 21
768.76782606097595
 31
0.0
  0
LINE
  5
8274
  8
3
 62
     0
 10
951.77026548216418
 20
968.76782606097606
 30
0.0
 11
951.77026548216418
 21
788.76782606097595
 31
0.0
  0
INSERT
  5
8275
  8
3
 62
     0
  2
_OPEN
 10
951.77026548216418
 20
988.76782606097595
 30
0.0
 41
20.0
 42
20.0
 43
20.0
 50
90.0
  0
INSERT
  5
8276
  8
3
 62
     0
  2
_OPEN
 10
951.77026548216418
 20
768.76782606097595
 30
0.0
 41
20.0
 42
20.0
 43
20.0
 50
270.0
  0
TEXT
  8
3
  40
30
  5
82D7
  62
0
  72
0
  71
0
 10
866.770
 20
825.668
 30
0.000000
  1
220
  0
POINT
  5
8278
  8
DEFPOINTS
 62
     0
 10
857.16111013033105
 20
988.76782606097595
 30
0.0
  0
POINT
  5
8279
  8
DEFPOINTS
 62
     0
 10
830.41486613298912
 20
768.76782606097595
 30
0.0
  0
POINT
  5
827A
  8
DEFPOINTS
 62
     0
 10
951.77026548216418
 20
768.76782606097595
 30
0.0
  0
ENDBLK
  5
7F49
  8
0
  0
BLOCK
  8
0
  2
*D11
 70
     1
 10
0.0
 20
0.0
 30
0.0
  3
*D11
  1

  0
LINE
  5
827B
  8
3
 62
     0
 10
862.16111013033105
 20
988.76782606097595
 30
0.0
 11
961.77026548216406
 21
988.76782606097595
 31
0.0
  0
LINE
  5
827C
  8
3
 62
     0
 10
713.71486613298975
 20
1148.7678260609759
 30
0.0
 11
961.77026548216406
 21
1148.7678260609759
 31
0.0
  0
LINE
  5
827D
  8
3
 62
     0
 10
951.77026548216418
 20
1008.7678260609759
 30
0.0
 11
951.77026548216418
 21
1128.767826060975
 31
0.0
  0
INSERT
  5
827E
  8
3
 62
     0
  2
_OPEN
 10
951.77026548216418
 20
988.76782606097595
 30
0.0
 41
20.0
 42
20.0
 43
20.0
 50
270.0
  0
INSERT
  5
827F
  8
3
 62
     0
  2
_OPEN
 10
951.77026548216418
 20
1148.7678260609759
 30
0.0
 41
20.0
 42
20.0
 43
20.0
 50
90.0
  0
TEXT
  8
3
  40
30
  5
82D8
  62
0
  72
0
  71
0
 10
866.770
 20
1015.67
 30
0.000000
  1
160
  0
POINT
  5
8281
  8
DEFPOINTS
 62
     0
 10
857.16111013033105
 20
988.76782606097595
 30
0.0
  0
POINT
  5
8282
  8
DEFPOINTS
 62
     0
 10
708.71486613298975
 20
1148.7678260609759
 30
0.0
  0
POINT
  5
8283
  8
DEFPOINTS
 62
     0
 10
951.77026548216418
 20
1148.7678260609759
 30
0.0
  0
ENDBLK
  5
7F3E
  8
0
  0
BLOCK
  8
0
  2
*D12
 70
     1
 10
0.0
 20
0.0
 30
0.0
  3
*D12
  1

  0
LINE
  5
8284
  8
3
 62
     0
 10
680.41486613298957
 20
1170.514070058317
 30
0.0
 11
680.41486613298957
 21
1269.483549986905
 31
0.0
  0
LINE
  5
8285
  8
3
 62
     0
 10
801.91486613298946
 20
986.26782606097595
 30
0.0
 11
801.91486613298946
 21
1269.483549986905
 31
0.0
  0
LINE
  5
8286
  8
3
 62
     0
 10
700.41486613298946
 20
1259.483549986905
 30
0.0
 11
781.91486613298946
 21
1259.483549986905
 31
0.0
  0
INSERT
  5
8287
  8
3
 62
     0
  2
_OPEN
 10
680.41486613298957
 20
1259.483549986905
 30
0.0
 41
20.0
 42
20.0
 43
20.0
 50
180.0
  0
INSERT
  5
8288
  8
3
 62
     0
  2
_OPEN
 10
801.91486613298946
 20
1259.483549986905
 30
0.0
 41
20.0
 42
20.0
 43
20.0
  0
TEXT
  8
3
  40
30
  5
82D9
  62
0
  72
0
  71
0
 10
681.165
 20
1231.38
 30
0.000000
  1
121
  0
POINT
  5
828A
  8
DEFPOINTS
 62
     0
 10
680.41486613298957
 20
1165.514070058317
 30
0.0
  0
POINT
  5
828B
  8
DEFPOINTS
 62
     0
 10
801.91486613298946
 20
981.26782606097606
 30
0.0
  0
POINT
  5
828C
  8
DEFPOINTS
 62
     0
 10
801.91486613298946
 20
1259.483549986905
 30
0.0
  0
ENDBLK
  5
7F33
  8
0
  0
BLOCK
  8
0
  2
*D13
 70
     1
 10
0.0
 20
0.0
 30
0.0
  3
*D13
  1

  0
LINE
  5
828D
  8
3
 62
     0
 10
801.91486613299003
 20
986.26782606097595
 30
0.0
 11
801.91486613299003
 21
1324.2157508203379
 31
0.0
  0
LINE
  5
828E
  8
3
 62
     0
 10
250.41486613298949
 20
813.76782606097618
 30
0.0
 11
250.41486613298949
 21
1324.2157508203379
 31
0.0
  0
LINE
  5
828F
  8
3
 62
     0
 10
781.91486613299003
 20
1314.2157508203379
 30
0.0
 11
270.41486613298952
 21
1314.2157508203379
 31
0.0
  0
INSERT
  5
8290
  8
3
 62
     0
  2
_OPEN
 10
801.91486613299003
 20
1314.2157508203379
 30
0.0
 41
20.0
 42
20.0
 43
20.0
  0
INSERT
  5
8291
  8
3
 62
     0
  2
_OPEN
 10
250.41486613298949
 20
1314.2157508203379
 30
0.0
 41
20.0
 42
20.0
 43
20.0
 50
180.0
  0
TEXT
  8
3
  40
30
  5
82DA
  62
0
  72
0
  71
0
 10
466.165
 20
1286.12
 30
0.000000
  1
551
  0
POINT
  5
8293
  8
DEFPOINTS
 62
     0
 10
801.91486613299003
 20
981.26782606097606
 30
0.0
  0
POINT
  5
8294
  8
DEFPOINTS
 62
     0
 10
250.41486613298949
 20
808.76782606097606
 30
0.0
  0
POINT
  5
8295
  8
DEFPOINTS
 62
     0
 10
250.41486613298949
 20
1314.2157508203379
 30
0.0
  0
ENDBLK
  5
7F1D
  8
0
  0
BLOCK
  8
0
  2
*D14
 70
     1
 10
0.0
 20
0.0
 30
0.0
  3
*D14
  1

  0
LINE
  5
8299
  8
3
 62
     0
 10
250.41486613298949
 20
1971.6449447465709
 30
0.0
 11
250.41486613298949
 21
2107.5838303194241
 31
0.0
  0
LINE
  5
829A
  8
3
 62
     0
 10
830.41486613298912
 20
1971.6449447465709
 30
0.0
 11
830.41486613298912
 21
2107.5838303194241
 31
0.0
  0
LINE
  5
829B
  8
3
 62
     0
 10
270.41486613298952
 20
2097.5838303194241
 30
0.0
 11
810.414866132989
 21
2097.5838303194241
 31
0.0
  0
INSERT
  5
829C
  8
3
 62
     0
  2
_OPEN
 10
250.41486613298949
 20
2097.5838303194241
 30
0.0
 41
20.0
 42
20.0
 43
20.0
 50
180.0
  0
INSERT
  5
829D
  8
3
 62
     0
  2
_OPEN
 10
830.41486613298912
 20
2097.5838303194241
 30
0.0
 41
20.0
 42
20.0
 43
20.0
  0
TEXT
  8
3
  40
30
  5
82DB
  62
0
  72
0
  71
0
 10
484.483
 20
2069.48
 30
0.000000
  1
580
  0
POINT
  5
829F
  8
DEFPOINTS
 62
     0
 10
250.41486613298949
 20
1966.6449447465709
 30
0.0
  0
POINT
  5
82A0
  8
DEFPOINTS
 62
     0
 10
830.41486613298912
 20
1966.6449447465709
 30
0.0
  0
POINT
  5
82A1
  8
DEFPOINTS
 62
     0
 10
830.41486613298912
 20
2097.5838303194241
 30
0.0
  0
ENDBLK
  5
8142
  8
0
  0
BLOCK
  8
0
  2
*D15
 70
     1
 10
0.0
 20
0.0
 30
0.0
  3
*D15
  1

  0
LINE
  5
82A2
  8
3
 62
     0
 10
250.41486613298949
 20
763.72379644523699
 30
0.0
 11
250.41486613298949
 21
679.97769179053012
 31
0.0
  0
LINE
  5
82A3
  8
3
 62
     0
 10
680.41486613298969
 20
763.76782606097606
 30
0.0
 11
680.41486613298969
 21
679.97769179053012
 31
0.0
  0
LINE
  5
82A4
  8
3
 62
     0
 10
270.41486613298952
 20
689.97769179053012
 30
0.0
 11
660.41486613298957
 21
689.97769179053012
 31
0.0
  0
INSERT
  5
82A5
  8
3
 62
     0
  2
_OPEN
 10
250.41486613298949
 20
689.97769179053012
 30
0.0
 41
20.0
 42
20.0
 43
20.0
 50
180.0
  0
INSERT
  5
82A6
  8
3
 62
     0
  2
_OPEN
 10
680.41486613298969
 20
689.97769179053012
 30
0.0
 41
20.0
 42
20.0
 43
20.0
  0
TEXT
  8
3
  40
30
  5
82DC
  62
0
  72
0
  71
0
 10
405.415
 20
661.878
 30
0.000000
  1
430
  0
POINT
  5
82A8
  8
DEFPOINTS
 62
     0
 10
250.41486613298949
 20
768.72379644523699
 30
0.0
  0
POINT
  5
82A9
  8
DEFPOINTS
 62
     0
 10
680.41486613298969
 20
768.76782606097618
 30
0.0
  0
POINT
  5
82AA
  8
DEFPOINTS
 62
     0
 10
680.41486613298969
 20
689.97769179053012
 30
0.0
  0
ENDBLK
  5
81E2
  8
0
  0
BLOCK
  8
0
  2
*D16
 70
     1
 10
0.0
 20
0.0
 30
0.0
  3
*D16
  1

  0
LINE
  5
82AB
  8
3
 62
     0
 10
1304.470548696074
 20
763.71783135911755
 30
0.0
 11
1304.470548696074
 21
679.97769179053012
 31
0.0
  0
LINE
  5
82AC
  8
3
 62
     0
 10
1684.470548696074
 20
763.71783135911755
 30
0.0
 11
1684.470548696074
 21
679.97769179053012
 31
0.0
  0
LINE
  5
82AD
  8
3
 62
     0
 10
1324.470548696074
 20
689.97769179053012
 30
0.0
 11
1664.470548696074
 21
689.97769179053012
 31
0.0
  0
INSERT
  5
82AE
  8
3
 62
     0
  2
_OPEN
 10
1304.470548696074
 20
689.97769179053012
 30
0.0
 41
20.0
 42
20.0
 43
20.0
 50
180.0
  0
INSERT
  5
82AF
  8
3
 62
     0
  2
_OPEN
 10
1684.470548696074
 20
689.97769179053012
 30
0.0
 41
20.0
 42
20.0
 43
20.0
  0
TEXT
  8
3
  40
30
  5
82DD
  62
0
  72
0
  71
0
 10
1434.47
 20
661.878
 30
0.000000
  1
380
  0
POINT
  5
82B1
  8
DEFPOINTS
 62
     0
 10
1304.470548696074
 20
768.71783135911755
 30
0.0
  0
POINT
  5
82B2
  8
DEFPOINTS
 62
     0
 10
1684.470548696074
 20
768.71783135911755
 30
0.0
  0
POINT
  5
82B3
  8
DEFPOINTS
 62
     0
 10
1684.470548696074
 20
689.97769179053012
 30
0.0
  0
ENDBLK
  5
81FC
  8
0
  0
BLOCK
  8
0
  2
*D17
 70
     1
 10
0.0
 20
0.0
 30
0.0
  3
*D17
  1

  0
LINE
  5
82B4
  8
3
 62
     0
 10
1684.470548696074
 20
763.71783135911755
 30
0.0
 11
1684.470548696074
 21
679.97769179053012
 31
0.0
  0
LINE
  5
82B5
  8
3
 62
     0
 10
1709.470548696074
 20
763.71783135911755
 30
0.0
 11
1709.470548696074
 21
679.97769179053012
 31
0.0
  0
LINE
  5
82B6
  8
3
 62
     0
 10
1664.470548696074
 20
689.97769179053012
 30
0.0
 11
1644.470548696074
 21
689.97769179053012
 31
0.0
  0
LINE
  5
82B7
  8
3
 62
     0
 10
1729.470548696074
 20
689.97769179053012
 30
0.0
 11
1818.041977267502
 21
689.97769179053012
 31
0.0
  0
LINE
  5
82B8
  8
3
 62
     0
 10
1684.470548696074
 20
689.97769179053012
 30
0.0
 11
1709.470548696074
 21
689.97769179053012
 31
0.0
  0
INSERT
  5
82B9
  8
3
 62
     0
  2
_OPEN
 10
1684.470548696074
 20
689.97769179053012
 30
0.0
 41
20.0
 42
20.0
 43
20.0
  0
INSERT
  5
82BA
  8
3
 62
     0
  2
_OPEN
 10
1709.470548696074
 20
689.97769179053012
 30
0.0
 41
20.0
 42
20.0
 43
20.0
 50
180.0
  0
TEXT
  8
3
  40
30
  5
82DE
  62
0
  72
0
  71
0
 10
1723.76
 20
661.878
 30
0.000000
  1
25
  0
POINT
  5
82BC
  8
DEFPOINTS
 62
     0
 10
1684.470548696074
 20
768.71783135911755
 30
0.0
  0
POINT
  5
82BD
  8
DEFPOINTS
 62
     0
 10
1709.470548696074
 20
768.71783135911755
 30
0.0
  0
POINT
  5
82BE
  8
DEFPOINTS
 62
     0
 10
1709.470548696074
 20
689.97769179053012
 30
0.0
  0
ENDBLK
  5
820B
  8
0
  0
BLOCK
  8
0
  2
*D18
 70
     1
 10
0.0
 20
0.0
 30
0.0
  3
*D18
  1

  0
LINE
  5
82BF
  8
3
 62
     0
 10
713.71486613298975
 20
1148.7678260609759
 30
0.0
 11
1051.772595996373
 21
1148.7678260609759
 31
0.0
  0
LINE
  5
82C0
  8
3
 62
     0
 10
835.414866132989
 20
768.72379644523653
 30
0.0
 11
1051.772595996373
 21
768.72379644523653
 31
0.0
  0
LINE
  5
82C1
  8
3
 62
     0
 10
1041.772595996373
 20
1128.767826060975
 30
0.0
 11
1041.772595996373
 21
788.72379644523653
 31
0.0
  0
INSERT
  5
82C2
  8
3
 62
     0
  2
_OPEN
 10
1041.772595996373
 20
1148.7678260609759
 30
0.0
 41
20.0
 42
20.0
 43
20.0
 50
90.0
  0
INSERT
  5
82C3
  8
3
 62
     0
  2
_OPEN
 10
1041.772595996373
 20
768.72379644523653
 30
0.0
 41
20.0
 42
20.0
 43
20.0
 50
270.0
  0
TEXT
  8
3
  40
30
  5
82DF
  62
0
  72
0
  71
0
 10
956.773
 20
905.646
 30
0.000000
  1
380
  0
POINT
  5
82C5
  8
DEFPOINTS
 62
     0
 10
708.71486613298975
 20
1148.7678260609759
 30
0.0
  0
POINT
  5
82C6
  8
DEFPOINTS
 62
     0
 10
830.41486613298912
 20
768.72379644523653
 30
0.0
  0
POINT
  5
82C7
  8
DEFPOINTS
 62
     0
 10
1041.772595996373
 20
768.72379644523653
 30
0.0
  0
ENDBLK
  5
8218
  8
0
  0
BLOCK
  8
0
  2
*D19
 70
     1
 10
0.0
 20
0.0
 30
0.0
  3
*D19
  1

  0
LINE
  5
82C8
  8
3
 62
     0
 10
680.41486613298969
 20
763.76782606097606
 30
0.0
 11
680.41486613298969
 21
679.97769179053012
 31
0.0
  0
LINE
  5
82C9
  8
3
 62
     0
 10
830.41486613298912
 20
763.72379644523653
 30
0.0
 11
830.41486613298912
 21
679.97769179053012
 31
0.0
  0
LINE
  5
82CA
  8
3
 62
     0
 10
700.41486613298969
 20
689.97769179053012
 30
0.0
 11
810.414866132989
 21
689.97769179053012
 31
0.0
  0
INSERT
  5
82CB
  8
3
 62
     0
  2
_OPEN
 10
680.41486613298969
 20
689.97769179053012
 30
0.0
 41
20.0
 42
20.0
 43
20.0
 50
180.0
  0
INSERT
  5
82CC
  8
3
 62
     0
  2
_OPEN
 10
830.41486613298912
 20
689.97769179053012
 30
0.0
 41
20.0
 42
20.0
 43
20.0
  0
TEXT
  8
3
  40
30
  5
82E0
  62
0
  72
0
  71
0
 10
695.415
 20
661.878
 30
0.000000
  1
150
  0
POINT
  5
82CE
  8
DEFPOINTS
 62
     0
 10
680.41486613298969
 20
768.76782606097618
 30
0.0
  0
POINT
  5
82CF
  8
DEFPOINTS
 62
     0
 10
830.41486613298912
 20
768.72379644523653
 30
0.0
  0
POINT
  5
82D0
  8
DEFPOINTS
 62
     0
 10
830.41486613298912
 20
689.97769179053012
 30
0.0
  0
ENDBLK
  5
8225
  8
0
  0
ENDSEC
  0
SECTION
  2
ENTITIES
  0
INSERT
  5
7C15
  8
0
  2
YA_N
 10
2724.1612064906581
 20
327.02075517693441
 30
0.0
  0
INSERT
  5
7C16
  8
0
  2
YA_N
 10
2724.1612064906581
 20
327.02075517693441
 30
0.0
  0
LINE
  5
7C18
  8
1
 10
1547.1705486960741
 20
808.71783135911755
 30
0.0
 11
1347.1705486960741
 21
808.71783135911755
 31
0.0
  0
LINE
  5
7C19
  8
1
 10
1304.470548696074
 20
808.71783135911767
 30
0.0
 11
1684.470548696074
 21
808.71783135911744
 31
0.0
  0
LINE
  5
7C1A
  8
1
 10
1304.470548696074
 20
768.71783135911755
 30
0.0
 11
1684.470548696074
 21
768.71783135911744
 31
0.0
  0
LINE
  5
7C1B
  8
1
 10
1372.1705486960741
 20
949.91783135911714
 30
0.0
 11
1622.1705486960741
 21
949.91783135911737
 31
0.0
  0
LINE
  5
7C1C
  8
1
 10
1372.1705486960741
 20
952.21783135911755
 30
0.0
 11
1622.1705486960741
 21
952.21783135911755
 31
0.0
  0
LINE
  5
7C1D
  8
2
 10
1311.2170409755299
 20
988.71783135911755
 30
0.0
 11
1805.9520726759019
 21
988.71783135911755
 31
0.0
  0
LINE
  5
7C1E
  8
1
 10
807.02917777857101
 20
1143.723796445237
 30
0.0
 11
277.02917777857101
 21
1143.723796445237
 31
0.0
  0
LINE
  5
7C1F
  8
1
 10
692.52650671032052
 20
945.42837333571015
 30
0.0
 11
375.21798239417171
 21
865.79738384120674
 31
0.0
  0
LINE
  5
7C20
  8
1
 10
670.95398865938978
 20
1032.762050652728
 30
0.0
 11
348.85157144303429
 21
972.53854500645093
 31
0.0
  0
LINE
  5
7C21
  8
1
 10
277.02917777857101
 20
1143.723796445237
 30
0.0
 11
277.02917777857101
 21
808.72379644523699
 31
0.0
  0
LINE
  5
7C22
  8
1
 10
265.4148661329898
 20
808.76782606097606
 30
0.0
 11
455.4148661329902
 21
808.76782606097606
 31
0.0
  0
LINE
  5
7C23
  8
1
 10
250.41486613298949
 20
808.76782606097606
 30
0.0
 11
250.41486613298949
 21
768.72379644523699
 31
0.0
  0
CIRCLE
  5
7C24
  8
1
 10
360.41486613298969
 20
918.76782606097606
 30
0.0
 40
55.0
  0
LINE
  5
7C25
  8
2
 10
457.5734116086366
 20
918.76782606097606
 30
0.0
 11
266.02818635860308
 21
918.76782606097606
 31
0.0
  0
LINE
  5
7C26
  8
2
 10
360.41486613298969
 20
1000.157326060975
 30
0.0
 11
360.41486613298969
 21
790.77342790146645
 31
0.0
  0
LINE
  5
7C27
  8
1
 10
1379.1705486960741
 20
949.91783135911714
 30
0.0
 11
1379.1705486960741
 21
808.71783135911755
 31
0.0
  0
LINE
  5
7C28
  8
2
 10
680.41486613298957
 20
1167.323889856209
 30
0.0
 11
680.41486613298969
 21
768.76782606097618
 31
0.0
  0
LINE
  5
7C29
  8
1
 10
580.41486613298957
 20
949.06782606097624
 30
0.0
 11
580.41486613298957
 21
808.72379644523664
 31
0.0
  0
LINE
  5
7C2A
  8
1
 10
807.02917777857101
 20
808.72379644523699
 30
0.0
 11
807.02917777857101
 21
1143.723796445237
 31
0.0
  0
LINE
  5
7C2B
  8
1
 10
780.41486613298957
 20
949.06782606097624
 30
0.0
 11
780.41486613298957
 21
808.72379644523653
 31
0.0
  0
LINE
  5
7C2C
  8
1
 10
1368.725498300777
 20
817.71783135911767
 30
0.0
 11
1368.7254983007761
 21
856.66244369387539
 31
0.0
  0
LINE
  5
7C2D
  8
1
 10
1293.725498300777
 20
817.71783135911767
 30
0.0
 11
1293.725498300777
 21
1143.723796445237
 31
0.0
  0
LINE
  5
7C2E
  8
1
 10
1368.725498300777
 20
817.71783135911755
 30
0.0
 11
1293.725498300777
 21
817.71783135911755
 31
0.0
  0
LINE
  5
7C2F
  8
1
 10
830.41486613298912
 20
808.76782606097595
 30
0.0
 11
830.41486613298912
 21
768.72379644523653
 31
0.0
  0
POINT
  5
7C30
  8
1
 10
1344.470548696074
 20
768.71783135911755
 30
0.0
  0
POINT
  5
7C31
  8
1
 10
1376.8705486960739
 20
808.71783135911755
 30
0.0
  0
POINT
  5
7C32
  8
1
 10
1376.8705486960739
 20
808.71783135911755
 30
0.0
  0
ARC
  5
7C33
  8
1
 10
672.91486613299003
 20
981.26782606097606
 30
0.0
 40
129.0
 50
270.0
 51
0.0
  0
ARC
  5
7C34
  8
1
 10
687.91486613298946
 20
981.26782606097606
 30
0.0
 40
114.0
 50
0.0
 51
90.0
  0
LINE
  5
7C35
  8
2
 10
857.16111013033105
 20
988.76782606097595
 30
0.0
 11
504.2425533697492
 21
988.76782606097595
 31
0.0
  0
LINE
  5
7C36
  8
1
 10
588.11486613298939
 20
1052.2678313591171
 30
0.0
 11
588.11486613298939
 21
952.26782606097595
 31
0.0
  0
LINE
  5
7C37
  8
1
 10
582.11486613298928
 20
1052.2678313591171
 30
0.0
 11
582.11486613298928
 21
952.26782606097595
 31
0.0
  0
LINE
  5
7C38
  8
1
 10
778.7148661329893
 20
1052.2678313591171
 30
0.0
 11
778.71486613298975
 21
952.26782606097595
 31
0.0
  0
LINE
  5
7C39
  8
1
 10
772.71486613298919
 20
1052.2678313591171
 30
0.0
 11
772.71486613298975
 21
952.26782606097595
 31
0.0
  0
LINE
  5
7C3A
  8
1
 10
526.41486613298957
 20
1128.767826060975
 30
0.0
 11
528.99224388688526
 21
991.54778307334084
 31
0.0
  0
ARC
  5
7C3B
  8
1
 10
672.91486613299003
 20
996.26782606097606
 30
0.0
 40
144.0
 50
180.00000000000179
 51
270.0
  0
CIRCLE
  5
7C3C
  8
1
 10
680.41486613298957
 20
878.72379644523664
 30
0.0
 40
60.0
  0
LINE
  5
7C3E
  8
1
 10
785.41486613298957
 20
949.06782606097624
 30
0.0
 11
575.41486613298946
 21
949.06782606097624
 31
0.0
  0
LINE
  5
7C3F
  8
1
 10
785.41486613298957
 20
952.26782606097595
 30
0.0
 11
575.41486613298946
 21
952.26782606097595
 31
0.0
  0
CIRCLE
  5
7C40
  8
1
 10
680.41486613298957
 20
988.76782606097595
 30
0.0
 40
45.0
  0
LINE
  5
7C41
  8
1
 10
605.41486613298957
 20
955.46782606097599
 30
0.0
 11
755.41486613298957
 21
955.46782606097599
 31
0.0
  0
LINE
  5
7C42
  8
1
 10
755.41486613298957
 20
952.26782606097595
 30
0.0
 11
605.41486613298957
 21
952.26782606097595
 31
0.0
  0
LINE
  5
7C43
  8
1
 10
575.41486613298946
 20
952.26782606097595
 30
0.0
 11
575.41486613298946
 21
949.06782606097624
 31
0.0
  0
LINE
  5
7C44
  8
1
 10
605.41486613298957
 20
952.26782606097595
 30
0.0
 11
605.41486613298957
 21
955.46782606097599
 31
0.0
  0
LINE
  5
7C45
  8
1
 10
755.41486613298957
 20
955.46782606097599
 30
0.0
 11
755.41486613298957
 21
952.26782606097595
 31
0.0
  0
LINE
  5
7C46
  8
1
 10
785.41486613298957
 20
952.26782606097595
 30
0.0
 11
785.41486613298957
 21
949.06782606097624
 31
0.0
  0
LINE
  5
7C47
  8
1
 10
504.11517512741602
 20
1128.767826060975
 30
0.0
 11
708.71486613298975
 21
1128.767826060975
 31
0.0
  0
LINE
  5
7C48
  8
1
 10
504.11517512741602
 20
1148.7678260609759
 30
0.0
 11
708.71486613298975
 21
1148.7678260609759
 31
0.0
  0
LINE
  5
7C49
  8
1
 10
504.11517512741602
 20
1128.767826060975
 30
0.0
 11
504.11517512741602
 21
1148.7678260609759
 31
0.0
  0
LINE
  5
7C4A
  8
1
 10
588.11486613298939
 20
1052.2678313591171
 30
0.0
 11
582.11486613298928
 21
1052.2678313591171
 31
0.0
  0
CIRCLE
  5
7C4B
  8
1
 10
657.41486613299003
 20
1096.740459150787
 30
0.0
 40
6.0
  0
LINE
  5
7C4C
  8
1
 10
686.41486613298946
 20
1128.767826060975
 30
0.0
 11
686.41486613298946
 21
1095.256461772354
 31
0.0
  0
ARC
  5
7C4D
  8
1
 10
687.91486613298946
 20
996.26782606097606
 30
0.0
 40
99.0
 50
90.0
 51
106.8864669975615
  0
LINE
  5
7C4E
  8
1
 10
708.71486613298975
 20
1148.7678260609759
 30
0.0
 11
708.71486613298975
 21
1128.767826060975
 31
0.0
  0
LINE
  5
7C4F
  8
1
 10
778.7148661329893
 20
1052.2678313591171
 30
0.0
 11
772.71486613298919
 21
1052.2678313591171
 31
0.0
  0
LINE
  5
7C50
  8
1
 10
1346.225498300777
 20
1033.7178313591171
 30
0.0
 11
1346.225498300777
 21
864.71783135911755
 31
0.0
  0
LINE
  5
7C51
  8
1
 10
1316.225498300777
 20
1033.7178313591171
 30
0.0
 11
1316.225498300777
 21
864.71783135911755
 31
0.0
  0
LINE
  5
7C52
  8
2
 10
1312.8332500916069
 20
918.72379644523699
 30
0.0
 11
1384.872746997567
 21
918.72379644523699
 31
0.0
  0
LINE
  5
7C53
  8
1
 10
1346.225498300777
 20
864.71783135911755
 30
0.0
 11
1316.225498300777
 21
864.71783135911755
 31
0.0
  0
LINE
  5
7C54
  8
1
 10
1356.225498300777
 20
978.71783135911755
 30
0.0
 11
1622.1705486960741
 21
978.71783135911755
 31
0.0
  0
LINE
  5
7C55
  8
1
 10
1356.225498300777
 20
998.71783135911744
 30
0.0
 11
1622.1705486960741
 21
998.71783135911744
 31
0.0
  0
LINE
  5
7C56
  8
1
 10
1356.225498300777
 20
998.71783135911755
 30
0.0
 11
1356.225498300777
 21
978.71783135911755
 31
0.0
  0
LINE
  5
7C57
  8
1
 10
1346.225498300777
 20
974.71783135911755
 30
0.0
 11
1316.225498300777
 21
974.71783135911755
 31
0.0
  0
LINE
  5
7C58
  8
1
 10
1316.225498300777
 20
943.71783135911767
 30
0.0
 11
1346.225498300777
 21
943.71783135911767
 31
0.0
  0
LINE
  5
7C59
  8
1
 10
1372.1705486960741
 20
952.21783135911755
 30
0.0
 11
1372.1705486960741
 21
949.91783135911714
 31
0.0
  0
LINE
  5
7C5A
  8
1
 10
1346.225498300777
 20
979.21783135911744
 30
0.0
 11
1356.225498300777
 21
979.21783135911755
 31
0.0
  0
LINE
  5
7C5B
  8
1
 10
1316.225498300777
 20
1033.7178313591171
 30
0.0
 11
1346.225498300777
 21
1033.7178313591171
 31
0.0
  0
LINE
  5
7C5C
  8
1
 10
1346.225498300777
 20
998.21783135911755
 30
0.0
 11
1356.225498300777
 21
998.21783135911755
 31
0.0
  0
LINE
  5
7C5D
  8
1
 10
1293.725498300777
 20
1143.723796445237
 30
0.0
 11
1368.725498300777
 21
1143.723796445237
 31
0.0
  0
LINE
  5
7C62
  8
1
 10
290.41486613298912
 20
1586.6449447465709
 30
0.0
 11
290.41486613298912
 21
1658.648447119512
 31
0.0
  0
LINE
  5
7C63
  8
1
 10
250.41486613298909
 20
1626.6449447465709
 30
0.0
 11
250.41486613298909
 21
1926.6449447465709
 31
0.0
  0
LINE
  5
7C64
  8
2
 10
360.41486613298952
 20
1590.0223340862631
 30
0.0
 11
360.41486613299003
 21
1932.974072343442
 31
0.0
  0
LINE
  5
7C65
  8
1
 10
250.41486613298909
 20
1586.6449447465709
 30
0.0
 11
250.41486613298909
 21
1626.6449447465709
 31
0.0
  0
LINE
  5
7C66
  8
1
 10
250.41486613298909
 20
1926.6449447465709
 30
0.0
 11
250.41486613298949
 21
1966.64494474657
 31
0.0
  0
LINE
  5
7C67
  8
2
 10
680.41486613298957
 20
1593.2753422401399
 30
0.0
 11
680.41486613299048
 21
2073.3896758611299
 31
0.0
  0
LINE
  5
7C68
  8
1
 10
830.41486613298912
 20
1626.6449447465709
 30
0.0
 11
830.41486613298912
 21
1966.6449447465709
 31
0.0
  0
LINE
  5
7C69
  8
1
 10
790.41486613298912
 20
1586.6449447465709
 30
0.0
 11
790.41486613298912
 21
1930.148447119512
 31
0.0
  0
LINE
  5
7C6A
  8
1
 10
830.41486613298912
 20
1586.6449447465709
 30
0.0
 11
830.41486613298912
 21
1626.6449447465709
 31
0.0
  0
LINE
  5
7C6B
  8
1
 10
830.41486613298912
 20
1926.6449447465709
 30
0.0
 11
830.41486613298912
 21
1966.64494474657
 31
0.0
  0
LINE
  5
7C6D
  8
2
 10
1709.470548696074
 20
1204.0027888784209
 30
0.0
 11
1709.470548696074
 21
768.71783135911755
 31
0.0
  0
LINE
  5
7C6E
  8
1
 10
1793.470548696074
 20
900.71783135911767
 30
0.0
 11
1773.470548696074
 21
900.71783135911767
 31
0.0
  0
LINE
  5
7C6F
  8
1
 10
1773.470548696075
 20
988.71783135911755
 30
0.0
 11
1773.470548696074
 21
877.71783135911767
 31
0.0
  0
LINE
  5
7C71
  8
1
 10
1769.470548696074
 20
1128.767826060975
 30
0.0
 11
1769.470548696074
 21
997.0678260609767
 31
0.0
  0
LINE
  5
7C72
  8
1
 10
1649.470548696074
 20
1128.767826060975
 30
0.0
 11
1649.470548696074
 21
997.06782606097636
 31
0.0
  0
LINE
  5
7C75
  8
1
 10
1769.470548696074
 20
997.06782606097659
 30
0.0
 11
1769.470548696074
 21
988.71783135911755
 31
0.0
  0
LINE
  5
7C76
  8
1
 10
1649.470548696074
 20
997.06782606097636
 30
0.0
 11
1649.470548696074
 21
988.71783135911755
 31
0.0
  0
LINE
  5
7C78
  8
1
 10
1649.470548696075
 20
852.76782606097606
 30
0.0
 11
1769.470548696074
 21
852.7678260609764
 31
0.0
  0
LINE
  5
7C7B
  8
1
 10
1773.470548696074
 20
900.71783135911767
 30
0.0
 11
1773.470548696074
 21
880.71783135911755
 31
0.0
  0
LINE
  5
7C7C
  8
1
 10
1769.470548696074
 20
877.71783135911778
 30
0.0
 11
1773.470548696074
 21
877.71783135911755
 31
0.0
  0
LINE
  5
7C7D
  8
1
 10
1627.1705486960741
 20
988.71783135911755
 30
0.0
 11
1627.1705486960741
 21
988.71783135911755
 31
0.0
  0
LINE
  5
7C7E
  8
1
 10
1649.470548696074
 20
997.06782606097636
 30
0.0
 11
1649.470548696074
 21
992.70185425171985
 31
0.0
  0
LINE
  5
7C81
  8
1
 10
1622.1705486960741
 20
1052.2678313591171
 30
0.0
 11
1647.1705486960741
 21
1052.2678313591171
 31
0.0
  0
POINT
  5
7C82
  8
1
 10
1709.470548696074
 20
1140.834463785148
 30
0.0
  0
LINE
  5
7C83
  8
1
 10
1776.470548696074
 20
988.71783135911755
 30
0.0
 11
1776.470548696074
 21
900.71783135911767
 31
0.0
  0
ARC
  5
7C84
  8
1
 10
360.41486613298969
 20
918.76782606097606
 30
0.0
 40
85.000007999999994
 50
180.0
 51
244.08227400000001
  0
ARC
  5
7C85
  8
1
 10
360.41486613298969
 20
918.76782606097606
 30
0.0
 40
85.0
 50
295.8755339999999
 51
180.0
  0
LINE
  5
7C86
  8
1
 10
397.51036513298982
 20
842.3168980609762
 30
0.0
 11
323.26305713298979
 21
842.3168980609762
 31
0.0
  0
LINE
  5
7C87
  8
1
 10
442.1894636987538
 20
838.76782606097584
 30
0.0
 11
422.73803413298958
 21
860.94932206097621
 31
0.0
  0
LINE
  5
7C88
  8
1
 10
437.9148661329898
 20
838.76782606097618
 30
0.0
 11
402.91486613298969
 21
838.76782606097618
 31
0.0
  0
LINE
  5
7C89
  8
1
 10
278.6403574583951
 20
838.76782606097618
 30
0.0
 11
298.0935581329897
 21
860.95146406097615
 31
0.0
  0
LINE
  5
7C8A
  8
1
 10
282.91486613298969
 20
838.76782606097618
 30
0.0
 11
317.9148661329898
 21
838.76782606097618
 31
0.0
  0
LINE
  5
7C8B
  8
1
 10
257.91486613298969
 20
838.76782606097618
 30
0.0
 11
360.41486613298969
 21
838.76782606097618
 31
0.0
  0
LINE
  5
7C8C
  8
1
 10
257.91486613298969
 20
838.76782606097618
 30
0.0
 11
252.9148661329898
 21
808.76782606097606
 31
0.0
  0
LINE
  5
7C8D
  8
1
 10
462.9148661329898
 20
838.76782606097584
 30
0.0
 11
467.9148661329898
 21
808.76782606097595
 31
0.0
  0
LINE
  5
7C8E
  8
1
 10
360.41486613298969
 20
838.76782606097618
 30
0.0
 11
462.9148661329898
 21
838.76782606097584
 31
0.0
  0
LINE
  5
7C8F
  8
1
 10
830.41486613298912
 20
1966.6449447465709
 30
0.0
 11
801.91486613298969
 21
1966.6449447465709
 31
0.0
  0
LINE
  5
7C90
  8
1
 10
830.41486613298912
 20
1586.6449447465709
 30
0.0
 11
250.41486613298909
 21
1586.6449447465709
 31
0.0
  0
DIMENSION
  5
7C95
  8
3
  2
*D3
 10
686.41486613298946
 20
1203.610104278245
 30
0.0
 11
606.41486613298957
 21
1228.610104278245
 31
0.0
 70
     0
 13
526.41486613298957
 23
1128.767826060975
 33
0.0
 14
686.41486613298946
 24
1128.767826060975
 34
0.0
 50
180.0
1001
ACAD
1000
DSTYLE
1002
{
1070
   287
1070
     3
1070
    40
1040
10.0
1070
   143
1040
0.039
1070
   172
1070
     1
1070
   271
1070
     0
1070
   279
1070
     0
1070
   288
1070
     1
1002
}
  0
DIMENSION
  5
7C96
  8
3
  2
*D4
 10
680.41486613298957
 20
1259.483549986905
 30
0.0
 11
603.41486613298946
 21
1284.483549986905
 31
0.0
 70
     0
 13
526.41486613298957
 23
1128.767826060975
 33
0.0
 14
680.41486613298957
 24
1165.514070058317
 34
0.0
 50
180.0
1001
ACAD
1000
DSTYLE
1002
{
1070
   287
1070
     3
1070
    40
1040
10.0
1070
   143
1040
0.039
1070
   172
1070
     1
1070
   271
1070
     0
1070
   279
1070
     0
1070
   288
1070
     1
1002
}
  0
LINE
  5
7C97
  8
1
 10
830.41486613298912
 20
768.76782606097595
 30
0.0
 11
250.41486613298949
 21
768.76782606097595
 31
0.0
  0
LINE
  5
7C98
  8
1
 10
830.41486613298855
 20
808.76782606097595
 30
0.0
 11
250.41486613298949
 21
808.76782606097606
 31
0.0
  0
LINE
  5
7CA7
  8
1
 10
1769.470548696074
 20
988.71783135911755
 30
0.0
 11
1769.470548696074
 21
852.71783135911778
 31
0.0
  0
LINE
  5
7CA8
  8
1
 10
1649.4705486960729
 20
988.71783135911755
 30
0.0
 11
1649.470548696075
 21
808.71783135911744
 31
0.0
  0
LINE
  5
7CAB
  8
1
 10
1793.470548696074
 20
1076.7178313591171
 30
0.0
 11
1793.470548696074
 21
900.71783135911755
 31
0.0
  0
LINE
  5
7CAC
  8
1
 10
1793.470548696074
 20
1076.7178313591171
 30
0.0
 11
1791.7705486960749
 21
1076.7178313591171
 31
0.0
  0
ARC
  5
7CAD
  8
1
 10
1791.470548696074
 20
1077.7178313591171
 30
0.0
 40
2.0
 50
0.0
 51
90.0
  0
LINE
  5
7CAE
  8
1
 10
1793.470548696074
 20
1077.7178313591171
 30
0.0
 11
1793.470548696074
 21
1076.7178313591171
 31
0.0
  0
LINE
  5
7CAF
  8
1
 10
1776.470548696074
 20
882.71783135911767
 30
0.0
 11
1776.470548696074
 21
893.71783135911767
 31
0.0
  0
LINE
  5
7CB0
  8
1
 10
1773.470548696074
 20
880.71783135911755
 30
0.0
 11
1773.470548696074
 21
900.71783135911767
 31
0.0
  0
LINE
  5
7CB1
  8
1
 10
1780.470548696075
 20
897.71783135911755
 30
0.0
 11
1791.470548696074
 21
897.71783135911755
 31
0.0
  0
LINE
  5
7CB2
  8
1
 10
1773.470548696074
 20
900.71783135911767
 30
0.0
 11
1793.470548696074
 21
900.71783135911767
 31
0.0
  0
ARC
  5
7CB3
  8
1
 10
1780.470548696075
 20
893.71783135911767
 30
0.0
 40
4.0
 50
90.0
 51
180.0
  0
LINE
  5
7CB4
  8
1
 10
1793.470548696074
 20
900.71783135911767
 30
0.0
 11
1793.470548696074
 21
899.71783135911755
 31
0.0
  0
ARC
  5
7CB5
  8
1
 10
1791.470548696074
 20
899.71783135911755
 30
0.0
 40
2.0
 50
270.0
 51
0.0
  0
ARC
  5
7CB6
  8
1
 10
1774.470548696074
 20
882.71783135911767
 30
0.0
 40
2.0
 50
270.0
 51
0.0
  0
LINE
  5
7CB7
  8
1
 10
1774.470548696074
 20
880.71783135911778
 30
0.0
 11
1773.470548696074
 21
880.71783135911755
 31
0.0
  0
DIMENSION
  5
7CB8
  8
3
  2
*D5
 10
1874.1112125056111
 20
900.71783135911767
 30
0.0
 11
1849.1112125056111
 21
988.71783135911778
 31
0.0
 70
     0
 13
1793.470548696074
 23
1076.7178313591171
 33
0.0
 14
1793.470548696074
 24
900.71783135911767
 34
0.0
 50
90.0
1001
ACAD
1000
DSTYLE
1002
{
1070
   287
1070
     3
1070
     3
1000
φ<>
1070
    40
1040
10.0
1070
   143
1040
0.039
1070
   172
1070
     1
1070
   271
1070
     0
1070
   279
1070
     0
1070
   288
1070
     1
1002
}
  0
DIMENSION
  5
7CB9
  8
3
  2
*D6
 10
1769.470548696074
 20
1196.0978243648131
 30
0.0
 11
1708.6022708552309
 21
1221.6029711618089
 31
0.0
 70
   128
 13
1649.470548696074
 23
1122.7538685774471
 33
0.0
 14
1769.470548696074
 24
1122.7538685774459
 34
0.0
1001
ACAD
1000
DSTYLE
1002
{
1070
   288
1070
     1
1070
   172
1070
     1
1070
    40
1040
10.0
1070
   271
1070
     0
1070
   143
1040
0.039
1002
}
  0
DIMENSION
  5
7CBA
  8
3
  2
*D7
 10
1709.470548696074
 20
1264.207315297095
 30
0.0
 11
1741.4369112684451
 21
1292.842668742258
 31
0.0
 70
   128
 13
1773.470548696074
 23
1099.7178313591171
 33
0.0
 14
1709.470548696074
 24
1245.3928650260641
 34
0.0
1001
ACAD
1000
DSTYLE
1002
{
1070
   288
1070
     1
1070
   172
1070
     1
1070
    40
1040
10.0
1070
   271
1070
     0
1070
   143
1040
0.039
1002
}
  0
DIMENSION
  5
7CBB
  8
3
  2
*D8
 10
1293.725498300777
 20
1264.207315297095
 30
0.0
 11
1501.5980234984249
 21
1314.207315297095
 31
0.0
 70
     0
  1
MAX\P500
 13
1709.470548696074
 23
1245.3928650260641
 33
0.0
 14
1293.725498300777
 24
1143.723796445237
 34
0.0
1001
ACAD
1000
DSTYLE
1002
{
1070
   287
1070
     3
1070
    40
1040
10.0
1070
   143
1040
0.039
1070
   172
1070
     1
1070
   271
1070
     0
1070
   279
1070
     0
1070
   288
1070
     1
1002
}
  0
LINE
  5
7CBC
  8
2
 10
815.56706460019632
 20
1991.6449447465709
 30
0.0
 11
487.070619541535
 21
1991.6449447465709
 31
0.0
  0
LINE
  5
7CBD
  8
1
 10
526.41486613298855
 20
1930.148447119512
 30
0.0
 11
526.414866132989
 21
2050.1484471195122
 31
0.0
  0
LINE
  5
7CBE
  8
1
 10
526.41486613298855
 20
1930.148447119512
 30
0.0
 11
526.414866132989
 21
2050.1484471195122
 31
0.0
  0
LINE
  5
7CBF
  8
1
 10
801.91486613298946
 20
2050.1484471195122
 30
0.0
 11
708.71486613298975
 21
2050.1484471195122
 31
0.0
  0
LINE
  5
7CC0
  8
1
 10
801.91486613298946
 20
1930.148447119512
 30
0.0
 11
708.71486613298975
 21
1930.148447119511
 31
0.0
  0
LINE
  5
7CC1
  8
1
 10
506.4148661329881
 20
1910.148447119512
 30
0.0
 11
506.4148661329881
 21
2070.1484471195122
 31
0.0
  0
LINE
  5
7CC2
  8
1
 10
708.71486613298975
 20
2070.1484471195122
 30
0.0
 11
506.4148661329881
 21
2070.1484471195122
 31
0.0
  0
LINE
  5
7CC3
  8
1
 10
708.71486613298998
 20
1910.148447119514
 30
0.0
 11
506.4148661329881
 21
1910.148447119512
 31
0.0
  0
LINE
  5
7CC5
  8
1
 10
725.41486613298935
 20
1596.9033967242151
 30
0.0
 11
725.41486613298935
 21
1626.9033967242151
 31
0.0
  0
LINE
  5
7CC6
  8
1
 10
635.41486613298935
 20
1596.9033967242151
 30
0.0
 11
635.41486613298935
 21
1626.9033967242151
 31
0.0
  0
LINE
  5
7CC7
  8
1
 10
416.40890104687048
 20
1626.9033967242151
 30
0.0
 11
416.40890104687048
 21
1596.9033967242151
 31
0.0
  0
LINE
  5
7CC8
  8
1
 10
306.40890104687048
 20
1626.903396724216
 30
0.0
 11
306.40890104687048
 21
1596.903396724216
 31
0.0
  0
LINE
  5
7CCB
  8
1
 10
277.02917777857101
 20
1574.4033967242169
 30
0.0
 11
807.02917777857101
 21
1574.4033967242151
 31
0.0
  0
LINE
  5
7CCC
  8
1
 10
725.41486613298935
 20
1596.9033967242151
 30
0.0
 11
635.41486613298912
 21
1596.9033967242151
 31
0.0
  0
LINE
  5
7CCD
  8
1
 10
277.02917777857101
 20
1649.4033967242169
 30
0.0
 11
807.02917777857078
 21
1649.4033967242151
 31
0.0
  0
LINE
  5
7CCE
  8
1
 10
690.41486613298912
 20
1636.9033967242151
 30
0.0
 11
690.41486613299037
 21
1910.148447119514
 31
0.0
  0
LINE
  5
7CCF
  8
1
 10
670.41486613298912
 20
1636.9033967242151
 30
0.0
 11
670.41486613299003
 21
1910.148447119514
 31
0.0
  0
LINE
  5
7CD0
  8
1
 10
690.41486613298912
 20
1636.9033967242151
 30
0.0
 11
670.41486613298912
 21
1636.9033967242151
 31
0.0
  0
LINE
  5
7CD1
  8
1
 10
725.41486613298935
 20
1626.9033967242151
 30
0.0
 11
635.41486613298912
 21
1626.9033967242151
 31
0.0
  0
LINE
  5
7CD2
  8
1
 10
670.91486613298912
 20
1626.9033967242151
 30
0.0
 11
670.91486613298912
 21
1636.903396724216
 31
0.0
  0
LINE
  5
7CD3
  8
1
 10
689.91486613298912
 20
1626.9033967242151
 30
0.0
 11
689.91486613298912
 21
1636.903396724216
 31
0.0
  0
LINE
  5
7CD5
  8
1
 10
785.41486613299003
 20
1661.3449447465709
 30
0.0
 11
785.41486613298969
 21
1930.148447119512
 31
0.0
  0
LINE
  5
7CD6
  8
1
 10
575.41486613298991
 20
1661.3449447465709
 30
0.0
 11
575.41486613298991
 21
1910.148447119512
 31
0.0
  0
LINE
  5
7CD7
  8
1
 10
785.41486613299003
 20
1661.3449447465709
 30
0.0
 11
690.41486613298912
 21
1661.3449447465709
 31
0.0
  0
LINE
  5
7CD8
  8
1
 10
670.41486613298912
 20
1661.3449447465709
 30
0.0
 11
575.41486613298991
 21
1661.3449447465709
 31
0.0
  0
LINE
  5
7CD9
  8
1
 10
445.41486613298952
 20
1658.648447119512
 30
0.0
 11
445.41486613299003
 21
1886.648447119512
 31
0.0
  0
LINE
  5
7CDA
  8
1
 10
275.41485813298959
 20
1658.648447119512
 30
0.0
 11
275.41485813298999
 21
1886.648447119512
 31
0.0
  0
LINE
  5
7CDB
  8
1
 10
445.41486613299003
 20
1886.648447119512
 30
0.0
 11
275.41485813298999
 21
1886.648447119512
 31
0.0
  0
LINE
  5
7CDC
  8
1
 10
445.41486613299003
 20
1658.648447119512
 30
0.0
 11
275.41485813298999
 21
1658.648447119512
 31
0.0
  0
LINE
  5
7CDD
  8
1
 10
369.91486613298912
 20
1626.9033967242169
 30
0.0
 11
369.91486613298912
 21
1658.648447119512
 31
0.0
  0
LINE
  5
7CDE
  8
1
 10
350.91486613298912
 20
1626.9033967242169
 30
0.0
 11
350.91486613298912
 21
1658.648447119512
 31
0.0
  0
LINE
  5
7CDF
  8
1
 10
290.41486613298912
 20
1886.648447119512
 30
0.0
 11
290.41486613298912
 21
1966.6449447465709
 31
0.0
  0
LINE
  5
7CE5
  8
1
 10
416.40890104687008
 20
1626.9033967242169
 30
0.0
 11
306.40890104687048
 21
1626.9033967242181
 31
0.0
  0
LINE
  5
7CE6
  8
1
 10
416.40890104687008
 20
1596.903396724216
 30
0.0
 11
306.40890104687048
 21
1596.903396724216
 31
0.0
  0
DIMENSION
  5
7CE7
  8
3
  2
*D9
 10
942.31065724969994
 20
1586.6449447465709
 30
0.0
 11
917.31065724969983
 21
1776.6449447465709
 31
0.0
 70
     0
 13
830.41486613298912
 23
1966.6449447465709
 33
0.0
 14
830.41486613298912
 24
1586.6449447465709
 34
0.0
 50
90.0
1001
ACAD
1000
DSTYLE
1002
{
1070
   287
1070
     3
1070
    40
1040
10.0
1070
   143
1040
0.039
1070
   172
1070
     1
1070
   271
1070
     0
1070
   279
1070
     0
1070
   288
1070
     1
1002
}
  0
LINE
  5
7CE9
  8
1
 10
1304.470548696074
 20
768.71783135911755
 30
0.0
 11
1304.4705486960729
 21
808.71783135911755
 31
0.0
  0
LINE
  5
7CEA
  8
1
 10
1684.470548696074
 20
768.71783135911755
 30
0.0
 11
1684.470548696074
 21
808.71783135911744
 31
0.0
  0
LINE
  5
7CEB
  8
1
 10
1377.970548696072
 20
1003.7238044452361
 30
0.0
 11
1605.9705486960711
 21
1003.7238044452361
 31
0.0
  0
LINE
  5
7CEC
  8
1
 10
1377.970548696072
 20
833.72379644523664
 30
0.0
 11
1379.1705486960741
 21
833.72379644523664
 31
0.0
  0
LINE
  5
7CED
  8
1
 10
1377.970548696072
 20
833.7237964452363
 30
0.0
 11
1377.970548696072
 21
949.91783135911714
 31
0.0
  0
LINE
  5
7CEE
  8
1
 10
1346.225498300777
 20
909.22379644523721
 30
0.0
 11
1377.970548696072
 21
909.22379644523721
 31
0.0
  0
LINE
  5
7CEF
  8
1
 10
1346.225498300777
 20
928.22379644523721
 30
0.0
 11
1377.970548696072
 21
928.22379644523721
 31
0.0
  0
LINE
  5
7CF0
  8
1
 10
1377.970548696072
 20
952.21783135911778
 30
0.0
 11
1377.970548696072
 21
978.71783135911755
 31
0.0
  0
LINE
  5
7CF1
  8
1
 10
1377.970548696072
 20
998.71783135911755
 30
0.0
 11
1377.970548696072
 21
1003.7238044452361
 31
0.0
  0
LINE
  5
7CF2
  8
1
 10
1605.9705486960711
 20
1003.7238044452361
 30
0.0
 11
1605.9705486960711
 21
998.71783135911744
 31
0.0
  0
DIMENSION
  5
7CF3
  8
3
  2
*D10
 10
951.77026548216418
 20
768.76782606097595
 30
0.0
 11
926.77026548216395
 21
878.76782606097618
 31
0.0
 70
     0
 13
857.16111013033105
 23
988.76782606097595
 33
0.0
 14
830.41486613298912
 24
768.76782606097595
 34
0.0
 50
90.0
1001
ACAD
1000
DSTYLE
1002
{
1070
   287
1070
     3
1070
    40
1040
10.0
1070
   143
1040
0.039
1070
   172
1070
     1
1070
   271
1070
     0
1070
   279
1070
     0
1070
   288
1070
     1
1002
}
  0
DIMENSION
  5
7CF4
  8
3
  2
*D11
 10
951.77026548216418
 20
1148.7678260609759
 30
0.0
 11
926.77026548216395
 21
1068.7678260609759
 31
0.0
 70
     0
 13
857.16111013033105
 23
988.76782606097595
 33
0.0
 14
708.71486613298975
 24
1148.7678260609759
 34
0.0
 50
90.0
1001
ACAD
1000
DSTYLE
1002
{
1070
   287
1070
     3
1070
    40
1040
10.0
1070
   143
1040
0.039
1070
   172
1070
     1
1070
   271
1070
     0
1070
   279
1070
     0
1070
   288
1070
     1
1002
}
  0
DIMENSION
  5
7CF5
  8
3
  2
*D12
 10
801.91486613298946
 20
1259.483549986905
 30
0.0
 11
741.16486613298957
 21
1284.483549986905
 31
0.0
 70
     0
  1
121
 13
680.41486613298957
 23
1165.514070058317
 33
0.0
 14
801.91486613298946
 24
981.26782606097606
 34
0.0
1001
ACAD
1000
DSTYLE
1002
{
1070
   287
1070
     3
1070
    40
1040
10.0
1070
   143
1040
0.039
1070
   172
1070
     1
1070
   271
1070
     0
1070
   279
1070
     0
1070
   288
1070
     1
1002
}
  0
DIMENSION
  5
7CF7
  8
3
  2
*D13
 10
250.41486613298949
 20
1314.2157508203379
 30
0.0
 11
526.1648661329898
 21
1339.2157508203379
 31
0.0
 70
     0
  1
551
 13
801.91486613299003
 23
981.26782606097606
 33
0.0
 14
250.41486613298949
 24
808.76782606097606
 34
0.0
1001
ACAD
1000
DSTYLE
1002
{
1070
   287
1070
     3
1070
    40
1040
10.0
1070
   143
1040
0.039
1070
   172
1070
     1
1070
   271
1070
     0
1070
   279
1070
     0
1070
   288
1070
     1
1002
}
  0
LINE
  5
7CF8
  8
1
 10
1629.470548696074
 20
1148.7678260609759
 30
0.0
 11
1789.470548696074
 21
1148.7678260609759
 31
0.0
  0
LINE
  5
7CF9
  8
1
 10
1629.470548696074
 20
1128.7678260609759
 30
0.0
 11
1789.470548696074
 21
1128.7678260609759
 31
0.0
  0
LINE
  5
7CFA
  8
1
 10
1629.470548696074
 20
1148.7678260609759
 30
0.0
 11
1629.4705486960729
 21
1128.7678260609759
 31
0.0
  0
LINE
  5
7CFB
  8
1
 10
1789.470548696074
 20
1148.7678260609759
 30
0.0
 11
1789.470548696074
 21
1128.7678260609759
 31
0.0
  0
LINE
  5
7CFC
  8
1
 10
1773.470548696074
 20
1076.7178313591171
 30
0.0
 11
1793.470548696074
 21
1076.7178313591171
 31
0.0
  0
LINE
  5
7CFD
  8
1
 10
1780.470548696075
 20
1079.7178313591171
 30
0.0
 11
1791.470548696074
 21
1079.7178313591171
 31
0.0
  0
LINE
  5
7CFE
  8
1
 10
1793.470548696074
 20
1076.7178313591171
 30
0.0
 11
1773.470548696074
 21
1076.7178313591171
 31
0.0
  0
LINE
  5
7CFF
  8
1
 10
1773.470548696075
 20
988.71783135911755
 30
0.0
 11
1773.470548696074
 21
1099.7178313591171
 31
0.0
  0
LINE
  5
7D00
  8
1
 10
1776.470548696074
 20
988.71783135911755
 30
0.0
 11
1776.470548696074
 21
1076.7178313591171
 31
0.0
  0
LINE
  5
7D01
  8
1
 10
1774.470548696074
 20
1096.7178313591171
 30
0.0
 11
1773.470548696074
 21
1096.7178313591171
 31
0.0
  0
ARC
  5
7D02
  8
1
 10
1774.470548696074
 20
1094.7178313591171
 30
0.0
 40
2.0
 50
0.0
 51
90.0
  0
ARC
  5
7D03
  8
1
 10
1780.470548696075
 20
1083.7178313591171
 30
0.0
 40
4.0
 50
180.0
 51
270.0
  0
LINE
  5
7D04
  8
1
 10
1773.470548696074
 20
1096.7178313591171
 30
0.0
 11
1773.470548696074
 21
1076.7178313591171
 31
0.0
  0
LINE
  5
7D05
  8
1
 10
1776.470548696074
 20
1094.7178313591171
 30
0.0
 11
1776.470548696074
 21
1083.7178313591171
 31
0.0
  0
LINE
  5
7D06
  8
1
 10
1769.470548696074
 20
1099.7178313591171
 30
0.0
 11
1773.470548696074
 21
1099.7178313591171
 31
0.0
  0
LINE
  5
7D07
  8
1
 10
1773.470548696074
 20
1076.7178313591171
 30
0.0
 11
1773.470548696074
 21
1096.7178313591171
 31
0.0
  0
LINE
  5
7D08
  8
1
 10
1793.470548696074
 20
900.71783135911755
 30
0.0
 11
1793.470548696074
 21
1076.7178313591171
 31
0.0
  0
ARC
  5
7D09
  8
1
 10
1791.470548696074
 20
1077.7178313591171
 30
0.0
 40
2.0
 50
0.0
 51
90.0
  0
LINE
  5
7D0A
  8
1
 10
1793.470548696074
 20
1076.7178313591171
 30
0.0
 11
1793.470548696074
 21
1077.7178313591171
 31
0.0
  0
LINE
  5
7D0B
  8
1
 10
801.91486613298946
 20
1930.148447119512
 30
0.0
 11
801.9148661329898
 21
2050.1484471195122
 31
0.0
  0
LINE
  5
7D0C
  8
1
 10
686.41486613298844
 20
1930.148447119512
 30
0.0
 11
686.41486613298878
 21
2050.1484471195122
 31
0.0
  0
LINE
  5
7D0D
  8
1
 10
708.71486613298975
 20
1910.148447119514
 30
0.0
 11
708.71486613298975
 21
2070.1484471195131
 31
0.0
  0
LINE
  5
7D0E
  8
1
 10
686.41486613298844
 20
1930.148447119512
 30
0.0
 11
526.414866132989
 21
1930.148447119512
 31
0.0
  0
LINE
  5
7D0F
  8
1
 10
686.41486613298878
 20
2050.1484471195122
 30
0.0
 11
526.414866132989
 21
2050.1484471195122
 31
0.0
  0
LINE
  5
7D10
  8
1
 10
686.41486613298878
 20
2050.1484471195122
 30
0.0
 11
526.41486613298855
 21
1930.148447119512
 31
0.0
  0
LINE
  5
7D11
  8
1
 10
526.414866132989
 20
2050.1484471195122
 30
0.0
 11
686.41486613298844
 21
1930.148447119512
 31
0.0
  0
LINE
  5
7D12
  8
1
 10
1622.1705486960741
 20
1052.2678313591171
 30
0.0
 11
1622.1705486960741
 21
832.26783135911739
 31
0.0
  0
LINE
  5
7D13
  8
1
 10
1622.1705486960741
 20
832.26783135911739
 30
0.0
 11
1649.470548696075
 21
832.26783135911739
 31
0.0
  0
LINE
  5
7EF3
  8
4
 10
1850.0
 20
500.0
 30
0.0
 11
1850.0
 21
300.0
 31
0.0
  0
LINE
  5
7EF4
  8
4
 10
1150.0
 20
500.0
 30
0.0
 11
1150.0
 21
300.0
 31
0.0
  0
LINE
  5
7EF5
  8
4
 10
650.0
 20
500.0
 30
0.0
 11
650.0
 21
300.0
 31
0.0
  0
LINE
  5
7EF8
  8
4
 10
650.0
 20
300.0
 30
0.0
 11
1850.0
 21
300.0
 31
0.0
  0
LINE
  5
7EF9
  8
4
 10
650.0
 20
400.0
 30
0.0
 11
1850.0
 21
400.0
 31
0.0
  0
TEXT
  5
7EFA
  8
4
 10
688.50208084690155
 20
431.54302586661282
 30
0.0
 40
50.0
  1
機器名称
  0
TEXT
  5
7EFB
  8
4
 10
686.25810602479748
 20
321.64515673201089
 30
0.0
 40
50.0
  1
機器型番
  0
TEXT
  5
7EFC
  8
4
 10
1177.6787454876639
 20
422.57176895756851
 30
0.0
 40
50.0
  1
ミツヤ多翼送風機
  0
TEXT
  5
7EFD
  8
4
 10
1186.6544955854799
 20
317.15958427994332
 30
0.0
 40
50.0
  1
MF#1-1
  0
TEXT
  5
7EFF
  8
4
 10
747.86594985434749
 20
2377.6217547345668
 30
0.0
 40
53.999999999999993
  1
床置ベット
  0
TEXT
  5
7F00
  8
4
 10
316.16759332944639
 20
2533.8809761992979
 30
0.0
 40
72.0
  1
遠心式片吸込片持多翼ファン
  0
LINE
  5
7F01
  8
4
 10
250.0
 20
2469.408754264804
 30
0.0
 11
1850.0
 21
2469.408754264804
 31
0.0
  0
LINE
  5
7F02
  8
4
 10
250.0
 20
2669.4087542648049
 30
0.0
 11
1850.0
 21
2669.4087542648049
 31
0.0
  0
LINE
  5
7F03
  8
4
 10
650.0
 20
500.0
 30
0.0
 11
1850.0
 21
500.0
 31
0.0
  0
LINE
  5
7F04
  8
4
 10
250.0
 20
2669.4087542648049
 30
0.0
 11
250.0
 21
2469.408754264804
 31
0.0
  0
TEXT
  5
7F05
  8
4
 10
312.0071176116453
 20
2376.512390948395
 30
0.0
 40
53.999999999999993
  1
右回転上向
  0
TEXT
  5
7F06
  8
4
 10
1468.969559249289
 20
2706.0610814953088
 30
0.0
 40
56.000000000000007
  1
No.
  0
TEXT
  5
7F07
  8
4
 10
1311.2960626000131
 20
2383.4288413325148
 30
0.0
 40
53.999999999999993
  1
縮尺：1/10
  0
LINE
  5
7F08
  8
4
 10
1850.0
 20
2669.4087542648049
 30
0.0
 11
1850.0
 21
2469.408754264804
 31
0.0
  0
LINE
  5
7F09
  8
4
 10
2100.0
 20
2950.0
 30
0.0
 11
2100.0
 21
2950.0
 31
0.0
  0
LINE
  5
7F0A
  8
4
 10
1440.6174223598639
 20
2681.2635831254011
 30
0.0
 11
1440.6174223598639
 21
2786.652261549752
 31
0.0
  0
LINE
  5
7F0B
  8
4
 10
1440.6174223598639
 20
2786.652261549752
 30
0.0
 11
1850.0
 21
2786.652261549752
 31
0.0
  0
LINE
  5
7F0C
  8
4
 10
1850.0
 20
2786.652261549752
 30
0.0
 11
1850.0
 21
2681.2635831254011
 31
0.0
  0
LINE
  5
7F0D
  8
4
 10
1850.0
 20
2681.2635831254011
 30
0.0
 11
1440.6174223598639
 21
2681.2635831254011
 31
0.0
  0
LINE
  5
7F0E
  8
4
 10
0.0
 20
0.0
 30
0.0
 11
0.0
 21
2950.0
 31
0.0
  0
LINE
  5
7F0F
  8
4
 10
0.0
 20
2950.0
 30
0.0
 11
2100.0
 21
2950.0
 31
0.0
  0
LINE
  5
7F10
  8
4
 10
2100.0
 20
2950.0
 30
0.0
 11
2100.0
 21
0.0
 31
0.0
  0
LINE
  5
7F11
  8
4
 10
2100.0
 20
0.0
 30
0.0
 11
0.0
 21
0.0
 31
0.0
  0
LINE
  5
80B2
  8
1
 10
1368.7254983007761
 20
1102.9691811096541
 30
0.0
 11
1368.725498300777
 21
1143.723796445237
 31
0.0
  0
LINE
  5
80B7
  8
1
 10
277.02917777857101
 20
1574.4033967242169
 30
0.0
 11
277.02917777857101
 21
1649.4033967242169
 31
0.0
  0
LINE
  5
80B8
  8
1
 10
807.02917777857078
 20
1574.4033967242151
 30
0.0
 11
807.02917777857101
 21
1649.4033967242151
 31
0.0
  0
LINE
  5
811A
  8
1
 10
790.41486613298912
 20
1926.6449447465709
 30
0.0
 11
785.41486613298957
 21
1926.6449447465709
 31
0.0
  0
LINE
  5
8126
  8
1
 10
790.41486613298912
 20
1626.6449447465709
 30
0.0
 11
290.41486613298912
 21
1626.6449447465709
 31
0.0
  0
LINE
  5
8129
  8
1
 10
506.4148661329881
 20
1966.6449447465709
 30
0.0
 11
250.41486613298949
 21
1966.6449447465709
 31
0.0
  0
LINE
  5
812A
  8
1
 10
506.4148661329881
 20
1926.6449447465709
 30
0.0
 11
290.41486613298912
 21
1926.6449447465709
 31
0.0
  0
DIMENSION
  5
8137
  8
3
  2
*D14
 10
830.41486613298912
 20
2097.5838303194241
 30
0.0
 11
544.48284702666194
 21
2097.5838303194241
 31
0.0
 70
   128
 13
250.41486613298949
 23
1966.6449447465709
 33
0.0
 14
830.41486613298912
 24
1966.6449447465709
 34
0.0
1001
ACAD
1000
DSTYLE
1002
{
1070
   287
1070
     3
1070
    40
1040
10.0
1070
   143
1040
0.039
1070
   172
1070
     1
1070
   271
1070
     0
1070
   279
1070
     0
1070
   288
1070
     1
1002
}
  0
DIMENSION
  5
81E3
  8
3
  2
*D15
 10
680.41486613298969
 20
689.97769179053012
 30
0.0
 11
465.41486613298957
 21
714.97769179053012
 31
0.0
 70
     0
 13
250.41486613298949
 23
768.72379644523699
 33
0.0
 14
680.41486613298969
 24
768.76782606097618
 34
0.0
1001
ACAD
1000
DSTYLE
1002
{
1070
   287
1070
     3
1070
    40
1040
10.0
1070
   143
1040
0.039
1070
   172
1070
     1
1070
   271
1070
     0
1070
   279
1070
     0
1002
}
  0
DIMENSION
  5
81FD
  8
3
  2
*D16
 10
1684.470548696074
 20
689.97769179053012
 30
0.0
 11
1494.470548696074
 21
714.97769179053012
 31
0.0
 70
     0
 13
1304.470548696074
 23
768.71783135911755
 33
0.0
 14
1684.470548696074
 24
768.71783135911755
 34
0.0
1001
ACAD
1000
DSTYLE
1002
{
1070
   287
1070
     3
1070
    40
1040
10.0
1070
   143
1040
0.039
1070
   172
1070
     1
1070
   271
1070
     0
1070
   279
1070
     0
1002
}
  0
DIMENSION
  5
820C
  8
3
  2
*D17
 10
1709.470548696074
 20
689.97769179053012
 30
0.0
 11
1783.756262981788
 21
714.97769179053012
 31
0.0
 70
     0
 13
1684.470548696074
 23
768.71783135911755
 33
0.0
 14
1709.470548696074
 24
768.71783135911755
 34
0.0
1001
ACAD
1000
DSTYLE
1002
{
1070
   287
1070
     3
1070
    40
1040
10.0
1070
   143
1040
0.039
1070
   172
1070
     1
1070
   271
1070
     0
1070
   279
1070
     0
1002
}
  0
DIMENSION
  5
8219
  8
3
  2
*D18
 10
1041.772595996373
 20
768.72379644523653
 30
0.0
 11
1016.772595996373
 21
958.74581125310635
 31
0.0
 70
     0
 13
708.71486613298975
 23
1148.7678260609759
 33
0.0
 14
830.41486613298912
 24
768.72379644523653
 34
0.0
 50
90.0
1001
ACAD
1000
DSTYLE
1002
{
1070
   287
1070
     3
1070
    40
1040
10.0
1070
   143
1040
0.039
1070
   172
1070
     1
1070
   271
1070
     0
1070
   279
1070
     0
1002
}
  0
DIMENSION
  5
8226
  8
3
  2
*D19
 10
830.41486613298912
 20
689.97769179053012
 30
0.0
 11
755.41486613298935
 21
714.97769179053012
 31
0.0
 70
     0
 13
680.41486613298969
 23
768.76782606097618
 33
0.0
 14
830.41486613298912
 24
768.72379644523653
 34
0.0
1001
ACAD
1000
DSTYLE
1002
{
1070
   287
1070
     3
1070
    40
1040
10.0
1070
   143
1040
0.039
1070
   172
1070
     1
1070
   271
1070
     0
1070
   279
1070
     0
1002
}
  0
ENDSEC
  0
EOF
