  0
SECTION
  2
HEADER
  9
$ACADVER
  1
AC1009
  9
$INSBASE
 10
0.0
 20
0.0
 30
0.0
  9
$EXTMIN
 10
0.0
 20
0.0
 30
0.0
  9
$EXTMAX
 10
2100.0
 20
2950.0
 30
0.0
  9
$LIMMIN
 10
0.0
 20
0.0
  9
$LIMMAX
 10
297.0
 20
210.0
  9
$ORTHOMODE
 70
     0
  9
$REGENMODE
 70
     1
  9
$FILLMODE
 70
     0
  9
$QTEXTMODE
 70
     0
  9
$MIRRTEXT
 70
     1
  9
$DRAGMODE
 70
     2
  9
$LTSCALE
 40
100.0
  9
$OSMODE
 70
    37
  9
$ATTMODE
 70
     1
  9
$TEXTSIZE
 40
180.0
  9
$TRACEWID
 40
0.05
  9
$TEXTSTYLE
  7
STANDARD
  9
$CLAYER
  8
3
  9
$CELTYPE
  6
BYLAYER
  9
$CECOLOR
 62
   256
  9
$DIMSCALE
 40
10.0
  9
$DIMASZ
 40
2.0
  9
$DIMEXO
 40
0.5
  9
$DIMDLI
 40
10.0
  9
$DIMRND
 40
0.0
  9
$DIMDLE
 40
0.0
  9
$DIMEXE
 40
1.0
  9
$DIMTP
 40
1.0
  9
$DIMTM
 40
1.0
  9
$DIMTXT
 40
3.0
  9
$DIMCEN
 40
0.0
  9
$DIMTSZ
 40
0.0
  9
$DIMTOL
 70
     0
  9
$DIMLIM
 70
     0
  9
$DIMTIH
 70
     0
  9
$DIMTOH
 70
     0
  9
$DIMSE1
 70
     0
  9
$DIMSE2
 70
     0
  9
$DIMTAD
 70
     1
  9
$DIMZIN
 70
     8
  9
$DIMBLK
  1

  9
$DIMASO
 70
     1
  9
$DIMSHO
 70
     1
  9
$DIMPOST
  1

  9
$DIMAPOST
  1

  9
$DIMALT
 70
     0
  9
$DIMALTD
 70
     2
  9
$DIMALTF
 40
0.039
  9
$DIMLFAC
 40
1.0
  9
$DIMTOFL
 70
     1
  9
$DIMTVP
 40
0.0
  9
$DIMTIX
 70
     0
  9
$DIMSOXD
 70
     0
  9
$DIMSAH
 70
     1
  9
$DIMBLK1
  1
OPEN
  9
$DIMBLK2
  1
OPEN
  9
$DIMSTYLE
  2
IGA
  9
$DIMCLRD
 70
     0
  9
$DIMCLRE
 70
     0
  9
$DIMCLRT
 70
     0
  9
$DIMTFAC
 40
10.0
  9
$DIMGAP
 40
1.0
  9
$LUNITS
 70
     2
  9
$LUPREC
 70
     3
  9
$SKETCHINC
 40
0.1
  9
$FILLETRAD
 40
50.0
  9
$AUNITS
 70
     0
  9
$AUPREC
 70
     0
  9
$MENU
  1
acad
  9
$ELEVATION
 40
0.0
  9
$PELEVATION
 40
0.0
  9
$THICKNESS
 40
0.0
  9
$LIMCHECK
 70
     0
  9
$BLIPMODE
 70
     0
  9
$CHAMFERA
 40
0.5
  9
$CHAMFERB
 40
0.5
  9
$SKPOLY
 70
     0
  9
$TDCREATE
 40
2451935.497253703
  9
$TDUPDATE
 40
2454953.7494453471
  9
$TDINDWG
 40
0.1225902315
  9
$TDUSRTIMER
 40
0.1225902315
  9
$USRTIMER
 70
     1
  9
$ANGBASE
 50
0.0
  9
$ANGDIR
 70
     0
  9
$PDMODE
 70
     0
  9
$PDSIZE
 40
0.0
  9
$PLINEWID
 40
0.0
  9
$COORDS
 70
     1
  9
$SPLFRAME
 70
     0
  9
$SPLINETYPE
 70
     6
  9
$SPLINESEGS
 70
     8
  9
$ATTDIA
 70
     0
  9
$ATTREQ
 70
     1
  9
$HANDLING
 70
 10241
  9
$HANDSEED
  5
85D6
  9
$SURFTAB1
 70
     6
  9
$SURFTAB2
 70
     6
  9
$SURFTYPE
 70
     6
  9
$SURFU
 70
     6
  9
$SURFV
 70
     6
  9
$UCSNAME
  2

  9
$UCSORG
 10
0.0
 20
0.0
 30
0.0
  9
$UCSXDIR
 10
1.0
 20
0.0
 30
0.0
  9
$UCSYDIR
 10
0.0
 20
1.0
 30
0.0
  9
$PUCSNAME
  2

  9
$PUCSORG
 10
0.0
 20
0.0
 30
0.0
  9
$PUCSXDIR
 10
1.0
 20
0.0
 30
0.0
  9
$PUCSYDIR
 10
0.0
 20
1.0
 30
0.0
  9
$USERI1
 70
     0
  9
$USERI2
 70
     0
  9
$USERI3
 70
     0
  9
$USERI4
 70
     0
  9
$USERI5
 70
     0
  9
$USERR1
 40
0.0
  9
$USERR2
 40
0.0
  9
$USERR3
 40
0.0
  9
$USERR4
 40
0.0
  9
$USERR5
 40
0.0
  9
$WORLDVIEW
 70
     1
  9
$SHADEDGE
 70
     3
  9
$SHADEDIF
 70
    70
  9
$TILEMODE
 70
     1
  9
$MAXACTVP
 70
    16
  9
$PLIMCHECK
 70
     0
  9
$PEXTMIN
 10
1.0000000000000000E+020
 20
1.0000000000000000E+020
 30
1.0000000000000000E+020
  9
$PEXTMAX
 10
-1.0000000000000000E+020
 20
-1.0000000000000000E+020
 30
-1.0000000000000000E+020
  9
$PLIMMIN
 10
0.0
 20
0.0
  9
$PLIMMAX
 10
12.0
 20
9.0
  9
$UNITMODE
 70
     0
  9
$VISRETAIN
 70
     0
  9
$PLINEGEN
 70
     0
  9
$PSLTSCALE
 70
     1
  0
ENDSEC
  0
SECTION
  2
TABLES
  0
TABLE
  2
VPORT
 70
     2
  0
VPORT
  2
*ACTIVE
 70
     0
 10
0.0
 20
0.0
 11
1.0
 21
1.0
 12
3536.6099588513671
 22
1475.0000068685031
 13
0.0
 23
0.0
 14
10.0
 24
10.0
 15
10.0
 25
10.0
 16
0.0
 26
0.0
 36
1.0
 17
0.0
 27
0.0
 37
0.0
 40
2972.614883016935
 41
3.1666666666666661
 42
50.0
 43
0.0
 44
0.0
 50
0.0
 51
0.0
 71
     0
 72
   100
 73
     1
 74
     0
 75
     0
 76
     0
 77
     0
 78
     0
  0
ENDTAB
  0
TABLE
  2
LTYPE
 70
     2
  0
LTYPE
  2
CONTINUOUS
 70
     0
  3
Solid line
 72
    65
 73
     0
 40
0.0
  0
LTYPE
  2
CENTER
 70
     0
  3
____ _ ____ _ ____ _ ____ _ ____ _ ____ _ ____ 
 72
    65
 73
     4
 40
2.0
 49
1.25
 49
-0.25
 49
0.25
 49
-0.25
  0
ENDTAB
  0
TABLE
  2
LAYER
 70
     6
  0
LAYER
  2
0
 70
     0
 62
     7
  6
CONTINUOUS
  0
LAYER
  2
3
 70
     0
 62
     2
  6
CONTINUOUS
  0
LAYER
  2
2
 70
     0
 62
     3
  6
CENTER
  0
LAYER
  2
1
 70
     0
 62
     4
  6
CONTINUOUS
  0
LAYER
  2
4
 70
     0
 62
     7
  6
CONTINUOUS
  0
LAYER
  2
DEFPOINTS
 70
     0
 62
     7
  6
CONTINUOUS
  0
ENDTAB
  0
TABLE
  2
STYLE
 70
     1
  0
STYLE
  2
STANDARD
 70
     0
 40
0.0
 41
1.0
 50
0.0
 71
     0
 42
180.0
  3
simplex.shx
  4
extfont.shx
  0
ENDTAB
  0
TABLE
  2
VIEW
 70
     0
  0
ENDTAB
  0
TABLE
  2
UCS
 70
     0
  0
ENDTAB
  0
TABLE
  2
APPID
 70
     1
  0
APPID
  2
ACAD
 70
     0
  0
ENDTAB
  0
TABLE
  2
DIMSTYLE
 70
     1
  0
DIMSTYLE
  2
IGA
 70
     0
  3

  4

  5

  6
OPEN
  7
OPEN
 40
2.0
 41
2.0
 42
0.5
 43
10.0
 44
1.0
 45
0.0
 46
0.0
 47
1.0
 48
1.0
140
3.0
141
0.0
142
0.0
143
0.03937
144
1.0
145
0.0
146
10.0
147
1.0
 71
     0
 72
     0
 73
     0
 74
     0
 75
     0
 76
     0
 77
     1
 78
     8
170
     0
171
     2
172
     0
173
     1
174
     0
175
     0
176
     0
177
     0
178
     0
  0
ENDTAB
  0
ENDSEC
  0
SECTION
  2
BLOCKS
  0
BLOCK
  8
0
  2
$MODEL_SPACE
 70
     0
 10
0.0
 20
0.0
 30
0.0
  3
$MODEL_SPACE
  1

  0
ENDBLK
  5
1B
  8
0
  0
BLOCK
 67
     1
  8
0
  2
$PAPER_SPACE
 70
     0
 10
0.0
 20
0.0
 30
0.0
  3
$PAPER_SPACE
  1

  0
ENDBLK
  5
18
 67
     1
  8
0
  0
BLOCK
  8
0
  2
_OPEN
 70
     0
 10
0.0
 20
0.0
 30
0.0
  3
_OPEN
  1

  0
LINE
  5
79FD
  8
0
  6
BYBLOCK
 62
     0
 10
-1.0
 20
0.1666666666666666
 30
0.0
 11
0.0
 21
0.0
 31
0.0
  0
LINE
  5
79FE
  8
0
  6
BYBLOCK
 62
     0
 10
0.0
 20
0.0
 30
0.0
 11
-1.0
 21
-0.1666666666666666
 31
0.0
  0
LINE
  5
79FF
  8
0
  6
BYBLOCK
 62
     0
 10
0.0
 20
0.0
 30
0.0
 11
-1.0
 21
0.0
 31
0.0
  0
ENDBLK
  5
7A01
  8
0
  0
BLOCK
  8
0
  2
YA_N
 70
     0
 10
0.0
 20
0.0
 30
0.0
  3
YA_N
  1

  0
ENDBLK
  5
7A04
  8
0
  0
BLOCK
  8
0
  2
*D2
 70
     1
 10
0.0
 20
0.0
 30
0.0
  3
*D2
  1

  0
LINE
  5
853A
  8
3
 62
     0
 10
936.10444719723318
 20
1165.996172452768
 30
0.0
 11
1015.946725414502
 21
1165.996172452768
 31
0.0
  0
LINE
  5
853B
  8
3
 62
     0
 10
936.10444719723318
 20
1005.996172452767
 30
0.0
 11
1015.946725414502
 21
1005.996172452767
 31
0.0
  0
LINE
  5
853C
  8
3
 62
     0
 10
1005.946725414503
 20
1145.996172452768
 30
0.0
 11
1005.946725414503
 21
1025.996172452768
 31
0.0
  0
INSERT
  5
853D
  8
3
 62
     0
  2
_OPEN
 10
1005.946725414503
 20
1165.996172452768
 30
0.0
 41
20.0
 42
20.0
 43
20.0
 50
90.0
  0
INSERT
  5
853E
  8
3
 62
     0
  2
_OPEN
 10
1005.946725414503
 20
1005.996172452767
 30
0.0
 41
20.0
 42
20.0
 43
20.0
 50
270.0
  0
TEXT
  8
3
  40
30
  5
85C6
  62
0
  72
0
  71
0
 10
920.947
 20
1032.90
 30
0.000000
  1
160
  0
POINT
  5
8540
  8
DEFPOINTS
 62
     0
 10
931.10444719723318
 20
1165.996172452768
 30
0.0
  0
POINT
  5
8541
  8
DEFPOINTS
 62
     0
 10
931.10444719723318
 20
1005.996172452767
 30
0.0
  0
POINT
  5
8542
  8
DEFPOINTS
 62
     0
 10
1005.946725414503
 20
1005.996172452767
 30
0.0
  0
ENDBLK
  5
82F0
  8
0
  0
BLOCK
  8
0
  2
*D3
 70
     1
 10
0.0
 20
0.0
 30
0.0
  3
*D3
  1

  0
LINE
  5
8543
  8
3
 62
     0
 10
936.10444719723318
 20
1165.996172452768
 30
0.0
 11
1071.820171123162
 21
1165.996172452768
 31
0.0
  0
LINE
  5
8544
  8
3
 62
     0
 10
972.85069119457455
 20
1011.996172452768
 30
0.0
 11
1071.820171123162
 21
1011.996172452768
 31
0.0
  0
LINE
  5
8545
  8
3
 62
     0
 10
1061.820171123162
 20
1145.996172452768
 30
0.0
 11
1061.820171123162
 21
1031.996172452768
 31
0.0
  0
INSERT
  5
8546
  8
3
 62
     0
  2
_OPEN
 10
1061.820171123162
 20
1165.996172452768
 30
0.0
 41
20.0
 42
20.0
 43
20.0
 50
90.0
  0
INSERT
  5
8547
  8
3
 62
     0
  2
_OPEN
 10
1061.820171123162
 20
1011.996172452768
 30
0.0
 41
20.0
 42
20.0
 43
20.0
 50
270.0
  0
TEXT
  8
3
  40
30
  5
85C7
  62
0
  72
0
  71
0
 10
976.820
 20
1035.90
 30
0.000000
  1
154
  0
POINT
  5
8549
  8
DEFPOINTS
 62
     0
 10
931.10444719723318
 20
1165.996172452768
 30
0.0
  0
POINT
  5
854A
  8
DEFPOINTS
 62
     0
 10
967.85069119457455
 20
1011.996172452768
 30
0.0
  0
POINT
  5
854B
  8
DEFPOINTS
 62
     0
 10
1061.820171123162
 20
1011.996172452768
 30
0.0
  0
ENDBLK
  5
82E5
  8
0
  0
BLOCK
  8
0
  2
*D4
 70
     1
 10
0.0
 20
0.0
 30
0.0
  3
*D4
  1

  0
LINE
  5
854C
  8
3
 62
     0
 10
972.85069119457455
 20
1011.996172452768
 30
0.0
 11
1071.820171123162
 21
1011.996172452768
 31
0.0
  0
LINE
  5
854D
  8
3
 62
     0
 10
946.10444719723273
 20
791.99617245276795
 30
0.0
 11
1071.820171123162
 21
791.99617245276795
 31
0.0
  0
LINE
  5
854E
  8
3
 62
     0
 10
1061.820171123162
 20
991.99617245276806
 30
0.0
 11
1061.820171123162
 21
811.99617245276795
 31
0.0
  0
INSERT
  5
854F
  8
3
 62
     0
  2
_OPEN
 10
1061.820171123162
 20
1011.996172452768
 30
0.0
 41
20.0
 42
20.0
 43
20.0
 50
90.0
  0
INSERT
  5
8550
  8
3
 62
     0
  2
_OPEN
 10
1061.820171123162
 20
791.99617245276795
 30
0.0
 41
20.0
 42
20.0
 43
20.0
 50
270.0
  0
TEXT
  8
3
  40
30
  5
85C8
  62
0
  72
0
  71
0
 10
976.820
 20
848.896
 30
0.000000
  1
220
  0
POINT
  5
8552
  8
DEFPOINTS
 62
     0
 10
967.85069119457455
 20
1011.996172452768
 30
0.0
  0
POINT
  5
8553
  8
DEFPOINTS
 62
     0
 10
941.10444719723284
 20
791.99617245276795
 30
0.0
  0
POINT
  5
8554
  8
DEFPOINTS
 62
     0
 10
1061.820171123162
 20
791.99617245276795
 30
0.0
  0
ENDBLK
  5
82DA
  8
0
  0
BLOCK
  8
0
  2
*D5
 70
     1
 10
0.0
 20
0.0
 30
0.0
  3
*D5
  1

  0
LINE
  5
8555
  8
3
 62
     0
 10
1753.523171828323
 20
1099.9461777509059
 30
0.0
 11
1860.863835637859
 21
1099.9461777509059
 31
0.0
  0
LINE
  5
8556
  8
3
 62
     0
 10
1755.2231718283219
 20
923.94617775090967
 30
0.0
 11
1860.863835637859
 21
923.94617775090956
 31
0.0
  0
LINE
  5
8557
  8
3
 62
     0
 10
1850.863835637859
 20
1079.9461777509059
 30
0.0
 11
1850.863835637859
 21
943.94617775090944
 31
0.0
  0
INSERT
  5
8558
  8
3
 62
     0
  2
_OPEN
 10
1850.863835637859
 20
1099.9461777509059
 30
0.0
 41
20.0
 42
20.0
 43
20.0
 50
90.0
  0
INSERT
  5
8559
  8
3
 62
     0
  2
_OPEN
 10
1850.863835637859
 20
923.94617775090956
 30
0.0
 41
20.0
 42
20.0
 43
20.0
 50
270.0
  0
TEXT
  8
3
  40
30
  5
85C9
  62
0
  72
0
  71
0
 10
1765.86
 20
958.846
 30
0.000000
  1
φ176
  0
POINT
  5
855B
  8
DEFPOINTS
 62
     0
 10
1748.523171828323
 20
1099.9461777509059
 30
0.0
  0
POINT
  5
855C
  8
DEFPOINTS
 62
     0
 10
1750.2231718283231
 20
923.94617775090967
 30
0.0
  0
POINT
  5
855D
  8
DEFPOINTS
 62
     0
 10
1850.863835637859
 20
923.94617775090956
 30
0.0
  0
ENDBLK
  5
83BF
  8
0
  0
BLOCK
  8
0
  2
*D6
 70
     1
 10
0.0
 20
0.0
 30
0.0
  3
*D6
  1

  0
LINE
  5
832B
  8
0
  6
BYBLOCK
 62
     0
 10
1626.2231718283219
 20
1170.9461777509091
 30
0.0
 11
1626.2231718283219
 21
1229.3261707566051
 31
0.0
  0
LINE
  5
832C
  8
0
  6
BYBLOCK
 62
     0
 10
1746.2231718283219
 20
1170.94617775091
 30
0.0
 11
1746.2231718283219
 21
1229.3261707566051
 31
0.0
  0
LINE
  5
832D
  8
0
  6
BYBLOCK
 62
     0
 10
1646.2231718283219
 20
1219.3261707566051
 30
0.0
 11
1726.2231718283219
 21
1219.3261707566051
 31
0.0
  0
TEXT
  5
832E
  8
3
 62
     0
 10
1650.5088861140359
 20
1231.7403441963129
 30
0.0
 40
30.0
  1
120
  0
INSERT
  5
832F
  8
0
  6
BYBLOCK
 62
     0
  2
_OPEN
 10
1626.2231718283219
 20
1219.3261707566051
 30
0.0
 41
20.0
 42
20.0
 43
20.0
 50
180.0
  0
INSERT
  5
8330
  8
0
  6
BYBLOCK
 62
     0
  2
_OPEN
 10
1746.2231718283219
 20
1219.3261707566051
 30
0.0
 41
20.0
 42
20.0
 43
20.0
  0
POINT
  5
8331
  8
DEFPOINTS
  6
BYBLOCK
 62
     0
 10
1626.2231718283219
 20
1165.9461777509091
 30
0.0
  0
POINT
  5
8332
  8
DEFPOINTS
  6
BYBLOCK
 62
     0
 10
1746.2231718283219
 20
1165.94617775091
 30
0.0
  0
POINT
  5
8333
  8
DEFPOINTS
  6
BYBLOCK
 62
     0
 10
1746.2231718283219
 20
1219.3261707566051
 30
0.0
  0
ENDBLK
  5
8334
  8
0
  0
BLOCK
  8
0
  2
*D7
 70
     1
 10
0.0
 20
0.0
 30
0.0
  3
*D7
  1

  0
LINE
  5
8315
  8
0
  6
BYBLOCK
 62
     0
 10
1750.2231718283231
 20
988.69617245276777
 30
0.0
 11
1750.2231718283231
 21
1297.435661688887
 31
0.0
  0
LINE
  5
8316
  8
0
  6
BYBLOCK
 62
     0
 10
1686.2231718283231
 20
1273.6212114178561
 30
0.0
 11
1686.2231718283231
 21
1297.435661688887
 31
0.0
  0
LINE
  5
8317
  8
0
  6
BYBLOCK
 62
     0
 10
1730.2231718283231
 20
1287.435661688887
 30
0.0
 11
1706.2231718283219
 21
1287.435661688887
 31
0.0
  0
TEXT
  5
8318
  8
3
 62
     0
 10
1693.2231718283231
 20
1296.7157051309141
 30
0.0
 40
30.0
  1
64
  0
INSERT
  5
8319
  8
0
  6
BYBLOCK
 62
     0
  2
_OPEN
 10
1750.2231718283231
 20
1287.435661688887
 30
0.0
 41
20.0
 42
20.0
 43
20.0
  0
INSERT
  5
831A
  8
0
  6
BYBLOCK
 62
     0
  2
_OPEN
 10
1686.2231718283231
 20
1287.435661688887
 30
0.0
 41
20.0
 42
20.0
 43
20.0
 50
180.0
  0
POINT
  5
831B
  8
DEFPOINTS
  6
BYBLOCK
 62
     0
 10
1750.2231718283231
 20
983.69617245276788
 30
0.0
  0
POINT
  5
831C
  8
DEFPOINTS
  6
BYBLOCK
 62
     0
 10
1686.2231718283231
 20
1268.6212114178561
 30
0.0
  0
POINT
  5
831D
  8
DEFPOINTS
  6
BYBLOCK
 62
     0
 10
1686.2231718283231
 20
1287.435661688887
 30
0.0
  0
ENDBLK
  5
831E
  8
0
  0
BLOCK
  8
0
  2
*D8
 70
     1
 10
0.0
 20
0.0
 30
0.0
  3
*D8
  1

  0
LINE
  5
855E
  8
3
 62
     0
 10
1686.2231718283231
 20
1273.6212114178561
 30
0.0
 11
1686.2231718283231
 21
1297.435661688887
 31
0.0
  0
LINE
  5
855F
  8
3
 62
     0
 10
1270.4781214330251
 20
1171.952142837029
 30
0.0
 11
1270.4781214330251
 21
1297.435661688887
 31
0.0
  0
LINE
  5
8560
  8
3
 62
     0
 10
1666.2231718283231
 20
1287.435661688887
 30
0.0
 11
1290.4781214330251
 21
1287.435661688887
 31
0.0
  0
INSERT
  5
8561
  8
3
 62
     0
  2
_OPEN
 10
1686.2231718283231
 20
1287.435661688887
 30
0.0
 41
20.0
 42
20.0
 43
20.0
  0
INSERT
  5
8562
  8
3
 62
     0
  2
_OPEN
 10
1270.4781214330251
 20
1287.435661688887
 30
0.0
 41
20.0
 42
20.0
 43
20.0
 50
180.0
  0
TEXT
  8
3
  40
30
  5
85CA
  62
0
  72
0
  71
0
 10
1418.35
 20
1284.34
 30
0.000000
  1
MAX
  0
TEXT
  8
3
  40
30
  5
85CB
  62
0
  72
0
  71
0
 10
1418.35
 20
1245.34
 30
0.000000
  1
500
  0
POINT
  5
8564
  8
DEFPOINTS
 62
     0
 10
1686.2231718283231
 20
1268.6212114178561
 30
0.0
  0
POINT
  5
8565
  8
DEFPOINTS
 62
     0
 10
1270.4781214330251
 20
1166.952142837029
 30
0.0
  0
POINT
  5
8566
  8
DEFPOINTS
 62
     0
 10
1270.4781214330251
 20
1287.435661688887
 30
0.0
  0
ENDBLK
  5
83B4
  8
0
  0
BLOCK
  8
0
  2
*D9
 70
     1
 10
0.0
 20
0.0
 30
0.0
  3
*D9
  1

  0
LINE
  5
8567
  8
3
 62
     0
 10
951.10444719723307
 20
1193.295863458341
 30
0.0
 11
951.10444719723307
 21
1246.8151049415751
 31
0.0
  0
LINE
  5
8568
  8
3
 62
     0
 10
791.10444719723307
 20
1195.552236248001
 30
0.0
 11
791.10444719723307
 21
1246.8151049415751
 31
0.0
  0
LINE
  5
8569
  8
3
 62
     0
 10
931.10444719723318
 20
1236.8151049415751
 30
0.0
 11
811.10444719723307
 21
1236.8151049415751
 31
0.0
  0
INSERT
  5
856A
  8
3
 62
     0
  2
_OPEN
 10
951.10444719723307
 20
1236.8151049415751
 30
0.0
 41
20.0
 42
20.0
 43
20.0
  0
INSERT
  5
856B
  8
3
 62
     0
  2
_OPEN
 10
791.10444719723307
 20
1236.8151049415751
 30
0.0
 41
20.0
 42
20.0
 43
20.0
 50
180.0
  0
TEXT
  8
3
  40
30
  5
85CC
  62
0
  72
0
  71
0
 10
811.104
 20
1208.72
 30
0.000000
  1
160
  0
POINT
  5
856D
  8
DEFPOINTS
 62
     0
 10
951.10444719723307
 20
1188.295863458341
 30
0.0
  0
POINT
  5
856E
  8
DEFPOINTS
 62
     0
 10
791.10444719723307
 20
1190.552236248001
 30
0.0
  0
POINT
  5
856F
  8
DEFPOINTS
 62
     0
 10
791.10444719723307
 20
1236.8151049415751
 30
0.0
  0
ENDBLK
  5
8244
  8
0
  0
BLOCK
  8
0
  2
*D10
 70
     1
 10
0.0
 20
0.0
 30
0.0
  3
*D10
  1

  0
LINE
  5
8570
  8
3
 62
     0
 10
791.10444719723307
 20
1195.552236248001
 30
0.0
 11
791.10444719723307
 21
1246.8151049415751
 31
0.0
  0
LINE
  5
8571
  8
3
 62
     0
 10
654.60444719723307
 20
1024.496172452767
 30
0.0
 11
654.60444719723307
 21
1246.8151049415751
 31
0.0
  0
LINE
  5
8572
  8
3
 62
     0
 10
771.10444719723307
 20
1236.8151049415751
 30
0.0
 11
674.60444719723307
 21
1236.8151049415751
 31
0.0
  0
INSERT
  5
8573
  8
3
 62
     0
  2
_OPEN
 10
791.10444719723307
 20
1236.8151049415751
 30
0.0
 41
20.0
 42
20.0
 43
20.0
  0
INSERT
  5
8574
  8
3
 62
     0
  2
_OPEN
 10
654.60444719723307
 20
1236.8151049415751
 30
0.0
 41
20.0
 42
20.0
 43
20.0
 50
180.0
  0
TEXT
  8
3
  40
30
  5
85CD
  62
0
  72
0
  71
0
 10
662.854
 20
1208.72
 30
0.000000
  1
136
  0
POINT
  5
8576
  8
DEFPOINTS
 62
     0
 10
791.10444719723307
 20
1190.552236248001
 30
0.0
  0
POINT
  5
8577
  8
DEFPOINTS
 62
     0
 10
654.60444719723307
 20
1019.496172452767
 30
0.0
  0
POINT
  5
8578
  8
DEFPOINTS
 62
     0
 10
654.60444719723307
 20
1236.8151049415751
 30
0.0
  0
ENDBLK
  5
8239
  8
0
  0
BLOCK
  8
0
  2
*D11
 70
     1
 10
0.0
 20
0.0
 30
0.0
  3
*D11
  1

  0
LINE
  5
8579
  8
3
 62
     0
 10
951.10444719723307
 20
1193.295863458341
 30
0.0
 11
951.10444719723307
 21
1304.2080427970741
 31
0.0
  0
LINE
  5
857A
  8
3
 62
     0
 10
361.10444719723318
 20
836.99617245276818
 30
0.0
 11
361.10444719723318
 21
1304.2080427970741
 31
0.0
  0
LINE
  5
857B
  8
3
 62
     0
 10
931.10444719723318
 20
1294.2080427970741
 30
0.0
 11
381.10444719723313
 21
1294.2080427970741
 31
0.0
  0
INSERT
  5
857C
  8
3
 62
     0
  2
_OPEN
 10
951.10444719723307
 20
1294.2080427970741
 30
0.0
 41
20.0
 42
20.0
 43
20.0
  0
INSERT
  5
857D
  8
3
 62
     0
  2
_OPEN
 10
361.10444719723318
 20
1294.2080427970741
 30
0.0
 41
20.0
 42
20.0
 43
20.0
 50
180.0
  0
TEXT
  8
3
  40
30
  5
85CE
  62
0
  72
0
  71
0
 10
596.104
 20
1266.11
 30
0.000000
  1
590
  0
POINT
  5
857F
  8
DEFPOINTS
 62
     0
 10
951.10444719723307
 20
1188.295863458341
 30
0.0
  0
POINT
  5
8580
  8
DEFPOINTS
 62
     0
 10
361.10444719723318
 20
831.99617245276806
 30
0.0
  0
POINT
  5
8581
  8
DEFPOINTS
 62
     0
 10
361.10444719723318
 20
1294.2080427970741
 30
0.0
  0
ENDBLK
  5
822E
  8
0
  0
BLOCK
  8
0
  2
_DOT
 70
     0
 10
0.0
 20
0.0
 30
0.0
  3
_DOT
  1

  0
LINE
  5
83C4
  8
0
  6
BYBLOCK
 62
     0
 10
0.0
 20
0.0
 30
0.0
 11
-1.0
 21
-0.0000000000000284
 31
0.0
  0
POLYLINE
  5
83C5
  8
0
  6
BYBLOCK
 62
     0
 66
     1
 10
0.0
 20
0.0
 30
0.0
 70
     1
 40
0.1666666666666666
 41
0.1666666666666666
  0
VERTEX
  5
8582
  8
0
  6
BYBLOCK
 62
     0
 10
-0.0833333333333286
 20
-0.0000000000000284
 30
0.0
 42
1.0
  0
VERTEX
  5
8583
  8
0
  6
BYBLOCK
 62
     0
 10
0.0833333333333286
 20
-0.0000000000000284
 30
0.0
 42
1.0
  0
SEQEND
  5
8584
  8
0
  6
BYBLOCK
 62
     0
  0
ENDBLK
  5
838A
  8
0
  0
BLOCK
  8
0
  2
*D13
 70
     1
 10
0.0
 20
0.0
 30
0.0
  3
*D13
  1

  0
LINE
  5
8585
  8
3
 62
     0
 10
356.10444719723301
 20
1966.6449447465691
 30
0.0
 11
285.21605910240061
 21
1966.6449447465691
 31
0.0
  0
LINE
  5
8586
  8
3
 62
     0
 10
356.10444719723267
 20
1586.6449447465691
 30
0.0
 11
285.21605910240049
 21
1586.6449447465691
 31
0.0
  0
LINE
  5
8587
  8
3
 62
     0
 10
295.21605910240061
 20
1946.6449447465691
 30
0.0
 11
295.21605910240049
 21
1606.6449447465691
 31
0.0
  0
INSERT
  5
8588
  8
3
 62
     0
  2
_OPEN
 10
295.21605910240061
 20
1966.6449447465691
 30
0.0
 41
20.0
 42
20.0
 43
20.0
 50
90.0
  0
INSERT
  5
8589
  8
3
 62
     0
  2
_OPEN
 10
295.21605910240049
 20
1586.6449447465691
 30
0.0
 41
20.0
 42
20.0
 43
20.0
 50
270.0
  0
TEXT
  8
3
  40
30
  5
85CF
  62
0
  72
0
  71
0
 10
210.216
 20
1717.85
 30
0.000000
  1
380
  0
POINT
  5
858B
  8
DEFPOINTS
 62
     0
 10
361.10444719723301
 20
1966.6449447465691
 30
0.0
  0
POINT
  5
858C
  8
DEFPOINTS
 62
     0
 10
361.10444719723267
 20
1586.6449447465691
 30
0.0
  0
POINT
  5
858D
  8
DEFPOINTS
 62
     0
 10
295.21605910240049
 20
1586.6449447465691
 30
0.0
  0
ENDBLK
  5
846E
  8
0
  0
BLOCK
  8
0
  2
*D14
 70
     1
 10
0.0
 20
0.0
 30
0.0
  3
*D14
  1

  0
LINE
  5
858E
  8
3
 62
     0
 10
361.10444719723267
 20
1581.6449447465691
 30
0.0
 11
361.10444719723267
 21
1480.699727649986
 31
0.0
  0
LINE
  5
858F
  8
3
 62
     0
 10
941.10444719723284
 20
1581.6449447465691
 30
0.0
 11
941.10444719723284
 21
1480.699727649986
 31
0.0
  0
LINE
  5
8590
  8
3
 62
     0
 10
381.10444719723267
 20
1490.6997276499851
 30
0.0
 11
921.10444719723273
 21
1490.6997276499851
 31
0.0
  0
INSERT
  5
8591
  8
3
 62
     0
  2
_OPEN
 10
361.10444719723267
 20
1490.6997276499851
 30
0.0
 41
20.0
 42
20.0
 43
20.0
 50
180.0
  0
INSERT
  5
8592
  8
3
 62
     0
  2
_OPEN
 10
941.10444719723284
 20
1490.6997276499851
 30
0.0
 41
20.0
 42
20.0
 43
20.0
  0
TEXT
  8
3
  40
30
  5
85D0
  62
0
  72
0
  71
0
 10
566.699
 20
1462.60
 30
0.000000
  1
580
  0
POINT
  5
8594
  8
DEFPOINTS
 62
     0
 10
361.10444719723267
 20
1586.6449447465691
 30
0.0
  0
POINT
  5
8595
  8
DEFPOINTS
 62
     0
 10
941.10444719723284
 20
1586.6449447465691
 30
0.0
  0
POINT
  5
8596
  8
DEFPOINTS
 62
     0
 10
941.10444719723284
 20
1490.6997276499851
 30
0.0
  0
ENDBLK
  5
847B
  8
0
  0
BLOCK
  8
0
  2
*D15
 70
     1
 10
0.0
 20
0.0
 30
0.0
  3
*D15
  1

  0
LINE
  5
8597
  8
3
 62
     0
 10
361.10444719723318
 20
786.95214283702899
 30
0.0
 11
361.10444719723318
 21
714.92816365549777
 31
0.0
  0
LINE
  5
8598
  8
3
 62
     0
 10
791.10444719723307
 20
786.99617245276795
 30
0.0
 11
791.10444719723307
 21
714.92816365549777
 31
0.0
  0
LINE
  5
8599
  8
3
 62
     0
 10
381.10444719723313
 20
724.92816365549788
 30
0.0
 11
771.10444719723307
 21
724.92816365549788
 31
0.0
  0
INSERT
  5
859A
  8
3
 62
     0
  2
_OPEN
 10
361.10444719723318
 20
724.92816365549788
 30
0.0
 41
20.0
 42
20.0
 43
20.0
 50
180.0
  0
INSERT
  5
859B
  8
3
 62
     0
  2
_OPEN
 10
791.10444719723307
 20
724.92816365549788
 30
0.0
 41
20.0
 42
20.0
 43
20.0
  0
TEXT
  8
3
  40
30
  5
85D1
  62
0
  72
0
  71
0
 10
516.104
 20
696.828
 30
0.000000
  1
430
  0
POINT
  5
859D
  8
DEFPOINTS
 62
     0
 10
361.10444719723318
 20
791.95214283702887
 30
0.0
  0
POINT
  5
859E
  8
DEFPOINTS
 62
     0
 10
791.10444719723307
 20
791.99617245276795
 30
0.0
  0
POINT
  5
859F
  8
DEFPOINTS
 62
     0
 10
791.10444719723307
 20
724.92816365549788
 30
0.0
  0
ENDBLK
  5
84DE
  8
0
  0
BLOCK
  8
0
  2
*D16
 70
     1
 10
0.0
 20
0.0
 30
0.0
  3
*D16
  1

  0
LINE
  5
85A0
  8
3
 62
     0
 10
791.10444719723307
 20
786.99617245276795
 30
0.0
 11
791.10444719723307
 21
714.92816365549777
 31
0.0
  0
LINE
  5
85A1
  8
3
 62
     0
 10
941.10444719723284
 20
786.95214283702853
 30
0.0
 11
941.10444719723284
 21
714.92816365549777
 31
0.0
  0
LINE
  5
85A2
  8
3
 62
     0
 10
811.10444719723307
 20
724.92816365549788
 30
0.0
 11
921.10444719723273
 21
724.92816365549788
 31
0.0
  0
INSERT
  5
85A3
  8
3
 62
     0
  2
_OPEN
 10
791.10444719723307
 20
724.92816365549788
 30
0.0
 41
20.0
 42
20.0
 43
20.0
 50
180.0
  0
INSERT
  5
85A4
  8
3
 62
     0
  2
_OPEN
 10
941.10444719723284
 20
724.92816365549788
 30
0.0
 41
20.0
 42
20.0
 43
20.0
  0
TEXT
  8
3
  40
30
  5
85D2
  62
0
  72
0
  71
0
 10
806.104
 20
696.828
 30
0.000000
  1
150
  0
POINT
  5
85A6
  8
DEFPOINTS
 62
     0
 10
791.10444719723307
 20
791.99617245276795
 30
0.0
  0
POINT
  5
85A7
  8
DEFPOINTS
 62
     0
 10
941.10444719723284
 20
791.95214283702853
 30
0.0
  0
POINT
  5
85A8
  8
DEFPOINTS
 62
     0
 10
941.10444719723284
 20
724.92816365549788
 30
0.0
  0
ENDBLK
  5
84EB
  8
0
  0
BLOCK
  8
0
  2
*D17
 70
     1
 10
0.0
 20
0.0
 30
0.0
  3
*D17
  1

  0
LINE
  5
85A9
  8
3
 62
     0
 10
1281.2231718283219
 20
786.94617775090956
 30
0.0
 11
1281.2231718283219
 21
714.92816365549777
 31
0.0
  0
LINE
  5
85AA
  8
3
 62
     0
 10
1661.2231718283219
 20
786.94617775090956
 30
0.0
 11
1661.2231718283219
 21
714.92816365549777
 31
0.0
  0
LINE
  5
85AB
  8
3
 62
     0
 10
1301.2231718283219
 20
724.92816365549788
 30
0.0
 11
1641.2231718283231
 21
724.92816365549788
 31
0.0
  0
INSERT
  5
85AC
  8
3
 62
     0
  2
_OPEN
 10
1281.2231718283219
 20
724.92816365549788
 30
0.0
 41
20.0
 42
20.0
 43
20.0
 50
180.0
  0
INSERT
  5
85AD
  8
3
 62
     0
  2
_OPEN
 10
1661.2231718283219
 20
724.92816365549788
 30
0.0
 41
20.0
 42
20.0
 43
20.0
  0
TEXT
  8
3
  40
30
  5
85D3
  62
0
  72
0
  71
0
 10
1411.22
 20
696.828
 30
0.000000
  1
380
  0
POINT
  5
85AF
  8
DEFPOINTS
 62
     0
 10
1281.2231718283219
 20
791.94617775090956
 30
0.0
  0
POINT
  5
85B0
  8
DEFPOINTS
 62
     0
 10
1661.2231718283219
 20
791.94617775090956
 30
0.0
  0
POINT
  5
85B1
  8
DEFPOINTS
 62
     0
 10
1661.2231718283219
 20
724.92816365549788
 30
0.0
  0
ENDBLK
  5
84F8
  8
0
  0
BLOCK
  8
0
  2
*D18
 70
     1
 10
0.0
 20
0.0
 30
0.0
  3
*D18
  1

  0
LINE
  5
85B2
  8
3
 62
     0
 10
1661.2231718283219
 20
786.94617775090956
 30
0.0
 11
1661.2231718283219
 21
714.92816365549777
 31
0.0
  0
LINE
  5
85B3
  8
3
 62
     0
 10
1686.2231718283219
 20
786.94617775090956
 30
0.0
 11
1686.2231718283219
 21
714.92816365549777
 31
0.0
  0
LINE
  5
85B4
  8
3
 62
     0
 10
1641.2231718283231
 20
724.92816365549788
 30
0.0
 11
1621.2231718283219
 21
724.92816365549788
 31
0.0
  0
LINE
  5
85B5
  8
3
 62
     0
 10
1706.223171828321
 20
724.92816365549788
 30
0.0
 11
1794.7946003997499
 21
724.92816365549788
 31
0.0
  0
LINE
  5
85B6
  8
3
 62
     0
 10
1661.2231718283219
 20
724.92816365549788
 30
0.0
 11
1686.2231718283219
 21
724.92816365549788
 31
0.0
  0
INSERT
  5
85B7
  8
3
 62
     0
  2
_OPEN
 10
1661.2231718283219
 20
724.92816365549788
 30
0.0
 41
20.0
 42
20.0
 43
20.0
  0
INSERT
  5
85B8
  8
3
 62
     0
  2
_OPEN
 10
1686.2231718283219
 20
724.92816365549788
 30
0.0
 41
20.0
 42
20.0
 43
20.0
 50
180.0
  0
TEXT
  8
3
  40
30
  5
85D4
  62
0
  72
0
  71
0
 10
1700.51
 20
696.828
 30
0.000000
  1
25
  0
POINT
  5
85BA
  8
DEFPOINTS
 62
     0
 10
1661.2231718283219
 20
791.94617775090956
 30
0.0
  0
POINT
  5
85BB
  8
DEFPOINTS
 62
     0
 10
1686.2231718283219
 20
791.94617775090956
 30
0.0
  0
POINT
  5
85BC
  8
DEFPOINTS
 62
     0
 10
1686.2231718283219
 20
724.92816365549788
 30
0.0
  0
ENDBLK
  5
8507
  8
0
  0
BLOCK
  8
0
  2
*D19
 70
     1
 10
0.0
 20
0.0
 30
0.0
  3
*D19
  1

  0
LINE
  5
85BD
  8
3
 62
     0
 10
956.10444719723318
 20
1188.295863458341
 30
0.0
 11
1143.9139480041649
 21
1188.295863458341
 31
0.0
  0
LINE
  5
85BE
  8
3
 62
     0
 10
946.10444719723273
 20
791.99617245276795
 30
0.0
 11
1143.9139480041649
 21
791.99617245276795
 31
0.0
  0
LINE
  5
85BF
  8
3
 62
     0
 10
1133.9139480041649
 20
1168.295863458341
 30
0.0
 11
1133.9139480041649
 21
811.99617245276795
 31
0.0
  0
INSERT
  5
85C0
  8
3
 62
     0
  2
_OPEN
 10
1133.9139480041649
 20
1188.295863458341
 30
0.0
 41
20.0
 42
20.0
 43
20.0
 50
90.0
  0
INSERT
  5
85C1
  8
3
 62
     0
  2
_OPEN
 10
1133.9139480041649
 20
791.99617245276795
 30
0.0
 41
20.0
 42
20.0
 43
20.0
 50
270.0
  0
TEXT
  8
3
  40
30
  5
85D5
  62
0
  72
0
  71
0
 10
1048.91
 20
937.046
 30
0.000000
  1
396
  0
POINT
  5
85C3
  8
DEFPOINTS
 62
     0
 10
951.10444719723307
 20
1188.295863458341
 30
0.0
  0
POINT
  5
85C4
  8
DEFPOINTS
 62
     0
 10
941.10444719723284
 20
791.99617245276795
 30
0.0
  0
POINT
  5
85C5
  8
DEFPOINTS
 62
     0
 10
1133.9139480041649
 20
791.99617245276795
 30
0.0
  0
ENDBLK
  5
8518
  8
0
  0
ENDSEC
  0
SECTION
  2
ENTITIES
  0
INSERT
  5
7C06
  8
0
  2
YA_N
 10
2724.1612064906581
 20
327.02075517693441
 30
0.0
  0
INSERT
  5
7C07
  8
0
  2
YA_N
 10
2724.1612064906581
 20
327.02075517693441
 30
0.0
  0
LINE
  5
7C09
  8
1
 10
1523.923171828322
 20
831.94617775090956
 30
0.0
 11
1323.923171828322
 21
831.94617775090956
 31
0.0
  0
LINE
  5
7C0A
  8
1
 10
1281.2231718283219
 20
831.94617775090967
 30
0.0
 11
1661.2231718283219
 21
831.94617775090933
 31
0.0
  0
LINE
  5
7C0B
  8
1
 10
1281.2231718283219
 20
791.94617775090956
 30
0.0
 11
1661.2231718283219
 21
791.94617775090956
 31
0.0
  0
LINE
  5
7C0C
  8
1
 10
1348.923171828322
 20
973.14617775090915
 30
0.0
 11
1598.923171828322
 21
973.14617775090937
 31
0.0
  0
LINE
  5
7C0D
  8
1
 10
1348.923171828322
 20
975.44617775090956
 30
0.0
 11
1598.923171828322
 21
975.44617775090956
 31
0.0
  0
LINE
  5
7C0E
  8
2
 10
1287.969664107778
 20
1011.946177750909
 30
0.0
 11
1782.7046958081501
 21
1011.946177750909
 31
0.0
  0
LINE
  5
7C0F
  8
1
 10
917.71875884281474
 20
1166.952142837029
 30
0.0
 11
387.71875884281462
 21
1166.952142837029
 31
0.0
  0
LINE
  5
7C10
  8
1
 10
803.21608777456402
 20
968.65671972750215
 30
0.0
 11
485.90756345841532
 21
889.02573023299863
 31
0.0
  0
LINE
  5
7C11
  8
1
 10
781.64356972363328
 20
1055.99039704452
 30
0.0
 11
459.5411525072779
 21
995.76689139824293
 31
0.0
  0
LINE
  5
7C12
  8
1
 10
387.71875884281462
 20
1166.952142837029
 30
0.0
 11
387.71875884281462
 21
831.95214283702899
 31
0.0
  0
LINE
  5
7C13
  8
1
 10
376.10444719723341
 20
831.99617245276806
 30
0.0
 11
566.10444719723375
 21
831.99617245276806
 31
0.0
  0
LINE
  5
7C14
  8
1
 10
361.10444719723318
 20
831.99617245276806
 30
0.0
 11
361.10444719723318
 21
791.95214283702887
 31
0.0
  0
CIRCLE
  5
7C15
  8
1
 10
471.10444719723341
 20
941.99617245276806
 30
0.0
 40
55.0
  0
LINE
  5
7C16
  8
2
 10
568.26299267288016
 20
941.99617245276806
 30
0.0
 11
363.59032262717932
 21
941.99617245276806
 31
0.0
  0
LINE
  5
7C17
  8
2
 10
471.10444719723341
 20
1051.6265945344439
 30
0.0
 11
471.10444719723341
 21
814.00177429325845
 31
0.0
  0
LINE
  5
7C18
  8
1
 10
1355.923171828322
 20
973.14617775090915
 30
0.0
 11
1355.923171828322
 21
831.94617775090956
 31
0.0
  0
LINE
  5
7C19
  8
2
 10
791.10444719723307
 20
1190.552236248001
 30
0.0
 11
791.10444719723307
 21
791.99617245276795
 31
0.0
  0
LINE
  5
7C1A
  8
1
 10
691.10444719723307
 20
972.29617245276825
 30
0.0
 11
691.10444719723307
 21
831.95214283702876
 31
0.0
  0
LINE
  5
7C1B
  8
1
 10
917.71875884281474
 20
831.95214283702899
 30
0.0
 11
917.71875884281474
 21
1166.952142837029
 31
0.0
  0
LINE
  5
7C1C
  8
1
 10
891.10444719723307
 20
972.29617245276825
 30
0.0
 11
891.10444719723307
 21
831.95214283702842
 31
0.0
  0
LINE
  5
7C1D
  8
1
 10
1345.4781214330251
 20
840.94617775090967
 30
0.0
 11
1345.4781214330251
 21
873.9229667572489
 31
0.0
  0
LINE
  5
7C1E
  8
1
 10
1270.4781214330251
 20
840.94617775090967
 30
0.0
 11
1270.4781214330251
 21
1166.952142837029
 31
0.0
  0
LINE
  5
7C1F
  8
1
 10
1345.4781214330251
 20
840.94617775090956
 30
0.0
 11
1270.4781214330251
 21
840.94617775090956
 31
0.0
  0
LINE
  5
7C20
  8
1
 10
941.10444719723284
 20
831.99617245276795
 30
0.0
 11
941.10444719723284
 21
791.95214283702853
 31
0.0
  0
POINT
  5
7C21
  8
1
 10
1321.2231718283219
 20
791.94617775090956
 30
0.0
  0
POINT
  5
7C22
  8
1
 10
1353.623171828322
 20
831.94617775090956
 30
0.0
  0
POINT
  5
7C23
  8
1
 10
1353.623171828322
 20
831.94617775090956
 30
0.0
  0
ARC
  5
7C24
  8
1
 10
783.60444719723307
 20
1019.496172452767
 30
0.0
 40
129.0
 50
180.0
 51
270.0
  0
ARC
  5
7C25
  8
1
 10
783.60444719723307
 20
1004.496172452767
 30
0.0
 40
114.0
 50
270.0
 51
0.0
  0
LINE
  5
7C26
  8
2
 10
967.85069119457455
 20
1011.996172452768
 30
0.0
 11
614.93213443399281
 21
1011.996172452768
 31
0.0
  0
LINE
  5
7C27
  8
1
 10
698.804447197233
 20
1075.4961777509091
 30
0.0
 11
698.804447197233
 21
975.49617245276795
 31
0.0
  0
LINE
  5
7C28
  8
1
 10
692.804447197233
 20
1075.4961777509091
 30
0.0
 11
692.804447197233
 21
975.49617245276795
 31
0.0
  0
LINE
  5
7C29
  8
1
 10
889.4044471972328
 20
1075.4961777509091
 30
0.0
 11
889.40444719723337
 21
975.49617245276795
 31
0.0
  0
LINE
  5
7C2A
  8
1
 10
883.40444719723303
 20
1075.4961777509091
 30
0.0
 11
883.40444719723325
 21
975.49617245276795
 31
0.0
  0
LINE
  5
7C2B
  8
1
 10
931.10444719723262
 20
1165.996172452768
 30
0.0
 11
793.88440420959785
 21
1163.418794698872
 31
0.0
  0
ARC
  5
7C2C
  8
1
 10
798.60444719723318
 20
1019.496172452767
 30
0.0
 40
144.0
 50
90.000000000001833
 51
180.0
  0
CIRCLE
  5
7C2D
  8
1
 10
791.10444719723307
 20
901.95214283702865
 30
0.0
 40
60.0
  0
LINE
  5
7C2F
  8
1
 10
896.10444719723318
 20
972.29617245276825
 30
0.0
 11
686.10444719723318
 21
972.29617245276825
 31
0.0
  0
LINE
  5
7C30
  8
1
 10
896.10444719723318
 20
975.49617245276795
 30
0.0
 11
686.10444719723318
 21
975.49617245276795
 31
0.0
  0
CIRCLE
  5
7C31
  8
1
 10
791.10444719723307
 20
1011.996172452768
 30
0.0
 40
45.0
  0
LINE
  5
7C32
  8
1
 10
716.10444719723307
 20
978.696172452768
 30
0.0
 11
866.10444719723307
 21
978.696172452768
 31
0.0
  0
LINE
  5
7C33
  8
1
 10
866.10444719723307
 20
975.49617245276795
 30
0.0
 11
716.10444719723307
 21
975.49617245276795
 31
0.0
  0
LINE
  5
7C34
  8
1
 10
686.10444719723318
 20
975.49617245276795
 30
0.0
 11
686.10444719723318
 21
972.29617245276825
 31
0.0
  0
LINE
  5
7C35
  8
1
 10
716.10444719723307
 20
975.49617245276795
 30
0.0
 11
716.10444719723307
 21
978.696172452768
 31
0.0
  0
LINE
  5
7C36
  8
1
 10
866.10444719723307
 20
978.696172452768
 30
0.0
 11
866.10444719723307
 21
975.49617245276795
 31
0.0
  0
LINE
  5
7C37
  8
1
 10
896.10444719723318
 20
975.49617245276795
 30
0.0
 11
896.10444719723318
 21
972.29617245276825
 31
0.0
  0
LINE
  5
7C38
  8
1
 10
931.10444719723318
 20
1188.295863458341
 30
0.0
 11
931.10444719723318
 21
983.69617245276766
 31
0.0
  0
LINE
  5
7C39
  8
1
 10
951.10444719723307
 20
1188.295863458341
 30
0.0
 11
951.10444719723307
 21
983.69617245276766
 31
0.0
  0
LINE
  5
7C3A
  8
1
 10
931.10444719723318
 20
1188.295863458341
 30
0.0
 11
951.10444719723307
 21
1188.295863458341
 31
0.0
  0
LINE
  5
7C3B
  8
1
 10
698.804447197233
 20
1075.4961777509091
 30
0.0
 11
692.804447197233
 21
1075.4961777509091
 31
0.0
  0
CIRCLE
  5
7C3C
  8
1
 10
899.07708028704519
 20
1034.996172452767
 30
0.0
 40
6.0
  0
LINE
  5
7C3D
  8
1
 10
931.10444719723318
 20
1005.996172452767
 30
0.0
 11
897.59308290861145
 21
1005.996172452767
 31
0.0
  0
ARC
  5
7C3E
  8
1
 10
798.60444719723318
 20
1004.496172452767
 30
0.0
 40
99.0
 50
0.0
 51
16.886466997561531
  0
LINE
  5
7C3F
  8
1
 10
951.10444719723307
 20
983.69617245276766
 30
0.0
 11
931.10444719723318
 21
983.69617245276766
 31
0.0
  0
LINE
  5
7C40
  8
1
 10
889.4044471972328
 20
1075.4961777509091
 30
0.0
 11
883.40444719723303
 21
1075.4961777509091
 31
0.0
  0
LINE
  5
7C41
  8
1
 10
1322.9781214330251
 20
1056.9461777509091
 30
0.0
 11
1322.9781214330251
 21
887.94617775090956
 31
0.0
  0
LINE
  5
7C42
  8
1
 10
1292.9781214330251
 20
1056.9461777509091
 30
0.0
 11
1292.9781214330251
 21
887.94617775090956
 31
0.0
  0
LINE
  5
7C43
  8
2
 10
1289.5858732238551
 20
941.95214283702887
 30
0.0
 11
1361.6253701298151
 21
941.95214283702887
 31
0.0
  0
LINE
  5
7C44
  8
1
 10
1322.9781214330251
 20
887.94617775090956
 30
0.0
 11
1292.9781214330251
 21
887.94617775090956
 31
0.0
  0
LINE
  5
7C45
  8
1
 10
1332.9781214330251
 20
1001.946177750909
 30
0.0
 11
1598.923171828322
 21
1001.946177750909
 31
0.0
  0
LINE
  5
7C46
  8
1
 10
1332.9781214330251
 20
1021.946177750909
 30
0.0
 11
1598.923171828322
 21
1021.946177750909
 31
0.0
  0
LINE
  5
7C47
  8
1
 10
1332.9781214330251
 20
1021.946177750909
 30
0.0
 11
1332.9781214330251
 21
1001.946177750909
 31
0.0
  0
LINE
  5
7C48
  8
1
 10
1322.9781214330251
 20
997.94617775090956
 30
0.0
 11
1292.9781214330251
 21
997.94617775090956
 31
0.0
  0
LINE
  5
7C49
  8
1
 10
1292.9781214330251
 20
966.94617775090967
 30
0.0
 11
1322.9781214330251
 21
966.94617775090967
 31
0.0
  0
LINE
  5
7C4A
  8
1
 10
1348.923171828322
 20
975.44617775090956
 30
0.0
 11
1348.923171828322
 21
973.14617775090915
 31
0.0
  0
LINE
  5
7C4B
  8
1
 10
1322.9781214330251
 20
1002.446177750909
 30
0.0
 11
1332.9781214330251
 21
1002.446177750909
 31
0.0
  0
LINE
  5
7C4C
  8
1
 10
1292.9781214330251
 20
1056.9461777509091
 30
0.0
 11
1322.9781214330251
 21
1056.9461777509091
 31
0.0
  0
LINE
  5
7C4D
  8
1
 10
1322.9781214330251
 20
1021.446177750909
 30
0.0
 11
1332.9781214330251
 21
1021.446177750909
 31
0.0
  0
LINE
  5
7C4E
  8
1
 10
1270.4781214330251
 20
1166.952142837029
 30
0.0
 11
1345.4781214330251
 21
1166.952142837029
 31
0.0
  0
LINE
  5
7C53
  8
1
 10
401.10444719723267
 20
1586.6449447465691
 30
0.0
 11
401.10444719723267
 21
1658.6484471195099
 31
0.0
  0
LINE
  5
7C54
  8
1
 10
361.10444719723267
 20
1626.64494474657
 30
0.0
 11
361.10444719723262
 21
1926.6449447465691
 31
0.0
  0
LINE
  5
7C55
  8
2
 10
471.10444719723313
 20
1590.699438078514
 30
0.0
 11
471.10444719723358
 21
1932.9740723434411
 31
0.0
  0
LINE
  5
7C56
  8
1
 10
361.10444719723267
 20
1586.6449447465691
 30
0.0
 11
361.10444719723267
 21
1626.6449447465691
 31
0.0
  0
LINE
  5
7C57
  8
1
 10
361.10444719723262
 20
1926.6449447465691
 30
0.0
 11
361.10444719723301
 21
1966.6449447465679
 31
0.0
  0
LINE
  5
7C58
  8
2
 10
791.10444719723307
 20
1593.2753422401379
 30
0.0
 11
791.10444719723398
 21
2073.3896758611281
 31
0.0
  0
LINE
  5
7C59
  8
1
 10
941.10444719723284
 20
1586.6449447465691
 30
0.0
 11
941.10444719723284
 21
1910.1484471195099
 31
0.0
  0
LINE
  5
7C5A
  8
1
 10
901.10444719723273
 20
1586.6449447465691
 30
0.0
 11
901.10444719723273
 21
1930.1484471195099
 31
0.0
  0
LINE
  5
7C5D
  8
1
 10
1623.923171828322
 20
875.94617775090956
 30
0.0
 11
1623.923171828322
 21
831.86336818007237
 31
0.0
  0
LINE
  5
7C5E
  8
2
 10
1686.2231718283231
 20
1227.2311352702129
 30
0.0
 11
1686.2231718283219
 21
791.94617775090956
 31
0.0
  0
LINE
  5
7C5F
  8
1
 10
1770.2231718283219
 20
923.94617775090967
 30
0.0
 11
1750.2231718283231
 21
923.94617775090967
 31
0.0
  0
LINE
  5
7C60
  8
1
 10
1603.923171828322
 20
1075.4961777509091
 30
0.0
 11
1603.923171828322
 21
1011.946177750909
 31
0.0
  0
LINE
  5
7C61
  8
1
 10
1750.2231718283231
 20
983.69617245276788
 30
0.0
 11
1750.2231718283231
 21
900.94617775090978
 31
0.0
  0
LINE
  5
7C63
  8
1
 10
1746.2231718283219
 20
1165.9461777509091
 30
0.0
 11
1746.2231718283219
 21
1020.296172452768
 31
0.0
  0
LINE
  5
7C64
  8
1
 10
1626.2231718283219
 20
1165.9461777509091
 30
0.0
 11
1626.2231718283219
 21
1020.296172452768
 31
0.0
  0
LINE
  5
7C67
  8
1
 10
1746.2231718283219
 20
1020.296172452768
 30
0.0
 11
1746.2231718283219
 21
1005.946177750909
 31
0.0
  0
LINE
  5
7C68
  8
1
 10
1626.2231718283219
 20
1020.296172452768
 30
0.0
 11
1626.223171828321
 21
1005.946177750909
 31
0.0
  0
LINE
  5
7C6A
  8
1
 10
1623.923171828322
 20
875.99617245276818
 30
0.0
 11
1748.523171828323
 21
875.99617245276841
 31
0.0
  0
LINE
  5
7C6B
  8
1
 10
1623.923171828322
 20
875.94617775090967
 30
0.0
 11
1626.2231718283219
 21
875.94617775090978
 31
0.0
  0
LINE
  5
7C6C
  8
1
 10
1746.2231718283219
 20
875.94617775090978
 30
0.0
 11
1748.523171828323
 21
875.94617775091001
 31
0.0
  0
LINE
  5
7C6D
  8
1
 10
1750.2231718283231
 20
923.94617775090967
 30
0.0
 11
1750.2231718283231
 21
903.94617775090956
 31
0.0
  0
LINE
  5
7C6E
  8
1
 10
1748.523171828323
 20
900.94617775090967
 30
0.0
 11
1750.2231718283231
 21
900.94617775090956
 31
0.0
  0
LINE
  5
7C6F
  8
1
 10
1603.923171828322
 20
1011.946177750909
 30
0.0
 11
1603.923171828322
 21
1011.946177750909
 31
0.0
  0
LINE
  5
7C70
  8
1
 10
1626.2231718283219
 20
1020.296172452768
 30
0.0
 11
1626.2231718283219
 21
1015.930200643512
 31
0.0
  0
LINE
  5
7C71
  8
1
 10
1746.2231718283219
 20
1020.296172452768
 30
0.0
 11
1746.2231718283219
 21
1019.333585208534
 31
0.0
  0
LINE
  5
7C73
  8
1
 10
1598.9231718283229
 20
1075.4961777509091
 30
0.0
 11
1603.923171828322
 21
1075.4961777509091
 31
0.0
  0
LINE
  5
7C74
  8
1
 10
1603.923171828322
 20
1188.295863458341
 30
0.0
 11
1603.923171828322
 21
983.69617245276811
 31
0.0
  0
POINT
  5
7C75
  8
1
 10
1686.2231718283231
 20
1164.06281017694
 30
0.0
  0
LINE
  5
7C76
  8
1
 10
1753.2231718283219
 20
983.69617245276788
 30
0.0
 11
1753.2231718283219
 21
923.94617775090967
 31
0.0
  0
LINE
  5
7C77
  8
1
 10
1768.5231718283219
 20
1188.295863458341
 30
0.0
 11
1768.5231718283251
 21
983.69617245276766
 31
0.0
  0
ARC
  5
7C78
  8
1
 10
471.10444719723341
 20
941.99617245276806
 30
0.0
 40
85.000007999999994
 50
180.0
 51
244.08227400000001
  0
ARC
  5
7C79
  8
1
 10
471.10444719723341
 20
941.99617245276806
 30
0.0
 40
85.0
 50
295.8755339999999
 51
180.0
  0
LINE
  5
7C7A
  8
1
 10
508.19994619723337
 20
865.5452444527682
 30
0.0
 11
433.9526381972334
 21
865.5452444527682
 31
0.0
  0
LINE
  5
7C7B
  8
1
 10
552.8790447629973
 20
861.99617245276795
 30
0.0
 11
533.42761519723331
 21
884.1776684527681
 31
0.0
  0
LINE
  5
7C7C
  8
1
 10
548.6044471972333
 20
861.99617245276818
 30
0.0
 11
513.60444719723341
 21
861.99617245276818
 31
0.0
  0
LINE
  5
7C7D
  8
1
 10
389.3299385226386
 20
861.99617245276818
 30
0.0
 11
408.78313919723342
 21
884.17981045276815
 31
0.0
  0
LINE
  5
7C7E
  8
1
 10
393.60444719723341
 20
861.99617245276818
 30
0.0
 11
428.60444719723341
 21
861.99617245276818
 31
0.0
  0
LINE
  5
7C7F
  8
1
 10
368.6044471972333
 20
861.99617245276818
 30
0.0
 11
471.10444719723341
 21
861.99617245276818
 31
0.0
  0
LINE
  5
7C80
  8
1
 10
368.6044471972333
 20
861.99617245276818
 30
0.0
 11
363.60444719723341
 21
831.99617245276806
 31
0.0
  0
LINE
  5
7C81
  8
1
 10
573.6044471972333
 20
861.99617245276795
 30
0.0
 11
578.60444719723341
 21
831.99617245276795
 31
0.0
  0
LINE
  5
7C82
  8
1
 10
471.10444719723341
 20
861.99617245276818
 30
0.0
 11
573.6044471972333
 21
861.99617245276795
 31
0.0
  0
LINE
  5
7C83
  8
1
 10
655.10444719723341
 20
1966.6449447465691
 30
0.0
 11
361.10444719723301
 21
1966.6449447465691
 31
0.0
  0
LINE
  5
7C84
  8
1
 10
941.10444719723284
 20
1586.6449447465691
 30
0.0
 11
361.10444719723267
 21
1586.6449447465691
 31
0.0
  0
DIMENSION
  5
7C89
  8
3
  2
*D2
 10
1005.946725414503
 20
1005.996172452767
 30
0.0
 11
980.94672541450279
 21
1085.996172452768
 31
0.0
 70
     0
 13
931.10444719723318
 23
1165.996172452768
 33
0.0
 14
931.10444719723318
 24
1005.996172452767
 34
0.0
 50
90.0
1001
ACAD
1000
DSTYLE
1002
{
1070
   287
1070
     3
1070
    40
1040
10.0
1070
   143
1040
0.039
1070
   172
1070
     1
1070
   271
1070
     0
1070
   279
1070
     0
1070
   288
1070
     1
1002
}
  0
DIMENSION
  5
7C8A
  8
3
  2
*D3
 10
1061.820171123162
 20
1011.996172452768
 30
0.0
 11
1036.820171123162
 21
1088.996172452768
 31
0.0
 70
     0
 13
931.10444719723318
 23
1165.996172452768
 33
0.0
 14
967.85069119457455
 24
1011.996172452768
 34
0.0
 50
90.0
1001
ACAD
1000
DSTYLE
1002
{
1070
   287
1070
     3
1070
    40
1040
10.0
1070
   143
1040
0.039
1070
   172
1070
     1
1070
   271
1070
     0
1070
   279
1070
     0
1070
   288
1070
     1
1002
}
  0
LINE
  5
7C8B
  8
1
 10
941.10444719723284
 20
791.99617245276795
 30
0.0
 11
361.10444719723318
 21
791.99617245276795
 31
0.0
  0
LINE
  5
7C8C
  8
1
 10
941.10444719723216
 20
831.99617245276806
 30
0.0
 11
361.10444719723318
 21
831.99617245276806
 31
0.0
  0
DIMENSION
  5
7C8F
  8
3
  2
*D4
 10
1061.820171123162
 20
791.99617245276795
 30
0.0
 11
1036.820171123162
 21
901.99617245276795
 31
0.0
 70
     0
 13
967.85069119457455
 23
1011.996172452768
 33
0.0
 14
941.10444719723284
 24
791.99617245276795
 34
0.0
 50
90.0
1001
ACAD
1000
DSTYLE
1002
{
1070
   287
1070
     3
1070
    40
1040
10.0
1070
   143
1040
0.039
1070
   172
1070
     1
1070
   271
1070
     0
1070
   279
1070
     0
1070
   288
1070
     1
1002
}
  0
LINE
  5
7C9C
  8
1
 10
1626.223171828321
 20
1005.946177750909
 30
0.0
 11
1746.2231718283219
 21
1005.946177750909
 31
0.0
  0
LINE
  5
7C9D
  8
1
 10
1603.923171828322
 20
1188.295863458341
 30
0.0
 11
1768.5231718283219
 21
1188.295863458341
 31
0.0
  0
LINE
  5
7C9E
  8
1
 10
1626.2231718283219
 20
1165.9461777509091
 30
0.0
 11
1746.2231718283219
 21
1165.94617775091
 31
0.0
  0
LINE
  5
7C9F
  8
1
 10
1603.9231718283229
 20
983.69617245276811
 30
0.0
 11
1768.5231718283239
 21
983.69617245276788
 31
0.0
  0
LINE
  5
7CA4
  8
1
 10
1623.923171828322
 20
983.69617245276811
 30
0.0
 11
1623.923171828322
 21
875.99617245276818
 31
0.0
  0
LINE
  5
7CA5
  8
1
 10
1748.523171828323
 20
983.69617245276811
 30
0.0
 11
1748.523171828323
 21
875.99617245276841
 31
0.0
  0
LINE
  5
7CA6
  8
1
 10
1770.2231718283219
 20
1099.9461777509091
 30
0.0
 11
1770.2231718283219
 21
923.94617775090956
 31
0.0
  0
LINE
  5
7CA7
  8
1
 10
1770.2231718283219
 20
1099.9461777509091
 30
0.0
 11
1768.523171828323
 21
1099.9461777509091
 31
0.0
  0
ARC
  5
7CA8
  8
1
 10
1768.2231718283231
 20
1100.9461777509091
 30
0.0
 40
2.0
 50
0.0
 51
90.0
  0
LINE
  5
7CA9
  8
1
 10
1770.2231718283219
 20
1100.9461777509091
 30
0.0
 11
1770.2231718283219
 21
1099.9461777509091
 31
0.0
  0
LINE
  5
7CAA
  8
1
 10
1753.2231718283219
 20
905.94617775090967
 30
0.0
 11
1753.2231718283219
 21
916.94617775090967
 31
0.0
  0
LINE
  5
7CAB
  8
1
 10
1750.2231718283231
 20
903.94617775090956
 30
0.0
 11
1750.2231718283231
 21
923.94617775090967
 31
0.0
  0
LINE
  5
7CAC
  8
1
 10
1757.2231718283231
 20
920.94617775090956
 30
0.0
 11
1768.2231718283231
 21
920.94617775090956
 31
0.0
  0
LINE
  5
7CAD
  8
1
 10
1750.2231718283231
 20
923.94617775090967
 30
0.0
 11
1770.2231718283219
 21
923.94617775090967
 31
0.0
  0
ARC
  5
7CAE
  8
1
 10
1757.2231718283231
 20
916.94617775090967
 30
0.0
 40
4.0
 50
90.0
 51
180.0
  0
LINE
  5
7CAF
  8
1
 10
1770.2231718283219
 20
923.94617775090967
 30
0.0
 11
1770.2231718283219
 21
922.94617775090967
 31
0.0
  0
ARC
  5
7CB0
  8
1
 10
1768.2231718283231
 20
922.94617775090967
 30
0.0
 40
2.0
 50
270.0
 51
0.0
  0
ARC
  5
7CB1
  8
1
 10
1751.2231718283219
 20
905.94617775090967
 30
0.0
 40
2.0
 50
270.0
 51
0.0
  0
LINE
  5
7CB2
  8
1
 10
1751.2231718283219
 20
903.94617775090978
 30
0.0
 11
1750.2231718283231
 21
903.94617775090956
 31
0.0
  0
DIMENSION
  5
7CB3
  8
3
  2
*D5
 10
1850.863835637859
 20
923.94617775090956
 30
0.0
 11
1825.863835637859
 21
1011.946177750908
 31
0.0
 70
     0
 13
1748.523171828323
 23
1099.9461777509059
 33
0.0
 14
1750.2231718283231
 24
923.94617775090967
 34
0.0
 50
90.0
1001
ACAD
1000
DSTYLE
1002
{
1070
   287
1070
     3
1070
     3
1000
φ<>
1070
    40
1040
10.0
1070
   143
1040
0.039
1070
   172
1070
     1
1070
   271
1070
     0
1070
   279
1070
     0
1070
   288
1070
     1
1002
}
  0
DIMENSION
  5
7CB4
  8
3
  2
*D6
 10
1746.2231718283219
 20
1219.3261707566051
 30
0.0
 11
1686.2231718283219
 21
1246.7403441963129
 31
0.0
 70
   128
 13
1626.2231718283219
 23
1165.9461777509091
 33
0.0
 14
1746.2231718283219
 24
1165.94617775091
 34
0.0
1001
ACAD
1000
DSTYLE
1002
{
1070
   288
1070
     1
1070
   172
1070
     1
1070
    40
1040
10.0
1070
   271
1070
     0
1070
   143
1040
0.039
1002
}
  0
DIMENSION
  5
7CB5
  8
3
  2
*D7
 10
1686.2231718283231
 20
1287.435661688887
 30
0.0
 11
1718.2231718283231
 21
1311.7157051309141
 31
0.0
 70
   128
 13
1750.2231718283231
 23
983.69617245276788
 33
0.0
 14
1686.2231718283231
 24
1268.6212114178561
 34
0.0
1001
ACAD
1000
DSTYLE
1002
{
1070
   288
1070
     1
1070
   172
1070
     1
1070
    40
1040
10.0
1070
   271
1070
     0
1070
   143
1040
0.039
1002
}
  0
DIMENSION
  5
7CB6
  8
3
  2
*D8
 10
1270.4781214330251
 20
1287.435661688887
 30
0.0
 11
1478.350646630674
 21
1337.435661688887
 31
0.0
 70
     0
  1
MAX\P500
 13
1686.2231718283231
 23
1268.6212114178561
 33
0.0
 14
1270.4781214330251
 24
1166.952142837029
 34
0.0
1001
ACAD
1000
DSTYLE
1002
{
1070
   287
1070
     3
1070
    40
1040
10.0
1070
   143
1040
0.039
1070
   172
1070
     1
1070
   271
1070
     0
1070
   279
1070
     0
1070
   288
1070
     1
1002
}
  0
DIMENSION
  5
7CB7
  8
3
  2
*D9
 10
791.10444719723307
 20
1236.8151049415751
 30
0.0
 11
871.10444719723318
 21
1261.8151049415751
 31
0.0
 70
     0
 13
951.10444719723307
 23
1188.295863458341
 33
0.0
 14
791.10444719723307
 24
1190.552236248001
 34
0.0
1001
ACAD
1000
DSTYLE
1002
{
1070
   287
1070
     3
1070
    40
1040
10.0
1070
   143
1040
0.039
1070
   172
1070
     1
1070
   271
1070
     0
1070
   279
1070
     0
1070
   288
1070
     1
1002
}
  0
DIMENSION
  5
7CB8
  8
3
  2
*D10
 10
654.60444719723307
 20
1236.8151049415751
 30
0.0
 11
722.85444719723307
 21
1261.8151049415751
 31
0.0
 70
     0
  1
136
 13
791.10444719723307
 23
1190.552236248001
 33
0.0
 14
654.60444719723307
 24
1019.496172452767
 34
0.0
1001
ACAD
1000
DSTYLE
1002
{
1070
   287
1070
     3
1070
    40
1040
10.0
1070
   143
1040
0.039
1070
   172
1070
     1
1070
   271
1070
     0
1070
   279
1070
     0
1070
   288
1070
     1
1002
}
  0
DIMENSION
  5
7CB9
  8
3
  2
*D11
 10
361.10444719723318
 20
1294.2080427970741
 30
0.0
 11
656.10444719723318
 21
1319.2080427970741
 31
0.0
 70
     0
 13
951.10444719723307
 23
1188.295863458341
 33
0.0
 14
361.10444719723318
 24
831.99617245276806
 34
0.0
1001
ACAD
1000
DSTYLE
1002
{
1070
   287
1070
     3
1070
    40
1040
10.0
1070
   143
1040
0.039
1070
   172
1070
     1
1070
   271
1070
     0
1070
   279
1070
     0
1070
   288
1070
     1
1002
}
  0
LINE
  5
7CBA
  8
2
 10
976.83611074599685
 20
1991.6449447465691
 30
0.0
 11
595.97861227756403
 21
1991.6449447465691
 31
0.0
  0
LINE
  5
7CBB
  8
1
 10
951.10444719723364
 20
1910.1484471195099
 30
0.0
 11
951.10444719723398
 21
2070.1484471195099
 31
0.0
  0
LINE
  5
7CBC
  8
1
 10
655.10444719723318
 20
1930.1484471195099
 30
0.0
 11
655.10444719723364
 21
2050.1484471195099
 31
0.0
  0
LINE
  5
7CBD
  8
1
 10
931.10444719723318
 20
2050.148447119509
 30
0.0
 11
655.10444719723364
 21
2050.1484471195099
 31
0.0
  0
LINE
  5
7CBE
  8
1
 10
931.10444719723353
 20
1930.1484471195099
 30
0.0
 11
655.10444719723364
 21
1930.1484471195099
 31
0.0
  0
LINE
  5
7CBF
  8
1
 10
931.10444719723353
 20
1910.1484471195099
 30
0.0
 11
931.10444719723318
 21
2070.1484471195099
 31
0.0
  0
LINE
  5
7CC0
  8
1
 10
951.10444719723398
 20
2070.1484471195099
 30
0.0
 11
931.10444719723318
 21
2070.1484471195099
 31
0.0
  0
LINE
  5
7CC1
  8
1
 10
951.10444719723364
 20
1910.1484471195099
 30
0.0
 11
931.10444719723353
 21
1910.1484471195099
 31
0.0
  0
LINE
  5
7CC3
  8
1
 10
836.10444719723273
 20
1596.9033967242131
 30
0.0
 11
836.10444719723273
 21
1626.9033967242131
 31
0.0
  0
LINE
  5
7CC4
  8
1
 10
746.10444719723273
 20
1596.9033967242131
 30
0.0
 11
746.10444719723273
 21
1626.903396724214
 31
0.0
  0
LINE
  5
7CC5
  8
1
 10
527.09848211111421
 20
1626.903396724214
 30
0.0
 11
527.09848211111421
 21
1596.903396724214
 31
0.0
  0
LINE
  5
7CC6
  8
1
 10
417.09848211111421
 20
1626.903396724214
 30
0.0
 11
417.09848211111421
 21
1596.903396724214
 31
0.0
  0
LINE
  5
7CC9
  8
1
 10
387.71875884281462
 20
1574.403396724216
 30
0.0
 11
917.71875884281451
 21
1574.4033967242131
 31
0.0
  0
LINE
  5
7CCA
  8
1
 10
836.10444719723273
 20
1596.9033967242131
 30
0.0
 11
746.10444719723273
 21
1596.9033967242131
 31
0.0
  0
LINE
  5
7CCB
  8
1
 10
387.71875884281462
 20
1649.4033967242151
 30
0.0
 11
917.71875884281451
 21
1649.4033967242131
 31
0.0
  0
LINE
  5
7CCC
  8
1
 10
801.10444719723273
 20
1636.9033967242131
 30
0.0
 11
801.10444719723398
 21
1930.148447119511
 31
0.0
  0
LINE
  5
7CCD
  8
1
 10
781.10444719723273
 20
1636.9033967242131
 30
0.0
 11
781.10444719723364
 21
1930.1484471195099
 31
0.0
  0
LINE
  5
7CCE
  8
1
 10
801.10444719723273
 20
1636.9033967242131
 30
0.0
 11
781.10444719723273
 21
1636.9033967242131
 31
0.0
  0
LINE
  5
7CCF
  8
1
 10
836.10444719723273
 20
1626.9033967242131
 30
0.0
 11
746.10444719723273
 21
1626.903396724214
 31
0.0
  0
LINE
  5
7CD0
  8
1
 10
781.60444719723273
 20
1626.903396724214
 30
0.0
 11
781.60444719723273
 21
1636.903396724214
 31
0.0
  0
LINE
  5
7CD1
  8
1
 10
800.60444719723273
 20
1626.903396724214
 30
0.0
 11
800.60444719723273
 21
1636.903396724214
 31
0.0
  0
LINE
  5
7CD3
  8
1
 10
896.10444719723364
 20
1661.3449447465689
 30
0.0
 11
896.10444719723364
 21
1930.1484471195099
 31
0.0
  0
LINE
  5
7CD4
  8
1
 10
686.10444719723364
 20
1661.3449447465689
 30
0.0
 11
686.10444719723364
 21
1930.1484471195099
 31
0.0
  0
LINE
  5
7CD5
  8
1
 10
896.10444719723364
 20
1661.3449447465689
 30
0.0
 11
801.10444719723273
 21
1661.3449447465689
 31
0.0
  0
LINE
  5
7CD6
  8
1
 10
781.10444719723273
 20
1661.3449447465689
 30
0.0
 11
686.10444719723364
 21
1661.3449447465689
 31
0.0
  0
LINE
  5
7CD7
  8
1
 10
556.10444719723318
 20
1658.6484471195099
 30
0.0
 11
556.10444719723364
 21
1886.6484471195099
 31
0.0
  0
LINE
  5
7CD8
  8
1
 10
386.10443919723309
 20
1658.6484471195099
 30
0.0
 11
386.1044391972336
 21
1886.6484471195099
 31
0.0
  0
LINE
  5
7CD9
  8
1
 10
556.10444719723364
 20
1886.6484471195099
 30
0.0
 11
386.1044391972336
 21
1886.6484471195099
 31
0.0
  0
LINE
  5
7CDA
  8
1
 10
556.10444719723364
 20
1658.6484471195099
 30
0.0
 11
386.1044391972336
 21
1658.6484471195099
 31
0.0
  0
LINE
  5
7CDB
  8
1
 10
480.60444719723262
 20
1626.9033967242151
 30
0.0
 11
480.60444719723262
 21
1658.6484471195099
 31
0.0
  0
LINE
  5
7CDC
  8
1
 10
461.60444719723267
 20
1626.9033967242151
 30
0.0
 11
461.60444719723267
 21
1658.6484471195099
 31
0.0
  0
LINE
  5
7CDD
  8
1
 10
401.10444719723267
 20
1886.6484471195099
 30
0.0
 11
401.10444719723262
 21
1966.6449447465691
 31
0.0
  0
LINE
  5
7CE3
  8
1
 10
527.09848211111375
 20
1626.9033967242151
 30
0.0
 11
417.09848211111421
 21
1626.9033967242151
 31
0.0
  0
LINE
  5
7CE4
  8
1
 10
527.09848211111375
 20
1596.903396724214
 30
0.0
 11
417.09848211111421
 21
1596.903396724214
 31
0.0
  0
LINE
  5
7CE7
  8
1
 10
1281.2231718283219
 20
791.94617775090956
 30
0.0
 11
1281.2231718283219
 21
831.94617775090956
 31
0.0
  0
LINE
  5
7CE8
  8
1
 10
1661.2231718283219
 20
791.94617775090956
 30
0.0
 11
1661.2231718283219
 21
831.94617775090933
 31
0.0
  0
LINE
  5
7CE9
  8
1
 10
1354.7231718283199
 20
1026.9521508370281
 30
0.0
 11
1582.7231718283199
 21
1026.9521508370281
 31
0.0
  0
LINE
  5
7CEA
  8
1
 10
1354.7231718283199
 20
856.95214283702876
 30
0.0
 11
1355.923171828322
 21
856.95214283702876
 31
0.0
  0
LINE
  5
7CEB
  8
1
 10
1354.7231718283199
 20
856.9521428370283
 30
0.0
 11
1354.7231718283199
 21
973.14617775090915
 31
0.0
  0
LINE
  5
7CEC
  8
1
 10
1322.9781214330251
 20
932.45214283702921
 30
0.0
 11
1354.7231718283199
 21
932.45214283702921
 31
0.0
  0
LINE
  5
7CED
  8
1
 10
1322.9781214330251
 20
951.45214283702921
 30
0.0
 11
1354.7231718283199
 21
951.45214283702921
 31
0.0
  0
LINE
  5
7CEE
  8
1
 10
1354.7231718283199
 20
975.44617775090978
 30
0.0
 11
1354.7231718283199
 21
1001.946177750909
 31
0.0
  0
LINE
  5
7CEF
  8
1
 10
1354.7231718283199
 20
1021.946177750909
 30
0.0
 11
1354.7231718283199
 21
1026.9521508370281
 31
0.0
  0
LINE
  5
7CF0
  8
1
 10
1582.7231718283199
 20
1026.9521508370281
 30
0.0
 11
1582.7231718283199
 21
1021.946177750909
 31
0.0
  0
LINE
  5
7CF1
  8
1
 10
1746.2231718283219
 20
1165.94617775091
 30
0.0
 11
1626.223171828321
 21
1005.946177750909
 31
0.0
  0
LINE
  5
7CF2
  8
1
 10
1626.2231718283219
 20
1165.9461777509091
 30
0.0
 11
1746.2231718283219
 21
1005.946177750909
 31
0.0
  0
LINE
  5
7CF3
  8
1
 10
1598.9231718283229
 20
855.4961777509094
 30
0.0
 11
1623.923171828322
 21
855.4961777509094
 31
0.0
  0
LINE
  5
7CF4
  8
1
 10
1598.923171828322
 20
1075.4961777509091
 30
0.0
 11
1598.923171828322
 21
855.4961777509094
 31
0.0
  0
LINE
  5
8335
  8
4
 10
1850.0
 20
500.0
 30
0.0
 11
1850.0
 21
300.0
 31
0.0
  0
LINE
  5
8336
  8
4
 10
1150.0
 20
500.0
 30
0.0
 11
1150.0
 21
300.0
 31
0.0
  0
LINE
  5
8337
  8
4
 10
650.0
 20
500.0
 30
0.0
 11
650.0
 21
300.0
 31
0.0
  0
LINE
  5
833A
  8
4
 10
650.0
 20
300.0
 30
0.0
 11
1850.0
 21
300.0
 31
0.0
  0
LINE
  5
833B
  8
4
 10
650.0
 20
400.0
 30
0.0
 11
1850.0
 21
400.0
 31
0.0
  0
TEXT
  5
833C
  8
4
 10
688.50208084690155
 20
431.54302586661282
 30
0.0
 40
50.0
  1
機器名称
  0
TEXT
  5
833D
  8
4
 10
686.25810602479748
 20
321.64515673201089
 30
0.0
 40
50.0
  1
機器型番
  0
TEXT
  5
833E
  8
4
 10
1177.6787454876639
 20
422.57176895756851
 30
0.0
 40
50.0
  1
ミツヤ多翼送風機
  0
TEXT
  5
833F
  8
4
 10
1186.6544955854799
 20
317.15958427994332
 30
0.0
 40
50.0
  1
MF#1-1
  0
TEXT
  5
8341
  8
4
 10
742.05410152172396
 20
2383.4288413325148
 30
0.0
 40
53.999999999999993
  1
床置ベット
  0
TEXT
  5
8342
  8
4
 10
316.16759332944639
 20
2533.8809761992979
 30
0.0
 40
72.0
  1
遠心式片吸込片持多翼ファン
  0
LINE
  5
8343
  8
4
 10
250.0
 20
2469.408754264804
 30
0.0
 11
1850.0
 21
2469.408754264804
 31
0.0
  0
LINE
  5
8344
  8
4
 10
250.0
 20
2669.4087542648049
 30
0.0
 11
1850.0
 21
2669.4087542648049
 31
0.0
  0
LINE
  5
8345
  8
4
 10
650.0
 20
500.0
 30
0.0
 11
1850.0
 21
500.0
 31
0.0
  0
LINE
  5
8346
  8
4
 10
250.0
 20
2669.4087542648049
 30
0.0
 11
250.0
 21
2469.408754264804
 31
0.0
  0
TEXT
  5
8347
  8
4
 10
306.19526927902177
 20
2382.319477546343
 30
0.0
 40
53.999999999999993
  1
右回転右横向
  0
TEXT
  5
8348
  8
4
 10
1468.969559249289
 20
2706.0610814953088
 30
0.0
 40
56.000000000000007
  1
No.
  0
TEXT
  5
8349
  8
4
 10
1311.2960626000131
 20
2383.4288413325148
 30
0.0
 40
53.999999999999993
  1
縮尺：1/10
  0
LINE
  5
834A
  8
4
 10
1850.0
 20
2669.4087542648049
 30
0.0
 11
1850.0
 21
2469.408754264804
 31
0.0
  0
LINE
  5
834B
  8
4
 10
2100.0
 20
2950.0
 30
0.0
 11
2100.0
 21
2950.0
 31
0.0
  0
LINE
  5
834C
  8
4
 10
1440.6174223598639
 20
2681.2635831254011
 30
0.0
 11
1440.6174223598639
 21
2786.652261549752
 31
0.0
  0
LINE
  5
834D
  8
4
 10
1440.6174223598639
 20
2786.652261549752
 30
0.0
 11
1850.0
 21
2786.652261549752
 31
0.0
  0
LINE
  5
834E
  8
4
 10
1850.0
 20
2786.652261549752
 30
0.0
 11
1850.0
 21
2681.2635831254011
 31
0.0
  0
LINE
  5
834F
  8
4
 10
1850.0
 20
2681.2635831254011
 30
0.0
 11
1440.6174223598639
 21
2681.2635831254011
 31
0.0
  0
LINE
  5
8350
  8
4
 10
0.0
 20
0.0
 30
0.0
 11
0.0
 21
2950.0
 31
0.0
  0
LINE
  5
8351
  8
4
 10
0.0
 20
2950.0
 30
0.0
 11
2100.0
 21
2950.0
 31
0.0
  0
LINE
  5
8352
  8
4
 10
2100.0
 20
2950.0
 30
0.0
 11
2100.0
 21
0.0
 31
0.0
  0
LINE
  5
8353
  8
4
 10
2100.0
 20
0.0
 30
0.0
 11
0.0
 21
0.0
 31
0.0
  0
LINE
  5
83D5
  8
1
 10
1345.4781214330251
 20
1130.351900931307
 30
0.0
 11
1345.4781214330251
 21
1166.952142837029
 31
0.0
  0
LINE
  5
83DA
  8
1
 10
387.71875884281462
 20
1574.403396724216
 30
0.0
 11
387.71875884281462
 21
1649.4033967242151
 31
0.0
  0
LINE
  5
83DB
  8
1
 10
917.71875884281451
 20
1574.4033967242131
 30
0.0
 11
917.71875884281474
 21
1649.4033967242131
 31
0.0
  0
LINE
  5
844A
  8
1
 10
901.10444719723262
 20
1926.6449447465691
 30
0.0
 11
401.10444719723262
 21
1926.6449447465691
 31
0.0
  0
LINE
  5
8462
  8
1
 10
901.10444719723273
 20
1626.6449447465691
 30
0.0
 11
401.10444719723267
 21
1626.6449447465691
 31
0.0
  0
DIMENSION
  5
846F
  8
3
  2
*D13
 10
295.21605910240049
 20
1586.6449447465691
 30
0.0
 11
295.21605910240032
 21
1770.953688894821
 31
0.0
 70
   128
 13
361.10444719723301
 23
1966.6449447465691
 33
0.0
 14
361.10444719723267
 24
1586.6449447465691
 34
0.0
 50
90.0
1001
ACAD
1000
DSTYLE
1002
{
1070
   287
1070
     3
1070
    40
1040
10.0
1070
   143
1040
0.039
1070
   172
1070
     1
1070
   271
1070
     0
1070
   279
1070
     0
1070
   288
1070
     1
1002
}
  0
DIMENSION
  5
847C
  8
3
  2
*D14
 10
941.10444719723284
 20
1490.6997276499851
 30
0.0
 11
626.69883902261972
 21
1490.6997276499851
 31
0.0
 70
   128
 13
361.10444719723267
 23
1586.6449447465691
 33
0.0
 14
941.10444719723284
 24
1586.6449447465691
 34
0.0
1001
ACAD
1000
DSTYLE
1002
{
1070
   287
1070
     3
1070
    40
1040
10.0
1070
   143
1040
0.039
1070
   172
1070
     1
1070
   271
1070
     0
1070
   279
1070
     0
1070
   288
1070
     1
1002
}
  0
DIMENSION
  5
84DF
  8
3
  2
*D15
 10
791.10444719723307
 20
724.92816365549788
 30
0.0
 11
576.10444719723318
 21
749.92816365549788
 31
0.0
 70
     0
 13
361.10444719723318
 23
791.95214283702887
 33
0.0
 14
791.10444719723307
 24
791.99617245276795
 34
0.0
1001
ACAD
1000
DSTYLE
1002
{
1070
   287
1070
     3
1070
    40
1040
10.0
1070
   143
1040
0.039
1070
   172
1070
     1
1070
   271
1070
     0
1070
   279
1070
     0
1002
}
  0
DIMENSION
  5
84EC
  8
3
  2
*D16
 10
941.10444719723284
 20
724.92816365549788
 30
0.0
 11
866.10444719723296
 21
749.92816365549788
 31
0.0
 70
     0
 13
791.10444719723307
 23
791.99617245276795
 33
0.0
 14
941.10444719723284
 24
791.95214283702853
 34
0.0
1001
ACAD
1000
DSTYLE
1002
{
1070
   287
1070
     3
1070
    40
1040
10.0
1070
   143
1040
0.039
1070
   172
1070
     1
1070
   271
1070
     0
1070
   279
1070
     0
1002
}
  0
DIMENSION
  5
84F9
  8
3
  2
*D17
 10
1661.2231718283219
 20
724.92816365549788
 30
0.0
 11
1471.2231718283219
 21
749.92816365549788
 31
0.0
 70
     0
 13
1281.2231718283219
 23
791.94617775090956
 33
0.0
 14
1661.2231718283219
 24
791.94617775090956
 34
0.0
1001
ACAD
1000
DSTYLE
1002
{
1070
   287
1070
     3
1070
    40
1040
10.0
1070
   143
1040
0.039
1070
   172
1070
     1
1070
   271
1070
     0
1070
   279
1070
     0
1002
}
  0
DIMENSION
  5
8508
  8
3
  2
*D18
 10
1686.2231718283219
 20
724.92816365549788
 30
0.0
 11
1760.5088861140359
 21
749.92816365549788
 31
0.0
 70
     0
 13
1661.2231718283219
 23
791.94617775090956
 33
0.0
 14
1686.2231718283219
 24
791.94617775090956
 34
0.0
1001
ACAD
1000
DSTYLE
1002
{
1070
   287
1070
     3
1070
    40
1040
10.0
1070
   143
1040
0.039
1070
   172
1070
     1
1070
   271
1070
     0
1070
   279
1070
     0
1002
}
  0
DIMENSION
  5
8519
  8
3
  2
*D19
 10
1133.9139480041649
 20
791.99617245276795
 30
0.0
 11
1108.913948004164
 21
990.14601795555495
 31
0.0
 70
     0
 13
951.10444719723307
 23
1188.295863458341
 33
0.0
 14
941.10444719723284
 24
791.99617245276795
 34
0.0
 50
90.0
1001
ACAD
1000
DSTYLE
1002
{
1070
   287
1070
     3
1070
    40
1040
10.0
1070
   143
1040
0.039
1070
   172
1070
     1
1070
   271
1070
     0
1070
   279
1070
     0
1002
}
  0
ENDSEC
  0
EOF
