  0
SECTION
  2
HEADER
  9
$ACADVER
  1
AC1009
  9
$INSBASE
 10
0.0
 20
0.0
 30
0.0
  9
$EXTMIN
 10
0.0
 20
0.0
 30
0.0
  9
$EXTMAX
 10
2100.0
 20
2950.0
 30
0.0
  9
$LIMMIN
 10
0.0
 20
0.0
  9
$LIMMAX
 10
297.0
 20
210.0
  9
$ORTHOMODE
 70
     0
  9
$REGENMODE
 70
     1
  9
$FILLMODE
 70
     0
  9
$QTEXTMODE
 70
     0
  9
$MIRRTEXT
 70
     1
  9
$DRAGMODE
 70
     2
  9
$LTSCALE
 40
100.0
  9
$OSMODE
 70
    37
  9
$ATTMODE
 70
     1
  9
$TEXTSIZE
 40
180.0
  9
$TRACEWID
 40
0.05
  9
$TEXTSTYLE
  7
STANDARD
  9
$CLAYER
  8
3
  9
$CELTYPE
  6
BYLAYER
  9
$CECOLOR
 62
   256
  9
$DIMSCALE
 40
10.0
  9
$DIMASZ
 40
2.0
  9
$DIMEXO
 40
0.5
  9
$DIMDLI
 40
10.0
  9
$DIMRND
 40
0.0
  9
$DIMDLE
 40
0.0
  9
$DIMEXE
 40
1.0
  9
$DIMTP
 40
1.0
  9
$DIMTM
 40
1.0
  9
$DIMTXT
 40
3.0
  9
$DIMCEN
 40
0.0
  9
$DIMTSZ
 40
0.0
  9
$DIMTOL
 70
     0
  9
$DIMLIM
 70
     0
  9
$DIMTIH
 70
     0
  9
$DIMTOH
 70
     0
  9
$DIMSE1
 70
     0
  9
$DIMSE2
 70
     0
  9
$DIMTAD
 70
     1
  9
$DIMZIN
 70
     8
  9
$DIMBLK
  1

  9
$DIMASO
 70
     1
  9
$DIMSHO
 70
     1
  9
$DIMPOST
  1

  9
$DIMAPOST
  1

  9
$DIMALT
 70
     0
  9
$DIMALTD
 70
     2
  9
$DIMALTF
 40
0.039
  9
$DIMLFAC
 40
1.0
  9
$DIMTOFL
 70
     1
  9
$DIMTVP
 40
0.0
  9
$DIMTIX
 70
     0
  9
$DIMSOXD
 70
     0
  9
$DIMSAH
 70
     1
  9
$DIMBLK1
  1
OPEN
  9
$DIMBLK2
  1
OPEN
  9
$DIMSTYLE
  2
IGA
  9
$DIMCLRD
 70
     0
  9
$DIMCLRE
 70
     0
  9
$DIMCLRT
 70
     0
  9
$DIMTFAC
 40
10.0
  9
$DIMGAP
 40
1.0
  9
$LUNITS
 70
     2
  9
$LUPREC
 70
     3
  9
$SKETCHINC
 40
0.1
  9
$FILLETRAD
 40
50.0
  9
$AUNITS
 70
     0
  9
$AUPREC
 70
     0
  9
$MENU
  1
acad
  9
$ELEVATION
 40
0.0
  9
$PELEVATION
 40
0.0
  9
$THICKNESS
 40
0.0
  9
$LIMCHECK
 70
     0
  9
$BLIPMODE
 70
     0
  9
$CHAMFERA
 40
0.5
  9
$CHAMFERB
 40
0.5
  9
$SKPOLY
 70
     0
  9
$TDCREATE
 40
2451935.6528994208
  9
$TDUPDATE
 40
2454953.7493954282
  9
$TDINDWG
 40
0.0351428009
  9
$TDUSRTIMER
 40
0.0351428009
  9
$USRTIMER
 70
     1
  9
$ANGBASE
 50
0.0
  9
$ANGDIR
 70
     0
  9
$PDMODE
 70
     0
  9
$PDSIZE
 40
0.0
  9
$PLINEWID
 40
0.0
  9
$COORDS
 70
     1
  9
$SPLFRAME
 70
     0
  9
$SPLINETYPE
 70
     6
  9
$SPLINESEGS
 70
     8
  9
$ATTDIA
 70
     0
  9
$ATTREQ
 70
     1
  9
$HANDLING
 70
 10241
  9
$HANDSEED
  5
83BA
  9
$SURFTAB1
 70
     6
  9
$SURFTAB2
 70
     6
  9
$SURFTYPE
 70
     6
  9
$SURFU
 70
     6
  9
$SURFV
 70
     6
  9
$UCSNAME
  2

  9
$UCSORG
 10
0.0
 20
0.0
 30
0.0
  9
$UCSXDIR
 10
1.0
 20
0.0
 30
0.0
  9
$UCSYDIR
 10
0.0
 20
1.0
 30
0.0
  9
$PUCSNAME
  2

  9
$PUCSORG
 10
0.0
 20
0.0
 30
0.0
  9
$PUCSXDIR
 10
1.0
 20
0.0
 30
0.0
  9
$PUCSYDIR
 10
0.0
 20
1.0
 30
0.0
  9
$USERI1
 70
     0
  9
$USERI2
 70
     0
  9
$USERI3
 70
     0
  9
$USERI4
 70
     0
  9
$USERI5
 70
     0
  9
$USERR1
 40
0.0
  9
$USERR2
 40
0.0
  9
$USERR3
 40
0.0
  9
$USERR4
 40
0.0
  9
$USERR5
 40
0.0
  9
$WORLDVIEW
 70
     1
  9
$SHADEDGE
 70
     3
  9
$SHADEDIF
 70
    70
  9
$TILEMODE
 70
     1
  9
$MAXACTVP
 70
    16
  9
$PLIMCHECK
 70
     0
  9
$PEXTMIN
 10
1.0000000000000000E+020
 20
1.0000000000000000E+020
 30
1.0000000000000000E+020
  9
$PEXTMAX
 10
-1.0000000000000000E+020
 20
-1.0000000000000000E+020
 30
-1.0000000000000000E+020
  9
$PLIMMIN
 10
0.0
 20
0.0
  9
$PLIMMAX
 10
12.0
 20
9.0
  9
$UNITMODE
 70
     0
  9
$VISRETAIN
 70
     0
  9
$PLINEGEN
 70
     0
  9
$PSLTSCALE
 70
     1
  0
ENDSEC
  0
SECTION
  2
TABLES
  0
TABLE
  2
VPORT
 70
     2
  0
VPORT
  2
*ACTIVE
 70
     0
 10
0.0
 20
0.0
 11
1.0
 21
1.0
 12
3536.6099588513671
 22
1475.0000068685031
 13
0.0
 23
0.0
 14
10.0
 24
10.0
 15
10.0
 25
10.0
 16
0.0
 26
0.0
 36
1.0
 17
0.0
 27
0.0
 37
0.0
 40
2972.614883016935
 41
3.1666666666666661
 42
50.0
 43
0.0
 44
0.0
 50
0.0
 51
0.0
 71
     0
 72
   100
 73
     1
 74
     0
 75
     0
 76
     0
 77
     0
 78
     0
  0
ENDTAB
  0
TABLE
  2
LTYPE
 70
     2
  0
LTYPE
  2
CONTINUOUS
 70
     0
  3
Solid line
 72
    65
 73
     0
 40
0.0
  0
LTYPE
  2
CENTER
 70
     0
  3
____ _ ____ _ ____ _ ____ _ ____ _ ____ _ ____ 
 72
    65
 73
     4
 40
2.0
 49
1.25
 49
-0.25
 49
0.25
 49
-0.25
  0
ENDTAB
  0
TABLE
  2
LAYER
 70
     6
  0
LAYER
  2
0
 70
     0
 62
     7
  6
CONTINUOUS
  0
LAYER
  2
3
 70
     0
 62
     2
  6
CONTINUOUS
  0
LAYER
  2
2
 70
     0
 62
     3
  6
CENTER
  0
LAYER
  2
1
 70
     0
 62
     4
  6
CONTINUOUS
  0
LAYER
  2
4
 70
     0
 62
     7
  6
CONTINUOUS
  0
LAYER
  2
DEFPOINTS
 70
     0
 62
     7
  6
CONTINUOUS
  0
ENDTAB
  0
TABLE
  2
STYLE
 70
     1
  0
STYLE
  2
STANDARD
 70
     0
 40
0.0
 41
1.0
 50
0.0
 71
     0
 42
180.0
  3
simplex.shx
  4
extfont.shx
  0
ENDTAB
  0
TABLE
  2
VIEW
 70
     0
  0
ENDTAB
  0
TABLE
  2
UCS
 70
     0
  0
ENDTAB
  0
TABLE
  2
APPID
 70
     1
  0
APPID
  2
ACAD
 70
     0
  0
ENDTAB
  0
TABLE
  2
DIMSTYLE
 70
     1
  0
DIMSTYLE
  2
IGA
 70
     0
  3

  4

  5

  6
OPEN
  7
OPEN
 40
2.0
 41
2.0
 42
0.5
 43
10.0
 44
1.0
 45
0.0
 46
0.0
 47
1.0
 48
1.0
140
3.0
141
0.0
142
0.0
143
0.03937
144
1.0
145
0.0
146
10.0
147
1.0
 71
     0
 72
     0
 73
     0
 74
     0
 75
     0
 76
     0
 77
     1
 78
     8
170
     0
171
     2
172
     0
173
     1
174
     0
175
     0
176
     0
177
     0
178
     0
  0
ENDTAB
  0
ENDSEC
  0
SECTION
  2
BLOCKS
  0
BLOCK
  8
0
  2
$MODEL_SPACE
 70
     0
 10
0.0
 20
0.0
 30
0.0
  3
$MODEL_SPACE
  1

  0
ENDBLK
  5
1B
  8
0
  0
BLOCK
 67
     1
  8
0
  2
$PAPER_SPACE
 70
     0
 10
0.0
 20
0.0
 30
0.0
  3
$PAPER_SPACE
  1

  0
ENDBLK
  5
18
 67
     1
  8
0
  0
BLOCK
  8
0
  2
_OPEN
 70
     0
 10
0.0
 20
0.0
 30
0.0
  3
_OPEN
  1

  0
LINE
  5
79FD
  8
0
  6
BYBLOCK
 62
     0
 10
-1.0
 20
0.1666666666666666
 30
0.0
 11
0.0
 21
0.0
 31
0.0
  0
LINE
  5
79FE
  8
0
  6
BYBLOCK
 62
     0
 10
0.0
 20
0.0
 30
0.0
 11
-1.0
 21
-0.1666666666666666
 31
0.0
  0
LINE
  5
79FF
  8
0
  6
BYBLOCK
 62
     0
 10
0.0
 20
0.0
 30
0.0
 11
-1.0
 21
0.0
 31
0.0
  0
ENDBLK
  5
7A01
  8
0
  0
BLOCK
  8
0
  2
YA_N
 70
     0
 10
0.0
 20
0.0
 30
0.0
  3
YA_N
  1

  0
ENDBLK
  5
7A04
  8
0
  0
BLOCK
  8
0
  2
_DOT
 70
     0
 10
0.0
 20
0.0
 30
0.0
  3
_DOT
  1

  0
LINE
  5
814B
  8
0
  6
BYBLOCK
 62
     0
 10
0.0
 20
0.0
 30
0.0
 11
-1.0
 21
-0.0000000000000284
 31
0.0
  0
POLYLINE
  5
814C
  8
0
  6
BYBLOCK
 62
     0
 66
     1
 10
0.0
 20
0.0
 30
0.0
 70
     1
 40
0.1666666666666666
 41
0.1666666666666666
  0
VERTEX
  5
8365
  8
0
  6
BYBLOCK
 62
     0
 10
-0.0833333333333286
 20
-0.0000000000000284
 30
0.0
 42
1.0
  0
VERTEX
  5
8366
  8
0
  6
BYBLOCK
 62
     0
 10
0.0833333333333286
 20
-0.0000000000000284
 30
0.0
 42
1.0
  0
SEQEND
  5
8367
  8
0
  6
BYBLOCK
 62
     0
  0
ENDBLK
  5
7A3B
  8
0
  0
BLOCK
  8
0
  2
*D3
 70
     1
 10
0.0
 20
0.0
 30
0.0
  3
*D3
  1

  0
LINE
  5
8314
  8
3
 62
     0
 10
818.32863006855405
 20
968.6057090806446
 30
0.0
 11
894.10671384402258
 21
968.6057090806446
 31
0.0
  0
LINE
  5
8315
  8
3
 62
     0
 10
818.32863006855416
 20
1128.6057090806439
 30
0.0
 11
894.10671384402258
 21
1128.6057090806439
 31
0.0
  0
LINE
  5
8316
  8
3
 62
     0
 10
884.10671384402269
 20
988.60570908064471
 30
0.0
 11
884.10671384402269
 21
1108.6057090806439
 31
0.0
  0
INSERT
  5
8317
  8
3
 62
     0
  2
_OPEN
 10
884.10671384402269
 20
968.6057090806446
 30
0.0
 41
20.0
 42
20.0
 43
20.0
 50
270.0
  0
INSERT
  5
8318
  8
3
 62
     0
  2
_OPEN
 10
884.10671384402269
 20
1128.6057090806439
 30
0.0
 41
20.0
 42
20.0
 43
20.0
 50
90.0
  0
TEXT
  8
3
  40
30
  5
83A9
  62
0
  72
0
  71
0
 10
799.107
 20
1009.79
 30
0.000000
  1
160
  0
POINT
  5
831A
  8
DEFPOINTS
 62
     0
 10
813.32863006855405
 20
968.6057090806446
 30
0.0
  0
POINT
  5
831B
  8
DEFPOINTS
 62
     0
 10
813.32863006855416
 20
1128.6057090806439
 30
0.0
  0
POINT
  5
831C
  8
DEFPOINTS
 62
     0
 10
884.10671384402269
 20
1128.6057090806439
 30
0.0
  0
ENDBLK
  5
800A
  8
0
  0
BLOCK
  8
0
  2
*D4
 70
     1
 10
0.0
 20
0.0
 30
0.0
  3
*D4
  1

  0
LINE
  5
831D
  8
3
 62
     0
 10
1920.5192837192801
 20
1210.555714378786
 30
0.0
 11
2006.159947528816
 21
1210.555714378786
 31
0.0
  0
LINE
  5
831E
  8
3
 62
     0
 10
1920.5192837192801
 20
1034.555714378786
 30
0.0
 11
2006.159947528816
 21
1034.555714378786
 31
0.0
  0
LINE
  5
831F
  8
3
 62
     0
 10
1996.159947528816
 20
1190.555714378786
 30
0.0
 11
1996.159947528816
 21
1054.555714378786
 31
0.0
  0
INSERT
  5
8320
  8
3
 62
     0
  2
_OPEN
 10
1996.159947528816
 20
1210.555714378786
 30
0.0
 41
20.0
 42
20.0
 43
20.0
 50
90.0
  0
INSERT
  5
8321
  8
3
 62
     0
  2
_OPEN
 10
1996.159947528816
 20
1034.555714378786
 30
0.0
 41
20.0
 42
20.0
 43
20.0
 50
270.0
  0
TEXT
  8
3
  40
30
  5
83AA
  62
0
  72
0
  71
0
 10
1911.16
 20
1069.46
 30
0.000000
  1
φ176
  0
POINT
  5
8323
  8
DEFPOINTS
 62
     0
 10
1915.519283719279
 20
1210.555714378786
 30
0.0
  0
POINT
  5
8324
  8
DEFPOINTS
 62
     0
 10
1915.519283719279
 20
1034.555714378786
 30
0.0
  0
POINT
  5
8325
  8
DEFPOINTS
 62
     0
 10
1996.159947528816
 20
1034.555714378786
 30
0.0
  0
ENDBLK
  5
8146
  8
0
  0
BLOCK
  8
0
  2
*D5
 70
     1
 10
0.0
 20
0.0
 30
0.0
  3
*D5
  1

  0
LINE
  5
808A
  8
0
  6
BYBLOCK
 62
     0
 10
1771.519283719279
 20
1100.67729809108
 30
0.0
 11
1771.519283719279
 21
1179.021253878446
 31
0.0
  0
LINE
  5
808B
  8
0
  6
BYBLOCK
 62
     0
 10
1891.519283719279
 20
1100.6772980910789
 30
0.0
 11
1891.519283719279
 21
1179.021253878446
 31
0.0
  0
LINE
  5
808C
  8
0
  6
BYBLOCK
 62
     0
 10
1791.519283719279
 20
1169.021253878446
 30
0.0
 11
1871.519283719279
 21
1169.021253878446
 31
0.0
  0
TEXT
  5
808D
  8
3
 62
     0
 10
1795.804998004993
 20
1181.7513843525651
 30
0.0
 40
30.0
  1
120
  0
INSERT
  5
808E
  8
0
  6
BYBLOCK
 62
     0
  2
_OPEN
 10
1771.519283719279
 20
1169.021253878446
 30
0.0
 41
20.0
 42
20.0
 43
20.0
 50
180.0
  0
INSERT
  5
808F
  8
0
  6
BYBLOCK
 62
     0
  2
_OPEN
 10
1891.519283719279
 20
1169.021253878446
 30
0.0
 41
20.0
 42
20.0
 43
20.0
  0
POINT
  5
8090
  8
DEFPOINTS
  6
BYBLOCK
 62
     0
 10
1771.519283719279
 20
1095.67729809108
 30
0.0
  0
POINT
  5
8091
  8
DEFPOINTS
  6
BYBLOCK
 62
     0
 10
1891.519283719279
 20
1095.6772980910789
 30
0.0
  0
POINT
  5
8092
  8
DEFPOINTS
  6
BYBLOCK
 62
     0
 10
1891.519283719279
 20
1169.021253878446
 30
0.0
  0
ENDBLK
  5
8093
  8
0
  0
BLOCK
  8
0
  2
*D6
 70
     1
 10
0.0
 20
0.0
 30
0.0
  3
*D6
  1

  0
LINE
  5
8074
  8
0
  6
BYBLOCK
 62
     0
 10
1895.5192837192801
 20
1098.9107447611691
 30
0.0
 11
1895.5192837192801
 21
1268.4002286991461
 31
0.0
  0
LINE
  5
8075
  8
0
  6
BYBLOCK
 62
     0
 10
1831.5192837192801
 20
1223.3162945396971
 30
0.0
 11
1831.5192837192801
 21
1268.4002286991461
 31
0.0
  0
LINE
  5
8076
  8
0
  6
BYBLOCK
 62
     0
 10
1875.519283719279
 20
1258.4002286991461
 30
0.0
 11
1851.519283719279
 21
1258.4002286991461
 31
0.0
  0
TEXT
  5
8077
  8
3
 62
     0
 10
1838.5192837192801
 20
1283.4002286991461
 30
0.0
 40
30.0
  1
64
  0
INSERT
  5
8078
  8
0
  6
BYBLOCK
 62
     0
  2
_OPEN
 10
1895.5192837192801
 20
1258.4002286991461
 30
0.0
 41
20.0
 42
20.0
 43
20.0
  0
INSERT
  5
8079
  8
0
  6
BYBLOCK
 62
     0
  2
_OPEN
 10
1831.5192837192801
 20
1258.4002286991461
 30
0.0
 41
20.0
 42
20.0
 43
20.0
 50
180.0
  0
POINT
  5
807A
  8
DEFPOINTS
  6
BYBLOCK
 62
     0
 10
1895.5192837192801
 20
1093.910744761168
 30
0.0
  0
POINT
  5
807B
  8
DEFPOINTS
  6
BYBLOCK
 62
     0
 10
1831.5192837192801
 20
1218.3162945396971
 30
0.0
  0
POINT
  5
807C
  8
DEFPOINTS
  6
BYBLOCK
 62
     0
 10
1831.5192837192801
 20
1258.4002286991461
 30
0.0
  0
ENDBLK
  5
807D
  8
0
  0
BLOCK
  8
0
  2
*D7
 70
     1
 10
0.0
 20
0.0
 30
0.0
  3
*D7
  1

  0
LINE
  5
8326
  8
3
 62
     0
 10
1831.5192837192801
 20
1362.9612641573151
 30
0.0
 11
1831.5192837192801
 21
1408.0451983167641
 31
0.0
  0
LINE
  5
8327
  8
3
 62
     0
 10
1415.7742333239819
 20
1282.561679464905
 30
0.0
 11
1415.7742333239819
 21
1408.0451983167641
 31
0.0
  0
LINE
  5
8328
  8
3
 62
     0
 10
1811.5192837192801
 20
1398.0451983167641
 30
0.0
 11
1435.7742333239819
 21
1398.0451983167641
 31
0.0
  0
INSERT
  5
8329
  8
3
 62
     0
  2
_OPEN
 10
1831.5192837192801
 20
1398.0451983167641
 30
0.0
 41
20.0
 42
20.0
 43
20.0
  0
INSERT
  5
832A
  8
3
 62
     0
  2
_OPEN
 10
1415.7742333239819
 20
1398.0451983167641
 30
0.0
 41
20.0
 42
20.0
 43
20.0
 50
180.0
  0
TEXT
  8
3
  40
30
  5
83AB
  62
0
  72
0
  71
0
 10
1563.65
 20
1394.95
 30
0.000000
  1
MAX
  0
TEXT
  8
3
  40
30
  5
83AC
  62
0
  72
0
  71
0
 10
1563.65
 20
1355.95
 30
0.000000
  1
500
  0
POINT
  5
832C
  8
DEFPOINTS
 62
     0
 10
1831.5192837192801
 20
1357.9612641573151
 30
0.0
  0
POINT
  5
832D
  8
DEFPOINTS
 62
     0
 10
1415.7742333239819
 20
1277.5616794649061
 30
0.0
  0
POINT
  5
832E
  8
DEFPOINTS
 62
     0
 10
1415.7742333239819
 20
1398.0451983167641
 30
0.0
  0
ENDBLK
  5
813B
  8
0
  0
BLOCK
  8
0
  2
*D8
 70
     1
 10
0.0
 20
0.0
 30
0.0
  3
*D8
  1

  0
LINE
  5
832F
  8
3
 62
     0
 10
833.32863006855393
 20
1155.9057090806441
 30
0.0
 11
833.32863006855393
 21
1335.8588059779879
 31
0.0
  0
LINE
  5
8330
  8
3
 62
     0
 10
673.3286300685545
 20
1306.1617728758779
 30
0.0
 11
673.3286300685545
 21
1335.8588059779879
 31
0.0
  0
LINE
  5
8331
  8
3
 62
     0
 10
813.32863006855405
 20
1325.8588059779879
 30
0.0
 11
693.32863006855439
 21
1325.8588059779879
 31
0.0
  0
INSERT
  5
8332
  8
3
 62
     0
  2
_OPEN
 10
833.32863006855393
 20
1325.8588059779879
 30
0.0
 41
20.0
 42
20.0
 43
20.0
  0
INSERT
  5
8333
  8
3
 62
     0
  2
_OPEN
 10
673.3286300685545
 20
1325.8588059779879
 30
0.0
 41
20.0
 42
20.0
 43
20.0
 50
180.0
  0
TEXT
  8
3
  40
30
  5
83AD
  62
0
  72
0
  71
0
 10
693.329
 20
1297.76
 30
0.000000
  1
160
  0
POINT
  5
8335
  8
DEFPOINTS
 62
     0
 10
833.32863006855393
 20
1150.9057090806441
 30
0.0
  0
POINT
  5
8336
  8
DEFPOINTS
 62
     0
 10
673.3286300685545
 20
1301.1617728758779
 30
0.0
  0
POINT
  5
8337
  8
DEFPOINTS
 62
     0
 10
673.3286300685545
 20
1325.8588059779879
 30
0.0
  0
ENDBLK
  5
7F78
  8
0
  0
BLOCK
  8
0
  2
*D9
 70
     1
 10
0.0
 20
0.0
 30
0.0
  3
*D9
  1

  0
LINE
  5
8338
  8
3
 62
     0
 10
673.3286300685545
 20
1306.1617728758779
 30
0.0
 11
673.3286300685545
 21
1335.8588059779891
 31
0.0
  0
LINE
  5
8339
  8
3
 62
     0
 10
536.82863006855416
 20
1120.1057090806451
 30
0.0
 11
536.82863006855416
 21
1335.8588059779891
 31
0.0
  0
LINE
  5
833A
  8
3
 62
     0
 10
653.3286300685545
 20
1325.8588059779891
 30
0.0
 11
556.82863006855416
 21
1325.8588059779891
 31
0.0
  0
INSERT
  5
833B
  8
3
 62
     0
  2
_OPEN
 10
673.3286300685545
 20
1325.8588059779891
 30
0.0
 41
20.0
 42
20.0
 43
20.0
  0
INSERT
  5
833C
  8
3
 62
     0
  2
_OPEN
 10
536.82863006855416
 20
1325.8588059779891
 30
0.0
 41
20.0
 42
20.0
 43
20.0
 50
180.0
  0
TEXT
  8
3
  40
30
  5
83AE
  62
0
  72
0
  71
0
 10
545.079
 20
1297.76
 30
0.000000
  1
136
  0
POINT
  5
833E
  8
DEFPOINTS
 62
     0
 10
673.3286300685545
 20
1301.1617728758779
 30
0.0
  0
POINT
  5
833F
  8
DEFPOINTS
 62
     0
 10
536.82863006855416
 20
1115.1057090806451
 30
0.0
  0
POINT
  5
8340
  8
DEFPOINTS
 62
     0
 10
536.82863006855416
 20
1325.8588059779891
 30
0.0
  0
ENDBLK
  5
7F6D
  8
0
  0
BLOCK
  8
0
  2
*D10
 70
     1
 10
0.0
 20
0.0
 30
0.0
  3
*D10
  1

  0
LINE
  5
8341
  8
3
 62
     0
 10
670.82863006855473
 20
1244.1057090806451
 30
0.0
 11
1005.27563290177
 21
1244.1057090806451
 31
0.0
  0
LINE
  5
8342
  8
3
 62
     0
 10
869.91980509660095
 20
1122.6057090806439
 30
0.0
 11
1005.27563290177
 21
1122.6057090806439
 31
0.0
  0
LINE
  5
8343
  8
3
 62
     0
 10
995.2756329017709
 20
1224.1057090806439
 30
0.0
 11
995.2756329017709
 21
1142.6057090806439
 31
0.0
  0
INSERT
  5
8344
  8
3
 62
     0
  2
_OPEN
 10
995.2756329017709
 20
1244.1057090806451
 30
0.0
 41
20.0
 42
20.0
 43
20.0
 50
90.0
  0
INSERT
  5
8345
  8
3
 62
     0
  2
_OPEN
 10
995.2756329017709
 20
1122.6057090806439
 30
0.0
 41
20.0
 42
20.0
 43
20.0
 50
270.0
  0
TEXT
  8
3
  40
30
  5
83AF
  62
0
  72
0
  71
0
 10
910.276
 20
1130.26
 30
0.000000
  1
121
  0
POINT
  5
8347
  8
DEFPOINTS
 62
     0
 10
665.82863006855473
 20
1244.1057090806451
 30
0.0
  0
POINT
  5
8348
  8
DEFPOINTS
 62
     0
 10
864.91980509660095
 20
1122.6057090806439
 30
0.0
  0
POINT
  5
8349
  8
DEFPOINTS
 62
     0
 10
995.2756329017709
 20
1122.6057090806439
 30
0.0
  0
ENDBLK
  5
82D4
  8
0
  0
BLOCK
  8
0
  2
*D11
 70
     1
 10
0.0
 20
0.0
 30
0.0
  3
*D11
  1

  0
LINE
  5
834A
  8
3
 62
     0
 10
869.91980509660095
 20
1122.6057090806439
 30
0.0
 11
1005.27563290177
 21
1122.6057090806439
 31
0.0
  0
LINE
  5
834B
  8
3
 62
     0
 10
828.32863006855405
 20
902.6057090806446
 30
0.0
 11
1005.27563290177
 21
902.6057090806446
 31
0.0
  0
LINE
  5
834C
  8
3
 62
     0
 10
995.27563290177022
 20
1102.6057090806439
 30
0.0
 11
995.27563290177022
 21
922.60570908064471
 31
0.0
  0
INSERT
  5
834D
  8
3
 62
     0
  2
_OPEN
 10
995.27563290177022
 20
1122.6057090806439
 30
0.0
 41
20.0
 42
20.0
 43
20.0
 50
90.0
  0
INSERT
  5
834E
  8
3
 62
     0
  2
_OPEN
 10
995.27563290177022
 20
902.6057090806446
 30
0.0
 41
20.0
 42
20.0
 43
20.0
 50
270.0
  0
TEXT
  8
3
  40
30
  5
83B0
  62
0
  72
0
  71
0
 10
910.276
 20
959.506
 30
0.000000
  1
220
  0
POINT
  5
8350
  8
DEFPOINTS
 62
     0
 10
864.91980509660095
 20
1122.6057090806439
 30
0.0
  0
POINT
  5
8351
  8
DEFPOINTS
 62
     0
 10
823.32863006855405
 20
902.6057090806446
 30
0.0
  0
POINT
  5
8352
  8
DEFPOINTS
 62
     0
 10
995.27563290177022
 20
902.6057090806446
 30
0.0
  0
ENDBLK
  5
80E1
  8
0
  0
BLOCK
  8
0
  2
*D12
 70
     1
 10
0.0
 20
0.0
 30
0.0
  3
*D12
  1

  0
LINE
  5
8353
  8
3
 62
     0
 10
869.91980509660095
 20
1122.6057090806439
 30
0.0
 11
946.27446080481934
 21
1122.6057090806439
 31
0.0
  0
LINE
  5
8354
  8
3
 62
     0
 10
818.32863006855405
 20
968.6057090806446
 30
0.0
 11
946.27446080481934
 21
968.6057090806446
 31
0.0
  0
LINE
  5
8355
  8
3
 62
     0
 10
936.27446080481946
 20
1102.6057090806439
 30
0.0
 11
936.27446080481946
 21
988.60570908064471
 31
0.0
  0
INSERT
  5
8356
  8
3
 62
     0
  2
_OPEN
 10
936.27446080481946
 20
1122.6057090806439
 30
0.0
 41
20.0
 42
20.0
 43
20.0
 50
90.0
  0
INSERT
  5
8357
  8
3
 62
     0
  2
_OPEN
 10
936.27446080481946
 20
968.6057090806446
 30
0.0
 41
20.0
 42
20.0
 43
20.0
 50
270.0
  0
TEXT
  8
3
  40
30
  5
83B1
  62
0
  72
0
  71
0
 10
851.274
 20
992.506
 30
0.000000
  1
154
  0
POINT
  5
8359
  8
DEFPOINTS
 62
     0
 10
864.91980509660095
 20
1122.6057090806439
 30
0.0
  0
POINT
  5
835A
  8
DEFPOINTS
 62
     0
 10
813.32863006855405
 20
968.6057090806446
 30
0.0
  0
POINT
  5
835B
  8
DEFPOINTS
 62
     0
 10
936.27446080481946
 20
968.6057090806446
 30
0.0
  0
ENDBLK
  5
7F32
  8
0
  0
BLOCK
  8
0
  2
*D13
 70
     1
 10
0.0
 20
0.0
 30
0.0
  3
*D13
  1

  0
LINE
  5
835C
  8
3
 62
     0
 10
833.32863006855393
 20
1155.9057090806441
 30
0.0
 11
833.32863006855393
 21
1397.513517645272
 31
0.0
  0
LINE
  5
835D
  8
3
 62
     0
 10
243.3286300685545
 20
947.60570908064506
 30
0.0
 11
243.3286300685545
 21
1397.513517645272
 31
0.0
  0
LINE
  5
835E
  8
3
 62
     0
 10
813.32863006855405
 20
1387.513517645272
 30
0.0
 11
263.32863006855439
 21
1387.513517645272
 31
0.0
  0
INSERT
  5
835F
  8
3
 62
     0
  2
_OPEN
 10
833.32863006855393
 20
1387.513517645272
 30
0.0
 41
20.0
 42
20.0
 43
20.0
  0
INSERT
  5
8360
  8
3
 62
     0
  2
_OPEN
 10
243.3286300685545
 20
1387.513517645272
 30
0.0
 41
20.0
 42
20.0
 43
20.0
 50
180.0
  0
TEXT
  8
3
  40
30
  5
83B2
  62
0
  72
0
  71
0
 10
478.329
 20
1359.41
 30
0.000000
  1
590
  0
POINT
  5
8362
  8
DEFPOINTS
 62
     0
 10
833.32863006855393
 20
1150.9057090806441
 30
0.0
  0
POINT
  5
8363
  8
DEFPOINTS
 62
     0
 10
243.3286300685545
 20
942.60570908064506
 30
0.0
  0
POINT
  5
8364
  8
DEFPOINTS
 62
     0
 10
243.3286300685545
 20
1387.513517645272
 30
0.0
  0
ENDBLK
  5
7F27
  8
0
  0
BLOCK
  8
0
  2
*D14
 70
     1
 10
0.0
 20
0.0
 30
0.0
  3
*D14
  1

  0
LINE
  5
8368
  8
3
 62
     0
 10
243.32863006855411
 20
1692.18575512348
 30
0.0
 11
243.32863006855411
 21
1584.4177920063189
 31
0.0
  0
LINE
  5
8369
  8
3
 62
     0
 10
823.32863006855405
 20
1692.1857551234759
 30
0.0
 11
823.32863006855405
 21
1584.4177920063189
 31
0.0
  0
LINE
  5
836A
  8
3
 62
     0
 10
263.32863006855411
 20
1594.4177920063189
 30
0.0
 11
803.32863006855416
 21
1594.4177920063189
 31
0.0
  0
INSERT
  5
836B
  8
3
 62
     0
  2
_OPEN
 10
243.32863006855411
 20
1594.4177920063189
 30
0.0
 41
20.0
 42
20.0
 43
20.0
 50
180.0
  0
INSERT
  5
836C
  8
3
 62
     0
  2
_OPEN
 10
823.32863006855405
 20
1594.4177920063189
 30
0.0
 41
20.0
 42
20.0
 43
20.0
  0
TEXT
  8
3
  40
30
  5
83B3
  62
0
  72
0
  71
0
 10
454.935
 20
1566.32
 30
0.000000
  1
580
  0
POINT
  5
836E
  8
DEFPOINTS
 62
     0
 10
243.32863006855411
 20
1697.18575512348
 30
0.0
  0
POINT
  5
836F
  8
DEFPOINTS
 62
     0
 10
823.32863006855405
 20
1697.1857551234759
 30
0.0
  0
POINT
  5
8370
  8
DEFPOINTS
 62
     0
 10
823.32863006855405
 20
1594.4177920063189
 30
0.0
  0
ENDBLK
  5
8200
  8
0
  0
BLOCK
  8
0
  2
*D15
 70
     1
 10
0.0
 20
0.0
 30
0.0
  3
*D15
  1

  0
LINE
  5
8371
  8
3
 62
     0
 10
238.32863006855439
 20
2077.1857551234798
 30
0.0
 11
170.73046544171149
 21
2077.1857551234798
 31
0.0
  0
LINE
  5
8372
  8
3
 62
     0
 10
238.32863006855411
 20
1697.18575512348
 30
0.0
 11
170.7304654417114
 21
1697.18575512348
 31
0.0
  0
LINE
  5
8373
  8
3
 62
     0
 10
180.73046544171149
 20
2057.1857551234798
 30
0.0
 11
180.7304654417114
 21
1717.18575512348
 31
0.0
  0
INSERT
  5
8374
  8
3
 62
     0
  2
_OPEN
 10
180.73046544171149
 20
2077.1857551234798
 30
0.0
 41
20.0
 42
20.0
 43
20.0
 50
90.0
  0
INSERT
  5
8375
  8
3
 62
     0
  2
_OPEN
 10
180.7304654417114
 20
1697.18575512348
 30
0.0
 41
20.0
 42
20.0
 43
20.0
 50
270.0
  0
TEXT
  8
3
  40
30
  5
83B4
  62
0
  72
0
  71
0
 10
95.7305
 20
1816.44
 30
0.000000
  1
380
  0
POINT
  5
8377
  8
DEFPOINTS
 62
     0
 10
243.3286300685543
 20
2077.1857551234798
 30
0.0
  0
POINT
  5
8378
  8
DEFPOINTS
 62
     0
 10
243.32863006855411
 20
1697.18575512348
 30
0.0
  0
POINT
  5
8379
  8
DEFPOINTS
 62
     0
 10
180.7304654417114
 20
1697.18575512348
 30
0.0
  0
ENDBLK
  5
820D
  8
0
  0
BLOCK
  8
0
  2
*D16
 70
     1
 10
0.0
 20
0.0
 30
0.0
  3
*D16
  1

  0
LINE
  5
837A
  8
3
 62
     0
 10
243.3286300685545
 20
897.56167946490564
 30
0.0
 11
243.3286300685545
 21
821.40121243791407
 31
0.0
  0
LINE
  5
837B
  8
3
 62
     0
 10
673.32863006855462
 20
897.60570908064471
 30
0.0
 11
673.32863006855462
 21
821.40121243791407
 31
0.0
  0
LINE
  5
837C
  8
3
 62
     0
 10
263.32863006855439
 20
831.40121243791407
 30
0.0
 11
653.32863006855462
 21
831.40121243791407
 31
0.0
  0
INSERT
  5
837D
  8
3
 62
     0
  2
_OPEN
 10
243.3286300685545
 20
831.40121243791407
 30
0.0
 41
20.0
 42
20.0
 43
20.0
 50
180.0
  0
INSERT
  5
837E
  8
3
 62
     0
  2
_OPEN
 10
673.32863006855462
 20
831.40121243791407
 30
0.0
 41
20.0
 42
20.0
 43
20.0
  0
TEXT
  8
3
  40
30
  5
83B5
  62
0
  72
0
  71
0
 10
398.329
 20
803.301
 30
0.000000
  1
430
  0
POINT
  5
8380
  8
DEFPOINTS
 62
     0
 10
243.3286300685545
 20
902.56167946490575
 30
0.0
  0
POINT
  5
8381
  8
DEFPOINTS
 62
     0
 10
673.32863006855462
 20
902.6057090806446
 30
0.0
  0
POINT
  5
8382
  8
DEFPOINTS
 62
     0
 10
673.32863006855462
 20
831.40121243791407
 30
0.0
  0
ENDBLK
  5
8241
  8
0
  0
BLOCK
  8
0
  2
*D17
 70
     1
 10
0.0
 20
0.0
 30
0.0
  3
*D17
  1

  0
LINE
  5
8383
  8
3
 62
     0
 10
673.32863006855462
 20
897.60570908064471
 30
0.0
 11
673.32863006855462
 21
821.40121243791407
 31
0.0
  0
LINE
  5
8384
  8
3
 62
     0
 10
823.32863006855405
 20
897.56167946490518
 30
0.0
 11
823.32863006855405
 21
821.40121243791407
 31
0.0
  0
LINE
  5
8385
  8
3
 62
     0
 10
693.32863006855462
 20
831.40121243791407
 30
0.0
 11
803.32863006855405
 21
831.40121243791407
 31
0.0
  0
INSERT
  5
8386
  8
3
 62
     0
  2
_OPEN
 10
673.32863006855462
 20
831.40121243791407
 30
0.0
 41
20.0
 42
20.0
 43
20.0
 50
180.0
  0
INSERT
  5
8387
  8
3
 62
     0
  2
_OPEN
 10
823.32863006855405
 20
831.40121243791407
 30
0.0
 41
20.0
 42
20.0
 43
20.0
  0
TEXT
  8
3
  40
30
  5
83B6
  62
0
  72
0
  71
0
 10
688.329
 20
803.301
 30
0.000000
  1
150
  0
POINT
  5
8389
  8
DEFPOINTS
 62
     0
 10
673.32863006855462
 20
902.6057090806446
 30
0.0
  0
POINT
  5
838A
  8
DEFPOINTS
 62
     0
 10
823.32863006855405
 20
902.5616794649053
 30
0.0
  0
POINT
  5
838B
  8
DEFPOINTS
 62
     0
 10
823.32863006855405
 20
831.40121243791407
 30
0.0
  0
ENDBLK
  5
824E
  8
0
  0
BLOCK
  8
0
  2
*D18
 70
     1
 10
0.0
 20
0.0
 30
0.0
  3
*D18
  1

  0
LINE
  5
838C
  8
3
 62
     0
 10
1426.519283719279
 20
897.55571437878655
 30
0.0
 11
1426.519283719279
 21
821.40121243791407
 31
0.0
  0
LINE
  5
838D
  8
3
 62
     0
 10
1806.5192837192801
 20
897.55571437878655
 30
0.0
 11
1806.5192837192801
 21
821.40121243791407
 31
0.0
  0
LINE
  5
838E
  8
3
 62
     0
 10
1446.519283719279
 20
831.40121243791407
 30
0.0
 11
1786.5192837192801
 21
831.40121243791407
 31
0.0
  0
INSERT
  5
838F
  8
3
 62
     0
  2
_OPEN
 10
1426.519283719279
 20
831.40121243791407
 30
0.0
 41
20.0
 42
20.0
 43
20.0
 50
180.0
  0
INSERT
  5
8390
  8
3
 62
     0
  2
_OPEN
 10
1806.5192837192801
 20
831.40121243791407
 30
0.0
 41
20.0
 42
20.0
 43
20.0
  0
TEXT
  8
3
  40
30
  5
83B7
  62
0
  72
0
  71
0
 10
1556.52
 20
803.301
 30
0.000000
  1
380
  0
POINT
  5
8392
  8
DEFPOINTS
 62
     0
 10
1426.519283719279
 20
902.55571437878643
 30
0.0
  0
POINT
  5
8393
  8
DEFPOINTS
 62
     0
 10
1806.5192837192801
 20
902.55571437878643
 30
0.0
  0
POINT
  5
8394
  8
DEFPOINTS
 62
     0
 10
1806.5192837192801
 20
831.40121243791407
 30
0.0
  0
ENDBLK
  5
8268
  8
0
  0
BLOCK
  8
0
  2
*D19
 70
     1
 10
0.0
 20
0.0
 30
0.0
  3
*D19
  1

  0
LINE
  5
8395
  8
3
 62
     0
 10
1806.5192837192801
 20
897.55571437878655
 30
0.0
 11
1806.5192837192801
 21
821.40121243791407
 31
0.0
  0
LINE
  5
8396
  8
3
 62
     0
 10
1831.519283719279
 20
897.55571437878655
 30
0.0
 11
1831.519283719279
 21
821.40121243791407
 31
0.0
  0
LINE
  5
8397
  8
3
 62
     0
 10
1786.5192837192801
 20
831.40121243791407
 30
0.0
 11
1766.519283719279
 21
831.40121243791407
 31
0.0
  0
LINE
  5
8398
  8
3
 62
     0
 10
1851.519283719279
 20
831.40121243791407
 30
0.0
 11
1940.090712290707
 21
831.40121243791407
 31
0.0
  0
LINE
  5
8399
  8
3
 62
     0
 10
1806.5192837192801
 20
831.40121243791407
 30
0.0
 11
1831.519283719279
 21
831.40121243791407
 31
0.0
  0
INSERT
  5
839A
  8
3
 62
     0
  2
_OPEN
 10
1806.5192837192801
 20
831.40121243791407
 30
0.0
 41
20.0
 42
20.0
 43
20.0
  0
INSERT
  5
839B
  8
3
 62
     0
  2
_OPEN
 10
1831.519283719279
 20
831.40121243791407
 30
0.0
 41
20.0
 42
20.0
 43
20.0
 50
180.0
  0
TEXT
  8
3
  40
30
  5
83B8
  62
0
  72
0
  71
0
 10
1845.80
 20
803.301
 30
0.000000
  1
25
  0
POINT
  5
839D
  8
DEFPOINTS
 62
     0
 10
1806.5192837192801
 20
902.55571437878643
 30
0.0
  0
POINT
  5
839E
  8
DEFPOINTS
 62
     0
 10
1831.519283719279
 20
902.55571437878643
 30
0.0
  0
POINT
  5
839F
  8
DEFPOINTS
 62
     0
 10
1831.519283719279
 20
831.40121243791407
 30
0.0
  0
ENDBLK
  5
8277
  8
0
  0
BLOCK
  8
0
  2
*D20
 70
     1
 10
0.0
 20
0.0
 30
0.0
  3
*D20
  1

  0
LINE
  5
83A0
  8
3
 62
     0
 10
670.82863006855405
 20
1244.1057090806451
 30
0.0
 11
1082.192229083784
 21
1244.1057090806451
 31
0.0
  0
LINE
  5
83A1
  8
3
 62
     0
 10
828.32863006855405
 20
902.6057090806446
 30
0.0
 11
1082.192229083784
 21
902.6057090806446
 31
0.0
  0
LINE
  5
83A2
  8
3
 62
     0
 10
1072.192229083784
 20
1224.1057090806439
 30
0.0
 11
1072.192229083784
 21
922.60570908064471
 31
0.0
  0
INSERT
  5
83A3
  8
3
 62
     0
  2
_OPEN
 10
1072.192229083784
 20
1244.1057090806451
 30
0.0
 41
20.0
 42
20.0
 43
20.0
 50
90.0
  0
INSERT
  5
83A4
  8
3
 62
     0
  2
_OPEN
 10
1072.192229083784
 20
902.6057090806446
 30
0.0
 41
20.0
 42
20.0
 43
20.0
 50
270.0
  0
TEXT
  8
3
  40
30
  5
83B9
  62
0
  72
0
  71
0
 10
987.192
 20
1020.26
 30
0.000000
  1
341
  0
POINT
  5
83A6
  8
DEFPOINTS
 62
     0
 10
665.82863006855405
 20
1244.1057090806451
 30
0.0
  0
POINT
  5
83A7
  8
DEFPOINTS
 62
     0
 10
823.32863006855405
 20
902.6057090806446
 30
0.0
  0
POINT
  5
83A8
  8
DEFPOINTS
 62
     0
 10
1072.192229083784
 20
902.6057090806446
 30
0.0
  0
ENDBLK
  5
82F5
  8
0
  0
ENDSEC
  0
SECTION
  2
ENTITIES
  0
INSERT
  5
7C1F
  8
0
  2
YA_N
 10
2724.1612064906581
 20
327.02075517693441
 30
0.0
  0
INSERT
  5
7C20
  8
0
  2
YA_N
 10
2724.1612064906581
 20
327.02075517693441
 30
0.0
  0
LINE
  5
7C22
  8
1
 10
1669.2192837192799
 20
942.55571437878643
 30
0.0
 11
1469.219283719279
 21
942.55571437878643
 31
0.0
  0
LINE
  5
7C23
  8
1
 10
1426.519283719279
 20
942.55571437878655
 30
0.0
 11
1806.519283719279
 21
942.55571437878621
 31
0.0
  0
LINE
  5
7C24
  8
1
 10
1426.519283719279
 20
902.55571437878655
 30
0.0
 11
1806.5192837192801
 21
902.55571437878621
 31
0.0
  0
LINE
  5
7C25
  8
1
 10
1494.219283719279
 20
1083.755714378786
 30
0.0
 11
1501.219283719279
 21
1083.7557143787849
 31
0.0
  0
LINE
  5
7C26
  8
1
 10
1494.219283719279
 20
1086.055714378786
 30
0.0
 11
1501.219283719279
 21
1086.055714378786
 31
0.0
  0
LINE
  5
7C27
  8
2
 10
1433.2657759987351
 20
1122.555714378786
 30
0.0
 11
1928.000807699106
 21
1122.555714378786
 31
0.0
  0
LINE
  5
7C28
  8
1
 10
269.94294171413588
 20
1277.5616794649061
 30
0.0
 11
799.94294171413594
 21
1277.5616794649061
 31
0.0
  0
LINE
  5
7C29
  8
1
 10
685.44027064588545
 20
1079.2662563553779
 30
0.0
 11
368.13174632973659
 21
999.63526686087539
 31
0.0
  0
LINE
  5
7C2A
  8
1
 10
663.86775259495471
 20
1166.5999336723969
 30
0.0
 11
341.76533537859922
 21
1106.3764280261189
 31
0.0
  0
LINE
  5
7C2B
  8
1
 10
269.94294171413588
 20
1277.5616794649061
 30
0.0
 11
269.94294171413588
 21
942.56167946490575
 31
0.0
  0
LINE
  5
7C2C
  8
1
 10
258.32863006855467
 20
942.60570908064506
 30
0.0
 11
448.32863006855513
 21
942.60570908064506
 31
0.0
  0
LINE
  5
7C2D
  8
1
 10
243.3286300685545
 20
942.60570908064506
 30
0.0
 11
243.3286300685545
 21
902.56167946490575
 31
0.0
  0
CIRCLE
  5
7C2E
  8
1
 10
353.32863006855467
 20
1052.6057090806451
 30
0.0
 40
55.0
  0
LINE
  5
7C2F
  8
2
 10
450.48717554420159
 20
1052.6057090806439
 30
0.0
 11
258.94195029416801
 21
1052.6057090806451
 31
0.0
  0
LINE
  5
7C30
  8
2
 10
353.32863006855467
 20
1133.9952090806439
 30
0.0
 11
353.32863006855467
 21
924.61131092113533
 31
0.0
  0
LINE
  5
7C31
  8
2
 10
673.3286300685545
 20
1301.1617728758779
 30
0.0
 11
673.32863006855462
 21
902.6057090806446
 31
0.0
  0
LINE
  5
7C32
  8
1
 10
573.3286300685545
 20
1082.905709080645
 30
0.0
 11
573.3286300685545
 21
942.56167946490552
 31
0.0
  0
LINE
  5
7C33
  8
1
 10
799.94294171413594
 20
942.56167946490586
 30
0.0
 11
799.94294171413594
 21
1277.5616794649061
 31
0.0
  0
LINE
  5
7C34
  8
1
 10
773.3286300685545
 20
1082.905709080645
 30
0.0
 11
773.3286300685545
 21
942.5616794649053
 31
0.0
  0
LINE
  5
7C35
  8
1
 10
1490.7742333239819
 20
951.55571437878655
 30
0.0
 11
1490.7742333239819
 21
989.03710870215127
 31
0.0
  0
LINE
  5
7C36
  8
1
 10
1415.7742333239819
 20
951.55571437878655
 30
0.0
 11
1415.7742333239819
 21
1277.5616794649061
 31
0.0
  0
LINE
  5
7C37
  8
1
 10
1490.7742333239819
 20
951.55571437878643
 30
0.0
 11
1415.7742333239819
 21
951.55571437878643
 31
0.0
  0
LINE
  5
7C38
  8
1
 10
823.32863006855405
 20
942.6057090806446
 30
0.0
 11
823.32863006855405
 21
902.5616794649053
 31
0.0
  0
POINT
  5
7C39
  8
1
 10
1466.519283719279
 20
902.55571437878643
 30
0.0
  0
POINT
  5
7C3A
  8
1
 10
1498.9192837192791
 20
942.55571437878643
 30
0.0
  0
POINT
  5
7C3B
  8
1
 10
1498.9192837192791
 20
942.55571437878643
 30
0.0
  0
ARC
  5
7C3C
  8
1
 10
665.82863006855416
 20
1115.1057090806451
 30
0.0
 40
129.0
 50
90.000000000000057
 51
179.99999999999989
  0
ARC
  5
7C3D
  8
1
 10
665.82863006855416
 20
1130.1057090806451
 30
0.0
 40
114.0
 50
0.0000000000000119
 51
90.000000000000057
  0
LINE
  5
7C3E
  8
2
 10
864.91980509660095
 20
1122.6057090806439
 30
0.0
 11
497.15631730531408
 21
1122.6057090806439
 31
0.0
  0
LINE
  5
7C3F
  8
1
 10
581.02863006855432
 20
1186.1057143787859
 30
0.0
 11
581.02863006855432
 21
1086.1057090806439
 31
0.0
  0
LINE
  5
7C40
  8
1
 10
575.02863006855432
 20
1186.1057143787859
 30
0.0
 11
575.02863006855432
 21
1086.1057090806439
 31
0.0
  0
LINE
  5
7C41
  8
1
 10
771.62863006855423
 20
1186.1057143787859
 30
0.0
 11
771.62863006855457
 21
1086.1057090806439
 31
0.0
  0
LINE
  5
7C42
  8
1
 10
765.62863006855423
 20
1186.1057143787859
 30
0.0
 11
765.62863006855468
 21
1086.1057090806439
 31
0.0
  0
LINE
  5
7C43
  8
1
 10
813.32863006855359
 20
968.6057090806446
 30
0.0
 11
676.10858708091905
 21
971.18308683454052
 31
0.0
  0
ARC
  5
7C44
  8
1
 10
680.82863006855416
 20
1115.1057090806451
 30
0.0
 40
144.0
 50
179.99999999999989
 51
269.99999999999812
  0
CIRCLE
  5
7C45
  8
1
 10
673.3286300685545
 20
1012.561679464905
 30
0.0
 40
60.0
  0
LINE
  5
7C47
  8
1
 10
778.3286300685545
 20
1082.905709080645
 30
0.0
 11
568.32863006855439
 21
1082.905709080645
 31
0.0
  0
LINE
  5
7C48
  8
1
 10
778.3286300685545
 20
1086.1057090806439
 30
0.0
 11
568.32863006855439
 21
1086.1057090806439
 31
0.0
  0
CIRCLE
  5
7C49
  8
1
 10
673.3286300685545
 20
1122.6057090806439
 30
0.0
 40
45.0
  0
LINE
  5
7C4A
  8
1
 10
598.3286300685545
 20
1089.3057090806451
 30
0.0
 11
748.3286300685545
 21
1089.305709080644
 31
0.0
  0
LINE
  5
7C4B
  8
1
 10
748.3286300685545
 20
1086.1057090806439
 30
0.0
 11
598.3286300685545
 21
1086.1057090806439
 31
0.0
  0
LINE
  5
7C4C
  8
1
 10
568.32863006855439
 20
1086.1057090806439
 30
0.0
 11
568.32863006855439
 21
1082.905709080645
 31
0.0
  0
LINE
  5
7C4D
  8
1
 10
598.3286300685545
 20
1086.1057090806439
 30
0.0
 11
598.3286300685545
 21
1089.3057090806451
 31
0.0
  0
LINE
  5
7C4E
  8
1
 10
748.3286300685545
 20
1089.305709080644
 30
0.0
 11
748.3286300685545
 21
1086.1057090806439
 31
0.0
  0
LINE
  5
7C4F
  8
1
 10
778.3286300685545
 20
1086.1057090806439
 30
0.0
 11
778.3286300685545
 21
1082.905709080645
 31
0.0
  0
LINE
  5
7C50
  8
1
 10
813.32863006855416
 20
946.30601807507117
 30
0.0
 11
813.32863006855405
 21
1150.905709080645
 31
0.0
  0
LINE
  5
7C51
  8
1
 10
833.32863006855428
 20
946.30601807507105
 30
0.0
 11
833.32863006855393
 21
1150.9057090806441
 31
0.0
  0
LINE
  5
7C52
  8
1
 10
813.32863006855416
 20
946.30601807507117
 30
0.0
 11
833.32863006855428
 21
946.30601807507105
 31
0.0
  0
LINE
  5
7C53
  8
1
 10
581.02863006855432
 20
1186.1057143787859
 30
0.0
 11
575.02863006855432
 21
1186.1057143787859
 31
0.0
  0
CIRCLE
  5
7C54
  8
1
 10
781.30126315836628
 20
1099.6057090806451
 30
0.0
 40
6.0
  0
LINE
  5
7C55
  8
1
 10
813.32863006855416
 20
1128.6057090806439
 30
0.0
 11
779.81726577993254
 21
1128.6057090806439
 31
0.0
  0
ARC
  5
7C56
  8
1
 10
680.82863006855416
 20
1130.1057090806451
 30
0.0
 40
99.0
 50
343.11353300243837
 51
0.0000000000000119
  0
LINE
  5
7C57
  8
1
 10
833.32863006855393
 20
1150.9057090806441
 30
0.0
 11
813.32863006855405
 21
1150.905709080645
 31
0.0
  0
LINE
  5
7C58
  8
1
 10
771.62863006855423
 20
1186.1057143787859
 30
0.0
 11
765.62863006855423
 21
1186.1057143787859
 31
0.0
  0
LINE
  5
7C59
  8
1
 10
1468.2742333239819
 20
1167.555714378786
 30
0.0
 11
1468.2742333239819
 21
998.55571437878655
 31
0.0
  0
LINE
  5
7C5A
  8
1
 10
1438.2742333239819
 20
1167.555714378786
 30
0.0
 11
1438.2742333239819
 21
998.55571437878655
 31
0.0
  0
LINE
  5
7C5B
  8
2
 10
1434.8819851148121
 20
1052.561679464905
 30
0.0
 11
1566.5459973647471
 21
1052.561679464905
 31
0.0
  0
LINE
  5
7C5C
  8
1
 10
1468.2742333239819
 20
998.55571437878655
 30
0.0
 11
1438.2742333239819
 21
998.55571437878655
 31
0.0
  0
LINE
  5
7C5D
  8
1
 10
1478.2742333239819
 20
1112.555714378786
 30
0.0
 11
1501.219283719279
 21
1112.555714378786
 31
0.0
  0
LINE
  5
7C5E
  8
1
 10
1478.2742333239819
 20
1132.555714378786
 30
0.0
 11
1501.219283719279
 21
1132.555714378786
 31
0.0
  0
LINE
  5
7C5F
  8
1
 10
1478.2742333239819
 20
1132.555714378786
 30
0.0
 11
1478.2742333239819
 21
1112.555714378786
 31
0.0
  0
LINE
  5
7C60
  8
1
 10
1468.2742333239819
 20
1108.555714378786
 30
0.0
 11
1438.2742333239819
 21
1108.555714378786
 31
0.0
  0
LINE
  5
7C61
  8
1
 10
1438.2742333239819
 20
1077.555714378786
 30
0.0
 11
1468.2742333239819
 21
1077.555714378786
 31
0.0
  0
LINE
  5
7C62
  8
1
 10
1494.219283719279
 20
1086.055714378786
 30
0.0
 11
1494.219283719279
 21
1083.755714378786
 31
0.0
  0
LINE
  5
7C63
  8
1
 10
1468.2742333239819
 20
1113.055714378786
 30
0.0
 11
1478.2742333239819
 21
1113.055714378786
 31
0.0
  0
LINE
  5
7C64
  8
1
 10
1438.2742333239819
 20
1167.555714378786
 30
0.0
 11
1468.2742333239819
 21
1167.555714378786
 31
0.0
  0
LINE
  5
7C65
  8
1
 10
1468.2742333239819
 20
1132.055714378786
 30
0.0
 11
1478.2742333239819
 21
1132.055714378786
 31
0.0
  0
LINE
  5
7C66
  8
1
 10
1415.7742333239819
 20
1277.5616794649061
 30
0.0
 11
1490.7742333239819
 21
1277.5616794649061
 31
0.0
  0
LINE
  5
7C6A
  8
1
 10
283.32863006855411
 20
1697.1857551234791
 30
0.0
 11
283.32863006855399
 21
1769.1892574964199
 31
0.0
  0
LINE
  5
7C6B
  8
1
 10
243.32863006855419
 20
1697.18575512348
 30
0.0
 11
243.32863006855391
 21
2037.18575512348
 31
0.0
  0
LINE
  5
7C6C
  8
2
 10
353.3286300685545
 20
1702.5284569850451
 30
0.0
 11
353.3286300685549
 21
2043.5148827203509
 31
0.0
  0
LINE
  5
7C6E
  8
1
 10
243.32863006855391
 20
2037.18575512348
 30
0.0
 11
243.3286300685543
 21
2077.1857551234789
 31
0.0
  0
LINE
  5
7C6F
  8
2
 10
673.3286300685545
 20
1703.8161526170479
 30
0.0
 11
673.32863006855541
 21
2183.9304862380391
 31
0.0
  0
LINE
  5
7C70
  8
1
 10
823.32863006855405
 20
1697.1857551234759
 30
0.0
 11
823.32863006855428
 21
2020.689257496424
 31
0.0
  0
LINE
  5
7C71
  8
1
 10
783.32863006855405
 20
1697.18575512348
 30
0.0
 11
783.32863006855405
 21
2040.6892574964211
 31
0.0
  0
LINE
  5
7C75
  8
2
 10
1831.5192837192801
 20
1316.5711880096719
 30
0.0
 11
1831.519283719279
 21
902.55571437878643
 31
0.0
  0
LINE
  5
7C76
  8
1
 10
1915.519283719279
 20
1034.555714378786
 30
0.0
 11
1895.5192837192801
 21
1034.555714378786
 31
0.0
  0
LINE
  5
7C77
  8
1
 10
1895.5192837192801
 20
1122.555714378786
 30
0.0
 11
1895.5192837192801
 21
1011.555714378786
 31
0.0
  0
LINE
  5
7C79
  8
1
 10
1891.519283719279
 20
1244.1057090806451
 30
0.0
 11
1891.519283719279
 21
1148.5557143787869
 31
0.0
  0
LINE
  5
7C7A
  8
1
 10
1771.519283719279
 20
1244.1057090806451
 30
0.0
 11
1771.519283719279
 21
1148.555714378786
 31
0.0
  0
LINE
  5
7C80
  8
1
 10
1895.5192837192801
 20
1034.555714378786
 30
0.0
 11
1895.5192837192801
 21
1014.555714378786
 31
0.0
  0
LINE
  5
7C81
  8
1
 10
1891.519283719279
 20
1011.555714378786
 30
0.0
 11
1895.5192837192801
 21
1011.555714378786
 31
0.0
  0
LINE
  5
7C86
  8
1
 10
1744.2192837192799
 20
1186.1057143787859
 30
0.0
 11
1771.519283719279
 21
1186.1057143787859
 31
0.0
  0
POINT
  5
7C87
  8
1
 10
1831.5192837192801
 20
1253.402862916399
 30
0.0
  0
LINE
  5
7C88
  8
1
 10
1898.519283719279
 20
1122.555714378786
 30
0.0
 11
1898.519283719279
 21
1034.555714378786
 31
0.0
  0
ARC
  5
7C89
  8
1
 10
353.32863006855467
 20
1052.6057090806451
 30
0.0
 40
85.000007999999994
 50
179.99999999999989
 51
244.08227400000001
  0
ARC
  5
7C8A
  8
1
 10
353.32863006855467
 20
1052.6057090806451
 30
0.0
 40
85.0
 50
295.8755339999999
 51
179.99999999999989
  0
LINE
  5
7C8B
  8
1
 10
390.42412906855469
 20
976.15478108064485
 30
0.0
 11
316.17682106855472
 21
976.15478108064508
 31
0.0
  0
LINE
  5
7C8C
  8
1
 10
435.10322763431873
 20
972.60570908064471
 30
0.0
 11
415.65179806855463
 21
994.78720508064498
 31
0.0
  0
LINE
  5
7C8D
  8
1
 10
430.82863006855467
 20
972.60570908064506
 30
0.0
 11
395.82863006855467
 21
972.60570908064494
 31
0.0
  0
LINE
  5
7C8E
  8
1
 10
271.55412139395997
 20
972.60570908064494
 30
0.0
 11
291.00732206855457
 21
994.7893470806448
 31
0.0
  0
LINE
  5
7C8F
  8
1
 10
275.82863006855467
 20
972.60570908064494
 30
0.0
 11
310.82863006855467
 21
972.60570908064506
 31
0.0
  0
LINE
  5
7C90
  8
1
 10
250.8286300685547
 20
972.60570908064506
 30
0.0
 11
353.32863006855467
 21
972.60570908064506
 31
0.0
  0
LINE
  5
7C91
  8
1
 10
250.8286300685547
 20
972.60570908064506
 30
0.0
 11
245.8286300685547
 21
942.60570908064506
 31
0.0
  0
LINE
  5
7C92
  8
1
 10
455.82863006855467
 20
972.60570908064471
 30
0.0
 11
460.82863006855467
 21
942.6057090806446
 31
0.0
  0
LINE
  5
7C93
  8
1
 10
353.32863006855467
 20
972.60570908064506
 30
0.0
 11
455.82863006855467
 21
972.60570908064471
 31
0.0
  0
LINE
  5
7C96
  8
1
 10
823.32863006855405
 20
1697.1857551234759
 30
0.0
 11
243.32863006855411
 21
1697.18575512348
 31
0.0
  0
LINE
  5
7C97
  8
1
 10
536.8286300685586
 20
2077.1857551234798
 30
0.0
 11
243.32863006855391
 21
2077.1857551234798
 31
0.0
  0
DIMENSION
  5
7C9A
  8
3
  2
*D3
 10
884.10671384402269
 20
1128.6057090806439
 30
0.0
 11
884.10671384402247
 21
1062.891423366359
 31
0.0
 70
   128
 13
813.32863006855405
 23
968.6057090806446
 33
0.0
 14
813.32863006855416
 24
1128.6057090806439
 34
0.0
 50
90.0
1001
ACAD
1000
DSTYLE
1002
{
1070
   287
1070
     3
1070
    40
1040
10.0
1070
   143
1040
0.039
1070
   172
1070
     1
1070
   271
1070
     0
1070
   279
1070
     0
1070
   288
1070
     1
1002
}
  0
LINE
  5
7C9B
  8
1
 10
823.32863006855405
 20
902.6057090806446
 30
0.0
 11
243.3286300685545
 21
902.6057090806446
 31
0.0
  0
LINE
  5
7C9C
  8
1
 10
823.32863006855359
 20
942.6057090806446
 30
0.0
 11
243.3286300685545
 21
942.60570908064506
 31
0.0
  0
LINE
  5
7CA9
  8
1
 10
1891.5192837192781
 20
1128.555714378786
 30
0.0
 11
1891.519283719279
 21
968.55571437878621
 31
0.0
  0
LINE
  5
7CAA
  8
1
 10
1771.5192837192781
 20
1128.555714378786
 30
0.0
 11
1771.519283719279
 21
968.55571437878643
 31
0.0
  0
LINE
  5
7CAD
  8
1
 10
1915.519283719279
 20
1210.555714378786
 30
0.0
 11
1915.519283719279
 21
1034.555714378786
 31
0.0
  0
LINE
  5
7CAE
  8
1
 10
1915.519283719279
 20
1210.555714378786
 30
0.0
 11
1913.8192837192801
 21
1210.555714378786
 31
0.0
  0
ARC
  5
7CAF
  8
1
 10
1913.5192837192801
 20
1211.555714378786
 30
0.0
 40
2.0
 50
0.0
 51
90.0
  0
LINE
  5
7CB0
  8
1
 10
1915.519283719279
 20
1211.555714378786
 30
0.0
 11
1915.519283719279
 21
1210.555714378786
 31
0.0
  0
LINE
  5
7CB1
  8
1
 10
1898.519283719279
 20
1016.555714378786
 30
0.0
 11
1898.519283719279
 21
1027.555714378786
 31
0.0
  0
LINE
  5
7CB2
  8
1
 10
1895.5192837192801
 20
1014.555714378786
 30
0.0
 11
1895.5192837192801
 21
1034.555714378786
 31
0.0
  0
LINE
  5
7CB3
  8
1
 10
1902.5192837192801
 20
1031.555714378786
 30
0.0
 11
1913.5192837192801
 21
1031.555714378786
 31
0.0
  0
LINE
  5
7CB4
  8
1
 10
1895.5192837192801
 20
1034.555714378786
 30
0.0
 11
1915.519283719279
 21
1034.555714378786
 31
0.0
  0
ARC
  5
7CB5
  8
1
 10
1902.5192837192801
 20
1027.555714378786
 30
0.0
 40
4.0
 50
90.0
 51
180.0
  0
LINE
  5
7CB6
  8
1
 10
1915.519283719279
 20
1034.555714378786
 30
0.0
 11
1915.519283719279
 21
1033.555714378786
 31
0.0
  0
ARC
  5
7CB7
  8
1
 10
1913.5192837192801
 20
1033.555714378786
 30
0.0
 40
2.0
 50
270.0
 51
0.0
  0
ARC
  5
7CB8
  8
1
 10
1896.519283719279
 20
1016.555714378786
 30
0.0
 40
2.0
 50
270.0
 51
0.0
  0
LINE
  5
7CB9
  8
1
 10
1896.519283719279
 20
1014.555714378786
 30
0.0
 11
1895.5192837192801
 21
1014.555714378786
 31
0.0
  0
DIMENSION
  5
7CBA
  8
3
  2
*D4
 10
1996.159947528816
 20
1034.555714378786
 30
0.0
 11
1971.159947528816
 21
1122.555714378786
 31
0.0
 70
     0
 13
1915.519283719279
 23
1210.555714378786
 33
0.0
 14
1915.519283719279
 24
1034.555714378786
 34
0.0
 50
90.0
1001
ACAD
1000
DSTYLE
1002
{
1070
   287
1070
     3
1070
     3
1000
φ<>
1070
    40
1040
10.0
1070
   143
1040
0.039
1070
   172
1070
     1
1070
   271
1070
     0
1070
   279
1070
     0
1070
   288
1070
     1
1002
}
  0
DIMENSION
  5
7CBB
  8
3
  2
*D5
 10
1891.519283719279
 20
1308.666223496064
 30
0.0
 11
1831.519283719279
 21
1336.3963539701831
 31
0.0
 12
0.0
 22
139.6449696176177
 32
0.0
 70
   128
 13
1771.519283719279
 23
1235.3222677086969
 33
0.0
 14
1891.519283719279
 24
1235.3222677086969
 34
0.0
1001
ACAD
1000
DSTYLE
1002
{
1070
   288
1070
     1
1070
   172
1070
     1
1070
    40
1040
10.0
1070
   271
1070
     0
1070
   143
1040
0.039
1002
}
  0
DIMENSION
  5
7CBC
  8
3
  2
*D6
 10
1831.5192837192801
 20
1398.0451983167641
 30
0.0
 11
1863.5192837192801
 21
1438.0451983167641
 31
0.0
 12
0.0
 22
139.6449696176177
 32
0.0
 70
     0
 13
1895.5192837192801
 23
1233.555714378786
 33
0.0
 14
1831.5192837192801
 24
1357.9612641573151
 34
0.0
1001
ACAD
1000
DSTYLE
1002
{
1070
   288
1070
     1
1070
   172
1070
     1
1070
    40
1040
10.0
1070
   271
1070
     0
1070
   143
1040
0.039
1002
}
  0
DIMENSION
  5
7CBD
  8
3
  2
*D7
 10
1415.7742333239819
 20
1398.0451983167641
 30
0.0
 11
1623.646758521631
 21
1448.0451983167641
 31
0.0
 70
     0
  1
MAX\P500
 13
1831.5192837192801
 23
1357.9612641573151
 33
0.0
 14
1415.7742333239819
 24
1277.5616794649061
 34
0.0
1001
ACAD
1000
DSTYLE
1002
{
1070
   287
1070
     3
1070
    40
1040
10.0
1070
   143
1040
0.039
1070
   172
1070
     1
1070
   271
1070
     0
1070
   279
1070
     0
1070
   288
1070
     1
1002
}
  0
LINE
  5
7CBE
  8
2
 10
859.06029361731817
 20
2102.1857551234798
 30
0.0
 11
491.10088424958121
 21
2102.1857551234798
 31
0.0
  0
LINE
  5
7CBF
  8
1
 10
813.32863006855814
 20
2160.6892574964199
 30
0.0
 11
536.8286300685586
 21
2160.6892574964209
 31
0.0
  0
LINE
  5
7CC0
  8
1
 10
813.32863006855769
 20
2040.6892574964211
 30
0.0
 11
536.8286300685586
 21
2040.6892574964179
 31
0.0
  0
LINE
  5
7CC1
  8
1
 10
833.32863006855848
 20
2180.6892574964209
 30
0.0
 11
813.3286300685586
 21
2180.6892574964199
 31
0.0
  0
LINE
  5
7CC2
  8
1
 10
833.3286300685578
 20
2020.689257496424
 30
0.0
 11
813.32863006855769
 21
2020.689257496424
 31
0.0
  0
LINE
  5
7CC4
  8
1
 10
718.32863006855405
 20
1707.444207101124
 30
0.0
 11
718.32863006855405
 21
1737.444207101124
 31
0.0
  0
LINE
  5
7CC5
  8
1
 10
628.32863006855405
 20
1707.444207101124
 30
0.0
 11
628.32863006855405
 21
1737.444207101124
 31
0.0
  0
LINE
  5
7CC6
  8
1
 10
409.32266498243553
 20
1737.444207101124
 30
0.0
 11
409.32266498243553
 21
1707.444207101124
 31
0.0
  0
LINE
  5
7CC7
  8
1
 10
299.32266498243553
 20
1737.4442071011249
 30
0.0
 11
299.32266498243553
 21
1707.444207101124
 31
0.0
  0
LINE
  5
7CCA
  8
1
 10
269.94294171413588
 20
1684.944207101126
 30
0.0
 11
799.94294171413594
 21
1684.944207101124
 31
0.0
  0
LINE
  5
7CCB
  8
1
 10
718.32863006855405
 20
1707.444207101124
 30
0.0
 11
628.32863006855405
 21
1707.444207101124
 31
0.0
  0
LINE
  5
7CCC
  8
1
 10
269.94294171413588
 20
1759.9442071011249
 30
0.0
 11
799.94294171413583
 21
1759.9442071011231
 31
0.0
  0
LINE
  5
7CCD
  8
1
 10
683.32863006855405
 20
1747.444207101124
 30
0.0
 11
683.3286300685553
 21
2040.6892574964199
 31
0.0
  0
LINE
  5
7CCE
  8
1
 10
663.32863006855405
 20
1747.444207101124
 30
0.0
 11
663.32863006855484
 21
2040.6892574964199
 31
0.0
  0
LINE
  5
7CCF
  8
1
 10
683.32863006855405
 20
1747.444207101124
 30
0.0
 11
663.32863006855405
 21
1747.444207101124
 31
0.0
  0
LINE
  5
7CD0
  8
1
 10
718.32863006855405
 20
1737.444207101124
 30
0.0
 11
628.32863006855405
 21
1737.444207101124
 31
0.0
  0
LINE
  5
7CD1
  8
1
 10
663.82863006855405
 20
1737.444207101124
 30
0.0
 11
663.82863006855405
 21
1747.4442071011249
 31
0.0
  0
LINE
  5
7CD2
  8
1
 10
682.82863006855405
 20
1737.444207101124
 30
0.0
 11
682.82863006855405
 21
1747.4442071011249
 31
0.0
  0
LINE
  5
7CD4
  8
1
 10
778.32863006855484
 20
1771.8857551234801
 30
0.0
 11
778.32863006855484
 21
2040.6892574964211
 31
0.0
  0
LINE
  5
7CD5
  8
1
 10
568.32863006855496
 20
1771.8857551234801
 30
0.0
 11
568.32863006855496
 21
2040.689257496419
 31
0.0
  0
LINE
  5
7CD6
  8
1
 10
778.32863006855484
 20
1771.8857551234801
 30
0.0
 11
683.32863006855405
 21
1771.8857551234789
 31
0.0
  0
LINE
  5
7CD7
  8
1
 10
663.32863006855405
 20
1771.8857551234801
 30
0.0
 11
568.32863006855496
 21
1771.8857551234801
 31
0.0
  0
LINE
  5
7CD8
  8
1
 10
438.32863006855439
 20
1769.1892574964199
 30
0.0
 11
438.3286300685549
 21
1997.1892574964199
 31
0.0
  0
LINE
  5
7CD9
  8
1
 10
268.32862206855452
 20
1769.1892574964199
 30
0.0
 11
268.32862206855492
 21
1997.1892574964199
 31
0.0
  0
LINE
  5
7CDA
  8
1
 10
438.3286300685549
 20
1997.1892574964199
 30
0.0
 11
268.32862206855492
 21
1997.1892574964199
 31
0.0
  0
LINE
  5
7CDB
  8
1
 10
438.3286300685549
 20
1769.1892574964211
 30
0.0
 11
268.32862206855492
 21
1769.1892574964211
 31
0.0
  0
LINE
  5
7CDC
  8
1
 10
362.82863006855399
 20
1737.444207101126
 30
0.0
 11
362.82863006855399
 21
1769.1892574964199
 31
0.0
  0
LINE
  5
7CDD
  8
1
 10
343.82863006855399
 20
1737.4442071011249
 30
0.0
 11
343.82863006855399
 21
1769.1892574964199
 31
0.0
  0
LINE
  5
7CDE
  8
1
 10
283.32863006855399
 20
1997.1892574964199
 30
0.0
 11
283.32863006855388
 21
2077.1857551234798
 31
0.0
  0
LINE
  5
7CE4
  8
1
 10
409.32266498243501
 20
1737.4442071011249
 30
0.0
 11
299.32266498243553
 21
1737.444207101126
 31
0.0
  0
LINE
  5
7CE5
  8
1
 10
409.32266498243501
 20
1707.444207101124
 30
0.0
 11
299.32266498243553
 21
1707.4442071011249
 31
0.0
  0
LINE
  5
7CE8
  8
1
 10
1426.519283719279
 20
902.55571437878643
 30
0.0
 11
1426.519283719279
 21
942.55571437878643
 31
0.0
  0
LINE
  5
7CE9
  8
1
 10
1806.5192837192801
 20
902.55571437878643
 30
0.0
 11
1806.519283719279
 21
942.55571437878621
 31
0.0
  0
LINE
  5
7CEA
  8
1
 10
1500.0192837192769
 20
1137.5616874649049
 30
0.0
 11
1728.0192837192769
 21
1137.5616874649049
 31
0.0
  0
LINE
  5
7CEB
  8
1
 10
1501.219283719279
 20
967.56167946490575
 30
0.0
 11
1500.0192837192769
 21
967.56167946490575
 31
0.0
  0
LINE
  5
7CEC
  8
1
 10
1500.0192837192769
 20
967.56167946490518
 30
0.0
 11
1500.0192837192769
 21
1083.7557143787849
 31
0.0
  0
LINE
  5
7CED
  8
1
 10
1468.2742333239819
 20
1043.0616794649061
 30
0.0
 11
1500.0192837192769
 21
1043.0616794649061
 31
0.0
  0
LINE
  5
7CEE
  8
1
 10
1468.2742333239819
 20
1062.0616794649061
 30
0.0
 11
1500.0192837192769
 21
1062.0616794649061
 31
0.0
  0
LINE
  5
7CEF
  8
1
 10
1728.0192837192769
 20
1137.5616874649049
 30
0.0
 11
1728.0192837192769
 21
1132.555714378786
 31
0.0
  0
LINE
  5
7CF0
  8
1
 10
1911.5192837192851
 20
948.55571437878609
 30
0.0
 11
1911.5192837192831
 21
1031.555714378786
 31
0.0
  0
LINE
  5
7CF1
  8
1
 10
1895.5192837192801
 20
1210.555714378786
 30
0.0
 11
1915.519283719279
 21
1210.555714378786
 31
0.0
  0
LINE
  5
7CF2
  8
1
 10
1902.5192837192801
 20
1213.555714378786
 30
0.0
 11
1913.5192837192801
 21
1213.555714378786
 31
0.0
  0
LINE
  5
7CF3
  8
1
 10
1915.519283719279
 20
1210.555714378786
 30
0.0
 11
1895.5192837192801
 21
1210.555714378786
 31
0.0
  0
LINE
  5
7CF4
  8
1
 10
1895.5192837192801
 20
1122.555714378786
 30
0.0
 11
1895.5192837192801
 21
1233.555714378786
 31
0.0
  0
LINE
  5
7CF5
  8
1
 10
1898.519283719279
 20
1122.555714378786
 30
0.0
 11
1898.519283719279
 21
1210.555714378786
 31
0.0
  0
LINE
  5
7CF6
  8
1
 10
1896.519283719279
 20
1230.555714378786
 30
0.0
 11
1895.5192837192801
 21
1230.555714378786
 31
0.0
  0
ARC
  5
7CF7
  8
1
 10
1896.519283719279
 20
1228.555714378786
 30
0.0
 40
2.0
 50
0.0
 51
90.0
  0
ARC
  5
7CF8
  8
1
 10
1902.5192837192801
 20
1217.555714378786
 30
0.0
 40
4.0
 50
180.0
 51
270.0
  0
LINE
  5
7CF9
  8
1
 10
1895.5192837192801
 20
1230.555714378786
 30
0.0
 11
1895.5192837192801
 21
1210.555714378786
 31
0.0
  0
LINE
  5
7CFA
  8
1
 10
1898.519283719279
 20
1228.555714378786
 30
0.0
 11
1898.519283719279
 21
1217.555714378786
 31
0.0
  0
LINE
  5
7CFB
  8
1
 10
1891.519283719279
 20
1233.555714378786
 30
0.0
 11
1895.5192837192801
 21
1233.555714378786
 31
0.0
  0
LINE
  5
7CFC
  8
1
 10
1895.5192837192801
 20
1210.555714378786
 30
0.0
 11
1895.5192837192801
 21
1230.555714378786
 31
0.0
  0
LINE
  5
7CFD
  8
1
 10
1915.519283719279
 20
1034.555714378786
 30
0.0
 11
1915.519283719279
 21
1210.555714378786
 31
0.0
  0
ARC
  5
7CFE
  8
1
 10
1913.5192837192801
 20
1211.555714378786
 30
0.0
 40
2.0
 50
0.0
 51
90.0
  0
LINE
  5
7CFF
  8
1
 10
1915.519283719279
 20
1210.555714378786
 30
0.0
 11
1915.519283719279
 21
1211.555714378786
 31
0.0
  0
LINE
  5
7D00
  8
1
 10
536.8286300685586
 20
2040.6892574964179
 30
0.0
 11
536.8286300685586
 21
2160.6892574964209
 31
0.0
  0
LINE
  5
7D01
  8
1
 10
833.3286300685578
 20
2020.689257496424
 30
0.0
 11
833.32863006855848
 21
2180.6892574964209
 31
0.0
  0
LINE
  5
7D02
  8
1
 10
813.32863006855769
 20
2020.689257496424
 30
0.0
 11
813.3286300685586
 21
2180.6892574964199
 31
0.0
  0
LINE
  5
7D03
  8
1
 10
1501.219283719279
 20
1086.055714378788
 30
0.0
 11
1744.2192837192799
 21
1086.055714378786
 31
0.0
  0
LINE
  5
7D04
  8
1
 10
1501.219283719279
 20
1083.7557143787849
 30
0.0
 11
1744.2192837192799
 21
1083.755714378786
 31
0.0
  0
LINE
  5
7D05
  8
1
 10
1501.219283719279
 20
1112.555714378786
 30
0.0
 11
1744.2192837192799
 21
1112.555714378786
 31
0.0
  0
LINE
  5
7D06
  8
1
 10
1501.219283719279
 20
1132.5557143787869
 30
0.0
 11
1744.2192837192799
 21
1132.555714378786
 31
0.0
  0
DIMENSION
  5
7D07
  8
3
  2
*D8
 10
673.3286300685545
 20
1325.8588059779879
 30
0.0
 11
753.32863006855416
 21
1350.8588059779879
 31
0.0
 70
     0
 13
833.32863006855393
 23
1150.9057090806441
 33
0.0
 14
673.3286300685545
 24
1301.1617728758779
 34
0.0
 50
359.99999999999972
1001
ACAD
1000
DSTYLE
1002
{
1070
   287
1070
     3
1070
    40
1040
10.0
1070
   143
1040
0.039
1070
   172
1070
     1
1070
   271
1070
     0
1070
   279
1070
     0
1070
   288
1070
     1
1002
}
  0
DIMENSION
  5
7D08
  8
3
  2
*D9
 10
536.82863006855416
 20
1325.8588059779891
 30
0.0
 11
605.07863006855439
 21
1350.8588059779891
 31
0.0
 70
     0
  1
136
 13
673.3286300685545
 23
1301.1617728758779
 33
0.0
 14
536.82863006855416
 24
1115.1057090806451
 34
0.0
 50
359.99999999999972
1001
ACAD
1000
DSTYLE
1002
{
1070
   287
1070
     3
1070
    40
1040
10.0
1070
   143
1040
0.039
1070
   172
1070
     1
1070
   271
1070
     0
1070
   279
1070
     0
1070
   288
1070
     1
1002
}
  0
DIMENSION
  5
7D09
  8
3
  2
*D10
 10
995.2756329017709
 20
1122.6057090806439
 30
0.0
 11
970.27563290177079
 21
1183.3557090806451
 31
0.0
 70
     0
  1
121
 13
665.82863006855473
 23
1244.1057090806451
 33
0.0
 14
864.91980509660095
 24
1122.6057090806439
 34
0.0
 50
269.99999999999972
1001
ACAD
1000
DSTYLE
1002
{
1070
   287
1070
     3
1070
    40
1040
10.0
1070
   143
1040
0.039
1070
   172
1070
     1
1070
   271
1070
     0
1070
   279
1070
     0
1070
   288
1070
     1
1002
}
  0
DIMENSION
  5
7D0A
  8
3
  2
*D11
 10
995.27563290177022
 20
902.6057090806446
 30
0.0
 11
970.27563290177011
 21
1012.6057090806451
 31
0.0
 70
     0
 13
864.91980509660095
 23
1122.6057090806439
 33
0.0
 14
823.32863006855405
 24
902.6057090806446
 34
0.0
 50
269.99999999999972
1001
ACAD
1000
DSTYLE
1002
{
1070
   287
1070
     3
1070
    40
1040
10.0
1070
   143
1040
0.039
1070
   172
1070
     1
1070
   271
1070
     0
1070
   279
1070
     0
1070
   288
1070
     1
1002
}
  0
DIMENSION
  5
7D0D
  8
3
  2
*D12
 10
936.27446080481946
 20
968.6057090806446
 30
0.0
 11
936.27446080481923
 21
1045.6057090806439
 31
0.0
 70
   128
 13
864.91980509660095
 23
1122.6057090806439
 33
0.0
 14
813.32863006855405
 24
968.6057090806446
 34
0.0
 50
269.99999999999972
1001
ACAD
1000
DSTYLE
1002
{
1070
   287
1070
     3
1070
    40
1040
10.0
1070
   143
1040
0.039
1070
   172
1070
     1
1070
   271
1070
     0
1070
   279
1070
     0
1070
   288
1070
     1
1002
}
  0
DIMENSION
  5
7D0E
  8
3
  2
*D13
 10
243.3286300685545
 20
1387.513517645272
 30
0.0
 11
538.32863006855428
 21
1412.513517645272
 31
0.0
 70
     0
 13
833.32863006855393
 23
1150.9057090806441
 33
0.0
 14
243.3286300685545
 24
942.60570908064506
 34
0.0
 50
359.99999999999972
1001
ACAD
1000
DSTYLE
1002
{
1070
   287
1070
     3
1070
    40
1040
10.0
1070
   143
1040
0.039
1070
   172
1070
     1
1070
   271
1070
     0
1070
   279
1070
     0
1070
   288
1070
     1
1002
}
  0
LINE
  5
7D10
  8
1
 10
1771.519283719279
 20
1244.1057090806451
 30
0.0
 11
1891.519283719279
 21
1244.1057090806451
 31
0.0
  0
LINE
  5
7D11
  8
1
 10
1771.519283719279
 20
968.55571437878655
 30
0.0
 11
1891.519283719279
 21
968.55571437878621
 31
0.0
  0
LINE
  5
7D12
  8
1
 10
1771.519283719279
 20
1128.555714378786
 30
0.0
 11
1891.5192837192781
 21
1128.555714378786
 31
0.0
  0
LINE
  5
7D14
  8
1
 10
1771.519283719279
 20
1128.555714378786
 30
0.0
 11
1891.519283719279
 21
968.55571437878621
 31
0.0
  0
LINE
  5
7D15
  8
1
 10
1891.519283719279
 20
1128.555714378786
 30
0.0
 11
1771.519283719279
 21
968.55571437878643
 31
0.0
  0
LINE
  5
7D16
  8
1
 10
1500.0192837192769
 20
1132.555714378786
 30
0.0
 11
1500.0192837192769
 21
1137.5616874649049
 31
0.0
  0
LINE
  5
7D17
  8
1
 10
1501.219283719279
 20
1083.7557143787849
 30
0.0
 11
1501.219283719279
 21
942.55571437878643
 31
0.0
  0
LINE
  5
7D18
  8
1
 10
1500.0192837192769
 20
1086.055714378786
 30
0.0
 11
1500.0192837192769
 21
1112.555714378786
 31
0.0
  0
LINE
  5
7D19
  8
1
 10
1728.0192837192769
 20
1112.555714378786
 30
0.0
 11
1728.0192837192769
 21
1086.055714378786
 31
0.0
  0
LINE
  5
7D1A
  8
1
 10
1744.219283719279
 20
1186.1057143787859
 30
0.0
 11
1744.2192837192799
 21
966.10571437878605
 31
0.0
  0
LINE
  5
7D1B
  8
1
 10
1744.2192837192799
 20
966.10571437878605
 30
0.0
 11
1751.519283719279
 21
966.10571437878616
 31
0.0
  0
LINE
  5
8094
  8
4
 10
1850.0
 20
500.0
 30
0.0
 11
1850.0
 21
300.0
 31
0.0
  0
LINE
  5
8095
  8
4
 10
1150.0
 20
500.0
 30
0.0
 11
1150.0
 21
300.0
 31
0.0
  0
LINE
  5
8096
  8
4
 10
650.0
 20
500.0
 30
0.0
 11
650.0
 21
300.0
 31
0.0
  0
LINE
  5
8099
  8
4
 10
650.0
 20
300.0
 30
0.0
 11
1850.0
 21
300.0
 31
0.0
  0
LINE
  5
809A
  8
4
 10
650.0
 20
400.0
 30
0.0
 11
1850.0
 21
400.0
 31
0.0
  0
TEXT
  5
809B
  8
4
 10
688.50208084690155
 20
431.54302586661282
 30
0.0
 40
50.0
  1
機器名称
  0
TEXT
  5
809C
  8
4
 10
686.25810602479748
 20
321.64515673201089
 30
0.0
 40
50.0
  1
機器型番
  0
TEXT
  5
809D
  8
4
 10
1177.6787454876639
 20
422.57176895756851
 30
0.0
 40
50.0
  1
ミツヤ多翼送風機
  0
TEXT
  5
809E
  8
4
 10
1186.6544955854799
 20
317.15958427994332
 30
0.0
 40
50.0
  1
MF#1-1
  0
TEXT
  5
80A0
  8
4
 10
765.30149014857307
 20
2383.4288413325148
 30
0.0
 40
53.999999999999993
  1
床置ベット
  0
TEXT
  5
80A1
  8
4
 10
316.16759332944639
 20
2533.8809761992979
 30
0.0
 40
72.0
  1
遠心式片吸込片持多翼ファン
  0
LINE
  5
80A2
  8
4
 10
250.0
 20
2469.408754264804
 30
0.0
 11
1850.0
 21
2469.408754264804
 31
0.0
  0
LINE
  5
80A3
  8
4
 10
250.0
 20
2669.4087542648049
 30
0.0
 11
1850.0
 21
2669.4087542648049
 31
0.0
  0
LINE
  5
80A4
  8
4
 10
650.0
 20
500.0
 30
0.0
 11
1850.0
 21
500.0
 31
0.0
  0
LINE
  5
80A5
  8
4
 10
250.0
 20
2669.4087542648049
 30
0.0
 11
250.0
 21
2469.408754264804
 31
0.0
  0
TEXT
  5
80A6
  8
4
 10
329.44265790587082
 20
2382.319477546343
 30
0.0
 40
53.999999999999993
  1
左回転右横向
  0
TEXT
  5
80A7
  8
4
 10
1468.969559249289
 20
2706.0610814953088
 30
0.0
 40
56.000000000000007
  1
No.
  0
TEXT
  5
80A8
  8
4
 10
1311.2960626000131
 20
2383.4288413325148
 30
0.0
 40
53.999999999999993
  1
縮尺：1/10
  0
LINE
  5
80A9
  8
4
 10
1850.0
 20
2669.4087542648049
 30
0.0
 11
1850.0
 21
2469.408754264804
 31
0.0
  0
LINE
  5
80AA
  8
4
 10
2100.0
 20
2950.0
 30
0.0
 11
2100.0
 21
2950.0
 31
0.0
  0
LINE
  5
80AB
  8
4
 10
1440.6174223598639
 20
2681.2635831254011
 30
0.0
 11
1440.6174223598639
 21
2786.652261549752
 31
0.0
  0
LINE
  5
80AC
  8
4
 10
1440.6174223598639
 20
2786.652261549752
 30
0.0
 11
1850.0
 21
2786.652261549752
 31
0.0
  0
LINE
  5
80AD
  8
4
 10
1850.0
 20
2786.652261549752
 30
0.0
 11
1850.0
 21
2681.2635831254011
 31
0.0
  0
LINE
  5
80AE
  8
4
 10
1850.0
 20
2681.2635831254011
 30
0.0
 11
1440.6174223598639
 21
2681.2635831254011
 31
0.0
  0
LINE
  5
80AF
  8
4
 10
0.0
 20
0.0
 30
0.0
 11
0.0
 21
2950.0
 31
0.0
  0
LINE
  5
80B0
  8
4
 10
0.0
 20
2950.0
 30
0.0
 11
2100.0
 21
2950.0
 31
0.0
  0
LINE
  5
80B1
  8
4
 10
2100.0
 20
2950.0
 30
0.0
 11
2100.0
 21
0.0
 31
0.0
  0
LINE
  5
80B2
  8
4
 10
2100.0
 20
0.0
 30
0.0
 11
0.0
 21
0.0
 31
0.0
  0
LINE
  5
8152
  8
1
 10
1751.519283719279
 20
948.55571437878655
 30
0.0
 11
1911.5192837192851
 21
948.55571437878609
 31
0.0
  0
LINE
  5
8153
  8
1
 10
1911.5192837192781
 20
1148.5557143787869
 30
0.0
 11
1911.5192837192801
 21
968.55571437878643
 31
0.0
  0
LINE
  5
8154
  8
1
 10
1751.5192837192781
 20
1148.555714378786
 30
0.0
 11
1911.5192837192781
 21
1148.5557143787869
 31
0.0
  0
LINE
  5
8155
  8
1
 10
1751.5192837192769
 20
1148.555714378786
 30
0.0
 11
1751.519283719279
 21
948.55571437878655
 31
0.0
  0
LINE
  5
8156
  8
1
 10
1771.519283719279
 20
948.55571437878655
 30
0.0
 11
1771.519283719279
 21
942.55571437878621
 31
0.0
  0
LINE
  5
815B
  8
1
 10
1490.7742333239819
 20
1237.2833605388
 30
0.0
 11
1490.7742333239819
 21
1277.5616794649061
 31
0.0
  0
LINE
  5
8160
  8
1
 10
269.94294171413588
 20
1684.944207101126
 30
0.0
 11
269.94294171413588
 21
1759.9442071011249
 31
0.0
  0
LINE
  5
8161
  8
1
 10
799.94294171413583
 20
1684.944207101124
 30
0.0
 11
799.94294171413605
 21
1759.9442071011231
 31
0.0
  0
LINE
  5
81E5
  8
1
 10
783.32863006855405
 20
1737.1857551234771
 30
0.0
 11
283.32863006855399
 21
1737.18575512348
 31
0.0
  0
LINE
  5
81F3
  8
1
 10
783.32863006855405
 20
2037.18575512348
 30
0.0
 11
778.32863006855484
 21
2037.18575512348
 31
0.0
  0
LINE
  5
81F4
  8
1
 10
568.32863006855496
 20
2037.1857551234809
 30
0.0
 11
283.32863006855399
 21
2037.18575512348
 31
0.0
  0
DIMENSION
  5
8201
  8
3
  2
*D14
 10
823.32863006855405
 20
1594.4177920063189
 30
0.0
 11
514.9354020853807
 21
1594.4177920063189
 31
0.0
 70
   128
 13
243.32863006855411
 23
1697.18575512348
 33
0.0
 14
823.32863006855405
 24
1697.1857551234759
 34
0.0
1001
ACAD
1000
DSTYLE
1002
{
1070
   287
1070
     3
1070
    40
1040
10.0
1070
   143
1040
0.039
1070
   172
1070
     1
1070
   271
1070
     0
1070
   279
1070
     0
1070
   288
1070
     1
1002
}
  0
DIMENSION
  5
820E
  8
3
  2
*D15
 10
180.7304654417114
 20
1697.18575512348
 30
0.0
 11
180.7304654417112
 21
1869.541798119473
 31
0.0
 70
   128
 13
243.3286300685543
 23
2077.1857551234798
 33
0.0
 14
243.32863006855411
 24
1697.18575512348
 34
0.0
 50
90.0
1001
ACAD
1000
DSTYLE
1002
{
1070
   287
1070
     3
1070
    40
1040
10.0
1070
   143
1040
0.039
1070
   172
1070
     1
1070
   271
1070
     0
1070
   279
1070
     0
1070
   288
1070
     1
1002
}
  0
DIMENSION
  5
8242
  8
3
  2
*D16
 10
673.32863006855462
 20
831.40121243791407
 30
0.0
 11
458.3286300685545
 21
856.40121243791407
 31
0.0
 70
     0
 13
243.3286300685545
 23
902.56167946490575
 33
0.0
 14
673.32863006855462
 24
902.6057090806446
 34
0.0
1001
ACAD
1000
DSTYLE
1002
{
1070
   287
1070
     3
1070
    40
1040
10.0
1070
   143
1040
0.039
1070
   172
1070
     1
1070
   271
1070
     0
1070
   279
1070
     0
1002
}
  0
DIMENSION
  5
824F
  8
3
  2
*D17
 10
823.32863006855405
 20
831.40121243791407
 30
0.0
 11
748.32863006855416
 21
856.40121243791407
 31
0.0
 70
     0
 13
673.32863006855462
 23
902.6057090806446
 33
0.0
 14
823.32863006855405
 24
902.5616794649053
 34
0.0
1001
ACAD
1000
DSTYLE
1002
{
1070
   287
1070
     3
1070
    40
1040
10.0
1070
   143
1040
0.039
1070
   172
1070
     1
1070
   271
1070
     0
1070
   279
1070
     0
1002
}
  0
DIMENSION
  5
8269
  8
3
  2
*D18
 10
1806.5192837192801
 20
831.40121243791407
 30
0.0
 11
1616.519283719279
 21
856.40121243791407
 31
0.0
 70
     0
 13
1426.519283719279
 23
902.55571437878643
 33
0.0
 14
1806.5192837192801
 24
902.55571437878643
 34
0.0
1001
ACAD
1000
DSTYLE
1002
{
1070
   287
1070
     3
1070
    40
1040
10.0
1070
   143
1040
0.039
1070
   172
1070
     1
1070
   271
1070
     0
1070
   279
1070
     0
1002
}
  0
DIMENSION
  5
8278
  8
3
  2
*D19
 10
1831.519283719279
 20
831.40121243791407
 30
0.0
 11
1905.804998004993
 21
856.40121243791407
 31
0.0
 70
     0
 13
1806.5192837192801
 23
902.55571437878643
 33
0.0
 14
1831.519283719279
 24
902.55571437878643
 34
0.0
1001
ACAD
1000
DSTYLE
1002
{
1070
   287
1070
     3
1070
    40
1040
10.0
1070
   143
1040
0.039
1070
   172
1070
     1
1070
   271
1070
     0
1070
   279
1070
     0
1002
}
  0
DIMENSION
  5
82B3
  8
3
  2
*D20
 10
1072.192229083784
 20
902.6057090806446
 30
0.0
 11
1047.192229083784
 21
1073.3557090806451
 31
0.0
 70
     0
  1
341
 13
665.82863006855405
 23
1244.1057090806451
 33
0.0
 14
823.32863006855405
 24
902.6057090806446
 34
0.0
 50
90.0
1001
ACAD
1000
DSTYLE
1002
{
1070
   287
1070
     3
1070
    40
1040
10.0
1070
   143
1040
0.039
1070
   172
1070
     1
1070
   271
1070
     0
1070
   279
1070
     0
1002
}
  0
ENDSEC
  0
EOF
