  0
SECTION
  2
HEADER
  9
$ACADVER
  1
AC1009
  9
$INSBASE
 10
0.0
 20
0.0
 30
0.0
  9
$EXTMIN
 10
0.0
 20
0.0
 30
0.0
  9
$EXTMAX
 10
2100.0
 20
2950.0
 30
0.0
  9
$LIMMIN
 10
0.0
 20
0.0
  9
$LIMMAX
 10
297.0
 20
210.0
  9
$ORTHOMODE
 70
     0
  9
$REGENMODE
 70
     1
  9
$FILLMODE
 70
     0
  9
$QTEXTMODE
 70
     0
  9
$MIRRTEXT
 70
     1
  9
$DRAGMODE
 70
     2
  9
$LTSCALE
 40
100.0
  9
$OSMODE
 70
    37
  9
$ATTMODE
 70
     1
  9
$TEXTSIZE
 40
180.0
  9
$TRACEWID
 40
0.05
  9
$TEXTSTYLE
  7
STANDARD
  9
$CLAYER
  8
3
  9
$CELTYPE
  6
BYLAYER
  9
$CECOLOR
 62
   256
  9
$DIMSCALE
 40
10.0
  9
$DIMASZ
 40
2.0
  9
$DIMEXO
 40
0.5
  9
$DIMDLI
 40
10.0
  9
$DIMRND
 40
0.0
  9
$DIMDLE
 40
0.0
  9
$DIMEXE
 40
1.0
  9
$DIMTP
 40
1.0
  9
$DIMTM
 40
1.0
  9
$DIMTXT
 40
3.0
  9
$DIMCEN
 40
0.0
  9
$DIMTSZ
 40
0.0
  9
$DIMTOL
 70
     0
  9
$DIMLIM
 70
     0
  9
$DIMTIH
 70
     0
  9
$DIMTOH
 70
     0
  9
$DIMSE1
 70
     0
  9
$DIMSE2
 70
     0
  9
$DIMTAD
 70
     1
  9
$DIMZIN
 70
     8
  9
$DIMBLK
  1

  9
$DIMASO
 70
     1
  9
$DIMSHO
 70
     1
  9
$DIMPOST
  1

  9
$DIMAPOST
  1

  9
$DIMALT
 70
     0
  9
$DIMALTD
 70
     2
  9
$DIMALTF
 40
0.039
  9
$DIMLFAC
 40
1.0
  9
$DIMTOFL
 70
     1
  9
$DIMTVP
 40
0.0
  9
$DIMTIX
 70
     0
  9
$DIMSOXD
 70
     0
  9
$DIMSAH
 70
     1
  9
$DIMBLK1
  1
OPEN
  9
$DIMBLK2
  1
OPEN
  9
$DIMSTYLE
  2
IGA
  9
$DIMCLRD
 70
     0
  9
$DIMCLRE
 70
     0
  9
$DIMCLRT
 70
     0
  9
$DIMTFAC
 40
10.0
  9
$DIMGAP
 40
1.0
  9
$LUNITS
 70
     2
  9
$LUPREC
 70
     3
  9
$SKETCHINC
 40
0.1
  9
$FILLETRAD
 40
50.0
  9
$AUNITS
 70
     0
  9
$AUPREC
 70
     0
  9
$MENU
  1
acad
  9
$ELEVATION
 40
0.0
  9
$PELEVATION
 40
0.0
  9
$THICKNESS
 40
0.0
  9
$LIMCHECK
 70
     0
  9
$BLIPMODE
 70
     0
  9
$CHAMFERA
 40
0.5
  9
$CHAMFERB
 40
0.5
  9
$SKPOLY
 70
     0
  9
$TDCREATE
 40
2451935.613967129
  9
$TDUPDATE
 40
2454953.7493393631
  9
$TDINDWG
 40
0.0255910069
  9
$TDUSRTIMER
 40
0.0255910069
  9
$USRTIMER
 70
     1
  9
$ANGBASE
 50
0.0
  9
$ANGDIR
 70
     0
  9
$PDMODE
 70
     0
  9
$PDSIZE
 40
0.0
  9
$PLINEWID
 40
0.0
  9
$COORDS
 70
     1
  9
$SPLFRAME
 70
     0
  9
$SPLINETYPE
 70
     6
  9
$SPLINESEGS
 70
     8
  9
$ATTDIA
 70
     0
  9
$ATTREQ
 70
     1
  9
$HANDLING
 70
 10241
  9
$HANDSEED
  5
82F7
  9
$SURFTAB1
 70
     6
  9
$SURFTAB2
 70
     6
  9
$SURFTYPE
 70
     6
  9
$SURFU
 70
     6
  9
$SURFV
 70
     6
  9
$UCSNAME
  2

  9
$UCSORG
 10
0.0
 20
0.0
 30
0.0
  9
$UCSXDIR
 10
1.0
 20
0.0
 30
0.0
  9
$UCSYDIR
 10
0.0
 20
1.0
 30
0.0
  9
$PUCSNAME
  2

  9
$PUCSORG
 10
0.0
 20
0.0
 30
0.0
  9
$PUCSXDIR
 10
1.0
 20
0.0
 30
0.0
  9
$PUCSYDIR
 10
0.0
 20
1.0
 30
0.0
  9
$USERI1
 70
     0
  9
$USERI2
 70
     0
  9
$USERI3
 70
     0
  9
$USERI4
 70
     0
  9
$USERI5
 70
     0
  9
$USERR1
 40
0.0
  9
$USERR2
 40
0.0
  9
$USERR3
 40
0.0
  9
$USERR4
 40
0.0
  9
$USERR5
 40
0.0
  9
$WORLDVIEW
 70
     1
  9
$SHADEDGE
 70
     3
  9
$SHADEDIF
 70
    70
  9
$TILEMODE
 70
     1
  9
$MAXACTVP
 70
    16
  9
$PLIMCHECK
 70
     0
  9
$PEXTMIN
 10
1.0000000000000000E+020
 20
1.0000000000000000E+020
 30
1.0000000000000000E+020
  9
$PEXTMAX
 10
-1.0000000000000000E+020
 20
-1.0000000000000000E+020
 30
-1.0000000000000000E+020
  9
$PLIMMIN
 10
0.0
 20
0.0
  9
$PLIMMAX
 10
12.0
 20
9.0
  9
$UNITMODE
 70
     0
  9
$VISRETAIN
 70
     0
  9
$PLINEGEN
 70
     0
  9
$PSLTSCALE
 70
     1
  0
ENDSEC
  0
SECTION
  2
TABLES
  0
TABLE
  2
VPORT
 70
     2
  0
VPORT
  2
*ACTIVE
 70
     0
 10
0.0
 20
0.0
 11
1.0
 21
1.0
 12
3536.6099588513671
 22
1475.0000068685031
 13
0.0
 23
0.0
 14
10.0
 24
10.0
 15
10.0
 25
10.0
 16
0.0
 26
0.0
 36
1.0
 17
0.0
 27
0.0
 37
0.0
 40
2972.614883016935
 41
3.1666666666666661
 42
50.0
 43
0.0
 44
0.0
 50
0.0
 51
0.0
 71
     0
 72
   100
 73
     1
 74
     0
 75
     0
 76
     0
 77
     0
 78
     0
  0
ENDTAB
  0
TABLE
  2
LTYPE
 70
     2
  0
LTYPE
  2
CONTINUOUS
 70
     0
  3
Solid line
 72
    65
 73
     0
 40
0.0
  0
LTYPE
  2
CENTER
 70
     0
  3
____ _ ____ _ ____ _ ____ _ ____ _ ____ _ ____ 
 72
    65
 73
     4
 40
2.0
 49
1.25
 49
-0.25
 49
0.25
 49
-0.25
  0
ENDTAB
  0
TABLE
  2
LAYER
 70
     6
  0
LAYER
  2
0
 70
     0
 62
     7
  6
CONTINUOUS
  0
LAYER
  2
3
 70
     0
 62
     2
  6
CONTINUOUS
  0
LAYER
  2
2
 70
     0
 62
     3
  6
CENTER
  0
LAYER
  2
1
 70
     0
 62
     4
  6
CONTINUOUS
  0
LAYER
  2
4
 70
     0
 62
     7
  6
CONTINUOUS
  0
LAYER
  2
DEFPOINTS
 70
     0
 62
     7
  6
CONTINUOUS
  0
ENDTAB
  0
TABLE
  2
STYLE
 70
     1
  0
STYLE
  2
STANDARD
 70
     0
 40
0.0
 41
1.0
 50
0.0
 71
     0
 42
180.0
  3
simplex.shx
  4
extfont.shx
  0
ENDTAB
  0
TABLE
  2
VIEW
 70
     0
  0
ENDTAB
  0
TABLE
  2
UCS
 70
     0
  0
ENDTAB
  0
TABLE
  2
APPID
 70
     1
  0
APPID
  2
ACAD
 70
     0
  0
ENDTAB
  0
TABLE
  2
DIMSTYLE
 70
     1
  0
DIMSTYLE
  2
IGA
 70
     0
  3

  4

  5

  6
OPEN
  7
OPEN
 40
2.0
 41
2.0
 42
0.5
 43
10.0
 44
1.0
 45
0.0
 46
0.0
 47
1.0
 48
1.0
140
3.0
141
0.0
142
0.0
143
0.03937
144
1.0
145
0.0
146
10.0
147
1.0
 71
     0
 72
     0
 73
     0
 74
     0
 75
     0
 76
     0
 77
     1
 78
     8
170
     0
171
     2
172
     0
173
     1
174
     0
175
     0
176
     0
177
     0
178
     0
  0
ENDTAB
  0
ENDSEC
  0
SECTION
  2
BLOCKS
  0
BLOCK
  8
0
  2
$MODEL_SPACE
 70
     0
 10
0.0
 20
0.0
 30
0.0
  3
$MODEL_SPACE
  1

  0
ENDBLK
  5
1B
  8
0
  0
BLOCK
 67
     1
  8
0
  2
$PAPER_SPACE
 70
     0
 10
0.0
 20
0.0
 30
0.0
  3
$PAPER_SPACE
  1

  0
ENDBLK
  5
18
 67
     1
  8
0
  0
BLOCK
  8
0
  2
_OPEN
 70
     0
 10
0.0
 20
0.0
 30
0.0
  3
_OPEN
  1

  0
LINE
  5
79FD
  8
0
  6
BYBLOCK
 62
     0
 10
-1.0
 20
0.1666666666666666
 30
0.0
 11
0.0
 21
0.0
 31
0.0
  0
LINE
  5
79FE
  8
0
  6
BYBLOCK
 62
     0
 10
0.0
 20
0.0
 30
0.0
 11
-1.0
 21
-0.1666666666666666
 31
0.0
  0
LINE
  5
79FF
  8
0
  6
BYBLOCK
 62
     0
 10
0.0
 20
0.0
 30
0.0
 11
-1.0
 21
0.0
 31
0.0
  0
ENDBLK
  5
7A01
  8
0
  0
BLOCK
  8
0
  2
YA_N
 70
     0
 10
0.0
 20
0.0
 30
0.0
  3
YA_N
  1

  0
ENDBLK
  5
7A04
  8
0
  0
BLOCK
  8
0
  2
*D2
 70
     1
 10
0.0
 20
0.0
 30
0.0
  3
*D2
  1

  0
LINE
  5
825B
  8
3
 62
     0
 10
831.63107727391412
 20
1127.960739463025
 30
0.0
 11
831.63107727391446
 21
1207.8030176802949
 31
0.0
  0
LINE
  5
825C
  8
3
 62
     0
 10
671.63107727391412
 20
1127.9607394630259
 30
0.0
 11
671.63107727391446
 21
1207.8030176802949
 31
0.0
  0
LINE
  5
825D
  8
3
 62
     0
 10
811.63107727391446
 20
1197.8030176802949
 30
0.0
 11
691.63107727391434
 21
1197.8030176802949
 31
0.0
  0
INSERT
  5
825E
  8
3
 62
     0
  2
_OPEN
 10
831.63107727391434
 20
1197.8030176802949
 30
0.0
 41
20.0
 42
20.0
 43
20.0
 50
359.99999999999972
  0
INSERT
  5
825F
  8
3
 62
     0
  2
_OPEN
 10
671.63107727391434
 20
1197.8030176802949
 30
0.0
 41
20.0
 42
20.0
 43
20.0
 50
179.9999999999998
  0
TEXT
  8
3
  40
30
  5
82E7
  62
0
  72
0
  71
0
 10
691.631
 20
1169.70
 30
0.000000
  1
160
  0
POINT
  5
8261
  8
DEFPOINTS
 62
     0
 10
831.63107727391412
 20
1122.960739463025
 30
0.0
  0
POINT
  5
8262
  8
DEFPOINTS
 62
     0
 10
671.63107727391412
 20
1122.9607394630259
 30
0.0
  0
POINT
  5
8263
  8
DEFPOINTS
 62
     0
 10
671.63107727391434
 20
1197.8030176802949
 30
0.0
  0
ENDBLK
  5
8008
  8
0
  0
BLOCK
  8
0
  2
*D3
 70
     1
 10
0.0
 20
0.0
 30
0.0
  3
*D3
  1

  0
LINE
  5
8264
  8
3
 62
     0
 10
831.63107727391412
 20
1127.960739463025
 30
0.0
 11
831.63107727391446
 21
1263.676463388955
 31
0.0
  0
LINE
  5
8265
  8
3
 62
     0
 10
677.63107727391434
 20
1164.7069834603669
 30
0.0
 11
677.63107727391457
 21
1263.676463388955
 31
0.0
  0
LINE
  5
8266
  8
3
 62
     0
 10
811.63107727391446
 20
1253.6764633889541
 30
0.0
 11
697.63107727391468
 21
1253.676463388955
 31
0.0
  0
INSERT
  5
8267
  8
3
 62
     0
  2
_OPEN
 10
831.63107727391446
 20
1253.6764633889541
 30
0.0
 41
20.0
 42
20.0
 43
20.0
 50
359.99999999999972
  0
INSERT
  5
8268
  8
3
 62
     0
  2
_OPEN
 10
677.63107727391457
 20
1253.676463388955
 30
0.0
 41
20.0
 42
20.0
 43
20.0
 50
179.9999999999998
  0
TEXT
  8
3
  40
30
  5
82E8
  62
0
  72
0
  71
0
 10
694.631
 20
1225.58
 30
0.000000
  1
154
  0
POINT
  5
826A
  8
DEFPOINTS
 62
     0
 10
831.63107727391412
 20
1122.960739463025
 30
0.0
  0
POINT
  5
826B
  8
DEFPOINTS
 62
     0
 10
677.63107727391434
 20
1159.7069834603669
 30
0.0
  0
POINT
  5
826C
  8
DEFPOINTS
 62
     0
 10
677.63107727391457
 20
1253.676463388955
 30
0.0
  0
ENDBLK
  5
7FFD
  8
0
  0
BLOCK
  8
0
  2
*D4
 70
     1
 10
0.0
 20
0.0
 30
0.0
  3
*D4
  1

  0
LINE
  5
826D
  8
3
 62
     0
 10
1914.707444793934
 20
1070.9107447611671
 30
0.0
 11
2000.348108603471
 21
1070.9107447611671
 31
0.0
  0
LINE
  5
826E
  8
3
 62
     0
 10
1914.707444793934
 20
894.91074476116785
 30
0.0
 11
2000.348108603471
 21
894.91074476116785
 31
0.0
  0
LINE
  5
826F
  8
3
 62
     0
 10
1990.348108603471
 20
1050.9107447611671
 30
0.0
 11
1990.348108603471
 21
914.91074476116785
 31
0.0
  0
INSERT
  5
8270
  8
3
 62
     0
  2
_OPEN
 10
1990.348108603471
 20
1070.9107447611671
 30
0.0
 41
20.0
 42
20.0
 43
20.0
 50
90.0
  0
INSERT
  5
8271
  8
3
 62
     0
  2
_OPEN
 10
1990.348108603471
 20
894.91074476116785
 30
0.0
 41
20.0
 42
20.0
 43
20.0
 50
270.0
  0
TEXT
  8
3
  40
30
  5
82E9
  62
0
  72
0
  71
0
 10
1905.35
 20
929.811
 30
0.000000
  1
φ176
  0
POINT
  5
8273
  8
DEFPOINTS
 62
     0
 10
1909.7074447939351
 20
1070.9107447611671
 30
0.0
  0
POINT
  5
8274
  8
DEFPOINTS
 62
     0
 10
1909.7074447939351
 20
894.91074476116785
 30
0.0
  0
POINT
  5
8275
  8
DEFPOINTS
 62
     0
 10
1990.348108603471
 20
894.91074476116785
 30
0.0
  0
ENDBLK
  5
80DC
  8
0
  0
BLOCK
  8
0
  2
*D5
 70
     1
 10
0.0
 20
0.0
 30
0.0
  3
*D5
  1

  0
LINE
  5
8195
  8
0
  6
BYBLOCK
 62
     0
 10
1765.707444793934
 20
1121.946781979497
 30
0.0
 11
1765.707444793934
 21
1185.015631336553
 31
0.0
  0
LINE
  5
8196
  8
0
  6
BYBLOCK
 62
     0
 10
1885.707444793934
 20
1121.9467819794961
 30
0.0
 11
1885.707444793934
 21
1185.015631336553
 31
0.0
  0
LINE
  5
8197
  8
0
  6
BYBLOCK
 62
     0
 10
1785.707444793934
 20
1175.015631336553
 30
0.0
 11
1865.707444793934
 21
1175.015631336553
 31
0.0
  0
TEXT
  5
8198
  8
3
 62
     0
 10
1789.993159079648
 20
1185.966598990806
 30
0.0
 40
30.0
  1
120
  0
INSERT
  5
8199
  8
0
  6
BYBLOCK
 62
     0
  2
_OPEN
 10
1765.707444793934
 20
1175.015631336553
 30
0.0
 41
20.0
 42
20.0
 43
20.0
 50
180.0
  0
INSERT
  5
819A
  8
0
  6
BYBLOCK
 62
     0
  2
_OPEN
 10
1885.707444793934
 20
1175.015631336553
 30
0.0
 41
20.0
 42
20.0
 43
20.0
  0
POINT
  5
819B
  8
DEFPOINTS
  6
BYBLOCK
 62
     0
 10
1765.707444793934
 20
1116.946781979497
 30
0.0
  0
POINT
  5
819C
  8
DEFPOINTS
  6
BYBLOCK
 62
     0
 10
1885.707444793934
 20
1116.9467819794961
 30
0.0
  0
POINT
  5
819D
  8
DEFPOINTS
  6
BYBLOCK
 62
     0
 10
1885.707444793934
 20
1175.015631336553
 30
0.0
  0
ENDBLK
  5
819E
  8
0
  0
BLOCK
  8
0
  2
*D6
 70
     1
 10
0.0
 20
0.0
 30
0.0
  3
*D6
  1

  0
LINE
  5
818A
  8
0
  6
BYBLOCK
 62
     0
 10
1889.707444793934
 20
1098.910744761168
 30
0.0
 11
1889.707444793934
 21
1268.4002286991449
 31
0.0
  0
LINE
  5
818B
  8
0
  6
BYBLOCK
 62
     0
 10
1825.707444793934
 20
1229.3106719978041
 30
0.0
 11
1825.707444793934
 21
1268.4002286991449
 31
0.0
  0
LINE
  5
818C
  8
0
  6
BYBLOCK
 62
     0
 10
1869.7074447939351
 20
1258.4002286991449
 30
0.0
 11
1845.7074447939351
 21
1258.4002286991449
 31
0.0
  0
TEXT
  5
818D
  8
3
 62
     0
 10
1832.7074447939351
 20
1268.549040226309
 30
0.0
 40
30.0
  1
64
  0
INSERT
  5
818E
  8
0
  6
BYBLOCK
 62
     0
  2
_OPEN
 10
1889.707444793934
 20
1258.4002286991449
 30
0.0
 41
20.0
 42
20.0
 43
20.0
  0
INSERT
  5
818F
  8
0
  6
BYBLOCK
 62
     0
  2
_OPEN
 10
1825.707444793934
 20
1258.4002286991449
 30
0.0
 41
20.0
 42
20.0
 43
20.0
 50
180.0
  0
POINT
  5
8190
  8
DEFPOINTS
  6
BYBLOCK
 62
     0
 10
1889.707444793934
 20
1093.910744761168
 30
0.0
  0
POINT
  5
8191
  8
DEFPOINTS
  6
BYBLOCK
 62
     0
 10
1825.707444793934
 20
1224.3106719978041
 30
0.0
  0
POINT
  5
8192
  8
DEFPOINTS
  6
BYBLOCK
 62
     0
 10
1825.707444793934
 20
1258.4002286991449
 30
0.0
  0
ENDBLK
  5
8193
  8
0
  0
BLOCK
  8
0
  2
*D7
 70
     1
 10
0.0
 20
0.0
 30
0.0
  3
*D7
  1

  0
LINE
  5
8276
  8
3
 62
     0
 10
1825.707444793934
 20
1229.3106719978041
 30
0.0
 11
1825.707444793934
 21
1268.4002286991449
 31
0.0
  0
LINE
  5
8277
  8
3
 62
     0
 10
1409.9623943986369
 20
1142.9167098472869
 30
0.0
 11
1409.9623943986369
 21
1268.4002286991449
 31
0.0
  0
LINE
  5
8278
  8
3
 62
     0
 10
1805.707444793934
 20
1258.4002286991449
 30
0.0
 11
1429.9623943986369
 21
1258.4002286991449
 31
0.0
  0
INSERT
  5
8279
  8
3
 62
     0
  2
_OPEN
 10
1825.707444793934
 20
1258.4002286991449
 30
0.0
 41
20.0
 42
20.0
 43
20.0
  0
INSERT
  5
827A
  8
3
 62
     0
  2
_OPEN
 10
1409.9623943986369
 20
1258.4002286991449
 30
0.0
 41
20.0
 42
20.0
 43
20.0
 50
180.0
  0
TEXT
  8
3
  40
30
  5
82EA
  62
0
  72
0
  71
0
 10
1557.83
 20
1255.30
 30
0.000000
  1
MAX
  0
TEXT
  8
3
  40
30
  5
82EB
  62
0
  72
0
  71
0
 10
1557.83
 20
1216.30
 30
0.000000
  1
500
  0
POINT
  5
827C
  8
DEFPOINTS
 62
     0
 10
1825.707444793934
 20
1224.3106719978041
 30
0.0
  0
POINT
  5
827D
  8
DEFPOINTS
 62
     0
 10
1409.9623943986369
 20
1137.9167098472869
 30
0.0
  0
POINT
  5
827E
  8
DEFPOINTS
 62
     0
 10
1409.9623943986369
 20
1258.4002286991449
 30
0.0
  0
ENDBLK
  5
8188
  8
0
  0
BLOCK
  8
0
  2
*D8
 70
     1
 10
0.0
 20
0.0
 30
0.0
  3
*D8
  1

  0
LINE
  5
827F
  8
3
 62
     0
 10
522.63107727391798
 20
1984.066204540416
 30
0.0
 11
405.73528615720522
 21
1984.066204540416
 31
0.0
  0
LINE
  5
8280
  8
3
 62
     0
 10
522.63107727391673
 20
1604.0662045404149
 30
0.0
 11
405.735286157205
 21
1604.066204540416
 31
0.0
  0
LINE
  5
8281
  8
3
 62
     0
 10
415.73528615720522
 20
1964.0662045404149
 30
0.0
 11
415.73528615720511
 21
1624.066204540416
 31
0.0
  0
INSERT
  5
8282
  8
3
 62
     0
  2
_OPEN
 10
415.73528615720522
 20
1984.066204540416
 30
0.0
 41
20.0
 42
20.0
 43
20.0
 50
90.0
  0
INSERT
  5
8283
  8
3
 62
     0
  2
_OPEN
 10
415.73528615720511
 20
1604.066204540416
 30
0.0
 41
20.0
 42
20.0
 43
20.0
 50
270.0
  0
TEXT
  8
3
  40
30
  5
82EC
  62
0
  72
0
  71
0
 10
330.735
 20
1740.97
 30
0.000000
  1
380
  0
POINT
  5
8285
  8
DEFPOINTS
 62
     0
 10
527.63107727391798
 20
1984.066204540416
 30
0.0
  0
POINT
  5
8286
  8
DEFPOINTS
 62
     0
 10
527.63107727391673
 20
1604.0662045404149
 30
0.0
  0
POINT
  5
8287
  8
DEFPOINTS
 62
     0
 10
415.73528615720511
 20
1604.066204540416
 30
0.0
  0
ENDBLK
  5
816B
  8
0
  0
BLOCK
  8
0
  2
*D9
 70
     1
 10
0.0
 20
0.0
 30
0.0
  3
*D9
  1

  0
LINE
  5
8288
  8
3
 62
     0
 10
1107.6310772739171
 20
1989.066204540414
 30
0.0
 11
1107.6310772739171
 21
2144.7329721294659
 31
0.0
  0
LINE
  5
8289
  8
3
 62
     0
 10
527.63107727391798
 20
1989.0662045404149
 30
0.0
 11
527.63107727391798
 21
2144.7329721294659
 31
0.0
  0
LINE
  5
828A
  8
3
 62
     0
 10
1087.6310772739171
 20
2134.7329721294659
 30
0.0
 11
547.63107727391798
 21
2134.7329721294659
 31
0.0
  0
INSERT
  5
828B
  8
3
 62
     0
  2
_OPEN
 10
1107.6310772739171
 20
2134.7329721294659
 30
0.0
 41
20.0
 42
20.0
 43
20.0
  0
INSERT
  5
828C
  8
3
 62
     0
  2
_OPEN
 10
527.63107727391798
 20
2134.7329721294659
 30
0.0
 41
20.0
 42
20.0
 43
20.0
 50
180.0
  0
TEXT
  8
3
  40
30
  5
82ED
  62
0
  72
0
  71
0
 10
752.150
 20
2106.63
 30
0.000000
  1
580
  0
POINT
  5
828E
  8
DEFPOINTS
 62
     0
 10
1107.6310772739171
 20
1984.066204540414
 30
0.0
  0
POINT
  5
828F
  8
DEFPOINTS
 62
     0
 10
527.63107727391798
 20
1984.066204540416
 30
0.0
  0
POINT
  5
8290
  8
DEFPOINTS
 62
     0
 10
527.63107727391798
 20
2134.7329721294659
 30
0.0
  0
ENDBLK
  5
817C
  8
0
  0
BLOCK
  8
0
  2
*D10
 70
     1
 10
0.0
 20
0.0
 30
0.0
  3
*D10
  1

  0
LINE
  5
8291
  8
3
 62
     0
 10
495.88483327657218
 20
982.96073946302693
 30
0.0
 11
396.2756779247382
 21
982.96073946302693
 31
0.0
  0
LINE
  5
8292
  8
3
 62
     0
 10
522.63107727391321
 20
762.96073946302658
 30
0.0
 11
396.27567792473809
 21
762.96073946302658
 31
0.0
  0
LINE
  5
8293
  8
3
 62
     0
 10
406.2756779247382
 20
962.96073946302681
 30
0.0
 11
406.27567792473809
 21
782.96073946302658
 31
0.0
  0
INSERT
  5
8294
  8
3
 62
     0
  2
_OPEN
 10
406.2756779247382
 20
982.96073946302693
 30
0.0
 41
20.0
 42
20.0
 43
20.0
 50
90.0
  0
INSERT
  5
8295
  8
3
 62
     0
  2
_OPEN
 10
406.27567792473809
 20
762.96073946302658
 30
0.0
 41
20.0
 42
20.0
 43
20.0
 50
270.0
  0
TEXT
  8
3
  40
30
  5
82EE
  62
0
  72
0
  71
0
 10
321.276
 20
819.861
 30
0.000000
  1
220
  0
POINT
  5
8297
  8
DEFPOINTS
 62
     0
 10
500.88483327657218
 20
982.96073946302693
 30
0.0
  0
POINT
  5
8298
  8
DEFPOINTS
 62
     0
 10
527.63107727391309
 20
762.96073946302658
 30
0.0
  0
POINT
  5
8299
  8
DEFPOINTS
 62
     0
 10
406.27567792473809
 20
762.96073946302658
 30
0.0
  0
ENDBLK
  5
7F51
  8
0
  0
BLOCK
  8
0
  2
*D11
 70
     1
 10
0.0
 20
0.0
 30
0.0
  3
*D11
  1

  0
LINE
  5
829A
  8
3
 62
     0
 10
495.88483327657218
 20
982.96073946302693
 30
0.0
 11
396.27567792473968
 21
982.96073946302693
 31
0.0
  0
LINE
  5
829B
  8
3
 62
     0
 10
644.33107727391405
 20
1142.9607394630259
 30
0.0
 11
396.27567792473968
 21
1142.9607394630259
 31
0.0
  0
LINE
  5
829C
  8
3
 62
     0
 10
406.27567792473968
 20
1002.960739463026
 30
0.0
 11
406.27567792473968
 21
1122.9607394630259
 31
0.0
  0
INSERT
  5
829D
  8
3
 62
     0
  2
_OPEN
 10
406.27567792473968
 20
982.96073946302693
 30
0.0
 41
20.0
 42
20.0
 43
20.0
 50
270.0
  0
INSERT
  5
829E
  8
3
 62
     0
  2
_OPEN
 10
406.27567792473968
 20
1142.9607394630259
 30
0.0
 41
20.0
 42
20.0
 43
20.0
 50
90.0
  0
TEXT
  8
3
  40
30
  5
82EF
  62
0
  72
0
  71
0
 10
321.276
 20
1009.86
 30
0.000000
  1
160
  0
POINT
  5
82A0
  8
DEFPOINTS
 62
     0
 10
500.88483327657218
 20
982.96073946302693
 30
0.0
  0
POINT
  5
82A1
  8
DEFPOINTS
 62
     0
 10
649.33107727391416
 20
1142.9607394630259
 30
0.0
  0
POINT
  5
82A2
  8
DEFPOINTS
 62
     0
 10
406.27567792473968
 20
1142.9607394630259
 30
0.0
  0
ENDBLK
  5
7F46
  8
0
  0
BLOCK
  8
0
  2
*D12
 70
     1
 10
0.0
 20
0.0
 30
0.0
  3
*D12
  1

  0
LINE
  5
82A3
  8
3
 62
     0
 10
677.63107727391434
 20
1164.7069834603669
 30
0.0
 11
677.63107727391434
 21
1263.676463388955
 31
0.0
  0
LINE
  5
82A4
  8
3
 62
     0
 10
556.13107727391355
 20
980.46073946302647
 30
0.0
 11
556.13107727391355
 21
1263.676463388955
 31
0.0
  0
LINE
  5
82A5
  8
3
 62
     0
 10
657.63107727391434
 20
1253.676463388955
 30
0.0
 11
576.13107727391355
 21
1253.676463388955
 31
0.0
  0
INSERT
  5
82A6
  8
3
 62
     0
  2
_OPEN
 10
677.63107727391434
 20
1253.676463388955
 30
0.0
 41
20.0
 42
20.0
 43
20.0
  0
INSERT
  5
82A7
  8
3
 62
     0
  2
_OPEN
 10
556.13107727391355
 20
1253.676463388955
 30
0.0
 41
20.0
 42
20.0
 43
20.0
 50
180.0
  0
TEXT
  8
3
  40
30
  5
82F0
  62
0
  72
0
  71
0
 10
556.881
 20
1225.58
 30
0.000000
  1
121
  0
POINT
  5
82A9
  8
DEFPOINTS
 62
     0
 10
677.63107727391434
 20
1159.7069834603669
 30
0.0
  0
POINT
  5
82AA
  8
DEFPOINTS
 62
     0
 10
556.13107727391355
 20
975.46073946302658
 30
0.0
  0
POINT
  5
82AB
  8
DEFPOINTS
 62
     0
 10
556.13107727391355
 20
1253.676463388955
 30
0.0
  0
ENDBLK
  5
7F3B
  8
0
  0
BLOCK
  8
0
  2
*D13
 70
     1
 10
0.0
 20
0.0
 30
0.0
  3
*D13
  1

  0
LINE
  5
82AC
  8
3
 62
     0
 10
556.13107727391309
 20
980.46073946302647
 30
0.0
 11
556.13107727391309
 21
1318.4086642223861
 31
0.0
  0
LINE
  5
82AD
  8
3
 62
     0
 10
1107.631077273913
 20
807.96073946302465
 30
0.0
 11
1107.631077273913
 21
1318.4086642223861
 31
0.0
  0
LINE
  5
82AE
  8
3
 62
     0
 10
576.13107727391321
 20
1308.4086642223861
 30
0.0
 11
1087.631077273913
 21
1308.4086642223861
 31
0.0
  0
INSERT
  5
82AF
  8
3
 62
     0
  2
_OPEN
 10
556.13107727391309
 20
1308.4086642223861
 30
0.0
 41
20.0
 42
20.0
 43
20.0
 50
180.0
  0
INSERT
  5
82B0
  8
3
 62
     0
  2
_OPEN
 10
1107.631077273913
 20
1308.4086642223861
 30
0.0
 41
20.0
 42
20.0
 43
20.0
  0
TEXT
  8
3
  40
30
  5
82F1
  62
0
  72
0
  71
0
 10
771.881
 20
1280.31
 30
0.000000
  1
551
  0
POINT
  5
82B2
  8
DEFPOINTS
 62
     0
 10
556.13107727391309
 20
975.46073946302658
 30
0.0
  0
POINT
  5
82B3
  8
DEFPOINTS
 62
     0
 10
1107.631077273913
 20
802.96073946302465
 30
0.0
  0
POINT
  5
82B4
  8
DEFPOINTS
 62
     0
 10
1107.631077273913
 20
1308.4086642223861
 30
0.0
  0
ENDBLK
  5
7F25
  8
0
  0
BLOCK
  8
0
  2
_DOT
 70
     0
 10
0.0
 20
0.0
 30
0.0
  3
_DOT
  1

  0
LINE
  5
80E1
  8
0
  6
BYBLOCK
 62
     0
 10
0.0
 20
0.0
 30
0.0
 11
-1.0
 21
-0.0000000000000284
 31
0.0
  0
POLYLINE
  5
80E2
  8
0
  6
BYBLOCK
 62
     0
 66
     1
 10
0.0
 20
0.0
 30
0.0
 70
     1
 40
0.1666666666666666
 41
0.1666666666666666
  0
VERTEX
  5
82B5
  8
0
  6
BYBLOCK
 62
     0
 10
-0.0833333333333286
 20
-0.0000000000000284
 30
0.0
 42
1.0
  0
VERTEX
  5
82B6
  8
0
  6
BYBLOCK
 62
     0
 10
0.0833333333333286
 20
-0.0000000000000284
 30
0.0
 42
1.0
  0
SEQEND
  5
82B7
  8
0
  6
BYBLOCK
 62
     0
  0
ENDBLK
  5
809A
  8
0
  0
BLOCK
  8
0
  2
*D15
 70
     1
 10
0.0
 20
0.0
 30
0.0
  3
*D15
  1

  0
LINE
  5
82B8
  8
3
 62
     0
 10
527.63107727391309
 20
757.96073946302647
 30
0.0
 11
527.63107727391309
 21
681.37395562498841
 31
0.0
  0
LINE
  5
82B9
  8
3
 62
     0
 10
677.63107727391275
 20
757.96073946302613
 30
0.0
 11
677.63107727391275
 21
681.37395562498841
 31
0.0
  0
LINE
  5
82BA
  8
3
 62
     0
 10
547.63107727391321
 20
691.37395562498841
 30
0.0
 11
657.63107727391275
 21
691.37395562498841
 31
0.0
  0
INSERT
  5
82BB
  8
3
 62
     0
  2
_OPEN
 10
527.63107727391309
 20
691.37395562498841
 30
0.0
 41
20.0
 42
20.0
 43
20.0
 50
180.0
  0
INSERT
  5
82BC
  8
3
 62
     0
  2
_OPEN
 10
677.63107727391275
 20
691.37395562498841
 30
0.0
 41
20.0
 42
20.0
 43
20.0
  0
TEXT
  8
3
  40
30
  5
82F2
  62
0
  72
0
  71
0
 10
542.631
 20
663.274
 30
0.000000
  1
150
  0
POINT
  5
82BE
  8
DEFPOINTS
 62
     0
 10
527.63107727391309
 20
762.96073946302658
 30
0.0
  0
POINT
  5
82BF
  8
DEFPOINTS
 62
     0
 10
677.63107727391275
 20
762.96073946302613
 30
0.0
  0
POINT
  5
82C0
  8
DEFPOINTS
 62
     0
 10
677.63107727391275
 20
691.37395562498841
 30
0.0
  0
ENDBLK
  5
8205
  8
0
  0
BLOCK
  8
0
  2
*D16
 70
     1
 10
0.0
 20
0.0
 30
0.0
  3
*D16
  1

  0
LINE
  5
82C1
  8
3
 62
     0
 10
677.63107727391275
 20
757.96073946302613
 30
0.0
 11
677.63107727391275
 21
681.37395562498841
 31
0.0
  0
LINE
  5
82C2
  8
3
 62
     0
 10
1107.631077273913
 20
757.96073946302454
 30
0.0
 11
1107.631077273913
 21
681.37395562498841
 31
0.0
  0
LINE
  5
82C3
  8
3
 62
     0
 10
697.63107727391275
 20
691.37395562498841
 30
0.0
 11
1087.631077273913
 21
691.37395562498841
 31
0.0
  0
INSERT
  5
82C4
  8
3
 62
     0
  2
_OPEN
 10
677.63107727391275
 20
691.37395562498841
 30
0.0
 41
20.0
 42
20.0
 43
20.0
 50
180.0
  0
INSERT
  5
82C5
  8
3
 62
     0
  2
_OPEN
 10
1107.631077273913
 20
691.37395562498841
 30
0.0
 41
20.0
 42
20.0
 43
20.0
  0
TEXT
  8
3
  40
30
  5
82F3
  62
0
  72
0
  71
0
 10
832.631
 20
663.274
 30
0.000000
  1
430
  0
POINT
  5
82C7
  8
DEFPOINTS
 62
     0
 10
677.63107727391275
 20
762.96073946302613
 30
0.0
  0
POINT
  5
82C8
  8
DEFPOINTS
 62
     0
 10
1107.631077273913
 20
762.96073946302454
 30
0.0
  0
POINT
  5
82C9
  8
DEFPOINTS
 62
     0
 10
1107.631077273913
 20
691.37395562498841
 30
0.0
  0
ENDBLK
  5
8212
  8
0
  0
BLOCK
  8
0
  2
*D17
 70
     1
 10
0.0
 20
0.0
 30
0.0
  3
*D17
  1

  0
LINE
  5
82CA
  8
3
 62
     0
 10
1420.707444793934
 20
757.91074476116785
 30
0.0
 11
1420.707444793934
 21
681.37395562498841
 31
0.0
  0
LINE
  5
82CB
  8
3
 62
     0
 10
1800.7074447939351
 20
757.91074476116762
 30
0.0
 11
1800.7074447939351
 21
681.37395562498841
 31
0.0
  0
LINE
  5
82CC
  8
3
 62
     0
 10
1440.707444793934
 20
691.37395562498841
 30
0.0
 11
1780.7074447939351
 21
691.37395562498841
 31
0.0
  0
INSERT
  5
82CD
  8
3
 62
     0
  2
_OPEN
 10
1420.707444793934
 20
691.37395562498841
 30
0.0
 41
20.0
 42
20.0
 43
20.0
 50
180.0
  0
INSERT
  5
82CE
  8
3
 62
     0
  2
_OPEN
 10
1800.7074447939351
 20
691.37395562498841
 30
0.0
 41
20.0
 42
20.0
 43
20.0
  0
TEXT
  8
3
  40
30
  5
82F4
  62
0
  72
0
  71
0
 10
1550.71
 20
663.274
 30
0.000000
  1
380
  0
POINT
  5
82D0
  8
DEFPOINTS
 62
     0
 10
1420.707444793934
 20
762.91074476116785
 30
0.0
  0
POINT
  5
82D1
  8
DEFPOINTS
 62
     0
 10
1800.7074447939351
 20
762.91074476116762
 30
0.0
  0
POINT
  5
82D2
  8
DEFPOINTS
 62
     0
 10
1800.7074447939351
 20
691.37395562498841
 30
0.0
  0
ENDBLK
  5
821F
  8
0
  0
BLOCK
  8
0
  2
*D18
 70
     1
 10
0.0
 20
0.0
 30
0.0
  3
*D18
  1

  0
LINE
  5
82D3
  8
3
 62
     0
 10
1800.7074447939351
 20
757.91074476116773
 30
0.0
 11
1800.7074447939351
 21
681.37395562498841
 31
0.0
  0
LINE
  5
82D4
  8
3
 62
     0
 10
1825.707444793934
 20
757.91074476116751
 30
0.0
 11
1825.707444793934
 21
681.37395562498841
 31
0.0
  0
LINE
  5
82D5
  8
3
 62
     0
 10
1780.7074447939351
 20
691.37395562498841
 30
0.0
 11
1760.7074447939351
 21
691.37395562498841
 31
0.0
  0
LINE
  5
82D6
  8
3
 62
     0
 10
1845.707444793934
 20
691.37395562498841
 30
0.0
 11
1934.278873365362
 21
691.37395562498841
 31
0.0
  0
LINE
  5
82D7
  8
3
 62
     0
 10
1800.7074447939351
 20
691.37395562498841
 30
0.0
 11
1825.707444793934
 21
691.37395562498841
 31
0.0
  0
INSERT
  5
82D8
  8
3
 62
     0
  2
_OPEN
 10
1800.7074447939351
 20
691.37395562498841
 30
0.0
 41
20.0
 42
20.0
 43
20.0
  0
INSERT
  5
82D9
  8
3
 62
     0
  2
_OPEN
 10
1825.707444793934
 20
691.37395562498841
 30
0.0
 41
20.0
 42
20.0
 43
20.0
 50
180.0
  0
TEXT
  8
3
  40
30
  5
82F5
  62
0
  72
0
  71
0
 10
1839.99
 20
663.274
 30
0.000000
  1
25
  0
POINT
  5
82DB
  8
DEFPOINTS
 62
     0
 10
1800.7074447939351
 20
762.91074476116773
 30
0.0
  0
POINT
  5
82DC
  8
DEFPOINTS
 62
     0
 10
1825.707444793934
 20
762.91074476116751
 30
0.0
  0
POINT
  5
82DD
  8
DEFPOINTS
 62
     0
 10
1825.707444793934
 20
691.37395562498841
 30
0.0
  0
ENDBLK
  5
822E
  8
0
  0
BLOCK
  8
0
  2
*D19
 70
     1
 10
0.0
 20
0.0
 30
0.0
  3
*D19
  1

  0
LINE
  5
82DE
  8
3
 62
     0
 10
644.33107727391405
 20
1142.9607394630259
 30
0.0
 11
329.66527097125618
 21
1142.9607394630259
 31
0.0
  0
LINE
  5
82DF
  8
3
 62
     0
 10
522.63107727391321
 20
762.96073946302658
 30
0.0
 11
329.66527097125612
 21
762.96073946302658
 31
0.0
  0
LINE
  5
82E0
  8
3
 62
     0
 10
339.66527097125618
 20
1122.9607394630259
 30
0.0
 11
339.66527097125618
 21
782.96073946302658
 31
0.0
  0
INSERT
  5
82E1
  8
3
 62
     0
  2
_OPEN
 10
339.66527097125618
 20
1142.9607394630259
 30
0.0
 41
20.0
 42
20.0
 43
20.0
 50
90.0
  0
INSERT
  5
82E2
  8
3
 62
     0
  2
_OPEN
 10
339.66527097125618
 20
762.96073946302658
 30
0.0
 41
20.0
 42
20.0
 43
20.0
 50
270.0
  0
TEXT
  8
3
  40
30
  5
82F6
  62
0
  72
0
  71
0
 10
254.665
 20
899.861
 30
0.000000
  1
380
  0
POINT
  5
82E4
  8
DEFPOINTS
 62
     0
 10
649.33107727391416
 20
1142.9607394630259
 30
0.0
  0
POINT
  5
82E5
  8
DEFPOINTS
 62
     0
 10
527.63107727391309
 20
762.96073946302658
 30
0.0
  0
POINT
  5
82E6
  8
DEFPOINTS
 62
     0
 10
339.66527097125618
 20
762.96073946302658
 30
0.0
  0
ENDBLK
  5
823B
  8
0
  0
ENDSEC
  0
SECTION
  2
ENTITIES
  0
INSERT
  5
7C19
  8
0
  2
YA_N
 10
2724.1612064906581
 20
327.02075517693441
 30
0.0
  0
INSERT
  5
7C1A
  8
0
  2
YA_N
 10
2724.1612064906581
 20
327.02075517693441
 30
0.0
  0
LINE
  5
7C1C
  8
1
 10
1663.407444793934
 20
802.91074476116773
 30
0.0
 11
1463.407444793934
 21
802.91074476116773
 31
0.0
  0
LINE
  5
7C1D
  8
1
 10
1420.707444793934
 20
802.91074476116785
 30
0.0
 11
1800.707444793934
 21
802.91074476116751
 31
0.0
  0
LINE
  5
7C1E
  8
1
 10
1420.707444793934
 20
762.91074476116785
 30
0.0
 11
1800.7074447939351
 21
762.91074476116762
 31
0.0
  0
LINE
  5
7C1F
  8
1
 10
1488.407444793934
 20
944.11074476116721
 30
0.0
 11
1494.2074447939319
 21
944.11074476116721
 31
0.0
  0
LINE
  5
7C20
  8
1
 10
1488.407444793934
 20
946.41074476116785
 30
0.0
 11
1494.2074447939319
 21
946.41074476116785
 31
0.0
  0
LINE
  5
7C21
  8
2
 10
1427.453937073391
 20
982.91074476116773
 30
0.0
 11
1922.1889687737621
 21
982.91074476116773
 31
0.0
  0
LINE
  5
7C22
  8
1
 10
551.01676562833291
 20
1137.9167098472869
 30
0.0
 11
1081.016765628332
 21
1137.9167098472849
 31
0.0
  0
LINE
  5
7C23
  8
1
 10
665.51943669658237
 20
939.62128673776044
 30
0.0
 11
982.82796101273095
 21
859.99029724325567
 31
0.0
  0
LINE
  5
7C24
  8
1
 10
687.09195474751368
 20
1026.954964054778
 30
0.0
 11
1009.194371963868
 21
966.73145840849975
 31
0.0
  0
LINE
  5
7C25
  8
1
 10
1081.016765628332
 20
1137.9167098472849
 30
0.0
 11
1081.0167656283311
 21
802.91670984728569
 31
0.0
  0
LINE
  5
7C26
  8
1
 10
1092.6310772739121
 20
802.96073946302465
 30
0.0
 11
902.63107727391218
 21
802.96073946302567
 31
0.0
  0
LINE
  5
7C27
  8
1
 10
1107.631077273913
 20
802.96073946302465
 30
0.0
 11
1107.631077273913
 21
762.91670984728546
 31
0.0
  0
CIRCLE
  5
7C28
  8
1
 10
997.63107727391321
 20
912.96073946302522
 30
0.0
 40
55.0
  0
LINE
  5
7C29
  8
2
 10
900.47253179826623
 20
912.96073946302545
 30
0.0
 11
1092.0177570482999
 21
912.96073946302477
 31
0.0
  0
LINE
  5
7C2A
  8
2
 10
997.63107727391343
 20
994.35023946302522
 30
0.0
 11
997.63107727391275
 21
784.96634130351549
 31
0.0
  0
LINE
  5
7C2B
  8
1
 10
1495.407444793934
 20
827.91670984728705
 30
0.0
 11
1495.407444793934
 21
802.91074476116773
 31
0.0
  0
LINE
  5
7C2C
  8
2
 10
677.63107727391434
 20
1161.516803258259
 30
0.0
 11
677.63107727391275
 21
762.96073946302613
 31
0.0
  0
LINE
  5
7C2D
  8
1
 10
777.63107727391343
 20
943.26073946302586
 30
0.0
 11
777.63107727391298
 21
802.9167098472866
 31
0.0
  0
LINE
  5
7C2E
  8
1
 10
551.01676562833154
 20
802.91670984728773
 30
0.0
 11
551.01676562833291
 21
1137.9167098472869
 31
0.0
  0
LINE
  5
7C2F
  8
1
 10
577.63107727391343
 20
943.26073946302665
 30
0.0
 11
577.63107727391298
 21
802.91670984728705
 31
0.0
  0
LINE
  5
7C30
  8
1
 10
1484.9623943986369
 20
811.91074476116785
 30
0.0
 11
1484.9623943986369
 21
853.17361456404444
 31
0.0
  0
LINE
  5
7C31
  8
1
 10
1409.9623943986369
 20
811.91074476116785
 30
0.0
 11
1409.9623943986369
 21
1137.9167098472869
 31
0.0
  0
LINE
  5
7C32
  8
1
 10
1484.9623943986369
 20
811.91074476116773
 30
0.0
 11
1409.9623943986369
 21
811.91074476116773
 31
0.0
  0
LINE
  5
7C33
  8
1
 10
527.63107727391343
 20
802.96073946302658
 30
0.0
 11
527.63107727391309
 21
762.91670984728705
 31
0.0
  0
POINT
  5
7C34
  8
1
 10
1460.707444793934
 20
762.91074476116773
 30
0.0
  0
POINT
  5
7C35
  8
1
 10
1493.1074447939341
 20
802.91074476116773
 30
0.0
  0
POINT
  5
7C36
  8
1
 10
1493.1074447939341
 20
802.91074476116773
 30
0.0
  0
ARC
  5
7C37
  8
1
 10
685.13107727391321
 20
975.46073946302602
 30
0.0
 40
129.0
 50
179.99999999999969
 51
269.99999999999972
  0
ARC
  5
7C38
  8
1
 10
670.13107727391366
 20
975.46073946302624
 30
0.0
 40
114.0
 50
89.999999999999787
 51
179.99999999999969
  0
LINE
  5
7C39
  8
2
 10
500.88483327657218
 20
982.96073946302693
 30
0.0
 11
853.80339003715414
 21
982.96073946302556
 31
0.0
  0
LINE
  5
7C3A
  8
1
 10
769.93107727391396
 20
1046.460744761167
 30
0.0
 11
769.93107727391362
 21
946.46073946302579
 31
0.0
  0
LINE
  5
7C3B
  8
1
 10
775.93107727391407
 20
1046.460744761167
 30
0.0
 11
775.9310772739135
 21
946.46073946302579
 31
0.0
  0
LINE
  5
7C3C
  8
1
 10
579.33107727391405
 20
1046.4607447611679
 30
0.0
 11
579.33107727391325
 21
946.46073946302647
 31
0.0
  0
LINE
  5
7C3D
  8
1
 10
585.33107727391405
 20
1046.4607447611679
 30
0.0
 11
585.33107727391325
 21
946.46073946302647
 31
0.0
  0
LINE
  5
7C3E
  8
1
 10
831.63107727391412
 20
1122.960739463025
 30
0.0
 11
829.05369952001786
 21
985.74069647539045
 31
0.0
  0
ARC
  5
7C3F
  8
1
 10
685.13107727391321
 20
990.46073946302613
 30
0.0
 40
144.0
 50
269.99999999999972
 51
359.9999999999979
  0
CIRCLE
  5
7C40
  8
1
 10
677.63107727391309
 20
872.91670984728694
 30
0.0
 40
60.0
  0
LINE
  5
7C42
  8
1
 10
572.63107727391343
 20
943.26073946302665
 30
0.0
 11
782.63107727391343
 21
943.26073946302586
 31
0.0
  0
LINE
  5
7C43
  8
1
 10
572.63107727391343
 20
946.46073946302647
 30
0.0
 11
782.63107727391343
 21
946.46073946302579
 31
0.0
  0
CIRCLE
  5
7C44
  8
1
 10
677.63107727391366
 20
982.96073946302624
 30
0.0
 40
45.0
  0
LINE
  5
7C45
  8
1
 10
752.63107727391343
 20
949.66073946302595
 30
0.0
 11
602.63107727391343
 21
949.66073946302652
 31
0.0
  0
LINE
  5
7C46
  8
1
 10
602.63107727391343
 20
946.46073946302647
 30
0.0
 11
752.63107727391343
 21
946.46073946302602
 31
0.0
  0
LINE
  5
7C47
  8
1
 10
782.63107727391343
 20
946.46073946302579
 30
0.0
 11
782.63107727391343
 21
943.26073946302586
 31
0.0
  0
LINE
  5
7C48
  8
1
 10
752.63107727391343
 20
946.46073946302602
 30
0.0
 11
752.63107727391343
 21
949.66073946302595
 31
0.0
  0
LINE
  5
7C49
  8
1
 10
602.63107727391343
 20
949.66073946302652
 30
0.0
 11
602.63107727391343
 21
946.46073946302647
 31
0.0
  0
LINE
  5
7C4A
  8
1
 10
572.63107727391343
 20
946.46073946302647
 30
0.0
 11
572.63107727391343
 21
943.26073946302665
 31
0.0
  0
LINE
  5
7C4B
  8
1
 10
853.93076827948767
 20
1122.960739463025
 30
0.0
 11
649.33107727391393
 21
1122.9607394630259
 31
0.0
  0
LINE
  5
7C4C
  8
1
 10
853.93076827948789
 20
1142.960739463025
 30
0.0
 11
649.33107727391416
 21
1142.9607394630259
 31
0.0
  0
LINE
  5
7C4D
  8
1
 10
853.93076827948767
 20
1122.960739463025
 30
0.0
 11
853.93076827948789
 21
1142.960739463025
 31
0.0
  0
LINE
  5
7C4E
  8
1
 10
769.93107727391396
 20
1046.460744761167
 30
0.0
 11
775.93107727391407
 21
1046.460744761167
 31
0.0
  0
CIRCLE
  5
7C4F
  8
1
 10
700.63107727391355
 20
1090.9333725528379
 30
0.0
 40
6.0
  0
LINE
  5
7C50
  8
1
 10
671.63107727391412
 20
1122.9607394630259
 30
0.0
 11
671.63107727391412
 21
1089.4493751744039
 31
0.0
  0
ARC
  5
7C51
  8
1
 10
670.13107727391366
 20
990.46073946302624
 30
0.0
 40
99.0
 50
73.11353300243826
 51
89.999999999999787
  0
LINE
  5
7C52
  8
1
 10
649.33107727391416
 20
1142.9607394630259
 30
0.0
 11
649.33107727391393
 21
1122.9607394630259
 31
0.0
  0
LINE
  5
7C53
  8
1
 10
579.33107727391405
 20
1046.4607447611679
 30
0.0
 11
585.33107727391405
 21
1046.4607447611679
 31
0.0
  0
LINE
  5
7C54
  8
1
 10
1462.4623943986369
 20
1027.9107447611671
 30
0.0
 11
1462.4623943986369
 21
858.91074476116773
 31
0.0
  0
LINE
  5
7C55
  8
1
 10
1432.4623943986369
 20
1027.9107447611671
 30
0.0
 11
1432.4623943986369
 21
858.91074476116773
 31
0.0
  0
LINE
  5
7C56
  8
2
 10
1429.0701461894671
 20
912.91670984728705
 30
0.0
 11
1501.1096430954269
 21
912.91670984728705
 31
0.0
  0
LINE
  5
7C57
  8
1
 10
1462.4623943986369
 20
858.91074476116773
 30
0.0
 11
1432.4623943986369
 21
858.91074476116773
 31
0.0
  0
LINE
  5
7C58
  8
1
 10
1472.4623943986369
 20
972.91074476116785
 30
0.0
 11
1494.2074447939319
 21
972.91074476116785
 31
0.0
  0
LINE
  5
7C59
  8
1
 10
1472.4623943986369
 20
992.91074476116751
 30
0.0
 11
1494.2074447939319
 21
992.91074476116751
 31
0.0
  0
LINE
  5
7C5A
  8
1
 10
1472.4623943986369
 20
992.91074476116773
 30
0.0
 11
1472.4623943986369
 21
972.91074476116785
 31
0.0
  0
LINE
  5
7C5B
  8
1
 10
1462.4623943986369
 20
968.91074476116773
 30
0.0
 11
1432.4623943986369
 21
968.91074476116773
 31
0.0
  0
LINE
  5
7C5C
  8
1
 10
1432.4623943986369
 20
937.91074476116785
 30
0.0
 11
1462.4623943986369
 21
937.91074476116785
 31
0.0
  0
LINE
  5
7C5D
  8
1
 10
1488.407444793934
 20
946.41074476116785
 30
0.0
 11
1488.407444793934
 21
944.11074476116721
 31
0.0
  0
LINE
  5
7C5E
  8
1
 10
1462.4623943986369
 20
973.41074476116751
 30
0.0
 11
1472.4623943986369
 21
973.41074476116773
 31
0.0
  0
LINE
  5
7C5F
  8
1
 10
1432.4623943986369
 20
1027.9107447611671
 30
0.0
 11
1462.4623943986369
 21
1027.9107447611671
 31
0.0
  0
LINE
  5
7C60
  8
1
 10
1462.4623943986369
 20
992.41074476116762
 30
0.0
 11
1472.4623943986369
 21
992.41074476116762
 31
0.0
  0
LINE
  5
7C61
  8
1
 10
1409.9623943986369
 20
1137.9167098472869
 30
0.0
 11
1484.9623943986369
 21
1137.9167098472869
 31
0.0
  0
LINE
  5
7C66
  8
1
 10
1067.6310772739171
 20
1604.0662045404131
 30
0.0
 11
1067.6310772739171
 21
1676.0697069133539
 31
0.0
  0
LINE
  5
7C67
  8
1
 10
1107.6310772739171
 20
1644.0662045404131
 30
0.0
 11
1107.631077273918
 21
1984.066204540414
 31
0.0
  0
LINE
  5
7C68
  8
2
 10
997.63107727391639
 20
1603.3046127677001
 30
0.0
 11
997.63107727391696
 21
1950.3953321372851
 31
0.0
  0
LINE
  5
7C69
  8
1
 10
1107.6310772739171
 20
1604.0662045404131
 30
0.0
 11
1107.6310772739171
 21
1644.0662045404131
 31
0.0
  0
LINE
  5
7C6B
  8
2
 10
677.63107727391628
 20
1610.6966020339839
 30
0.0
 11
677.63107727391719
 21
2090.8109356549739
 31
0.0
  0
LINE
  5
7C6C
  8
1
 10
527.63107727391696
 20
1644.066204540416
 30
0.0
 11
527.63107727391821
 21
1984.066204540416
 31
0.0
  0
LINE
  5
7C6D
  8
1
 10
567.63107727391673
 20
1604.0662045404149
 30
0.0
 11
567.63107727391798
 21
1947.569706913356
 31
0.0
  0
LINE
  5
7C6E
  8
1
 10
527.63107727391673
 20
1604.0662045404149
 30
0.0
 11
527.63107727391696
 21
1644.066204540416
 31
0.0
  0
LINE
  5
7C71
  8
2
 10
1825.707444793934
 20
1182.9205958501609
 30
0.0
 11
1825.707444793934
 21
762.91074476116751
 31
0.0
  0
LINE
  5
7C72
  8
1
 10
1909.7074447939351
 20
894.91074476116785
 30
0.0
 11
1889.707444793934
 21
894.91074476116785
 31
0.0
  0
LINE
  5
7C73
  8
1
 10
1889.7074447939351
 20
982.91074476116773
 30
0.0
 11
1889.707444793934
 21
871.91074476116796
 31
0.0
  0
LINE
  5
7C75
  8
1
 10
1885.707444793934
 20
1122.9607394630259
 30
0.0
 11
1885.707444793934
 21
982.91074476116773
 31
0.0
  0
LINE
  5
7C76
  8
1
 10
1765.707444793934
 20
1122.9607394630259
 30
0.0
 11
1765.707444793934
 21
982.91074476116773
 31
0.0
  0
LINE
  5
7C7C
  8
1
 10
1765.707444793934
 20
846.96073946302636
 30
0.0
 11
1885.7074447939351
 21
846.96073946302658
 31
0.0
  0
LINE
  5
7C7F
  8
1
 10
1889.707444793934
 20
894.91074476116785
 30
0.0
 11
1889.707444793934
 21
874.91074476116773
 31
0.0
  0
LINE
  5
7C80
  8
1
 10
1885.707444793934
 20
871.91074476116796
 30
0.0
 11
1889.707444793934
 21
871.91074476116762
 31
0.0
  0
LINE
  5
7C85
  8
1
 10
1738.407444793934
 20
1046.460744761167
 30
0.0
 11
1763.407444793934
 21
1046.460744761167
 31
0.0
  0
POINT
  5
7C86
  8
1
 10
1825.707444793934
 20
1135.0273771871989
 30
0.0
  0
LINE
  5
7C87
  8
1
 10
1892.707444793934
 20
982.91074476116773
 30
0.0
 11
1892.7074447939351
 21
894.91074476116785
 31
0.0
  0
ARC
  5
7C88
  8
1
 10
997.63107727391321
 20
912.96073946302522
 30
0.0
 40
85.000007999999994
 50
295.91772599999967
 51
359.99999999999972
  0
ARC
  5
7C89
  8
1
 10
997.63107727391321
 20
912.96073946302522
 30
0.0
 40
85.0
 50
359.99999999999972
 51
244.12446599999981
  0
LINE
  5
7C8A
  8
1
 10
960.53557827391285
 20
836.50981146302524
 30
0.0
 11
1034.7828862739129
 21
836.5098114630249
 31
0.0
  0
LINE
  5
7C8B
  8
1
 10
915.85647970814898
 20
832.96073946302533
 30
0.0
 11
935.30790927391308
 21
855.14223546302537
 31
0.0
  0
LINE
  5
7C8C
  8
1
 10
920.13107727391298
 20
832.96073946302545
 30
0.0
 11
955.13107727391298
 21
832.96073946302533
 31
0.0
  0
LINE
  5
7C8D
  8
1
 10
1079.405585948507
 20
832.96073946302488
 30
0.0
 11
1059.952385273913
 21
855.14437746302497
 31
0.0
  0
LINE
  5
7C8E
  8
1
 10
1075.131077273913
 20
832.96073946302488
 30
0.0
 11
1040.1310772739121
 21
832.96073946302488
 31
0.0
  0
LINE
  5
7C8F
  8
1
 10
1100.131077273913
 20
832.96073946302465
 30
0.0
 11
997.63107727391287
 21
832.96073946302533
 31
0.0
  0
LINE
  5
7C90
  8
1
 10
1100.131077273913
 20
832.96073946302465
 30
0.0
 11
1105.1310772739121
 21
802.96073946302465
 31
0.0
  0
LINE
  5
7C91
  8
1
 10
895.13107727391298
 20
832.96073946302533
 30
0.0
 11
890.13107727391275
 21
802.96073946302522
 31
0.0
  0
LINE
  5
7C92
  8
1
 10
997.63107727391287
 20
832.96073946302533
 30
0.0
 11
895.13107727391298
 21
832.96073946302533
 31
0.0
  0
LINE
  5
7C93
  8
1
 10
527.63107727391798
 20
1984.066204540416
 30
0.0
 11
556.13107727391753
 21
1984.0662045404149
 31
0.0
  0
LINE
  5
7C94
  8
1
 10
527.63107727391673
 20
1604.0662045404149
 30
0.0
 11
1107.6310772739159
 21
1604.0662045404119
 31
0.0
  0
DIMENSION
  5
7C99
  8
3
  2
*D2
 10
671.63107727391434
 20
1197.8030176802949
 30
0.0
 11
751.63107727391446
 21
1222.8030176802949
 31
0.0
 70
     0
 13
831.63107727391412
 23
1122.960739463025
 33
0.0
 14
671.63107727391412
 24
1122.9607394630259
 34
0.0
 50
179.99999999999969
1001
ACAD
1000
DSTYLE
1002
{
1070
   287
1070
     3
1070
    40
1040
10.0
1070
   143
1040
0.039
1070
   172
1070
     1
1070
   271
1070
     0
1070
   279
1070
     0
1070
   288
1070
     1
1002
}
  0
DIMENSION
  5
7C9A
  8
3
  2
*D3
 10
677.63107727391457
 20
1253.676463388955
 30
0.0
 11
754.6310772739148
 21
1278.676463388955
 31
0.0
 70
     0
 13
831.63107727391412
 23
1122.960739463025
 33
0.0
 14
677.63107727391434
 24
1159.7069834603669
 34
0.0
 50
179.99999999999969
1001
ACAD
1000
DSTYLE
1002
{
1070
   287
1070
     3
1070
    40
1040
10.0
1070
   143
1040
0.039
1070
   172
1070
     1
1070
   271
1070
     0
1070
   279
1070
     0
1070
   288
1070
     1
1002
}
  0
LINE
  5
7C9B
  8
1
 10
527.63107727391309
 20
762.96073946302658
 30
0.0
 11
1107.631077273913
 21
762.96073946302454
 31
0.0
  0
LINE
  5
7C9C
  8
1
 10
527.63107727391377
 20
802.96073946302658
 30
0.0
 11
1107.631077273913
 21
802.96073946302465
 31
0.0
  0
LINE
  5
7CAB
  8
1
 10
1885.707444793934
 20
982.91074476116773
 30
0.0
 11
1885.7074447939351
 21
846.91074476116796
 31
0.0
  0
LINE
  5
7CAC
  8
1
 10
1765.7074447939331
 20
982.91074476116773
 30
0.0
 11
1765.7074447939351
 21
802.91074476116773
 31
0.0
  0
LINE
  5
7CAF
  8
1
 10
1909.7074447939351
 20
1070.910744761168
 30
0.0
 11
1909.7074447939351
 21
894.91074476116773
 31
0.0
  0
LINE
  5
7CB0
  8
1
 10
1909.7074447939351
 20
1070.9107447611671
 30
0.0
 11
1908.0074447939351
 21
1070.9107447611671
 31
0.0
  0
ARC
  5
7CB1
  8
1
 10
1907.7074447939351
 20
1071.9107447611671
 30
0.0
 40
2.0
 50
0.0
 51
90.0
  0
LINE
  5
7CB2
  8
1
 10
1909.7074447939351
 20
1071.9107447611671
 30
0.0
 11
1909.7074447939351
 21
1070.9107447611671
 31
0.0
  0
LINE
  5
7CB3
  8
1
 10
1892.7074447939351
 20
876.91074476116785
 30
0.0
 11
1892.7074447939351
 21
887.91074476116785
 31
0.0
  0
LINE
  5
7CB4
  8
1
 10
1889.707444793934
 20
874.91074476116773
 30
0.0
 11
1889.707444793934
 21
894.91074476116785
 31
0.0
  0
LINE
  5
7CB5
  8
1
 10
1896.7074447939351
 20
891.91074476116773
 30
0.0
 11
1907.7074447939351
 21
891.91074476116773
 31
0.0
  0
LINE
  5
7CB6
  8
1
 10
1889.707444793934
 20
894.91074476116785
 30
0.0
 11
1909.7074447939351
 21
894.91074476116785
 31
0.0
  0
ARC
  5
7CB7
  8
1
 10
1896.7074447939351
 20
887.91074476116785
 30
0.0
 40
4.0
 50
90.0
 51
180.0
  0
LINE
  5
7CB8
  8
1
 10
1909.7074447939351
 20
894.91074476116785
 30
0.0
 11
1909.7074447939351
 21
893.91074476116785
 31
0.0
  0
ARC
  5
7CB9
  8
1
 10
1907.7074447939351
 20
893.91074476116785
 30
0.0
 40
2.0
 50
270.0
 51
0.0
  0
ARC
  5
7CBA
  8
1
 10
1890.707444793934
 20
876.91074476116785
 30
0.0
 40
2.0
 50
270.0
 51
0.0
  0
LINE
  5
7CBB
  8
1
 10
1890.707444793934
 20
874.91074476116785
 30
0.0
 11
1889.707444793934
 21
874.91074476116773
 31
0.0
  0
DIMENSION
  5
7CBC
  8
3
  2
*D4
 10
1990.348108603471
 20
894.91074476116785
 30
0.0
 11
1965.348108603471
 21
982.91074476116808
 31
0.0
 70
     0
 13
1909.7074447939351
 23
1070.9107447611671
 33
0.0
 14
1909.7074447939351
 24
894.91074476116785
 34
0.0
 50
90.0
1001
ACAD
1000
DSTYLE
1002
{
1070
   287
1070
     3
1070
     3
1000
φ<>
1070
    40
1040
10.0
1070
   143
1040
0.039
1070
   172
1070
     1
1070
   271
1070
     0
1070
   279
1070
     0
1070
   288
1070
     1
1002
}
  0
DIMENSION
  5
7CBD
  8
3
  2
*D5
 10
1885.707444793934
 20
1175.015631336553
 30
0.0
 11
1825.707444793934
 21
1200.966598990806
 31
0.0
 70
   128
 13
1765.707444793934
 23
1116.946781979497
 33
0.0
 14
1885.707444793934
 24
1116.9467819794961
 34
0.0
1001
ACAD
1000
DSTYLE
1002
{
1070
   288
1070
     1
1070
   172
1070
     1
1070
    40
1040
10.0
1070
   271
1070
     0
1070
   143
1040
0.039
1002
}
  0
DIMENSION
  5
7CBE
  8
3
  2
*D6
 10
1825.707444793934
 20
1258.4002286991449
 30
0.0
 11
1857.707444793934
 21
1283.549040226309
 31
0.0
 70
   128
 13
1889.707444793934
 23
1093.910744761168
 33
0.0
 14
1825.707444793934
 24
1224.3106719978041
 34
0.0
1001
ACAD
1000
DSTYLE
1002
{
1070
   288
1070
     1
1070
   172
1070
     1
1070
    40
1040
10.0
1070
   271
1070
     0
1070
   143
1040
0.039
1002
}
  0
DIMENSION
  5
7CBF
  8
3
  2
*D7
 10
1409.9623943986369
 20
1258.4002286991449
 30
0.0
 11
1617.834919596286
 21
1308.4002286991449
 31
0.0
 70
     0
  1
MAX\P500
 13
1825.707444793934
 23
1224.3106719978041
 33
0.0
 14
1409.9623943986369
 24
1137.9167098472869
 34
0.0
1001
ACAD
1000
DSTYLE
1002
{
1070
   287
1070
     3
1070
    40
1040
10.0
1070
   143
1040
0.039
1070
   172
1070
     1
1070
   271
1070
     0
1070
   279
1070
     0
1070
   288
1070
     1
1002
}
  0
LINE
  5
7CC0
  8
2
 10
545.26963512206555
 20
2009.066204540416
 30
0.0
 11
862.56733625935874
 21
2009.0662045404149
 31
0.0
  0
LINE
  5
7CC1
  8
1
 10
831.63107727391844
 20
1947.569706913355
 30
0.0
 11
831.63107727391844
 21
2067.5697069133562
 31
0.0
  0
LINE
  5
7CC2
  8
1
 10
831.63107727391844
 20
1947.569706913355
 30
0.0
 11
831.63107727391821
 21
2067.5697069133562
 31
0.0
  0
LINE
  5
7CC3
  8
1
 10
556.13107727391787
 20
2067.5697069133562
 30
0.0
 11
649.3310772739178
 21
2067.5697069133562
 31
0.0
  0
LINE
  5
7CC4
  8
1
 10
556.13107727391753
 20
1947.569706913356
 30
0.0
 11
649.33107727391734
 21
1947.569706913355
 31
0.0
  0
LINE
  5
7CC5
  8
1
 10
851.63107727391866
 20
1927.569706913355
 30
0.0
 11
851.63107727391957
 21
2087.5697069133562
 31
0.0
  0
LINE
  5
7CC6
  8
1
 10
649.33107727391803
 20
2087.5697069133562
 30
0.0
 11
851.63107727391957
 21
2087.5697069133562
 31
0.0
  0
LINE
  5
7CC7
  8
1
 10
649.33107727391712
 20
1927.5697069133589
 30
0.0
 11
851.63107727391866
 21
1927.569706913355
 31
0.0
  0
LINE
  5
7CC9
  8
1
 10
632.63107727391662
 20
1614.3246565180591
 30
0.0
 11
632.63107727391662
 21
1644.3246565180591
 31
0.0
  0
LINE
  5
7CCA
  8
1
 10
722.63107727391662
 20
1614.3246565180591
 30
0.0
 11
722.63107727391662
 21
1644.3246565180591
 31
0.0
  0
LINE
  5
7CCB
  8
1
 10
941.63704236003548
 20
1644.3246565180591
 30
0.0
 11
941.63704236003548
 21
1614.3246565180591
 31
0.0
  0
LINE
  5
7CCC
  8
1
 10
1051.6370423600349
 20
1644.3246565180591
 30
0.0
 11
1051.6370423600349
 21
1614.3246565180591
 31
0.0
  0
LINE
  5
7CCF
  8
1
 10
1081.016765628332
 20
1591.82465651806
 30
0.0
 11
551.01676562833291
 21
1591.82465651806
 31
0.0
  0
LINE
  5
7CD0
  8
1
 10
632.63107727391662
 20
1614.3246565180591
 30
0.0
 11
722.63107727391684
 21
1614.3246565180591
 31
0.0
  0
LINE
  5
7CD1
  8
1
 10
1081.016765628332
 20
1666.8246565180591
 30
0.0
 11
551.01676562833291
 21
1666.8246565180591
 31
0.0
  0
LINE
  5
7CD2
  8
1
 10
667.63107727391684
 20
1654.32465651806
 30
0.0
 11
667.6310772739165
 21
1927.569706913358
 31
0.0
  0
LINE
  5
7CD3
  8
1
 10
687.63107727391684
 20
1654.32465651806
 30
0.0
 11
687.63107727391696
 21
1927.569706913358
 31
0.0
  0
LINE
  5
7CD4
  8
1
 10
667.63107727391684
 20
1654.32465651806
 30
0.0
 11
687.63107727391684
 21
1654.32465651806
 31
0.0
  0
LINE
  5
7CD5
  8
1
 10
632.63107727391662
 20
1644.3246565180591
 30
0.0
 11
722.63107727391684
 21
1644.3246565180591
 31
0.0
  0
LINE
  5
7CD6
  8
1
 10
687.13107727391684
 20
1644.3246565180591
 30
0.0
 11
687.13107727391684
 21
1654.32465651806
 31
0.0
  0
LINE
  5
7CD7
  8
1
 10
668.13107727391684
 20
1644.3246565180591
 30
0.0
 11
668.13107727391684
 21
1654.32465651806
 31
0.0
  0
LINE
  5
7CD9
  8
1
 10
572.63107727391605
 20
1678.7662045404149
 30
0.0
 11
572.63107727391719
 21
1947.569706913356
 31
0.0
  0
LINE
  5
7CDA
  8
1
 10
782.63107727391628
 20
1678.7662045404149
 30
0.0
 11
782.63107727391696
 21
1927.569706913356
 31
0.0
  0
LINE
  5
7CDB
  8
1
 10
572.63107727391605
 20
1678.7662045404149
 30
0.0
 11
667.63107727391707
 21
1678.7662045404149
 31
0.0
  0
LINE
  5
7CDC
  8
1
 10
687.63107727391696
 20
1678.7662045404149
 30
0.0
 11
782.63107727391628
 21
1678.7662045404149
 31
0.0
  0
LINE
  5
7CDD
  8
1
 10
912.63107727391673
 20
1676.0697069133539
 30
0.0
 11
912.63107727391696
 21
1904.069706913355
 31
0.0
  0
LINE
  5
7CDE
  8
1
 10
1082.6310852739159
 20
1676.0697069133539
 30
0.0
 11
1082.6310852739171
 21
1904.0697069133539
 31
0.0
  0
LINE
  5
7CDF
  8
1
 10
912.63107727391696
 20
1904.069706913355
 30
0.0
 11
1082.6310852739171
 21
1904.0697069133539
 31
0.0
  0
LINE
  5
7CE0
  8
1
 10
912.63107727391605
 20
1676.069706913355
 30
0.0
 11
1082.6310852739159
 21
1676.0697069133539
 31
0.0
  0
LINE
  5
7CE1
  8
1
 10
988.13107727391707
 20
1644.32465651806
 30
0.0
 11
988.13107727391707
 21
1676.0697069133539
 31
0.0
  0
LINE
  5
7CE2
  8
1
 10
1007.131077273917
 20
1644.32465651806
 30
0.0
 11
1007.131077273917
 21
1676.0697069133539
 31
0.0
  0
LINE
  5
7CE3
  8
1
 10
1067.631077273918
 20
1904.0697069133539
 30
0.0
 11
1067.631077273918
 21
1984.066204540414
 31
0.0
  0
LINE
  5
7CE9
  8
1
 10
941.63704236003582
 20
1644.32465651806
 30
0.0
 11
1051.6370423600349
 21
1644.32465651806
 31
0.0
  0
LINE
  5
7CEA
  8
1
 10
941.63704236003582
 20
1614.3246565180591
 30
0.0
 11
1051.6370423600349
 21
1614.3246565180591
 31
0.0
  0
DIMENSION
  5
7CEB
  8
3
  2
*D8
 10
415.73528615720511
 20
1604.066204540416
 30
0.0
 11
390.73528615720483
 21
1794.066204540416
 31
0.0
 70
     0
 13
527.63107727391798
 23
1984.066204540416
 33
0.0
 14
527.63107727391673
 24
1604.0662045404149
 34
0.0
 50
269.99999999999972
1001
ACAD
1000
DSTYLE
1002
{
1070
   287
1070
     3
1070
    40
1040
10.0
1070
   143
1040
0.039
1070
   172
1070
     1
1070
   271
1070
     0
1070
   279
1070
     0
1070
   288
1070
     1
1002
}
  0
DIMENSION
  5
7CEC
  8
3
  2
*D9
 10
527.63107727391798
 20
2134.7329721294659
 30
0.0
 11
812.15001916847723
 21
2134.7329721294659
 31
0.0
 70
   128
 13
1107.6310772739171
 23
1984.066204540414
 33
0.0
 14
527.63107727391798
 24
1984.066204540416
 34
0.0
 50
359.99999999999972
1001
ACAD
1000
DSTYLE
1002
{
1070
   287
1070
     3
1070
    40
1040
10.0
1070
   143
1040
0.039
1070
   172
1070
     1
1070
   271
1070
     0
1070
   279
1070
     0
1070
   288
1070
     1
1002
}
  0
LINE
  5
7CED
  8
1
 10
1420.707444793934
 20
762.91074476116773
 30
0.0
 11
1420.707444793934
 21
802.91074476116773
 31
0.0
  0
LINE
  5
7CEE
  8
1
 10
1800.7074447939351
 20
762.91074476116773
 30
0.0
 11
1800.707444793934
 21
802.91074476116751
 31
0.0
  0
LINE
  5
7CEF
  8
1
 10
1494.2074447939319
 20
997.9167178472868
 30
0.0
 11
1722.2074447939319
 21
997.91671784728646
 31
0.0
  0
LINE
  5
7CF0
  8
1
 10
1494.2074447939319
 20
827.91670984728705
 30
0.0
 11
1722.2074447939319
 21
827.91670984728705
 31
0.0
  0
LINE
  5
7CF1
  8
1
 10
1494.2074447939319
 20
827.91670984728637
 30
0.0
 11
1494.2074447939319
 21
997.91671784728703
 31
0.0
  0
LINE
  5
7CF2
  8
1
 10
1462.4623943986369
 20
903.41670984728739
 30
0.0
 11
1494.2074447939319
 21
903.41670984728739
 31
0.0
  0
LINE
  5
7CF3
  8
1
 10
1462.4623943986369
 20
922.41670984728728
 30
0.0
 11
1494.2074447939319
 21
922.41670984728728
 31
0.0
  0
LINE
  5
7CF4
  8
1
 10
1722.2074447939319
 20
827.91670984728705
 30
0.0
 11
1722.2074447939319
 21
997.91671784728646
 31
0.0
  0
DIMENSION
  5
7CF5
  8
3
  2
*D10
 10
406.27567792473809
 20
762.96073946302658
 30
0.0
 11
381.27567792473798
 21
872.9607394630267
 31
0.0
 70
     0
 13
500.88483327657218
 23
982.96073946302693
 33
0.0
 14
527.63107727391309
 24
762.96073946302658
 34
0.0
 50
269.99999999999972
1001
ACAD
1000
DSTYLE
1002
{
1070
   287
1070
     3
1070
    40
1040
10.0
1070
   143
1040
0.039
1070
   172
1070
     1
1070
   271
1070
     0
1070
   279
1070
     0
1070
   288
1070
     1
1002
}
  0
DIMENSION
  5
7CF6
  8
3
  2
*D11
 10
406.27567792473968
 20
1142.9607394630259
 30
0.0
 11
381.27567792473951
 21
1062.9607394630259
 31
0.0
 70
     0
 13
500.88483327657218
 23
982.96073946302693
 33
0.0
 14
649.33107727391416
 24
1142.9607394630259
 34
0.0
 50
269.99999999999972
1001
ACAD
1000
DSTYLE
1002
{
1070
   287
1070
     3
1070
    40
1040
10.0
1070
   143
1040
0.039
1070
   172
1070
     1
1070
   271
1070
     0
1070
   279
1070
     0
1070
   288
1070
     1
1002
}
  0
DIMENSION
  5
7CF7
  8
3
  2
*D12
 10
556.13107727391355
 20
1253.676463388955
 30
0.0
 11
616.88107727391389
 21
1278.676463388955
 31
0.0
 70
     0
  1
121
 13
677.63107727391434
 23
1159.7069834603669
 33
0.0
 14
556.13107727391355
 24
975.46073946302658
 34
0.0
 50
359.99999999999972
1001
ACAD
1000
DSTYLE
1002
{
1070
   287
1070
     3
1070
    40
1040
10.0
1070
   143
1040
0.039
1070
   172
1070
     1
1070
   271
1070
     0
1070
   279
1070
     0
1070
   288
1070
     1
1002
}
  0
DIMENSION
  5
7CF9
  8
3
  2
*D13
 10
1107.631077273913
 20
1308.4086642223861
 30
0.0
 11
831.88107727391298
 21
1333.4086642223861
 31
0.0
 70
     0
  1
551
 13
556.13107727391309
 23
975.46073946302658
 33
0.0
 14
1107.631077273913
 24
802.96073946302465
 34
0.0
 50
359.99999999999972
1001
ACAD
1000
DSTYLE
1002
{
1070
   287
1070
     3
1070
    40
1040
10.0
1070
   143
1040
0.039
1070
   172
1070
     1
1070
   271
1070
     0
1070
   279
1070
     0
1070
   288
1070
     1
1002
}
  0
LINE
  5
7CFA
  8
1
 10
1745.707444793934
 20
1142.9607394630259
 30
0.0
 11
1905.707444793934
 21
1142.9607394630259
 31
0.0
  0
LINE
  5
7CFB
  8
1
 10
1745.707444793934
 20
1122.9607394630259
 30
0.0
 11
1905.7074447939331
 21
1122.9607394630259
 31
0.0
  0
LINE
  5
7CFC
  8
1
 10
1745.707444793934
 20
1142.9607394630259
 30
0.0
 11
1745.707444793934
 21
1122.9607394630259
 31
0.0
  0
LINE
  5
7CFD
  8
1
 10
1905.7074447939331
 20
1142.9607394630259
 30
0.0
 11
1905.707444793934
 21
1122.9607394630259
 31
0.0
  0
LINE
  5
7CFE
  8
1
 10
1889.707444793934
 20
1070.9107447611671
 30
0.0
 11
1909.7074447939351
 21
1070.9107447611671
 31
0.0
  0
LINE
  5
7CFF
  8
1
 10
1896.7074447939351
 20
1073.9107447611671
 30
0.0
 11
1907.7074447939351
 21
1073.9107447611671
 31
0.0
  0
LINE
  5
7D00
  8
1
 10
1909.7074447939351
 20
1070.9107447611671
 30
0.0
 11
1889.707444793934
 21
1070.9107447611671
 31
0.0
  0
LINE
  5
7D01
  8
1
 10
1889.7074447939351
 20
982.91074476116773
 30
0.0
 11
1889.707444793934
 21
1093.9107447611671
 31
0.0
  0
LINE
  5
7D02
  8
1
 10
1892.707444793934
 20
982.91074476116773
 30
0.0
 11
1892.7074447939351
 21
1070.9107447611671
 31
0.0
  0
LINE
  5
7D03
  8
1
 10
1890.707444793934
 20
1090.9107447611671
 30
0.0
 11
1889.707444793934
 21
1090.9107447611671
 31
0.0
  0
ARC
  5
7D04
  8
1
 10
1890.707444793934
 20
1088.9107447611671
 30
0.0
 40
2.0
 50
0.0
 51
90.0
  0
ARC
  5
7D05
  8
1
 10
1896.7074447939351
 20
1077.9107447611671
 30
0.0
 40
4.0
 50
180.0
 51
270.0
  0
LINE
  5
7D06
  8
1
 10
1889.707444793934
 20
1090.9107447611671
 30
0.0
 11
1889.707444793934
 21
1070.9107447611671
 31
0.0
  0
LINE
  5
7D07
  8
1
 10
1892.7074447939351
 20
1088.9107447611671
 30
0.0
 11
1892.7074447939351
 21
1077.9107447611671
 31
0.0
  0
LINE
  5
7D08
  8
1
 10
1885.707444793934
 20
1093.9107447611671
 30
0.0
 11
1889.707444793934
 21
1093.910744761168
 31
0.0
  0
LINE
  5
7D09
  8
1
 10
1889.707444793934
 20
1070.9107447611671
 30
0.0
 11
1889.707444793934
 21
1090.9107447611671
 31
0.0
  0
LINE
  5
7D0A
  8
1
 10
1909.7074447939351
 20
894.91074476116773
 30
0.0
 11
1909.7074447939351
 21
1070.910744761168
 31
0.0
  0
ARC
  5
7D0B
  8
1
 10
1907.7074447939351
 20
1071.9107447611671
 30
0.0
 40
2.0
 50
0.0
 51
90.0
  0
LINE
  5
7D0C
  8
1
 10
1909.7074447939351
 20
1070.9107447611671
 30
0.0
 11
1909.7074447939351
 21
1071.9107447611671
 31
0.0
  0
LINE
  5
7D0D
  8
1
 10
556.13107727391753
 20
1947.569706913356
 30
0.0
 11
556.13107727391775
 21
2067.5697069133562
 31
0.0
  0
LINE
  5
7D0E
  8
1
 10
671.63107727391855
 20
1947.569706913355
 30
0.0
 11
671.63107727391855
 21
2067.5697069133562
 31
0.0
  0
LINE
  5
7D0F
  8
1
 10
649.33107727391734
 20
1927.5697069133589
 30
0.0
 11
649.33107727391803
 21
2087.5697069133571
 31
0.0
  0
LINE
  5
7D10
  8
1
 10
671.63107727391855
 20
1947.569706913355
 30
0.0
 11
831.63107727391798
 21
1947.569706913355
 31
0.0
  0
LINE
  5
7D11
  8
1
 10
671.63107727391855
 20
2067.5697069133562
 30
0.0
 11
831.63107727391821
 21
2067.5697069133562
 31
0.0
  0
LINE
  5
7D12
  8
1
 10
671.63107727391855
 20
2067.5697069133562
 30
0.0
 11
831.63107727391844
 21
1947.569706913355
 31
0.0
  0
LINE
  5
7D13
  8
1
 10
831.63107727391821
 20
2067.5697069133562
 30
0.0
 11
671.63107727391855
 21
1947.569706913355
 31
0.0
  0
LINE
  5
7D14
  8
1
 10
1722.2074447939319
 20
992.91074476116751
 30
0.0
 11
1738.407444793934
 21
992.91074476116739
 31
0.0
  0
LINE
  5
7D15
  8
1
 10
1722.2074447939319
 20
972.91074476116785
 30
0.0
 11
1738.407444793934
 21
972.91074476116762
 31
0.0
  0
LINE
  5
7D16
  8
1
 10
1722.2074447939319
 20
946.41074476116773
 30
0.0
 11
1738.407444793934
 21
946.41074476116773
 31
0.0
  0
LINE
  5
7D17
  8
1
 10
1722.2074447939319
 20
944.11074476116755
 30
0.0
 11
1738.407444793934
 21
944.11074476116755
 31
0.0
  0
LINE
  5
7D18
  8
1
 10
1525.7697733270641
 20
827.91670984728705
 30
0.0
 11
1525.7697733270641
 21
802.91074476116751
 31
0.0
  0
LINE
  5
7D19
  8
1
 10
1697.2014208230109
 20
827.91670984728705
 30
0.0
 11
1697.2014208230109
 21
802.91074476116751
 31
0.0
  0
LINE
  5
7D1A
  8
1
 10
1738.407444793934
 20
826.46074476116746
 30
0.0
 11
1765.7074447939351
 21
826.46074476116746
 31
0.0
  0
LINE
  5
7D1B
  8
1
 10
1738.407444793934
 20
1046.460744761167
 30
0.0
 11
1738.407444793934
 21
826.46074476116746
 31
0.0
  0
LINE
  5
7EFB
  8
4
 10
1850.0
 20
500.0
 30
0.0
 11
1850.0
 21
300.0
 31
0.0
  0
LINE
  5
7EFC
  8
4
 10
1150.0
 20
500.0
 30
0.0
 11
1150.0
 21
300.0
 31
0.0
  0
LINE
  5
7EFD
  8
4
 10
650.0
 20
500.0
 30
0.0
 11
650.0
 21
300.0
 31
0.0
  0
LINE
  5
7F00
  8
4
 10
650.0
 20
300.0
 30
0.0
 11
1850.0
 21
300.0
 31
0.0
  0
LINE
  5
7F01
  8
4
 10
650.0
 20
400.0
 30
0.0
 11
1850.0
 21
400.0
 31
0.0
  0
TEXT
  5
7F02
  8
4
 10
688.50208084690155
 20
431.54302586661282
 30
0.0
 40
50.0
  1
機器名称
  0
TEXT
  5
7F03
  8
4
 10
686.25810602479748
 20
321.64515673201089
 30
0.0
 40
50.0
  1
機器型番
  0
TEXT
  5
7F04
  8
4
 10
1177.6787454876639
 20
422.57176895756851
 30
0.0
 40
50.0
  1
ミツヤ多翼送風機
  0
TEXT
  5
7F05
  8
4
 10
1186.6544955854799
 20
317.15958427994332
 30
0.0
 40
50.0
  1
MF#1-1
  0
TEXT
  5
7F07
  8
4
 10
742.05411092900056
 20
2383.4288413325148
 30
0.0
 40
53.999999999999993
  1
床置ベット
  0
TEXT
  5
7F08
  8
4
 10
316.16759332944639
 20
2533.8809761992979
 30
0.0
 40
72.0
  1
遠心式片吸込片持多翼ファン
  0
LINE
  5
7F09
  8
4
 10
250.0
 20
2469.408754264804
 30
0.0
 11
1850.0
 21
2469.408754264804
 31
0.0
  0
LINE
  5
7F0A
  8
4
 10
250.0
 20
2669.4087542648049
 30
0.0
 11
1850.0
 21
2669.4087542648049
 31
0.0
  0
LINE
  5
7F0B
  8
4
 10
650.0
 20
500.0
 30
0.0
 11
1850.0
 21
500.0
 31
0.0
  0
LINE
  5
7F0C
  8
4
 10
250.0
 20
2669.4087542648049
 30
0.0
 11
250.0
 21
2469.408754264804
 31
0.0
  0
TEXT
  5
7F0D
  8
4
 10
306.19527868629842
 20
2382.319477546343
 30
0.0
 40
53.999999999999993
  1
左回転上向
  0
TEXT
  5
7F0E
  8
4
 10
1468.969559249289
 20
2706.0610814953088
 30
0.0
 40
56.000000000000007
  1
No.
  0
TEXT
  5
7F0F
  8
4
 10
1311.2960626000131
 20
2383.4288413325148
 30
0.0
 40
53.999999999999993
  1
縮尺：1/10
  0
LINE
  5
7F10
  8
4
 10
1850.0
 20
2669.4087542648049
 30
0.0
 11
1850.0
 21
2469.408754264804
 31
0.0
  0
LINE
  5
7F11
  8
4
 10
2100.0
 20
2950.0
 30
0.0
 11
2100.0
 21
2950.0
 31
0.0
  0
LINE
  5
7F12
  8
4
 10
1440.6174223598639
 20
2681.2635831254011
 30
0.0
 11
1440.6174223598639
 21
2786.652261549752
 31
0.0
  0
LINE
  5
7F13
  8
4
 10
1440.6174223598639
 20
2786.652261549752
 30
0.0
 11
1850.0
 21
2786.652261549752
 31
0.0
  0
LINE
  5
7F14
  8
4
 10
1850.0
 20
2786.652261549752
 30
0.0
 11
1850.0
 21
2681.2635831254011
 31
0.0
  0
LINE
  5
7F15
  8
4
 10
1850.0
 20
2681.2635831254011
 30
0.0
 11
1440.6174223598639
 21
2681.2635831254011
 31
0.0
  0
LINE
  5
7F16
  8
4
 10
0.0
 20
0.0
 30
0.0
 11
0.0
 21
2950.0
 31
0.0
  0
LINE
  5
7F17
  8
4
 10
0.0
 20
2950.0
 30
0.0
 11
2100.0
 21
2950.0
 31
0.0
  0
LINE
  5
7F18
  8
4
 10
2100.0
 20
2950.0
 30
0.0
 11
2100.0
 21
0.0
 31
0.0
  0
LINE
  5
7F19
  8
4
 10
2100.0
 20
0.0
 30
0.0
 11
0.0
 21
0.0
 31
0.0
  0
LINE
  5
80EA
  8
1
 10
1484.9623943986369
 20
1091.7682033770391
 30
0.0
 11
1484.9623943986369
 21
1137.9167098472869
 31
0.0
  0
LINE
  5
80EF
  8
1
 10
1081.016765628332
 20
1591.82465651806
 30
0.0
 11
1081.016765628332
 21
1666.8246565180591
 31
0.0
  0
LINE
  5
80F0
  8
1
 10
551.01676562833291
 20
1591.82465651806
 30
0.0
 11
551.01676562833291
 21
1666.8246565180591
 31
0.0
  0
LINE
  5
816C
  8
1
 10
567.63107727391684
 20
1644.0662045404149
 30
0.0
 11
1067.6310772739171
 21
1644.0662045404119
 31
0.0
  0
LINE
  5
816F
  8
1
 10
567.63107727391798
 20
1944.066204540416
 30
0.0
 11
572.63107727391719
 21
1944.066204540416
 31
0.0
  0
LINE
  5
8170
  8
1
 10
851.63107727391866
 20
1944.066204540416
 30
0.0
 11
1067.631077273918
 21
1944.066204540416
 31
0.0
  0
LINE
  5
8171
  8
1
 10
851.63107727391878
 20
1984.066204540416
 30
0.0
 11
1107.631077273918
 21
1984.066204540416
 31
0.0
  0
DIMENSION
  5
8206
  8
3
  2
*D15
 10
677.63107727391275
 20
691.37395562498841
 30
0.0
 11
602.63107727391298
 21
716.37395562498841
 31
0.0
 70
     0
 13
527.63107727391309
 23
762.96073946302658
 33
0.0
 14
677.63107727391275
 24
762.96073946302613
 34
0.0
1001
ACAD
1000
DSTYLE
1002
{
1070
   287
1070
     3
1070
    40
1040
10.0
1070
   143
1040
0.039
1070
   172
1070
     1
1070
   271
1070
     0
1070
   279
1070
     0
1002
}
  0
DIMENSION
  5
8213
  8
3
  2
*D16
 10
1107.631077273913
 20
691.37395562498841
 30
0.0
 11
892.63107727391275
 21
716.37395562498841
 31
0.0
 70
     0
 13
677.63107727391275
 23
762.96073946302613
 33
0.0
 14
1107.631077273913
 24
762.96073946302454
 34
0.0
1001
ACAD
1000
DSTYLE
1002
{
1070
   287
1070
     3
1070
    40
1040
10.0
1070
   143
1040
0.039
1070
   172
1070
     1
1070
   271
1070
     0
1070
   279
1070
     0
1002
}
  0
DIMENSION
  5
8220
  8
3
  2
*D17
 10
1800.7074447939351
 20
691.37395562498841
 30
0.0
 11
1610.707444793934
 21
716.37395562498841
 31
0.0
 70
     0
 13
1420.707444793934
 23
762.91074476116785
 33
0.0
 14
1800.7074447939351
 24
762.91074476116762
 34
0.0
1001
ACAD
1000
DSTYLE
1002
{
1070
   287
1070
     3
1070
    40
1040
10.0
1070
   143
1040
0.039
1070
   172
1070
     1
1070
   271
1070
     0
1070
   279
1070
     0
1002
}
  0
DIMENSION
  5
822F
  8
3
  2
*D18
 10
1825.707444793934
 20
691.37395562498841
 30
0.0
 11
1899.993159079648
 21
716.37395562498841
 31
0.0
 70
     0
 13
1800.7074447939351
 23
762.91074476116773
 33
0.0
 14
1825.707444793934
 24
762.91074476116751
 34
0.0
1001
ACAD
1000
DSTYLE
1002
{
1070
   287
1070
     3
1070
    40
1040
10.0
1070
   143
1040
0.039
1070
   172
1070
     1
1070
   271
1070
     0
1070
   279
1070
     0
1002
}
  0
DIMENSION
  5
823C
  8
3
  2
*D19
 10
339.66527097125618
 20
762.96073946302658
 30
0.0
 11
314.66527097125601
 21
952.96073946302658
 31
0.0
 70
     0
 13
649.33107727391416
 23
1142.9607394630259
 33
0.0
 14
527.63107727391309
 24
762.96073946302658
 34
0.0
 50
90.0
1001
ACAD
1000
DSTYLE
1002
{
1070
   287
1070
     3
1070
    40
1040
10.0
1070
   143
1040
0.039
1070
   172
1070
     1
1070
   271
1070
     0
1070
   279
1070
     0
1002
}
  0
ENDSEC
  0
EOF
