  0
SECTION
  2
HEADER
  9
$ACADVER
  1
AC1009
  9
$INSBASE
 10
0.0
 20
0.0
 30
0.0
  9
$EXTMIN
 10
0.0
 20
0.0
 30
0.0
  9
$EXTMAX
 10
2100.0
 20
2950.0
 30
0.0
  9
$LIMMIN
 10
0.0
 20
0.0
  9
$LIMMAX
 10
297.0
 20
210.0
  9
$ORTHOMODE
 70
     0
  9
$REGENMODE
 70
     1
  9
$FILLMODE
 70
     0
  9
$QTEXTMODE
 70
     0
  9
$MIRRTEXT
 70
     1
  9
$DRAGMODE
 70
     2
  9
$LTSCALE
 40
100.0
  9
$OSMODE
 70
    37
  9
$ATTMODE
 70
     1
  9
$TEXTSIZE
 40
180.0
  9
$TRACEWID
 40
0.05
  9
$TEXTSTYLE
  7
STANDARD
  9
$CLAYER
  8
3
  9
$CELTYPE
  6
BYLAYER
  9
$CECOLOR
 62
   256
  9
$DIMSCALE
 40
10.0
  9
$DIMASZ
 40
2.0
  9
$DIMEXO
 40
0.5
  9
$DIMDLI
 40
10.0
  9
$DIMRND
 40
0.0
  9
$DIMDLE
 40
0.0
  9
$DIMEXE
 40
1.0
  9
$DIMTP
 40
1.0
  9
$DIMTM
 40
1.0
  9
$DIMTXT
 40
3.0
  9
$DIMCEN
 40
0.0
  9
$DIMTSZ
 40
0.0
  9
$DIMTOL
 70
     0
  9
$DIMLIM
 70
     0
  9
$DIMTIH
 70
     0
  9
$DIMTOH
 70
     0
  9
$DIMSE1
 70
     0
  9
$DIMSE2
 70
     0
  9
$DIMTAD
 70
     1
  9
$DIMZIN
 70
     8
  9
$DIMBLK
  1

  9
$DIMASO
 70
     1
  9
$DIMSHO
 70
     1
  9
$DIMPOST
  1

  9
$DIMAPOST
  1

  9
$DIMALT
 70
     0
  9
$DIMALTD
 70
     2
  9
$DIMALTF
 40
0.039
  9
$DIMLFAC
 40
1.0
  9
$DIMTOFL
 70
     1
  9
$DIMTVP
 40
0.0
  9
$DIMTIX
 70
     0
  9
$DIMSOXD
 70
     0
  9
$DIMSAH
 70
     1
  9
$DIMBLK1
  1
OPEN
  9
$DIMBLK2
  1
OPEN
  9
$DIMSTYLE
  2
IGA
  9
$DIMCLRD
 70
     0
  9
$DIMCLRE
 70
     0
  9
$DIMCLRT
 70
     0
  9
$DIMTFAC
 40
10.0
  9
$DIMGAP
 40
1.0
  9
$LUNITS
 70
     2
  9
$LUPREC
 70
     3
  9
$SKETCHINC
 40
0.1
  9
$FILLETRAD
 40
50.0
  9
$AUNITS
 70
     0
  9
$AUPREC
 70
     0
  9
$MENU
  1
acad
  9
$ELEVATION
 40
0.0
  9
$PELEVATION
 40
0.0
  9
$THICKNESS
 40
0.0
  9
$LIMCHECK
 70
     0
  9
$BLIPMODE
 70
     0
  9
$CHAMFERA
 40
0.5
  9
$CHAMFERB
 40
0.5
  9
$SKPOLY
 70
     0
  9
$TDCREATE
 40
2451935.6039134259
  9
$TDUPDATE
 40
2454953.7492890968
  9
$TDINDWG
 40
0.0327162269
  9
$TDUSRTIMER
 40
0.0327162269
  9
$USRTIMER
 70
     1
  9
$ANGBASE
 50
0.0
  9
$ANGDIR
 70
     0
  9
$PDMODE
 70
     0
  9
$PDSIZE
 40
0.0
  9
$PLINEWID
 40
0.0
  9
$COORDS
 70
     1
  9
$SPLFRAME
 70
     0
  9
$SPLINETYPE
 70
     6
  9
$SPLINESEGS
 70
     8
  9
$ATTDIA
 70
     0
  9
$ATTREQ
 70
     1
  9
$HANDLING
 70
 10241
  9
$HANDSEED
  5
8311
  9
$SURFTAB1
 70
     6
  9
$SURFTAB2
 70
     6
  9
$SURFTYPE
 70
     6
  9
$SURFU
 70
     6
  9
$SURFV
 70
     6
  9
$UCSNAME
  2

  9
$UCSORG
 10
0.0
 20
0.0
 30
0.0
  9
$UCSXDIR
 10
1.0
 20
0.0
 30
0.0
  9
$UCSYDIR
 10
0.0
 20
1.0
 30
0.0
  9
$PUCSNAME
  2

  9
$PUCSORG
 10
0.0
 20
0.0
 30
0.0
  9
$PUCSXDIR
 10
1.0
 20
0.0
 30
0.0
  9
$PUCSYDIR
 10
0.0
 20
1.0
 30
0.0
  9
$USERI1
 70
     0
  9
$USERI2
 70
     0
  9
$USERI3
 70
     0
  9
$USERI4
 70
     0
  9
$USERI5
 70
     0
  9
$USERR1
 40
0.0
  9
$USERR2
 40
0.0
  9
$USERR3
 40
0.0
  9
$USERR4
 40
0.0
  9
$USERR5
 40
0.0
  9
$WORLDVIEW
 70
     1
  9
$SHADEDGE
 70
     3
  9
$SHADEDIF
 70
    70
  9
$TILEMODE
 70
     1
  9
$MAXACTVP
 70
    16
  9
$PLIMCHECK
 70
     0
  9
$PEXTMIN
 10
1.0000000000000000E+020
 20
1.0000000000000000E+020
 30
1.0000000000000000E+020
  9
$PEXTMAX
 10
-1.0000000000000000E+020
 20
-1.0000000000000000E+020
 30
-1.0000000000000000E+020
  9
$PLIMMIN
 10
0.0
 20
0.0
  9
$PLIMMAX
 10
12.0
 20
9.0
  9
$UNITMODE
 70
     0
  9
$VISRETAIN
 70
     0
  9
$PLINEGEN
 70
     0
  9
$PSLTSCALE
 70
     1
  0
ENDSEC
  0
SECTION
  2
TABLES
  0
TABLE
  2
VPORT
 70
     2
  0
VPORT
  2
*ACTIVE
 70
     0
 10
0.0
 20
0.0
 11
1.0
 21
1.0
 12
3536.6099588513671
 22
1475.0000068685031
 13
0.0
 23
0.0
 14
10.0
 24
10.0
 15
10.0
 25
10.0
 16
0.0
 26
0.0
 36
1.0
 17
0.0
 27
0.0
 37
0.0
 40
2972.614883016935
 41
3.1666666666666661
 42
50.0
 43
0.0
 44
0.0
 50
0.0
 51
0.0
 71
     0
 72
   100
 73
     1
 74
     0
 75
     0
 76
     0
 77
     0
 78
     0
  0
ENDTAB
  0
TABLE
  2
LTYPE
 70
     2
  0
LTYPE
  2
CONTINUOUS
 70
     0
  3
Solid line
 72
    65
 73
     0
 40
0.0
  0
LTYPE
  2
CENTER
 70
     0
  3
____ _ ____ _ ____ _ ____ _ ____ _ ____ _ ____ 
 72
    65
 73
     4
 40
2.0
 49
1.25
 49
-0.25
 49
0.25
 49
-0.25
  0
ENDTAB
  0
TABLE
  2
LAYER
 70
     6
  0
LAYER
  2
0
 70
     0
 62
     7
  6
CONTINUOUS
  0
LAYER
  2
3
 70
     0
 62
     2
  6
CONTINUOUS
  0
LAYER
  2
2
 70
     0
 62
     3
  6
CENTER
  0
LAYER
  2
1
 70
     0
 62
     4
  6
CONTINUOUS
  0
LAYER
  2
4
 70
     0
 62
     7
  6
CONTINUOUS
  0
LAYER
  2
DEFPOINTS
 70
     0
 62
     7
  6
CONTINUOUS
  0
ENDTAB
  0
TABLE
  2
STYLE
 70
     1
  0
STYLE
  2
STANDARD
 70
     0
 40
0.0
 41
1.0
 50
0.0
 71
     0
 42
180.0
  3
simplex.shx
  4
extfont.shx
  0
ENDTAB
  0
TABLE
  2
VIEW
 70
     0
  0
ENDTAB
  0
TABLE
  2
UCS
 70
     0
  0
ENDTAB
  0
TABLE
  2
APPID
 70
     1
  0
APPID
  2
ACAD
 70
     0
  0
ENDTAB
  0
TABLE
  2
DIMSTYLE
 70
     1
  0
DIMSTYLE
  2
IGA
 70
     0
  3

  4

  5

  6
OPEN
  7
OPEN
 40
2.0
 41
2.0
 42
0.5
 43
10.0
 44
1.0
 45
0.0
 46
0.0
 47
1.0
 48
1.0
140
3.0
141
0.0
142
0.0
143
0.03937
144
1.0
145
0.0
146
10.0
147
1.0
 71
     0
 72
     0
 73
     0
 74
     0
 75
     0
 76
     0
 77
     1
 78
     8
170
     0
171
     2
172
     0
173
     1
174
     0
175
     0
176
     0
177
     0
178
     0
  0
ENDTAB
  0
ENDSEC
  0
SECTION
  2
BLOCKS
  0
BLOCK
  8
0
  2
$MODEL_SPACE
 70
     0
 10
0.0
 20
0.0
 30
0.0
  3
$MODEL_SPACE
  1

  0
ENDBLK
  5
1B
  8
0
  0
BLOCK
 67
     1
  8
0
  2
$PAPER_SPACE
 70
     0
 10
0.0
 20
0.0
 30
0.0
  3
$PAPER_SPACE
  1

  0
ENDBLK
  5
18
 67
     1
  8
0
  0
BLOCK
  8
0
  2
_OPEN
 70
     0
 10
0.0
 20
0.0
 30
0.0
  3
_OPEN
  1

  0
LINE
  5
79FD
  8
0
  6
BYBLOCK
 62
     0
 10
-1.0
 20
0.1666666666666666
 30
0.0
 11
0.0
 21
0.0
 31
0.0
  0
LINE
  5
79FE
  8
0
  6
BYBLOCK
 62
     0
 10
0.0
 20
0.0
 30
0.0
 11
-1.0
 21
-0.1666666666666666
 31
0.0
  0
LINE
  5
79FF
  8
0
  6
BYBLOCK
 62
     0
 10
0.0
 20
0.0
 30
0.0
 11
-1.0
 21
0.0
 31
0.0
  0
ENDBLK
  5
7A01
  8
0
  0
BLOCK
  8
0
  2
YA_N
 70
     0
 10
0.0
 20
0.0
 30
0.0
  3
YA_N
  1

  0
ENDBLK
  5
7A04
  8
0
  0
BLOCK
  8
0
  2
*D2
 70
     1
 10
0.0
 20
0.0
 30
0.0
  3
*D2
  1

  0
LINE
  5
8275
  8
3
 62
     0
 10
490.28692886780573
 20
1154.3819992568731
 30
0.0
 11
410.44465065053532
 21
1154.3819992568731
 31
0.0
  0
LINE
  5
8276
  8
3
 62
     0
 10
490.28692886780499
 20
994.38199925687366
 30
0.0
 11
410.44465065053532
 21
994.38199925687366
 31
0.0
  0
LINE
  5
8277
  8
3
 62
     0
 10
420.44465065053532
 20
1134.3819992568731
 30
0.0
 11
420.44465065053532
 21
1014.381999256873
 31
0.0
  0
INSERT
  5
8278
  8
3
 62
     0
  2
_OPEN
 10
420.44465065053538
 20
1154.3819992568731
 30
0.0
 41
20.0
 42
20.0
 43
20.0
 50
90.0
  0
INSERT
  5
8279
  8
3
 62
     0
  2
_OPEN
 10
420.44465065053532
 20
994.38199925687366
 30
0.0
 41
20.0
 42
20.0
 43
20.0
 50
270.0
  0
TEXT
  8
3
  40
30
  5
8301
  62
0
  72
0
  71
0
 10
335.445
 20
1021.28
 30
0.000000
  1
160
  0
POINT
  5
827B
  8
DEFPOINTS
 62
     0
 10
495.28692886780573
 20
1154.3819992568731
 30
0.0
  0
POINT
  5
827C
  8
DEFPOINTS
 62
     0
 10
495.28692886780499
 20
994.38199925687366
 30
0.0
  0
POINT
  5
827D
  8
DEFPOINTS
 62
     0
 10
420.44465065053532
 20
994.38199925687366
 30
0.0
  0
ENDBLK
  5
8032
  8
0
  0
BLOCK
  8
0
  2
*D3
 70
     1
 10
0.0
 20
0.0
 30
0.0
  3
*D3
  1

  0
LINE
  5
827E
  8
3
 62
     0
 10
490.28692886780573
 20
1154.3819992568731
 30
0.0
 11
354.5712049418762
 21
1154.3819992568731
 31
0.0
  0
LINE
  5
827F
  8
3
 62
     0
 10
453.54068487046351
 20
1000.381999256873
 30
0.0
 11
354.57120494187609
 21
1000.381999256873
 31
0.0
  0
LINE
  5
8280
  8
3
 62
     0
 10
364.5712049418762
 20
1134.3819992568731
 30
0.0
 11
364.5712049418762
 21
1020.381999256873
 31
0.0
  0
INSERT
  5
8281
  8
3
 62
     0
  2
_OPEN
 10
364.5712049418762
 20
1154.3819992568731
 30
0.0
 41
20.0
 42
20.0
 43
20.0
 50
90.0
  0
INSERT
  5
8282
  8
3
 62
     0
  2
_OPEN
 10
364.5712049418762
 20
1000.381999256873
 30
0.0
 41
20.0
 42
20.0
 43
20.0
 50
270.0
  0
TEXT
  8
3
  40
30
  5
8302
  62
0
  72
0
  71
0
 10
279.571
 20
1024.28
 30
0.000000
  1
154
  0
POINT
  5
8284
  8
DEFPOINTS
 62
     0
 10
495.28692886780573
 20
1154.3819992568731
 30
0.0
  0
POINT
  5
8285
  8
DEFPOINTS
 62
     0
 10
458.54068487046351
 20
1000.381999256873
 30
0.0
  0
POINT
  5
8286
  8
DEFPOINTS
 62
     0
 10
364.5712049418762
 20
1000.381999256873
 30
0.0
  0
ENDBLK
  5
8027
  8
0
  0
BLOCK
  8
0
  2
*D4
 70
     1
 10
0.0
 20
0.0
 30
0.0
  3
*D4
  1

  0
LINE
  5
8287
  8
3
 62
     0
 10
453.54068487046351
 20
1000.381999256873
 30
0.0
 11
354.57120494187529
 21
1000.381999256873
 31
0.0
  0
LINE
  5
8288
  8
3
 62
     0
 10
480.28692886780459
 20
780.38199925687354
 30
0.0
 11
354.57120494187529
 21
780.38199925687354
 31
0.0
  0
LINE
  5
8289
  8
3
 62
     0
 10
364.57120494187529
 20
980.38199925687366
 30
0.0
 11
364.57120494187529
 21
800.38199925687343
 31
0.0
  0
INSERT
  5
828A
  8
3
 62
     0
  2
_OPEN
 10
364.57120494187529
 20
1000.381999256873
 30
0.0
 41
20.0
 42
20.0
 43
20.0
 50
90.0
  0
INSERT
  5
828B
  8
3
 62
     0
  2
_OPEN
 10
364.57120494187529
 20
780.38199925687354
 30
0.0
 41
20.0
 42
20.0
 43
20.0
 50
270.0
  0
TEXT
  8
3
  40
30
  5
8303
  62
0
  72
0
  71
0
 10
279.571
 20
837.282
 30
0.000000
  1
220
  0
POINT
  5
828D
  8
DEFPOINTS
 62
     0
 10
458.54068487046351
 20
1000.381999256873
 30
0.0
  0
POINT
  5
828E
  8
DEFPOINTS
 62
     0
 10
485.28692886780459
 20
780.38199925687354
 30
0.0
  0
POINT
  5
828F
  8
DEFPOINTS
 62
     0
 10
364.57120494187529
 20
780.38199925687354
 30
0.0
  0
ENDBLK
  5
801C
  8
0
  0
BLOCK
  8
0
  2
*D5
 70
     1
 10
0.0
 20
0.0
 30
0.0
  3
*D5
  1

  0
LINE
  5
8290
  8
3
 62
     0
 10
1887.195594109495
 20
1088.3320045550111
 30
0.0
 11
1994.536257919031
 21
1088.3320045550111
 31
0.0
  0
LINE
  5
8291
  8
3
 62
     0
 10
1888.8955941094939
 20
912.33200455501458
 30
0.0
 11
1994.536257919031
 21
912.33200455501458
 31
0.0
  0
LINE
  5
8292
  8
3
 62
     0
 10
1984.536257919031
 20
1068.3320045550111
 30
0.0
 11
1984.536257919031
 21
932.33200455501446
 31
0.0
  0
INSERT
  5
8293
  8
3
 62
     0
  2
_OPEN
 10
1984.536257919031
 20
1088.3320045550111
 30
0.0
 41
20.0
 42
20.0
 43
20.0
 50
90.0
  0
INSERT
  5
8294
  8
3
 62
     0
  2
_OPEN
 10
1984.536257919031
 20
912.33200455501458
 30
0.0
 41
20.0
 42
20.0
 43
20.0
 50
270.0
  0
TEXT
  8
3
  40
30
  5
8304
  62
0
  72
0
  71
0
 10
1899.54
 20
947.232
 30
0.000000
  1
φ176
  0
POINT
  5
8296
  8
DEFPOINTS
 62
     0
 10
1882.195594109495
 20
1088.3320045550111
 30
0.0
  0
POINT
  5
8297
  8
DEFPOINTS
 62
     0
 10
1883.8955941094939
 20
912.33200455501458
 30
0.0
  0
POINT
  5
8298
  8
DEFPOINTS
 62
     0
 10
1984.536257919031
 20
912.33200455501458
 30
0.0
  0
ENDBLK
  5
810F
  8
0
  0
BLOCK
  8
0
  2
*D6
 70
     1
 10
0.0
 20
0.0
 30
0.0
  3
*D6
  1

  0
LINE
  5
806F
  8
0
  6
BYBLOCK
 62
     0
 10
1759.8955941094939
 20
1159.332004555014
 30
0.0
 11
1759.8955941094939
 21
1217.71199756071
 31
0.0
  0
LINE
  5
8070
  8
0
  6
BYBLOCK
 62
     0
 10
1879.895594109493
 20
1159.332004555014
 30
0.0
 11
1879.895594109493
 21
1217.71199756071
 31
0.0
  0
LINE
  5
8071
  8
0
  6
BYBLOCK
 62
     0
 10
1779.8955941094939
 20
1207.71199756071
 30
0.0
 11
1859.895594109493
 21
1207.71199756071
 31
0.0
  0
TEXT
  5
8072
  8
3
 62
     0
 10
1784.1813083952079
 20
1217.559141675064
 30
0.0
 40
30.0
  1
120
  0
INSERT
  5
8073
  8
0
  6
BYBLOCK
 62
     0
  2
_OPEN
 10
1759.8955941094939
 20
1207.71199756071
 30
0.0
 41
20.0
 42
20.0
 43
20.0
 50
180.0
  0
INSERT
  5
8074
  8
0
  6
BYBLOCK
 62
     0
  2
_OPEN
 10
1879.895594109493
 20
1207.71199756071
 30
0.0
 41
20.0
 42
20.0
 43
20.0
  0
POINT
  5
8075
  8
DEFPOINTS
  6
BYBLOCK
 62
     0
 10
1759.8955941094939
 20
1154.332004555014
 30
0.0
  0
POINT
  5
8076
  8
DEFPOINTS
  6
BYBLOCK
 62
     0
 10
1879.895594109493
 20
1154.332004555014
 30
0.0
  0
POINT
  5
8077
  8
DEFPOINTS
  6
BYBLOCK
 62
     0
 10
1879.895594109493
 20
1207.71199756071
 30
0.0
  0
ENDBLK
  5
8078
  8
0
  0
BLOCK
  8
0
  2
*D7
 70
     1
 10
0.0
 20
0.0
 30
0.0
  3
*D7
  1

  0
LINE
  5
8299
  8
3
 62
     0
 10
1819.8955941094939
 20
1262.007038221961
 30
0.0
 11
1819.8955941094939
 21
1285.8214884929921
 31
0.0
  0
LINE
  5
829A
  8
3
 62
     0
 10
1404.1505437141959
 20
1160.3379696411339
 30
0.0
 11
1404.1505437141959
 21
1285.8214884929921
 31
0.0
  0
LINE
  5
829B
  8
3
 62
     0
 10
1799.8955941094939
 20
1275.8214884929921
 30
0.0
 11
1424.1505437141971
 21
1275.8214884929921
 31
0.0
  0
INSERT
  5
829C
  8
3
 62
     0
  2
_OPEN
 10
1819.8955941094939
 20
1275.8214884929921
 30
0.0
 41
20.0
 42
20.0
 43
20.0
  0
INSERT
  5
829D
  8
3
 62
     0
  2
_OPEN
 10
1404.1505437141959
 20
1275.8214884929921
 30
0.0
 41
20.0
 42
20.0
 43
20.0
 50
180.0
  0
TEXT
  8
3
  40
30
  5
8305
  62
0
  72
0
  71
0
 10
1552.02
 20
1272.72
 30
0.000000
  1
MAX
  0
TEXT
  8
3
  40
30
  5
8306
  62
0
  72
0
  71
0
 10
1552.02
 20
1233.72
 30
0.000000
  1
500
  0
POINT
  5
829F
  8
DEFPOINTS
 62
     0
 10
1819.8955941094939
 20
1257.007038221961
 30
0.0
  0
POINT
  5
82A0
  8
DEFPOINTS
 62
     0
 10
1404.1505437141959
 20
1155.337969641133
 30
0.0
  0
POINT
  5
82A1
  8
DEFPOINTS
 62
     0
 10
1404.1505437141959
 20
1275.8214884929921
 30
0.0
  0
ENDBLK
  5
8104
  8
0
  0
BLOCK
  8
0
  2
*D8
 70
     1
 10
0.0
 20
0.0
 30
0.0
  3
*D8
  1

  0
LINE
  5
82A2
  8
3
 62
     0
 10
475.28692886780573
 20
1181.6816902624471
 30
0.0
 11
475.28692886780573
 21
1235.20093174568
 31
0.0
  0
LINE
  5
82A3
  8
3
 62
     0
 10
635.28692886780573
 20
1183.9380630521059
 30
0.0
 11
635.28692886780573
 21
1235.20093174568
 31
0.0
  0
LINE
  5
82A4
  8
3
 62
     0
 10
495.28692886780573
 20
1225.20093174568
 30
0.0
 11
615.28692886780573
 21
1225.20093174568
 31
0.0
  0
INSERT
  5
82A5
  8
3
 62
     0
  2
_OPEN
 10
475.28692886780573
 20
1225.20093174568
 30
0.0
 41
20.0
 42
20.0
 43
20.0
 50
180.0
  0
INSERT
  5
82A6
  8
3
 62
     0
  2
_OPEN
 10
635.28692886780573
 20
1225.20093174568
 30
0.0
 41
20.0
 42
20.0
 43
20.0
  0
TEXT
  8
3
  40
30
  5
8307
  62
0
  72
0
  71
0
 10
495.287
 20
1197.10
 30
0.000000
  1
160
  0
POINT
  5
82A8
  8
DEFPOINTS
 62
     0
 10
475.28692886780573
 20
1176.6816902624471
 30
0.0
  0
POINT
  5
82A9
  8
DEFPOINTS
 62
     0
 10
635.28692886780573
 20
1178.9380630521059
 30
0.0
  0
POINT
  5
82AA
  8
DEFPOINTS
 62
     0
 10
635.28692886780573
 20
1225.20093174568
 30
0.0
  0
ENDBLK
  5
7F92
  8
0
  0
BLOCK
  8
0
  2
*D9
 70
     1
 10
0.0
 20
0.0
 30
0.0
  3
*D9
  1

  0
LINE
  5
82AB
  8
3
 62
     0
 10
635.28692886780573
 20
1183.9380630521059
 30
0.0
 11
635.28692886780573
 21
1235.20093174568
 31
0.0
  0
LINE
  5
82AC
  8
3
 62
     0
 10
771.78692886780505
 20
1012.8819992568719
 30
0.0
 11
771.78692886780505
 21
1235.20093174568
 31
0.0
  0
LINE
  5
82AD
  8
3
 62
     0
 10
655.28692886780573
 20
1225.20093174568
 30
0.0
 11
751.78692886780505
 21
1225.20093174568
 31
0.0
  0
INSERT
  5
82AE
  8
3
 62
     0
  2
_OPEN
 10
635.28692886780573
 20
1225.20093174568
 30
0.0
 41
20.0
 42
20.0
 43
20.0
 50
180.0
  0
INSERT
  5
82AF
  8
3
 62
     0
  2
_OPEN
 10
771.78692886780505
 20
1225.20093174568
 30
0.0
 41
20.0
 42
20.0
 43
20.0
  0
TEXT
  8
3
  40
30
  5
8308
  62
0
  72
0
  71
0
 10
643.537
 20
1197.10
 30
0.000000
  1
136
  0
POINT
  5
82B1
  8
DEFPOINTS
 62
     0
 10
635.28692886780573
 20
1178.9380630521059
 30
0.0
  0
POINT
  5
82B2
  8
DEFPOINTS
 62
     0
 10
771.78692886780505
 20
1007.881999256871
 30
0.0
  0
POINT
  5
82B3
  8
DEFPOINTS
 62
     0
 10
771.78692886780505
 20
1225.20093174568
 30
0.0
  0
ENDBLK
  5
7F87
  8
0
  0
BLOCK
  8
0
  2
*D10
 70
     1
 10
0.0
 20
0.0
 30
0.0
  3
*D10
  1

  0
LINE
  5
82B4
  8
3
 62
     0
 10
475.28692886780573
 20
1181.6816902624471
 30
0.0
 11
475.28692886780573
 21
1292.5938696011769
 31
0.0
  0
LINE
  5
82B5
  8
3
 62
     0
 10
1065.2869288678039
 20
825.3819992568715
 30
0.0
 11
1065.2869288678039
 21
1292.5938696011769
 31
0.0
  0
LINE
  5
82B6
  8
3
 62
     0
 10
495.28692886780573
 20
1282.5938696011769
 30
0.0
 11
1045.2869288678039
 21
1282.5938696011769
 31
0.0
  0
INSERT
  5
82B7
  8
3
 62
     0
  2
_OPEN
 10
475.28692886780573
 20
1282.5938696011769
 30
0.0
 41
20.0
 42
20.0
 43
20.0
 50
180.0
  0
INSERT
  5
82B8
  8
3
 62
     0
  2
_OPEN
 10
1065.2869288678039
 20
1282.5938696011769
 30
0.0
 41
20.0
 42
20.0
 43
20.0
  0
TEXT
  8
3
  40
30
  5
8309
  62
0
  72
0
  71
0
 10
710.287
 20
1254.49
 30
0.000000
  1
590
  0
POINT
  5
82BA
  8
DEFPOINTS
 62
     0
 10
475.28692886780573
 20
1176.6816902624471
 30
0.0
  0
POINT
  5
82BB
  8
DEFPOINTS
 62
     0
 10
1065.2869288678039
 20
820.38199925687138
 30
0.0
  0
POINT
  5
82BC
  8
DEFPOINTS
 62
     0
 10
1065.2869288678039
 20
1282.5938696011769
 30
0.0
  0
ENDBLK
  5
7F7C
  8
0
  0
BLOCK
  8
0
  2
*D11
 70
     1
 10
0.0
 20
0.0
 30
0.0
  3
*D11
  1

  0
LINE
  5
803F
  8
0
  6
BYBLOCK
 62
     0
 10
1883.8955941094939
 20
1116.332004555014
 30
0.0
 11
1883.8955941094939
 21
1285.8214884929921
 31
0.0
  0
LINE
  5
8040
  8
0
  6
BYBLOCK
 62
     0
 10
1819.8955941094939
 20
1261.930396977652
 30
0.0
 11
1819.8955941094939
 21
1285.8214884929921
 31
0.0
  0
LINE
  5
8041
  8
0
  6
BYBLOCK
 62
     0
 10
1863.8955941094939
 20
1275.8214884929921
 30
0.0
 11
1839.8955941094939
 21
1275.8214884929921
 31
0.0
  0
TEXT
  5
8042
  8
3
 62
     0
 10
1832.3649194432001
 20
1285.584697087535
 30
0.0
 40
30.0
  1
64
  0
INSERT
  5
8043
  8
0
  6
BYBLOCK
 62
     0
  2
_OPEN
 10
1883.8955941094939
 20
1275.8214884929921
 30
0.0
 41
20.0
 42
20.0
 43
20.0
  0
INSERT
  5
8044
  8
0
  6
BYBLOCK
 62
     0
  2
_OPEN
 10
1819.8955941094939
 20
1275.8214884929921
 30
0.0
 41
20.0
 42
20.0
 43
20.0
 50
180.0
  0
POINT
  5
8045
  8
DEFPOINTS
  6
BYBLOCK
 62
     0
 10
1883.8955941094939
 20
1111.332004555014
 30
0.0
  0
POINT
  5
8046
  8
DEFPOINTS
  6
BYBLOCK
 62
     0
 10
1819.8955941094939
 20
1256.930396977652
 30
0.0
  0
POINT
  5
8047
  8
DEFPOINTS
  6
BYBLOCK
 62
     0
 10
1819.8955941094939
 20
1275.8214884929921
 30
0.0
  0
ENDBLK
  5
8048
  8
0
  0
BLOCK
  8
0
  2
_DOT
 70
     0
 10
0.0
 20
0.0
 30
0.0
  3
_DOT
  1

  0
LINE
  5
812B
  8
0
  6
BYBLOCK
 62
     0
 10
0.0
 20
0.0
 30
0.0
 11
-1.0
 21
-0.0000000000000284
 31
0.0
  0
POLYLINE
  5
812C
  8
0
  6
BYBLOCK
 62
     0
 66
     1
 10
0.0
 20
0.0
 30
0.0
 70
     1
 40
0.1666666666666666
 41
0.1666666666666666
  0
VERTEX
  5
82BD
  8
0
  6
BYBLOCK
 62
     0
 10
-0.0833333333333286
 20
-0.0000000000000284
 30
0.0
 42
1.0
  0
VERTEX
  5
82BE
  8
0
  6
BYBLOCK
 62
     0
 10
0.0833333333333286
 20
-0.0000000000000284
 30
0.0
 42
1.0
  0
SEQEND
  5
82BF
  8
0
  6
BYBLOCK
 62
     0
  0
ENDBLK
  5
80C4
  8
0
  0
BLOCK
  8
0
  2
*D13
 70
     1
 10
0.0
 20
0.0
 30
0.0
  3
*D13
  1

  0
LINE
  5
82C0
  8
3
 62
     0
 10
1070.2869288678089
 20
1972.45203134452
 30
0.0
 11
1155.4245880205799
 21
1972.45203134452
 31
0.0
  0
LINE
  5
82C1
  8
3
 62
     0
 10
1070.286928867808
 20
1592.4520313445159
 30
0.0
 11
1155.4245880205799
 21
1592.4520313445159
 31
0.0
  0
LINE
  5
82C2
  8
3
 62
     0
 10
1145.4245880205799
 20
1952.45203134452
 30
0.0
 11
1145.4245880205799
 21
1612.4520313445159
 31
0.0
  0
INSERT
  5
82C3
  8
3
 62
     0
  2
_OPEN
 10
1145.4245880205799
 20
1972.45203134452
 30
0.0
 41
20.0
 42
20.0
 43
20.0
 50
90.0
  0
INSERT
  5
82C4
  8
3
 62
     0
  2
_OPEN
 10
1145.4245880205799
 20
1592.4520313445159
 30
0.0
 41
20.0
 42
20.0
 43
20.0
 50
270.0
  0
TEXT
  8
3
  40
30
  5
830A
  62
0
  72
0
  71
0
 10
1060.42
 20
1723.50
 30
0.000000
  1
380
  0
POINT
  5
82C6
  8
DEFPOINTS
 62
     0
 10
1065.2869288678089
 20
1972.45203134452
 30
0.0
  0
POINT
  5
82C7
  8
DEFPOINTS
 62
     0
 10
1065.286928867808
 20
1592.4520313445159
 30
0.0
  0
POINT
  5
82C8
  8
DEFPOINTS
 62
     0
 10
1145.4245880205799
 20
1592.4520313445159
 30
0.0
  0
ENDBLK
  5
81A8
  8
0
  0
BLOCK
  8
0
  2
*D14
 70
     1
 10
0.0
 20
0.0
 30
0.0
  3
*D14
  1

  0
LINE
  5
82C9
  8
3
 62
     0
 10
485.28692886780817
 20
1587.4520313445189
 30
0.0
 11
485.28692886780817
 21
1491.900705382599
 31
0.0
  0
LINE
  5
82CA
  8
3
 62
     0
 10
1065.286928867808
 20
1587.4520313445159
 30
0.0
 11
1065.286928867808
 21
1491.900705382599
 31
0.0
  0
LINE
  5
82CB
  8
3
 62
     0
 10
505.28692886780817
 20
1501.9007053826001
 30
0.0
 11
1045.286928867808
 21
1501.9007053826001
 31
0.0
  0
INSERT
  5
82CC
  8
3
 62
     0
  2
_OPEN
 10
485.28692886780817
 20
1501.9007053826001
 30
0.0
 41
20.0
 42
20.0
 43
20.0
 50
180.0
  0
INSERT
  5
82CD
  8
3
 62
     0
  2
_OPEN
 10
1065.286928867808
 20
1501.9007053826001
 30
0.0
 41
20.0
 42
20.0
 43
20.0
  0
TEXT
  8
3
  40
30
  5
830B
  62
0
  72
0
  71
0
 10
717.509
 20
1473.80
 30
0.000000
  1
580
  0
POINT
  5
82CF
  8
DEFPOINTS
 62
     0
 10
485.28692886780817
 20
1592.4520313445189
 30
0.0
  0
POINT
  5
82D0
  8
DEFPOINTS
 62
     0
 10
1065.286928867808
 20
1592.4520313445159
 30
0.0
  0
POINT
  5
82D1
  8
DEFPOINTS
 62
     0
 10
1065.286928867808
 20
1501.9007053826001
 30
0.0
  0
ENDBLK
  5
81B5
  8
0
  0
BLOCK
  8
0
  2
*D15
 70
     1
 10
0.0
 20
0.0
 30
0.0
  3
*D15
  1

  0
LINE
  5
82D2
  8
3
 62
     0
 10
485.28692886780459
 20
775.38199925687354
 30
0.0
 11
485.28692886780459
 21
687.87151232395991
 31
0.0
  0
LINE
  5
82D3
  8
3
 62
     0
 10
635.28692886780402
 20
775.38199925687275
 30
0.0
 11
635.28692886780402
 21
687.87151232395991
 31
0.0
  0
LINE
  5
82D4
  8
3
 62
     0
 10
505.28692886780459
 20
697.87151232395991
 30
0.0
 11
615.28692886780402
 21
697.87151232395991
 31
0.0
  0
INSERT
  5
82D5
  8
3
 62
     0
  2
_OPEN
 10
485.28692886780459
 20
697.87151232395991
 30
0.0
 41
20.0
 42
20.0
 43
20.0
 50
180.0
  0
INSERT
  5
82D6
  8
3
 62
     0
  2
_OPEN
 10
635.28692886780402
 20
697.87151232395991
 30
0.0
 41
20.0
 42
20.0
 43
20.0
  0
TEXT
  8
3
  40
30
  5
830C
  62
0
  72
0
  71
0
 10
500.287
 20
669.772
 30
0.000000
  1
150
  0
POINT
  5
82D8
  8
DEFPOINTS
 62
     0
 10
485.28692886780459
 20
780.38199925687354
 30
0.0
  0
POINT
  5
82D9
  8
DEFPOINTS
 62
     0
 10
635.28692886780402
 20
780.38199925687275
 30
0.0
  0
POINT
  5
82DA
  8
DEFPOINTS
 62
     0
 10
635.28692886780402
 20
697.87151232395991
 30
0.0
  0
ENDBLK
  5
821F
  8
0
  0
BLOCK
  8
0
  2
*D16
 70
     1
 10
0.0
 20
0.0
 30
0.0
  3
*D16
  1

  0
LINE
  5
82DB
  8
3
 62
     0
 10
635.28692886780402
 20
775.38199925687275
 30
0.0
 11
635.28692886780402
 21
687.87151232395991
 31
0.0
  0
LINE
  5
82DC
  8
3
 62
     0
 10
1065.2869288678039
 20
775.38199925687115
 30
0.0
 11
1065.2869288678039
 21
687.87151232395991
 31
0.0
  0
LINE
  5
82DD
  8
3
 62
     0
 10
655.28692886780391
 20
697.87151232395991
 30
0.0
 11
1045.2869288678039
 21
697.87151232395991
 31
0.0
  0
INSERT
  5
82DE
  8
3
 62
     0
  2
_OPEN
 10
635.28692886780402
 20
697.87151232395991
 30
0.0
 41
20.0
 42
20.0
 43
20.0
 50
180.0
  0
INSERT
  5
82DF
  8
3
 62
     0
  2
_OPEN
 10
1065.2869288678039
 20
697.87151232395991
 30
0.0
 41
20.0
 42
20.0
 43
20.0
  0
TEXT
  8
3
  40
30
  5
830D
  62
0
  72
0
  71
0
 10
790.287
 20
669.772
 30
0.000000
  1
430
  0
POINT
  5
82E1
  8
DEFPOINTS
 62
     0
 10
635.28692886780402
 20
780.38199925687275
 30
0.0
  0
POINT
  5
82E2
  8
DEFPOINTS
 62
     0
 10
1065.2869288678039
 20
780.38199925687127
 30
0.0
  0
POINT
  5
82E3
  8
DEFPOINTS
 62
     0
 10
1065.2869288678039
 20
697.87151232395991
 30
0.0
  0
ENDBLK
  5
822C
  8
0
  0
BLOCK
  8
0
  2
*D17
 70
     1
 10
0.0
 20
0.0
 30
0.0
  3
*D17
  1

  0
LINE
  5
82E4
  8
3
 62
     0
 10
1414.8955941094939
 20
775.33200455501435
 30
0.0
 11
1414.8955941094939
 21
687.87151232395991
 31
0.0
  0
LINE
  5
82E5
  8
3
 62
     0
 10
1794.8955941094939
 20
775.33200455501435
 30
0.0
 11
1794.8955941094939
 21
687.87151232395991
 31
0.0
  0
LINE
  5
82E6
  8
3
 62
     0
 10
1434.8955941094939
 20
697.87151232395991
 30
0.0
 11
1774.8955941094939
 21
697.87151232395991
 31
0.0
  0
INSERT
  5
82E7
  8
3
 62
     0
  2
_OPEN
 10
1414.8955941094939
 20
697.87151232395991
 30
0.0
 41
20.0
 42
20.0
 43
20.0
 50
180.0
  0
INSERT
  5
82E8
  8
3
 62
     0
  2
_OPEN
 10
1794.8955941094939
 20
697.87151232395991
 30
0.0
 41
20.0
 42
20.0
 43
20.0
  0
TEXT
  8
3
  40
30
  5
830E
  62
0
  72
0
  71
0
 10
1544.90
 20
669.772
 30
0.000000
  1
380
  0
POINT
  5
82EA
  8
DEFPOINTS
 62
     0
 10
1414.8955941094939
 20
780.33200455501446
 30
0.0
  0
POINT
  5
82EB
  8
DEFPOINTS
 62
     0
 10
1794.8955941094939
 20
780.33200455501435
 30
0.0
  0
POINT
  5
82EC
  8
DEFPOINTS
 62
     0
 10
1794.8955941094939
 20
697.87151232395991
 30
0.0
  0
ENDBLK
  5
8239
  8
0
  0
BLOCK
  8
0
  2
*D18
 70
     1
 10
0.0
 20
0.0
 30
0.0
  3
*D18
  1

  0
LINE
  5
82ED
  8
3
 62
     0
 10
1794.8955941094939
 20
775.33200455501435
 30
0.0
 11
1794.8955941094939
 21
687.87151232395991
 31
0.0
  0
LINE
  5
82EE
  8
3
 62
     0
 10
1819.8955941094939
 20
775.33200455501435
 30
0.0
 11
1819.8955941094939
 21
687.87151232395991
 31
0.0
  0
LINE
  5
82EF
  8
3
 62
     0
 10
1774.8955941094939
 20
697.87151232395991
 30
0.0
 11
1754.8955941094939
 21
697.87151232395991
 31
0.0
  0
LINE
  5
82F0
  8
3
 62
     0
 10
1839.8955941094939
 20
697.87151232395991
 30
0.0
 11
1928.4670226809219
 21
697.87151232395991
 31
0.0
  0
LINE
  5
82F1
  8
3
 62
     0
 10
1794.8955941094939
 20
697.87151232395991
 30
0.0
 11
1819.8955941094939
 21
697.87151232395991
 31
0.0
  0
INSERT
  5
82F2
  8
3
 62
     0
  2
_OPEN
 10
1794.8955941094939
 20
697.87151232395991
 30
0.0
 41
20.0
 42
20.0
 43
20.0
  0
INSERT
  5
82F3
  8
3
 62
     0
  2
_OPEN
 10
1819.8955941094939
 20
697.87151232395991
 30
0.0
 41
20.0
 42
20.0
 43
20.0
 50
180.0
  0
TEXT
  8
3
  40
30
  5
830F
  62
0
  72
0
  71
0
 10
1834.18
 20
669.772
 30
0.000000
  1
25
  0
POINT
  5
82F5
  8
DEFPOINTS
 62
     0
 10
1794.8955941094939
 20
780.33200455501446
 30
0.0
  0
POINT
  5
82F6
  8
DEFPOINTS
 62
     0
 10
1819.8955941094939
 20
780.33200455501446
 30
0.0
  0
POINT
  5
82F7
  8
DEFPOINTS
 62
     0
 10
1819.8955941094939
 20
697.87151232395991
 30
0.0
  0
ENDBLK
  5
8248
  8
0
  0
BLOCK
  8
0
  2
*D19
 70
     1
 10
0.0
 20
0.0
 30
0.0
  3
*D19
  1

  0
LINE
  5
82F8
  8
3
 62
     0
 10
470.28692886780573
 20
1176.6816902624471
 30
0.0
 11
283.03343755334208
 21
1176.6816902624471
 31
0.0
  0
LINE
  5
82F9
  8
3
 62
     0
 10
480.28692886780459
 20
780.38199925687354
 30
0.0
 11
283.03343755334203
 21
780.38199925687354
 31
0.0
  0
LINE
  5
82FA
  8
3
 62
     0
 10
293.03343755334208
 20
1156.6816902624471
 30
0.0
 11
293.03343755334208
 21
800.38199925687343
 31
0.0
  0
INSERT
  5
82FB
  8
3
 62
     0
  2
_OPEN
 10
293.03343755334208
 20
1176.6816902624471
 30
0.0
 41
20.0
 42
20.0
 43
20.0
 50
90.0
  0
INSERT
  5
82FC
  8
3
 62
     0
  2
_OPEN
 10
293.03343755334208
 20
780.38199925687354
 30
0.0
 41
20.0
 42
20.0
 43
20.0
 50
270.0
  0
TEXT
  8
3
  40
30
  5
8310
  62
0
  72
0
  71
0
 10
208.033
 20
925.432
 30
0.000000
  1
396
  0
POINT
  5
82FE
  8
DEFPOINTS
 62
     0
 10
475.28692886780573
 20
1176.6816902624471
 30
0.0
  0
POINT
  5
82FF
  8
DEFPOINTS
 62
     0
 10
485.28692886780459
 20
780.38199925687354
 30
0.0
  0
POINT
  5
8300
  8
DEFPOINTS
 62
     0
 10
293.03343755334208
 20
780.38199925687354
 30
0.0
  0
ENDBLK
  5
8255
  8
0
  0
ENDSEC
  0
SECTION
  2
ENTITIES
  0
INSERT
  5
7C15
  8
0
  2
YA_N
 10
2724.1612064906581
 20
327.02075517693441
 30
0.0
  0
INSERT
  5
7C16
  8
0
  2
YA_N
 10
2724.1612064906581
 20
327.02075517693441
 30
0.0
  0
LINE
  5
7C18
  8
1
 10
1657.595594109494
 20
820.33200455501435
 30
0.0
 11
1457.595594109494
 21
820.33200455501435
 31
0.0
  0
LINE
  5
7C19
  8
1
 10
1414.8955941094939
 20
820.33200455501458
 30
0.0
 11
1794.8955941094939
 21
820.33200455501424
 31
0.0
  0
LINE
  5
7C1A
  8
1
 10
1414.8955941094939
 20
780.33200455501458
 30
0.0
 11
1794.8955941094939
 21
780.33200455501435
 31
0.0
  0
LINE
  5
7C1B
  8
1
 10
1482.595594109494
 20
961.53200455501405
 30
0.0
 11
1488.395594109491
 21
961.53200455501405
 31
0.0
  0
LINE
  5
7C1C
  8
1
 10
1482.595594109494
 20
963.83200455501446
 30
0.0
 11
1488.395594109491
 21
963.83200455501458
 31
0.0
  0
LINE
  5
7C1D
  8
2
 10
1421.64208638895
 20
1000.332004555014
 30
0.0
 11
1916.3771180893209
 21
1000.332004555014
 31
0.0
  0
LINE
  5
7C1E
  8
1
 10
508.67261722222429
 20
1155.3379696411339
 30
0.0
 11
1038.6726172222241
 21
1155.3379696411321
 31
0.0
  0
LINE
  5
7C1F
  8
1
 10
623.17528829047376
 20
957.04254653160694
 30
0.0
 11
940.48381260662234
 21
877.41155703710251
 31
0.0
  0
LINE
  5
7C20
  8
1
 10
644.74780634140507
 20
1044.3762238486249
 30
0.0
 11
966.85022355776027
 21
984.1527182023467
 31
0.0
  0
LINE
  5
7C21
  8
1
 10
1038.6726172222241
 20
1155.3379696411321
 30
0.0
 11
1038.672617222222
 21
820.33796964113253
 31
0.0
  0
LINE
  5
7C22
  8
1
 10
1050.2869288678039
 20
820.38199925687138
 30
0.0
 11
860.28692886780357
 21
820.38199925687229
 31
0.0
  0
LINE
  5
7C23
  8
1
 10
1065.2869288678039
 20
820.38199925687138
 30
0.0
 11
1065.2869288678039
 21
780.33796964113219
 31
0.0
  0
CIRCLE
  5
7C24
  8
1
 10
955.28692886780459
 20
930.38199925687195
 30
0.0
 40
55.0
  0
LINE
  5
7C25
  8
2
 10
858.12838339215784
 20
930.3819992568724
 30
0.0
 11
1049.6736086421911
 21
930.3819992568715
 31
0.0
  0
LINE
  5
7C26
  8
2
 10
955.2869288678047
 20
1011.771499256871
 30
0.0
 11
955.28692886780391
 21
802.38760109736211
 31
0.0
  0
LINE
  5
7C27
  8
1
 10
1489.595594109494
 20
845.33796964113367
 30
0.0
 11
1489.595594109494
 21
820.33200455501435
 31
0.0
  0
LINE
  5
7C28
  8
2
 10
635.28692886780573
 20
1178.9380630521059
 30
0.0
 11
635.28692886780402
 21
780.38199925687275
 31
0.0
  0
LINE
  5
7C29
  8
1
 10
735.28692886780482
 20
960.68199925687247
 30
0.0
 11
735.28692886780425
 21
820.33796964113333
 31
0.0
  0
LINE
  5
7C2A
  8
1
 10
508.67261722222293
 20
820.33796964113424
 30
0.0
 11
508.67261722222429
 21
1155.3379696411339
 31
0.0
  0
LINE
  5
7C2B
  8
1
 10
535.28692886780482
 20
960.68199925687338
 30
0.0
 11
535.28692886780425
 21
820.3379696411339
 31
0.0
  0
LINE
  5
7C2C
  8
1
 10
1479.1505437141959
 20
829.33200455501458
 30
0.0
 11
1479.1505437141959
 21
872.3506975079398
 31
0.0
  0
LINE
  5
7C2D
  8
1
 10
1404.1505437141971
 20
829.33200455501458
 30
0.0
 11
1404.1505437141959
 21
1155.337969641133
 31
0.0
  0
LINE
  5
7C2E
  8
1
 10
1479.1505437141959
 20
829.33200455501435
 30
0.0
 11
1404.1505437141959
 21
829.33200455501435
 31
0.0
  0
LINE
  5
7C2F
  8
1
 10
485.28692886780482
 20
820.38199925687354
 30
0.0
 11
485.28692886780459
 21
780.33796964113412
 31
0.0
  0
POINT
  5
7C30
  8
1
 10
1454.8955941094939
 20
780.33200455501446
 30
0.0
  0
POINT
  5
7C31
  8
1
 10
1487.295594109494
 20
820.33200455501435
 30
0.0
  0
POINT
  5
7C32
  8
1
 10
1487.295594109494
 20
820.33200455501435
 30
0.0
  0
ARC
  5
7C33
  8
1
 10
642.78692886780505
 20
1007.8819992568719
 30
0.0
 40
129.0
 50
269.99999999999972
 51
359.99999999999972
  0
ARC
  5
7C34
  8
1
 10
642.78692886780505
 20
992.88199925687275
 30
0.0
 40
114.0
 50
179.99999999999969
 51
269.99999999999972
  0
LINE
  5
7C35
  8
2
 10
458.54068487046351
 20
1000.381999256873
 30
0.0
 11
811.45924163104542
 21
1000.3819992568719
 31
0.0
  0
LINE
  5
7C36
  8
1
 10
727.58692886780545
 20
1063.882004555014
 30
0.0
 11
727.586928867805
 21
963.88199925687252
 31
0.0
  0
LINE
  5
7C37
  8
1
 10
733.58692886780545
 20
1063.882004555014
 30
0.0
 11
733.586928867805
 21
963.88199925687229
 31
0.0
  0
LINE
  5
7C38
  8
1
 10
536.98692886780555
 20
1063.8820045550151
 30
0.0
 11
536.98692886780464
 21
963.8819992568732
 31
0.0
  0
LINE
  5
7C39
  8
1
 10
542.98692886780555
 20
1063.8820045550151
 30
0.0
 11
542.98692886780464
 21
963.8819992568732
 31
0.0
  0
LINE
  5
7C3A
  8
1
 10
495.28692886780613
 20
1154.3819992568731
 30
0.0
 11
632.50697185544095
 21
1151.8046215029769
 31
0.0
  0
ARC
  5
7C3B
  8
1
 10
627.78692886780505
 20
1007.8819992568719
 30
0.0
 40
144.0
 50
359.99999999999972
 51
89.999999999997954
  0
CIRCLE
  5
7C3C
  8
1
 10
635.28692886780459
 20
890.33796964113378
 30
0.0
 40
60.0
  0
LINE
  5
7C3E
  8
1
 10
530.2869288678047
 20
960.68199925687338
 30
0.0
 11
740.28692886780482
 21
960.68199925687247
 31
0.0
  0
LINE
  5
7C3F
  8
1
 10
530.2869288678047
 20
963.8819992568732
 30
0.0
 11
740.28692886780482
 21
963.88199925687229
 31
0.0
  0
CIRCLE
  5
7C40
  8
1
 10
635.28692886780505
 20
1000.381999256873
 30
0.0
 40
45.0
  0
LINE
  5
7C41
  8
1
 10
710.28692886780482
 20
967.08199925687268
 30
0.0
 11
560.28692886780482
 21
967.08199925687325
 31
0.0
  0
LINE
  5
7C42
  8
1
 10
560.28692886780482
 20
963.8819992568732
 30
0.0
 11
710.28692886780482
 21
963.88199925687252
 31
0.0
  0
LINE
  5
7C43
  8
1
 10
740.28692886780482
 20
963.88199925687229
 30
0.0
 11
740.28692886780482
 21
960.68199925687247
 31
0.0
  0
LINE
  5
7C44
  8
1
 10
710.28692886780482
 20
963.88199925687252
 30
0.0
 11
710.28692886780482
 21
967.08199925687268
 31
0.0
  0
LINE
  5
7C45
  8
1
 10
560.28692886780482
 20
967.08199925687325
 30
0.0
 11
560.28692886780482
 21
963.8819992568732
 31
0.0
  0
LINE
  5
7C46
  8
1
 10
530.2869288678047
 20
963.8819992568732
 30
0.0
 11
530.2869288678047
 21
960.68199925687338
 31
0.0
  0
LINE
  5
7C47
  8
1
 10
495.28692886780573
 20
1176.6816902624471
 30
0.0
 11
495.28692886780499
 21
972.08199925687325
 31
0.0
  0
LINE
  5
7C48
  8
1
 10
475.28692886780573
 20
1176.6816902624471
 30
0.0
 11
475.28692886780499
 21
972.08199925687325
 31
0.0
  0
LINE
  5
7C49
  8
1
 10
495.28692886780573
 20
1176.6816902624471
 30
0.0
 11
475.28692886780573
 21
1176.6816902624471
 31
0.0
  0
LINE
  5
7C4A
  8
1
 10
727.58692886780545
 20
1063.882004555014
 30
0.0
 11
733.58692886780545
 21
1063.882004555014
 31
0.0
  0
CIRCLE
  5
7C4B
  8
1
 10
527.31429577799304
 20
1023.3819992568719
 30
0.0
 40
6.0
  0
LINE
  5
7C4C
  8
1
 10
495.28692886780499
 20
994.38199925687366
 30
0.0
 11
528.79829315642667
 21
994.3819992568732
 31
0.0
  0
ARC
  5
7C4D
  8
1
 10
627.78692886780505
 20
992.88199925687297
 30
0.0
 40
99.0
 50
163.1135330024382
 51
179.99999999999969
  0
LINE
  5
7C4E
  8
1
 10
475.28692886780499
 20
972.08199925687325
 30
0.0
 11
495.28692886780499
 21
972.08199925687325
 31
0.0
  0
LINE
  5
7C4F
  8
1
 10
536.98692886780555
 20
1063.8820045550151
 30
0.0
 11
542.98692886780555
 21
1063.8820045550151
 31
0.0
  0
LINE
  5
7C50
  8
1
 10
1456.6505437141959
 20
1045.332004555014
 30
0.0
 11
1456.6505437141971
 21
876.33200455501446
 31
0.0
  0
LINE
  5
7C51
  8
1
 10
1426.6505437141959
 20
1045.332004555014
 30
0.0
 11
1426.6505437141959
 21
876.33200455501446
 31
0.0
  0
LINE
  5
7C52
  8
2
 10
1423.258295505027
 20
930.33796964113378
 30
0.0
 11
1495.2977924109871
 21
930.33796964113378
 31
0.0
  0
LINE
  5
7C53
  8
1
 10
1456.6505437141971
 20
876.33200455501446
 30
0.0
 11
1426.6505437141959
 21
876.33200455501446
 31
0.0
  0
LINE
  5
7C54
  8
1
 10
1466.6505437141959
 20
990.33200455501435
 30
0.0
 11
1488.3955941094921
 21
990.33200455501435
 31
0.0
  0
LINE
  5
7C55
  8
1
 10
1466.6505437141959
 20
1010.332004555014
 30
0.0
 11
1488.395594109491
 21
1010.332004555014
 31
0.0
  0
LINE
  5
7C56
  8
1
 10
1466.6505437141959
 20
1010.332004555014
 30
0.0
 11
1466.6505437141959
 21
990.33200455501435
 31
0.0
  0
LINE
  5
7C57
  8
1
 10
1456.6505437141959
 20
986.33200455501435
 30
0.0
 11
1426.6505437141959
 21
986.33200455501435
 31
0.0
  0
LINE
  5
7C58
  8
1
 10
1426.6505437141959
 20
955.33200455501458
 30
0.0
 11
1456.6505437141971
 21
955.33200455501458
 31
0.0
  0
LINE
  5
7C59
  8
1
 10
1482.595594109493
 20
963.83200455501446
 30
0.0
 11
1482.595594109493
 21
961.53200455501405
 31
0.0
  0
LINE
  5
7C5A
  8
1
 10
1456.6505437141959
 20
990.83200455501435
 30
0.0
 11
1466.6505437141971
 21
990.83200455501435
 31
0.0
  0
LINE
  5
7C5B
  8
1
 10
1426.6505437141959
 20
1045.332004555014
 30
0.0
 11
1456.6505437141959
 21
1045.332004555014
 31
0.0
  0
LINE
  5
7C5C
  8
1
 10
1456.6505437141959
 20
1009.832004555014
 30
0.0
 11
1466.6505437141971
 21
1009.832004555014
 31
0.0
  0
LINE
  5
7C5D
  8
1
 10
1404.1505437141959
 20
1155.337969641133
 30
0.0
 11
1479.1505437141959
 21
1155.337969641133
 31
0.0
  0
LINE
  5
7C62
  8
1
 10
1025.286928867808
 20
1592.4520313445171
 30
0.0
 11
1025.286928867808
 21
1664.4555337174579
 31
0.0
  0
LINE
  5
7C63
  8
1
 10
1065.286928867808
 20
1632.4520313445171
 30
0.0
 11
1065.2869288678089
 21
1972.452031344518
 31
0.0
  0
LINE
  5
7C64
  8
2
 10
955.28692886780789
 20
1595.6570830504929
 30
0.0
 11
955.28692886780846
 21
1938.7811589413891
 31
0.0
  0
LINE
  5
7C65
  8
1
 10
1065.286928867808
 20
1592.4520313445171
 30
0.0
 11
1065.286928867808
 21
1632.4520313445171
 31
0.0
  0
LINE
  5
7C67
  8
2
 10
635.28692886780755
 20
1599.0824288380879
 30
0.0
 11
635.28692886780846
 21
2079.1967624590789
 31
0.0
  0
LINE
  5
7C68
  8
1
 10
485.28692886780817
 20
1632.45203134452
 30
0.0
 11
485.28692886780931
 21
1915.95553371746
 31
0.0
  0
LINE
  5
7C69
  8
1
 10
525.28692886780823
 20
1592.4520313445189
 30
0.0
 11
525.28692886780925
 21
1935.9555337174611
 31
0.0
  0
LINE
  5
7C6A
  8
1
 10
485.28692886780817
 20
1592.4520313445189
 30
0.0
 11
485.28692886780817
 21
1632.4520313445189
 31
0.0
  0
LINE
  5
7C6D
  8
2
 10
1819.8955941094939
 20
1212.9350138955319
 30
0.0
 11
1819.8955941094939
 21
780.33200455501446
 31
0.0
  0
LINE
  5
7C6E
  8
1
 10
1903.8955941094939
 20
912.33200455501458
 30
0.0
 11
1883.8955941094939
 21
912.33200455501458
 31
0.0
  0
LINE
  5
7C6F
  8
1
 10
1883.8955941094951
 20
1000.332004555014
 30
0.0
 11
1883.8955941094939
 21
889.33200455501469
 31
0.0
  0
LINE
  5
7C71
  8
1
 10
1879.895594109493
 20
1154.332004555014
 30
0.0
 11
1879.895594109493
 21
994.33200455501458
 31
0.0
  0
LINE
  5
7C72
  8
1
 10
1759.8955941094939
 20
1154.332004555014
 30
0.0
 11
1759.8955941094939
 21
1008.681999256873
 31
0.0
  0
LINE
  5
7C76
  8
1
 10
1759.8955941094939
 20
1008.681999256873
 30
0.0
 11
1759.895594109493
 21
994.33200455501458
 31
0.0
  0
LINE
  5
7C78
  8
1
 10
1759.8955941094939
 20
864.38199925687331
 30
0.0
 11
1882.195594109495
 21
864.38199925687354
 31
0.0
  0
LINE
  5
7C7A
  8
1
 10
1879.8955941094939
 20
864.33200455501469
 30
0.0
 11
1882.195594109495
 21
864.33200455501515
 31
0.0
  0
LINE
  5
7C7B
  8
1
 10
1883.8955941094939
 20
912.33200455501458
 30
0.0
 11
1883.8955941094939
 21
892.33200455501446
 31
0.0
  0
LINE
  5
7C7C
  8
1
 10
1879.8955941094939
 20
889.33200455501469
 30
0.0
 11
1883.8955941094939
 21
889.33200455501435
 31
0.0
  0
LINE
  5
7C7E
  8
1
 10
1759.8955941094939
 20
1008.681999256873
 30
0.0
 11
1759.8955941094939
 21
1004.316027447616
 31
0.0
  0
LINE
  5
7C81
  8
1
 10
1732.595594109494
 20
1063.882004555014
 30
0.0
 11
1759.8955941094939
 21
1063.882004555014
 31
0.0
  0
LINE
  5
7C82
  8
1
 10
1737.595594109494
 20
1176.681690262446
 30
0.0
 11
1737.595594109494
 21
1063.882004555014
 31
0.0
  0
POINT
  5
7C83
  8
1
 10
1819.8955941094939
 20
1152.448636981045
 30
0.0
  0
LINE
  5
7C84
  8
1
 10
1886.8955941094939
 20
1000.332004555014
 30
0.0
 11
1886.8955941094939
 21
912.33200455501458
 31
0.0
  0
LINE
  5
7C85
  8
1
 10
1902.1955941094941
 20
1176.681690262446
 30
0.0
 11
1902.1955941094941
 21
1091.3093765483429
 31
0.0
  0
ARC
  5
7C86
  8
1
 10
955.28692886780459
 20
930.38199925687195
 30
0.0
 40
85.000007999999994
 50
295.91772599999967
 51
359.99999999999972
  0
ARC
  5
7C87
  8
1
 10
955.28692886780459
 20
930.38199925687195
 30
0.0
 40
85.0
 50
359.99999999999972
 51
244.12446599999981
  0
LINE
  5
7C88
  8
1
 10
918.19142986780435
 20
853.9310712568722
 30
0.0
 11
992.43873786780421
 21
853.93107125687175
 31
0.0
  0
LINE
  5
7C89
  8
1
 10
873.51233130204037
 20
850.38199925687184
 30
0.0
 11
892.96376086780435
 21
872.56349525687222
 31
0.0
  0
LINE
  5
7C8A
  8
1
 10
877.78692886780436
 20
850.3819992568724
 30
0.0
 11
912.78692886780425
 21
850.38199925687184
 31
0.0
  0
LINE
  5
7C8B
  8
1
 10
1037.0614375423979
 20
850.3819992568715
 30
0.0
 11
1017.608236867804
 21
872.5656372568717
 31
0.0
  0
LINE
  5
7C8C
  8
1
 10
1032.7869288678039
 20
850.3819992568715
 30
0.0
 11
997.78692886780425
 21
850.38199925687184
 31
0.0
  0
LINE
  5
7C8D
  8
1
 10
1057.7869288678039
 20
850.3819992568715
 30
0.0
 11
955.28692886780436
 21
850.38199925687218
 31
0.0
  0
LINE
  5
7C8E
  8
1
 10
1057.7869288678039
 20
850.3819992568715
 30
0.0
 11
1062.7869288678039
 21
820.38199925687138
 31
0.0
  0
LINE
  5
7C8F
  8
1
 10
852.78692886780436
 20
850.38199925687184
 30
0.0
 11
847.78692886780414
 21
820.38199925687206
 31
0.0
  0
LINE
  5
7C90
  8
1
 10
955.28692886780436
 20
850.38199925687184
 30
0.0
 11
852.78692886780436
 21
850.38199925687184
 31
0.0
  0
LINE
  5
7C91
  8
1
 10
771.2869288678088
 20
1972.45203134452
 30
0.0
 11
1065.2869288678089
 21
1972.45203134452
 31
0.0
  0
LINE
  5
7C92
  8
1
 10
485.28692886780817
 20
1592.4520313445189
 30
0.0
 11
1065.286928867808
 21
1592.4520313445159
 31
0.0
  0
DIMENSION
  5
7C97
  8
3
  2
*D2
 10
420.44465065053532
 20
994.38199925687366
 30
0.0
 11
395.4446506505351
 21
1074.3819992568731
 31
0.0
 70
     0
 13
495.28692886780573
 23
1154.3819992568731
 33
0.0
 14
495.28692886780499
 24
994.38199925687366
 34
0.0
 50
269.99999999999972
1001
ACAD
1000
DSTYLE
1002
{
1070
   287
1070
     3
1070
    40
1040
10.0
1070
   143
1040
0.039
1070
   172
1070
     1
1070
   271
1070
     0
1070
   279
1070
     0
1070
   288
1070
     1
1002
}
  0
DIMENSION
  5
7C98
  8
3
  2
*D3
 10
364.5712049418762
 20
1000.381999256873
 30
0.0
 11
339.57120494187598
 21
1077.3819992568731
 31
0.0
 70
     0
 13
495.28692886780573
 23
1154.3819992568731
 33
0.0
 14
458.54068487046351
 24
1000.381999256873
 34
0.0
 50
269.99999999999972
1001
ACAD
1000
DSTYLE
1002
{
1070
   287
1070
     3
1070
    40
1040
10.0
1070
   143
1040
0.039
1070
   172
1070
     1
1070
   271
1070
     0
1070
   279
1070
     0
1070
   288
1070
     1
1002
}
  0
LINE
  5
7C99
  8
1
 10
485.28692886780459
 20
780.38199925687354
 30
0.0
 11
1065.2869288678039
 21
780.38199925687127
 31
0.0
  0
LINE
  5
7C9A
  8
1
 10
485.28692886780527
 20
820.38199925687354
 30
0.0
 11
1065.2869288678039
 21
820.38199925687138
 31
0.0
  0
DIMENSION
  5
7C9D
  8
3
  2
*D4
 10
364.57120494187529
 20
780.38199925687354
 30
0.0
 11
339.57120494187512
 21
890.38199925687377
 31
0.0
 70
     0
 13
458.54068487046351
 23
1000.381999256873
 33
0.0
 14
485.28692886780459
 24
780.38199925687354
 34
0.0
 50
269.99999999999972
1001
ACAD
1000
DSTYLE
1002
{
1070
   287
1070
     3
1070
    40
1040
10.0
1070
   143
1040
0.039
1070
   172
1070
     1
1070
   271
1070
     0
1070
   279
1070
     0
1070
   288
1070
     1
1002
}
  0
LINE
  5
7CAA
  8
1
 10
1759.895594109493
 20
994.33200455501458
 30
0.0
 11
1879.895594109493
 21
994.33200455501458
 31
0.0
  0
LINE
  5
7CAB
  8
1
 10
1737.595594109494
 20
1176.681690262446
 30
0.0
 11
1902.1955941094941
 21
1176.681690262446
 31
0.0
  0
LINE
  5
7CAC
  8
1
 10
1759.8955941094939
 20
1154.332004555014
 30
0.0
 11
1879.895594109493
 21
1154.332004555014
 31
0.0
  0
LINE
  5
7CAD
  8
1
 10
1879.8955941094939
 20
994.33200455501458
 30
0.0
 11
1879.8955941094939
 21
864.33200455501469
 31
0.0
  0
LINE
  5
7CAE
  8
1
 10
1759.8955941094939
 20
994.33200455501481
 30
0.0
 11
1759.8955941094951
 21
820.33200455501424
 31
0.0
  0
LINE
  5
7CB1
  8
1
 10
1903.8955941094939
 20
1088.332004555014
 30
0.0
 11
1903.8955941094939
 21
912.33200455501435
 31
0.0
  0
LINE
  5
7CB2
  8
1
 10
1903.8955941094939
 20
1088.332004555014
 30
0.0
 11
1902.195594109495
 21
1088.332004555014
 31
0.0
  0
ARC
  5
7CB3
  8
1
 10
1901.8955941094939
 20
1089.332004555014
 30
0.0
 40
2.0
 50
0.0
 51
90.0
  0
LINE
  5
7CB4
  8
1
 10
1903.8955941094939
 20
1089.332004555014
 30
0.0
 11
1903.8955941094939
 21
1088.332004555014
 31
0.0
  0
LINE
  5
7CB5
  8
1
 10
1886.8955941094939
 20
894.33200455501458
 30
0.0
 11
1886.8955941094939
 21
905.33200455501458
 31
0.0
  0
LINE
  5
7CB6
  8
1
 10
1883.8955941094939
 20
892.33200455501446
 30
0.0
 11
1883.8955941094939
 21
912.33200455501458
 31
0.0
  0
LINE
  5
7CB7
  8
1
 10
1890.8955941094939
 20
909.33200455501446
 30
0.0
 11
1901.8955941094939
 21
909.33200455501446
 31
0.0
  0
LINE
  5
7CB8
  8
1
 10
1883.8955941094939
 20
912.33200455501458
 30
0.0
 11
1903.8955941094939
 21
912.33200455501458
 31
0.0
  0
ARC
  5
7CB9
  8
1
 10
1890.8955941094939
 20
905.33200455501458
 30
0.0
 40
4.0
 50
90.0
 51
180.0
  0
LINE
  5
7CBA
  8
1
 10
1903.8955941094939
 20
912.33200455501458
 30
0.0
 11
1903.8955941094939
 21
911.33200455501458
 31
0.0
  0
ARC
  5
7CBB
  8
1
 10
1901.8955941094939
 20
911.33200455501458
 30
0.0
 40
2.0
 50
270.0
 51
0.0
  0
ARC
  5
7CBC
  8
1
 10
1884.8955941094939
 20
894.33200455501458
 30
0.0
 40
2.0
 50
270.0
 51
0.0
  0
LINE
  5
7CBD
  8
1
 10
1884.8955941094939
 20
892.33200455501469
 30
0.0
 11
1883.8955941094939
 21
892.33200455501446
 31
0.0
  0
DIMENSION
  5
7CBE
  8
3
  2
*D5
 10
1984.536257919031
 20
912.33200455501458
 30
0.0
 11
1959.536257919031
 21
1000.332004555013
 31
0.0
 70
     0
 13
1882.195594109495
 23
1088.3320045550111
 33
0.0
 14
1883.8955941094939
 24
912.33200455501458
 34
0.0
 50
90.0
1001
ACAD
1000
DSTYLE
1002
{
1070
   287
1070
     3
1070
     3
1000
φ<>
1070
    40
1040
10.0
1070
   143
1040
0.039
1070
   172
1070
     1
1070
   271
1070
     0
1070
   279
1070
     0
1070
   288
1070
     1
1002
}
  0
DIMENSION
  5
7CBF
  8
3
  2
*D6
 10
1879.895594109493
 20
1207.71199756071
 30
0.0
 11
1819.8955941094939
 21
1232.559141675064
 31
0.0
 70
   128
 13
1759.8955941094939
 23
1154.332004555014
 33
0.0
 14
1879.895594109493
 24
1154.332004555014
 34
0.0
1001
ACAD
1000
DSTYLE
1002
{
1070
   288
1070
     1
1070
   172
1070
     1
1070
    40
1040
10.0
1070
   271
1070
     0
1070
   143
1040
0.039
1002
}
  0
DIMENSION
  5
7CC1
  8
3
  2
*D7
 10
1404.1505437141959
 20
1275.8214884929921
 30
0.0
 11
1612.023068911845
 21
1325.8214884929921
 31
0.0
 70
     0
  1
MAX\P500
 13
1819.8955941094939
 23
1257.007038221961
 33
0.0
 14
1404.1505437141959
 24
1155.337969641133
 34
0.0
1001
ACAD
1000
DSTYLE
1002
{
1070
   287
1070
     3
1070
    40
1040
10.0
1070
   143
1040
0.039
1070
   172
1070
     1
1070
   271
1070
     0
1070
   279
1070
     0
1070
   288
1070
     1
1002
}
  0
DIMENSION
  5
7CC2
  8
3
  2
*D8
 10
635.28692886780573
 20
1225.20093174568
 30
0.0
 11
555.28692886780573
 21
1250.20093174568
 31
0.0
 70
     0
 13
475.28692886780573
 23
1176.6816902624471
 33
0.0
 14
635.28692886780573
 24
1178.9380630521059
 34
0.0
 50
359.99999999999972
1001
ACAD
1000
DSTYLE
1002
{
1070
   287
1070
     3
1070
    40
1040
10.0
1070
   143
1040
0.039
1070
   172
1070
     1
1070
   271
1070
     0
1070
   279
1070
     0
1070
   288
1070
     1
1002
}
  0
DIMENSION
  5
7CC3
  8
3
  2
*D9
 10
771.78692886780505
 20
1225.20093174568
 30
0.0
 11
703.53692886780539
 21
1250.20093174568
 31
0.0
 70
     0
  1
136
 13
635.28692886780573
 23
1178.9380630521059
 33
0.0
 14
771.78692886780505
 24
1007.881999256871
 34
0.0
 50
359.99999999999972
1001
ACAD
1000
DSTYLE
1002
{
1070
   287
1070
     3
1070
    40
1040
10.0
1070
   143
1040
0.039
1070
   172
1070
     1
1070
   271
1070
     0
1070
   279
1070
     0
1070
   288
1070
     1
1002
}
  0
DIMENSION
  5
7CC4
  8
3
  2
*D10
 10
1065.2869288678039
 20
1282.5938696011769
 30
0.0
 11
770.28692886780505
 21
1307.5938696011769
 31
0.0
 70
     0
 13
475.28692886780573
 23
1176.6816902624471
 33
0.0
 14
1065.2869288678039
 24
820.38199925687138
 34
0.0
 50
359.99999999999972
1001
ACAD
1000
DSTYLE
1002
{
1070
   287
1070
     3
1070
    40
1040
10.0
1070
   143
1040
0.039
1070
   172
1070
     1
1070
   271
1070
     0
1070
   279
1070
     0
1070
   288
1070
     1
1002
}
  0
LINE
  5
7CC5
  8
2
 10
449.55526531904519
 20
1997.45203134452
 30
0.0
 11
805.18202543669031
 21
1997.452031344518
 31
0.0
  0
LINE
  5
7CC6
  8
1
 10
475.2869288678084
 20
1915.95553371746
 30
0.0
 11
475.2869288678084
 21
2075.9555337174611
 31
0.0
  0
LINE
  5
7CC7
  8
1
 10
771.2869288678088
 20
1935.955533717459
 30
0.0
 11
771.28692886780868
 21
2055.9555337174588
 31
0.0
  0
LINE
  5
7CC8
  8
1
 10
495.28692886780931
 20
2055.9555337174588
 30
0.0
 11
771.28692886780868
 21
2055.9555337174588
 31
0.0
  0
LINE
  5
7CC9
  8
1
 10
495.2869288678084
 20
1935.9555337174611
 30
0.0
 11
771.28692886780846
 21
1935.955533717459
 31
0.0
  0
LINE
  5
7CCA
  8
1
 10
495.2869288678084
 20
1915.95553371746
 30
0.0
 11
495.28692886780931
 21
2075.9555337174602
 31
0.0
  0
LINE
  5
7CCB
  8
1
 10
475.2869288678084
 20
2075.9555337174602
 30
0.0
 11
495.28692886780931
 21
2075.9555337174602
 31
0.0
  0
LINE
  5
7CCC
  8
1
 10
475.2869288678084
 20
1915.95553371746
 30
0.0
 11
495.2869288678084
 21
1915.95553371746
 31
0.0
  0
LINE
  5
7CCE
  8
1
 10
590.286928867808
 20
1602.7104833221631
 30
0.0
 11
590.286928867808
 21
1632.7104833221631
 31
0.0
  0
LINE
  5
7CCF
  8
1
 10
680.28692886780789
 20
1602.7104833221631
 30
0.0
 11
680.28692886780789
 21
1632.7104833221631
 31
0.0
  0
LINE
  5
7CD0
  8
1
 10
899.29289395392698
 20
1632.7104833221631
 30
0.0
 11
899.29289395392698
 21
1602.710483322162
 31
0.0
  0
LINE
  5
7CD1
  8
1
 10
1009.292893953926
 20
1632.7104833221631
 30
0.0
 11
1009.292893953926
 21
1602.710483322162
 31
0.0
  0
LINE
  5
7CD4
  8
1
 10
1038.6726172222241
 20
1580.210483322164
 30
0.0
 11
508.67261722222429
 21
1580.210483322164
 31
0.0
  0
LINE
  5
7CD5
  8
1
 10
590.286928867808
 20
1602.7104833221631
 30
0.0
 11
680.28692886780846
 21
1602.7104833221631
 31
0.0
  0
LINE
  5
7CD6
  8
1
 10
1038.6726172222241
 20
1655.2104833221631
 30
0.0
 11
508.67261722222429
 21
1655.2104833221631
 31
0.0
  0
LINE
  5
7CD7
  8
1
 10
625.28692886780846
 20
1642.7104833221631
 30
0.0
 11
625.286928867808
 21
1935.95553371746
 31
0.0
  0
LINE
  5
7CD8
  8
1
 10
645.28692886780846
 20
1642.7104833221631
 30
0.0
 11
645.28692886780846
 21
1935.95553371746
 31
0.0
  0
LINE
  5
7CD9
  8
1
 10
625.28692886780846
 20
1642.7104833221631
 30
0.0
 11
645.28692886780846
 21
1642.7104833221631
 31
0.0
  0
LINE
  5
7CDA
  8
1
 10
590.286928867808
 20
1632.7104833221631
 30
0.0
 11
680.28692886780846
 21
1632.7104833221631
 31
0.0
  0
LINE
  5
7CDB
  8
1
 10
644.78692886780846
 20
1632.7104833221631
 30
0.0
 11
644.78692886780846
 21
1642.710483322164
 31
0.0
  0
LINE
  5
7CDC
  8
1
 10
625.78692886780846
 20
1632.7104833221631
 30
0.0
 11
625.78692886780846
 21
1642.710483322164
 31
0.0
  0
LINE
  5
7CDE
  8
1
 10
530.28692886780755
 20
1667.1520313445201
 30
0.0
 11
530.28692886780846
 21
1935.9555337174611
 31
0.0
  0
LINE
  5
7CDF
  8
1
 10
740.28692886780755
 20
1667.1520313445189
 30
0.0
 11
740.28692886780846
 21
1935.95553371746
 31
0.0
  0
LINE
  5
7CE0
  8
1
 10
530.28692886780755
 20
1667.1520313445201
 30
0.0
 11
625.28692886780846
 21
1667.1520313445189
 31
0.0
  0
LINE
  5
7CE1
  8
1
 10
645.28692886780846
 20
1667.1520313445189
 30
0.0
 11
740.28692886780755
 21
1667.1520313445189
 31
0.0
  0
LINE
  5
7CE2
  8
1
 10
870.286928867808
 20
1664.455533717459
 30
0.0
 11
870.28692886780846
 21
1892.455533717459
 31
0.0
  0
LINE
  5
7CE3
  8
1
 10
1040.286936867808
 20
1664.4555337174579
 30
0.0
 11
1040.286936867808
 21
1892.4555337174579
 31
0.0
  0
LINE
  5
7CE4
  8
1
 10
870.28692886780846
 20
1892.455533717459
 30
0.0
 11
1040.286936867808
 21
1892.4555337174579
 31
0.0
  0
LINE
  5
7CE5
  8
1
 10
870.28692886780743
 20
1664.455533717459
 30
0.0
 11
1040.2869368678071
 21
1664.4555337174579
 31
0.0
  0
LINE
  5
7CE6
  8
1
 10
945.78692886780846
 20
1632.7104833221631
 30
0.0
 11
945.78692886780846
 21
1664.4555337174579
 31
0.0
  0
LINE
  5
7CE7
  8
1
 10
964.78692886780846
 20
1632.7104833221631
 30
0.0
 11
964.78692886780846
 21
1664.4555337174579
 31
0.0
  0
LINE
  5
7CE8
  8
1
 10
1025.2869288678089
 20
1892.4555337174579
 30
0.0
 11
1025.2869288678089
 21
1972.452031344518
 31
0.0
  0
LINE
  5
7CEE
  8
1
 10
899.29289395392732
 20
1632.7104833221631
 30
0.0
 11
1009.292893953926
 21
1632.710483322164
 31
0.0
  0
LINE
  5
7CEF
  8
1
 10
899.29289395392721
 20
1602.7104833221631
 30
0.0
 11
1009.292893953926
 21
1602.7104833221631
 31
0.0
  0
LINE
  5
7CF2
  8
1
 10
1414.8955941094939
 20
780.33200455501446
 30
0.0
 11
1414.895594109493
 21
820.33200455501435
 31
0.0
  0
LINE
  5
7CF3
  8
1
 10
1794.8955941094939
 20
780.33200455501446
 30
0.0
 11
1794.8955941094939
 21
820.33200455501424
 31
0.0
  0
LINE
  5
7CF4
  8
1
 10
1488.395594109491
 20
1015.337977641133
 30
0.0
 11
1716.395594109491
 21
1015.337977641133
 31
0.0
  0
LINE
  5
7CF5
  8
1
 10
1488.395594109491
 20
845.33796964113367
 30
0.0
 11
1716.395594109491
 21
845.33796964113367
 31
0.0
  0
LINE
  5
7CF6
  8
1
 10
1488.395594109491
 20
845.33796964113321
 30
0.0
 11
1488.395594109491
 21
1015.337977641133
 31
0.0
  0
LINE
  5
7CF7
  8
1
 10
1456.6505437141959
 20
920.83796964113412
 30
0.0
 11
1488.395594109491
 21
920.83796964113412
 31
0.0
  0
LINE
  5
7CF8
  8
1
 10
1456.6505437141959
 20
939.83796964113412
 30
0.0
 11
1488.395594109491
 21
939.83796964113412
 31
0.0
  0
LINE
  5
7CF9
  8
1
 10
1716.395594109491
 20
845.33796964113367
 30
0.0
 11
1716.395594109491
 21
1015.337977641133
 31
0.0
  0
LINE
  5
7CFA
  8
1
 10
1716.395594109491
 20
963.83200455501446
 30
0.0
 11
1732.595594109494
 21
963.83200455501446
 31
0.0
  0
LINE
  5
7CFB
  8
1
 10
1716.395594109491
 20
961.53200455501428
 30
0.0
 11
1732.595594109494
 21
961.53200455501428
 31
0.0
  0
LINE
  5
7CFC
  8
1
 10
1716.395594109491
 20
990.33200455501446
 30
0.0
 11
1732.595594109494
 21
990.33200455501446
 31
0.0
  0
LINE
  5
7CFD
  8
1
 10
1716.395594109491
 20
1010.332004555014
 30
0.0
 11
1732.595594109494
 21
1010.332004555014
 31
0.0
  0
LINE
  5
7CFE
  8
1
 10
1510.5927732943319
 20
845.33796964113367
 30
0.0
 11
1510.5927732943319
 21
820.33200455501424
 31
0.0
  0
LINE
  5
7CFF
  8
1
 10
1691.9708638640441
 20
845.33796964113367
 30
0.0
 11
1691.9708638640429
 21
820.33200455501424
 31
0.0
  0
LINE
  5
7D00
  8
1
 10
1883.8955941094951
 20
1000.332004555014
 30
0.0
 11
1883.8955941094939
 21
1111.332004555014
 31
0.0
  0
LINE
  5
7D01
  8
1
 10
1884.8955941094939
 20
1108.332004555014
 30
0.0
 11
1883.8955941094939
 21
1108.332004555014
 31
0.0
  0
ARC
  5
7D02
  8
1
 10
1884.8955941094939
 20
1106.332004555014
 30
0.0
 40
2.0
 50
0.0
 51
90.0
  0
LINE
  5
7D03
  8
1
 10
1883.8955941094939
 20
1108.332004555014
 30
0.0
 11
1883.8955941094939
 21
1088.332004555014
 31
0.0
  0
LINE
  5
7D04
  8
1
 10
1886.8955941094939
 20
1106.332004555014
 30
0.0
 11
1886.8955941094939
 21
1095.332004555014
 31
0.0
  0
LINE
  5
7D05
  8
1
 10
1879.895594109493
 20
1111.332004555014
 30
0.0
 11
1883.8955941094939
 21
1111.332004555014
 31
0.0
  0
LINE
  5
7D06
  8
1
 10
1883.8955941094939
 20
1088.332004555014
 30
0.0
 11
1883.8955941094939
 21
1108.332004555014
 31
0.0
  0
LINE
  5
7D07
  8
1
 10
1890.8955941094939
 20
1091.332004555014
 30
0.0
 11
1901.8955941094939
 21
1091.332004555014
 31
0.0
  0
ARC
  5
7D08
  8
1
 10
1890.8955941094939
 20
1095.332004555014
 30
0.0
 40
4.0
 50
180.0
 51
270.0
  0
ARC
  5
7D09
  8
1
 10
1901.8955941094939
 20
1089.332004555014
 30
0.0
 40
2.0
 50
0.0
 51
90.0
  0
LINE
  5
7D0A
  8
1
 10
1883.8955941094939
 20
1088.332004555014
 30
0.0
 11
1903.8955941094939
 21
1088.332004555014
 31
0.0
  0
LINE
  5
7D0B
  8
1
 10
1903.8955941094939
 20
1088.332004555014
 30
0.0
 11
1883.8955941094939
 21
1088.332004555014
 31
0.0
  0
LINE
  5
7D0C
  8
1
 10
1903.8955941094939
 20
912.33200455501435
 30
0.0
 11
1903.8955941094939
 21
1088.332004555014
 31
0.0
  0
LINE
  5
7D0D
  8
1
 10
1903.8955941094939
 20
1088.332004555014
 30
0.0
 11
1903.8955941094939
 21
1089.332004555014
 31
0.0
  0
LINE
  5
7D0E
  8
1
 10
1886.8955941094939
 20
1000.332004555014
 30
0.0
 11
1886.8955941094939
 21
1088.332004555014
 31
0.0
  0
LINE
  5
7D0F
  8
1
 10
1879.895594109493
 20
1154.332004555014
 30
0.0
 11
1759.8955941094939
 21
994.33200455501458
 31
0.0
  0
LINE
  5
7D10
  8
1
 10
1759.8955941094939
 20
1154.332004555014
 30
0.0
 11
1879.895594109493
 21
994.33200455501458
 31
0.0
  0
LINE
  5
7D11
  8
1
 10
1732.595594109494
 20
1063.882004555014
 30
0.0
 11
1732.595594109494
 21
843.88200455501419
 31
0.0
  0
LINE
  5
7D12
  8
1
 10
1732.595594109494
 20
843.88200455501419
 30
0.0
 11
1759.8955941094951
 21
843.88200455501419
 31
0.0
  0
DIMENSION
  5
7EFF
  8
3
  2
*D11
 10
1819.8955941094939
 20
1275.8214884929921
 30
0.0
 11
1857.3649194432001
 21
1300.584697087535
 31
0.0
 70
   128
 13
1883.8955941094939
 23
1111.332004555014
 33
0.0
 14
1819.8955941094939
 24
1256.930396977652
 34
0.0
1001
ACAD
1000
DSTYLE
1002
{
1070
   288
1070
     1
1070
   172
1070
     1
1070
    40
1040
10.0
1070
   271
1070
     0
1070
   143
1040
0.039
1002
}
  0
LINE
  5
8079
  8
4
 10
1850.0
 20
500.0
 30
0.0
 11
1850.0
 21
300.0
 31
0.0
  0
LINE
  5
807A
  8
4
 10
1150.0
 20
500.0
 30
0.0
 11
1150.0
 21
300.0
 31
0.0
  0
LINE
  5
807B
  8
4
 10
650.0
 20
500.0
 30
0.0
 11
650.0
 21
300.0
 31
0.0
  0
LINE
  5
807E
  8
4
 10
650.0
 20
300.0
 30
0.0
 11
1850.0
 21
300.0
 31
0.0
  0
LINE
  5
807F
  8
4
 10
650.0
 20
400.0
 30
0.0
 11
1850.0
 21
400.0
 31
0.0
  0
TEXT
  5
8080
  8
4
 10
688.50208084690155
 20
431.54302586661282
 30
0.0
 40
50.0
  1
機器名称
  0
TEXT
  5
8081
  8
4
 10
686.25810602479748
 20
321.64515673201089
 30
0.0
 40
50.0
  1
機器型番
  0
TEXT
  5
8082
  8
4
 10
1177.6787454876639
 20
422.57176895756851
 30
0.0
 40
50.0
  1
ミツヤ多翼送風機
  0
TEXT
  5
8083
  8
4
 10
1186.6544955854799
 20
317.15958427994332
 30
0.0
 40
50.0
  1
MF#1-1
  0
TEXT
  5
8085
  8
4
 10
747.86596161344085
 20
2383.4288413325148
 30
0.0
 40
53.999999999999993
  1
床置ベット
  0
TEXT
  5
8086
  8
4
 10
316.16759332944639
 20
2533.8809761992979
 30
0.0
 40
72.0
  1
遠心式片吸込片持多翼ファン
  0
LINE
  5
8087
  8
4
 10
250.0
 20
2469.408754264804
 30
0.0
 11
1850.0
 21
2469.408754264804
 31
0.0
  0
LINE
  5
8088
  8
4
 10
250.0
 20
2669.4087542648049
 30
0.0
 11
1850.0
 21
2669.4087542648049
 31
0.0
  0
LINE
  5
8089
  8
4
 10
650.0
 20
500.0
 30
0.0
 11
1850.0
 21
500.0
 31
0.0
  0
LINE
  5
808A
  8
4
 10
250.0
 20
2669.4087542648049
 30
0.0
 11
250.0
 21
2469.408754264804
 31
0.0
  0
TEXT
  5
808B
  8
4
 10
312.00712937073871
 20
2382.319477546343
 30
0.0
 40
53.999999999999993
  1
左回転左横向
  0
TEXT
  5
808C
  8
4
 10
1468.969559249289
 20
2706.0610814953088
 30
0.0
 40
56.000000000000007
  1
No.
  0
TEXT
  5
808D
  8
4
 10
1311.2960626000131
 20
2383.4288413325148
 30
0.0
 40
53.999999999999993
  1
縮尺：1/10
  0
LINE
  5
808E
  8
4
 10
1850.0
 20
2669.4087542648049
 30
0.0
 11
1850.0
 21
2469.408754264804
 31
0.0
  0
LINE
  5
808F
  8
4
 10
2100.0
 20
2950.0
 30
0.0
 11
2100.0
 21
2950.0
 31
0.0
  0
LINE
  5
8090
  8
4
 10
1440.6174223598639
 20
2681.2635831254011
 30
0.0
 11
1440.6174223598639
 21
2786.652261549752
 31
0.0
  0
LINE
  5
8091
  8
4
 10
1440.6174223598639
 20
2786.652261549752
 30
0.0
 11
1850.0
 21
2786.652261549752
 31
0.0
  0
LINE
  5
8092
  8
4
 10
1850.0
 20
2786.652261549752
 30
0.0
 11
1850.0
 21
2681.2635831254011
 31
0.0
  0
LINE
  5
8093
  8
4
 10
1850.0
 20
2681.2635831254011
 30
0.0
 11
1440.6174223598639
 21
2681.2635831254011
 31
0.0
  0
LINE
  5
8094
  8
4
 10
0.0
 20
0.0
 30
0.0
 11
0.0
 21
2950.0
 31
0.0
  0
LINE
  5
8095
  8
4
 10
0.0
 20
2950.0
 30
0.0
 11
2100.0
 21
2950.0
 31
0.0
  0
LINE
  5
8096
  8
4
 10
2100.0
 20
2950.0
 30
0.0
 11
2100.0
 21
0.0
 31
0.0
  0
LINE
  5
8097
  8
4
 10
2100.0
 20
0.0
 30
0.0
 11
0.0
 21
0.0
 31
0.0
  0
LINE
  5
811C
  8
1
 10
1479.1505437141959
 20
1111.978165083076
 30
0.0
 11
1479.1505437141959
 21
1155.337969641133
 31
0.0
  0
LINE
  5
8121
  8
1
 10
508.67261722222429
 20
1580.210483322164
 30
0.0
 11
508.67261722222429
 21
1655.210483322164
 31
0.0
  0
LINE
  5
8122
  8
1
 10
1038.6726172222241
 20
1580.210483322164
 30
0.0
 11
1038.6726172222241
 21
1655.2104833221631
 31
0.0
  0
LINE
  5
8190
  8
1
 10
525.28692886780925
 20
1932.45203134452
 30
0.0
 11
530.28692886780846
 21
1932.45203134452
 31
0.0
  0
LINE
  5
819C
  8
1
 10
525.28692886780834
 20
1632.4520313445189
 30
0.0
 11
1025.286928867808
 21
1632.4520313445159
 31
0.0
  0
DIMENSION
  5
81A9
  8
3
  2
*D13
 10
1145.4245880205799
 20
1592.4520313445159
 30
0.0
 11
1145.4245880205799
 21
1776.6000868418259
 31
0.0
 70
   128
 13
1065.2869288678089
 23
1972.45203134452
 33
0.0
 14
1065.286928867808
 24
1592.4520313445159
 34
0.0
 50
90.0
1001
ACAD
1000
DSTYLE
1002
{
1070
   287
1070
     3
1070
    40
1040
10.0
1070
   143
1040
0.039
1070
   172
1070
     1
1070
   271
1070
     0
1070
   279
1070
     0
1070
   288
1070
     1
1002
}
  0
DIMENSION
  5
81B6
  8
3
  2
*D14
 10
1065.286928867808
 20
1501.9007053826001
 30
0.0
 11
777.50857238915523
 21
1501.9007053826001
 31
0.0
 70
   128
 13
485.28692886780817
 23
1592.4520313445189
 33
0.0
 14
1065.286928867808
 24
1592.4520313445159
 34
0.0
1001
ACAD
1000
DSTYLE
1002
{
1070
   287
1070
     3
1070
    40
1040
10.0
1070
   143
1040
0.039
1070
   172
1070
     1
1070
   271
1070
     0
1070
   279
1070
     0
1070
   288
1070
     1
1002
}
  0
LINE
  5
81B8
  8
1
 10
740.28692886780846
 20
1932.45203134452
 30
0.0
 11
1025.2869288678089
 21
1932.45203134452
 31
0.0
  0
DIMENSION
  5
8220
  8
3
  2
*D15
 10
635.28692886780402
 20
697.87151232395991
 30
0.0
 11
560.28692886780425
 21
722.87151232395991
 31
0.0
 70
     0
 13
485.28692886780459
 23
780.38199925687354
 33
0.0
 14
635.28692886780402
 24
780.38199925687275
 34
0.0
1001
ACAD
1000
DSTYLE
1002
{
1070
   287
1070
     3
1070
    40
1040
10.0
1070
   143
1040
0.039
1070
   172
1070
     1
1070
   271
1070
     0
1070
   279
1070
     0
1002
}
  0
DIMENSION
  5
822D
  8
3
  2
*D16
 10
1065.2869288678039
 20
697.87151232395991
 30
0.0
 11
850.28692886780414
 21
722.87151232395991
 31
0.0
 70
     0
 13
635.28692886780402
 23
780.38199925687275
 33
0.0
 14
1065.2869288678039
 24
780.38199925687127
 34
0.0
1001
ACAD
1000
DSTYLE
1002
{
1070
   287
1070
     3
1070
    40
1040
10.0
1070
   143
1040
0.039
1070
   172
1070
     1
1070
   271
1070
     0
1070
   279
1070
     0
1002
}
  0
DIMENSION
  5
823A
  8
3
  2
*D17
 10
1794.8955941094939
 20
697.87151232395991
 30
0.0
 11
1604.8955941094939
 21
722.87151232395991
 31
0.0
 70
     0
 13
1414.8955941094939
 23
780.33200455501446
 33
0.0
 14
1794.8955941094939
 24
780.33200455501435
 34
0.0
1001
ACAD
1000
DSTYLE
1002
{
1070
   287
1070
     3
1070
    40
1040
10.0
1070
   143
1040
0.039
1070
   172
1070
     1
1070
   271
1070
     0
1070
   279
1070
     0
1002
}
  0
DIMENSION
  5
8249
  8
3
  2
*D18
 10
1819.8955941094939
 20
697.87151232395991
 30
0.0
 11
1894.1813083952079
 21
722.87151232395991
 31
0.0
 70
     0
 13
1794.8955941094939
 23
780.33200455501446
 33
0.0
 14
1819.8955941094939
 24
780.33200455501446
 34
0.0
1001
ACAD
1000
DSTYLE
1002
{
1070
   287
1070
     3
1070
    40
1040
10.0
1070
   143
1040
0.039
1070
   172
1070
     1
1070
   271
1070
     0
1070
   279
1070
     0
1002
}
  0
DIMENSION
  5
8256
  8
3
  2
*D19
 10
293.03343755334208
 20
780.38199925687354
 30
0.0
 11
268.03343755334191
 21
978.53184475966032
 31
0.0
 70
     0
 13
475.28692886780573
 23
1176.6816902624471
 33
0.0
 14
485.28692886780459
 24
780.38199925687354
 34
0.0
 50
90.0
1001
ACAD
1000
DSTYLE
1002
{
1070
   287
1070
     3
1070
    40
1040
10.0
1070
   143
1040
0.039
1070
   172
1070
     1
1070
   271
1070
     0
1070
   279
1070
     0
1002
}
  0
ENDSEC
  0
EOF
