  0
SECTION
  2
HEADER
  9
$ACADVER
  1
AC1009
  9
$INSBASE
 10
0.0
 20
0.0
 30
0.0
  9
$EXTMIN
 10
0.0
 20
0.0
 30
0.0
  9
$EXTMAX
 10
9450.0
 20
13275.0
 30
0.0
  9
$LIMMIN
 10
0.0
 20
0.0
  9
$LIMMAX
 10
297.0
 20
210.0
  9
$ORTHOMODE
 70
     0
  9
$REGENMODE
 70
     1
  9
$FILLMODE
 70
     0
  9
$QTEXTMODE
 70
     0
  9
$MIRRTEXT
 70
     1
  9
$DRAGMODE
 70
     2
  9
$LTSCALE
 40
100.0
  9
$OSMODE
 70
    37
  9
$ATTMODE
 70
     1
  9
$TEXTSIZE
 40
180.0
  9
$TRACEWID
 40
0.05
  9
$TEXTSTYLE
  7
STANDARD
  9
$CLAYER
  8
3
  9
$CELTYPE
  6
BYLAYER
  9
$CECOLOR
 62
   256
  9
$DIMSCALE
 40
45.0
  9
$DIMASZ
 40
2.0
  9
$DIMEXO
 40
0.5
  9
$DIMDLI
 40
10.0
  9
$DIMRND
 40
0.0
  9
$DIMDLE
 40
0.0
  9
$DIMEXE
 40
1.0
  9
$DIMTP
 40
1.0
  9
$DIMTM
 40
1.0
  9
$DIMTXT
 40
3.0
  9
$DIMCEN
 40
0.0
  9
$DIMTSZ
 40
0.0
  9
$DIMTOL
 70
     0
  9
$DIMLIM
 70
     0
  9
$DIMTIH
 70
     0
  9
$DIMTOH
 70
     0
  9
$DIMSE1
 70
     0
  9
$DIMSE2
 70
     0
  9
$DIMTAD
 70
     1
  9
$DIMZIN
 70
     8
  9
$DIMBLK
  1

  9
$DIMASO
 70
     1
  9
$DIMSHO
 70
     1
  9
$DIMPOST
  1

  9
$DIMAPOST
  1

  9
$DIMALT
 70
     0
  9
$DIMALTD
 70
     2
  9
$DIMALTF
 40
0.039
  9
$DIMLFAC
 40
1.0
  9
$DIMTOFL
 70
     1
  9
$DIMTVP
 40
0.0
  9
$DIMTIX
 70
     0
  9
$DIMSOXD
 70
     0
  9
$DIMSAH
 70
     1
  9
$DIMBLK1
  1
OPEN
  9
$DIMBLK2
  1
OPEN
  9
$DIMSTYLE
  2
IGA
  9
$DIMCLRD
 70
     0
  9
$DIMCLRE
 70
     0
  9
$DIMCLRT
 70
     0
  9
$DIMTFAC
 40
10.0
  9
$DIMGAP
 40
1.0
  9
$LUNITS
 70
     2
  9
$LUPREC
 70
     3
  9
$SKETCHINC
 40
0.1
  9
$FILLETRAD
 40
50.0
  9
$AUNITS
 70
     0
  9
$AUPREC
 70
     0
  9
$MENU
  1
acad
  9
$ELEVATION
 40
0.0
  9
$PELEVATION
 40
0.0
  9
$THICKNESS
 40
0.0
  9
$LIMCHECK
 70
     0
  9
$BLIPMODE
 70
     0
  9
$CHAMFERA
 40
0.5
  9
$CHAMFERB
 40
0.5
  9
$SKPOLY
 70
     0
  9
$TDCREATE
 40
2451488.4017461799
  9
$TDUPDATE
 40
2454953.834031886
  9
$TDINDWG
 40
0.1055181713
  9
$TDUSRTIMER
 40
0.1055181713
  9
$USRTIMER
 70
     1
  9
$ANGBASE
 50
0.0
  9
$ANGDIR
 70
     0
  9
$PDMODE
 70
     0
  9
$PDSIZE
 40
0.0
  9
$PLINEWID
 40
0.0
  9
$COORDS
 70
     1
  9
$SPLFRAME
 70
     0
  9
$SPLINETYPE
 70
     6
  9
$SPLINESEGS
 70
     8
  9
$ATTDIA
 70
     0
  9
$ATTREQ
 70
     1
  9
$HANDLING
 70
 10241
  9
$HANDSEED
  5
88D5
  9
$SURFTAB1
 70
     6
  9
$SURFTAB2
 70
     6
  9
$SURFTYPE
 70
     6
  9
$SURFU
 70
     6
  9
$SURFV
 70
     6
  9
$UCSNAME
  2

  9
$UCSORG
 10
0.0
 20
0.0
 30
0.0
  9
$UCSXDIR
 10
1.0
 20
0.0
 30
0.0
  9
$UCSYDIR
 10
0.0
 20
1.0
 30
0.0
  9
$PUCSNAME
  2

  9
$PUCSORG
 10
0.0
 20
0.0
 30
0.0
  9
$PUCSXDIR
 10
1.0
 20
0.0
 30
0.0
  9
$PUCSYDIR
 10
0.0
 20
1.0
 30
0.0
  9
$USERI1
 70
     0
  9
$USERI2
 70
     0
  9
$USERI3
 70
     0
  9
$USERI4
 70
     0
  9
$USERI5
 70
     0
  9
$USERR1
 40
0.0
  9
$USERR2
 40
0.0
  9
$USERR3
 40
0.0
  9
$USERR4
 40
0.0
  9
$USERR5
 40
0.0
  9
$WORLDVIEW
 70
     1
  9
$SHADEDGE
 70
     3
  9
$SHADEDIF
 70
    70
  9
$TILEMODE
 70
     1
  9
$MAXACTVP
 70
    16
  9
$PLIMCHECK
 70
     0
  9
$PEXTMIN
 10
1.0000000000000000E+020
 20
1.0000000000000000E+020
 30
1.0000000000000000E+020
  9
$PEXTMAX
 10
-1.0000000000000000E+020
 20
-1.0000000000000000E+020
 30
-1.0000000000000000E+020
  9
$PLIMMIN
 10
0.0
 20
0.0
  9
$PLIMMAX
 10
12.0
 20
9.0
  9
$UNITMODE
 70
     0
  9
$VISRETAIN
 70
     0
  9
$PLINEGEN
 70
     0
  9
$PSLTSCALE
 70
     1
  0
ENDSEC
  0
SECTION
  2
TABLES
  0
TABLE
  2
VPORT
 70
     2
  0
VPORT
  2
*ACTIVE
 70
     0
 10
0.0
 20
0.0
 11
1.0
 21
1.0
 12
13562.960954446849
 22
9011.2450861320631
 13
0.0
 23
0.0
 14
10.0
 24
10.0
 15
10.0
 25
10.0
 16
0.0
 26
0.0
 36
1.0
 17
0.0
 27
0.0
 37
0.0
 40
18022.490172264119
 41
1.5051150895140659
 42
50.0
 43
0.0
 44
0.0
 50
0.0
 51
0.0
 71
     0
 72
   100
 73
     1
 74
     0
 75
     0
 76
     0
 77
     0
 78
     0
  0
ENDTAB
  0
TABLE
  2
LTYPE
 70
     2
  0
LTYPE
  2
CONTINUOUS
 70
     0
  3
Solid line
 72
    65
 73
     0
 40
0.0
  0
LTYPE
  2
CENTER
 70
     0
  3
____ _ ____ _ ____ _ ____ _ ____ _ ____ _ ____ 
 72
    65
 73
     4
 40
2.0
 49
1.25
 49
-0.25
 49
0.25
 49
-0.25
  0
ENDTAB
  0
TABLE
  2
LAYER
 70
     6
  0
LAYER
  2
0
 70
     0
 62
     7
  6
CONTINUOUS
  0
LAYER
  2
3
 70
     0
 62
     2
  6
CONTINUOUS
  0
LAYER
  2
2
 70
     0
 62
     3
  6
CENTER
  0
LAYER
  2
1
 70
     0
 62
     4
  6
CONTINUOUS
  0
LAYER
  2
4
 70
     0
 62
     7
  6
CONTINUOUS
  0
LAYER
  2
DEFPOINTS
 70
     0
 62
     7
  6
CONTINUOUS
  0
ENDTAB
  0
TABLE
  2
STYLE
 70
     1
  0
STYLE
  2
STANDARD
 70
     0
 40
0.0
 41
1.0
 50
0.0
 71
     0
 42
180.0
  3
simplex.shx
  4
extfont.shx
  0
ENDTAB
  0
TABLE
  2
VIEW
 70
     0
  0
ENDTAB
  0
TABLE
  2
UCS
 70
     0
  0
ENDTAB
  0
TABLE
  2
APPID
 70
     1
  0
APPID
  2
ACAD
 70
     0
  0
ENDTAB
  0
TABLE
  2
DIMSTYLE
 70
     2
  0
DIMSTYLE
  2
IGA
 70
     0
  3

  4

  5

  6
OPEN
  7
OPEN
 40
2.0
 41
2.0
 42
0.5
 43
10.0
 44
1.0
 45
0.0
 46
0.0
 47
1.0
 48
1.0
140
3.0
141
0.0
142
0.0
143
0.03937
144
1.0
145
0.0
146
10.0
147
1.0
 71
     0
 72
     0
 73
     0
 74
     0
 75
     0
 76
     0
 77
     1
 78
     8
170
     0
171
     2
172
     0
173
     1
174
     0
175
     0
176
     0
177
     0
178
     0
  0
DIMSTYLE
  2
MATSU
 70
     0
  3

  4

  5

  6
OPEN
  7
OPEN
 40
1.0
 41
2.0
 42
1.0
 43
10.0
 44
1.0
 45
0.0
 46
0.0
 47
0.0
 48
0.0
140
3.0
141
0.0
142
0.0
143
0.03937
144
1.0
145
0.0
146
1.0
147
0.5
 71
     0
 72
     0
 73
     0
 74
     0
 75
     0
 76
     0
 77
     1
 78
     8
170
     0
171
     2
172
     1
173
     1
174
     0
175
     0
176
   256
177
   256
178
   256
  0
ENDTAB
  0
ENDSEC
  0
SECTION
  2
BLOCKS
  0
BLOCK
  8
0
  2
$MODEL_SPACE
 70
     0
 10
0.0
 20
0.0
 30
0.0
  3
$MODEL_SPACE
  1

  0
ENDBLK
  5
1B
  8
0
  0
BLOCK
 67
     1
  8
0
  2
$PAPER_SPACE
 70
     0
 10
0.0
 20
0.0
 30
0.0
  3
$PAPER_SPACE
  1

  0
ENDBLK
  5
18
 67
     1
  8
0
  0
BLOCK
  8
0
  2
_OPEN
 70
     0
 10
0.0
 20
0.0
 30
0.0
  3
_OPEN
  1

  0
LINE
  5
7F62
  8
0
  6
BYBLOCK
 62
     0
 10
-1.0
 20
0.1666666666666666
 30
0.0
 11
0.0
 21
0.0
 31
0.0
  0
LINE
  5
7F63
  8
0
  6
BYBLOCK
 62
     0
 10
0.0
 20
0.0
 30
0.0
 11
-1.0
 21
-0.1666666666666666
 31
0.0
  0
LINE
  5
7F64
  8
0
  6
BYBLOCK
 62
     0
 10
0.0
 20
0.0
 30
0.0
 11
-1.0
 21
0.0
 31
0.0
  0
ENDBLK
  5
7F66
  8
0
  0
BLOCK
  8
0
  2
YA_N
 70
     0
 10
0.0
 20
0.0
 30
0.0
  3
YA_N
  1

  0
ENDBLK
  5
7F71
  8
0
  0
BLOCK
  8
0
  2
*D2
 70
     1
 10
0.0
 20
0.0
 30
0.0
  3
*D2
  1

  0
LINE
  5
83C2
  8
0
  6
BYBLOCK
 10
8596.9230480992701
 20
2527.241949246692
 30
0.0
 11
9151.9863981891976
 21
2527.241949246692
 31
0.0
  0
LINE
  5
83C3
  8
0
  6
BYBLOCK
 10
8596.9230480992701
 20
927.24294924669255
 30
0.0
 11
9151.9863981891976
 21
927.24294924669255
 31
0.0
  0
LINE
  5
83C4
  8
0
  6
BYBLOCK
 10
9111.9863981891976
 20
2447.241949246692
 30
0.0
 11
9111.9863981891976
 21
1007.242949246692
 31
0.0
  0
INSERT
  5
83C5
  8
0
  6
BYBLOCK
  2
_OPEN
 10
9111.9863981891976
 20
2527.241949246692
 30
0.0
 41
80.0
 42
80.0
 43
80.0
 50
90.0
  0
INSERT
  5
83C6
  8
0
  6
BYBLOCK
  2
_OPEN
 10
9111.9863981891976
 20
927.24294924669255
 30
0.0
 41
80.0
 42
80.0
 43
80.0
 50
270.0
  0
TEXT
  5
83C7
  8
3
 10
9091.9863981891976
 20
1467.2424492466921
 30
0.0
 40
120.0
  1
φ1600
 50
90.0
  0
POINT
  5
83C8
  8
DEFPOINTS
  6
BYBLOCK
 62
     0
 10
8556.9230480992683
 20
2527.241949246692
 30
0.0
  0
POINT
  5
83C9
  8
DEFPOINTS
  6
BYBLOCK
 62
     0
 10
8556.9230480992683
 20
927.24294924669255
 30
0.0
  0
POINT
  5
83CA
  8
DEFPOINTS
  6
BYBLOCK
 62
     0
 10
9111.9863981891976
 20
927.24294924669255
 30
0.0
  0
ENDBLK
  5
83CB
  8
0
  0
BLOCK
  8
0
  2
*D3
 70
     1
 10
0.0
 20
0.0
 30
0.0
  3
*D3
  1

  0
LINE
  5
83CD
  8
0
  6
BYBLOCK
 10
7832.9190480992693
 20
3792.6682805441542
 30
0.0
 11
7832.9190480992693
 21
3910.206064927806
 31
0.0
  0
LINE
  5
83CE
  8
0
  6
BYBLOCK
 10
8556.9230480992683
 20
2632.241949246692
 30
0.0
 11
8556.9230480992683
 21
3910.206064927806
 31
0.0
  0
LINE
  5
83CF
  8
0
  6
BYBLOCK
 10
7912.9190480992693
 20
3870.206064927806
 30
0.0
 11
8476.9230480992719
 21
3870.206064927806
 31
0.0
  0
INSERT
  5
83D0
  8
0
  6
BYBLOCK
  2
_OPEN
 10
7832.9190480992693
 20
3870.206064927806
 30
0.0
 41
80.0
 42
80.0
 43
80.0
 50
180.0
  0
INSERT
  5
83D1
  8
0
  6
BYBLOCK
  2
_OPEN
 10
8556.9230480992683
 20
3870.206064927806
 30
0.0
 41
80.0
 42
80.0
 43
80.0
  0
TEXT
  5
83D2
  8
3
 10
8034.7391048111849
 20
3890.206064927806
 30
0.0
 40
120.0
  1
725
  0
POINT
  5
83D3
  8
DEFPOINTS
  6
BYBLOCK
 62
     0
 10
7832.9190480992693
 20
3752.6682805441542
 30
0.0
  0
POINT
  5
83D4
  8
DEFPOINTS
  6
BYBLOCK
 62
     0
 10
8556.9230480992683
 20
2592.241949246692
 30
0.0
  0
POINT
  5
83D5
  8
DEFPOINTS
  6
BYBLOCK
 62
     0
 10
8556.9230480992683
 20
3870.206064927806
 30
0.0
  0
ENDBLK
  5
83D6
  8
0
  0
BLOCK
  8
0
  2
*D4
 70
     1
 10
0.0
 20
0.0
 30
0.0
  3
*D4
  1

  0
LINE
  5
83D8
  8
0
  6
BYBLOCK
 10
3999.1736360294599
 20
3632.0586682446951
 30
0.0
 11
3999.1736360294599
 21
3828.213431450487
 31
0.0
  0
LINE
  5
83D9
  8
0
  6
BYBLOCK
 10
5044.1736360294599
 20
3527.2469217726721
 30
0.0
 11
5044.1736360294599
 21
3828.213431450487
 31
0.0
  0
LINE
  5
83DA
  8
0
  6
BYBLOCK
 10
4079.1736360294599
 20
3788.213431450487
 30
0.0
 11
4964.1736360294599
 21
3788.213431450487
 31
0.0
  0
INSERT
  5
83DB
  8
0
  6
BYBLOCK
  2
_OPEN
 10
3999.1736360294599
 20
3788.213431450487
 30
0.0
 41
80.0
 42
80.0
 43
80.0
 50
180.0
  0
INSERT
  5
83DC
  8
0
  6
BYBLOCK
  2
_OPEN
 10
5044.1736360294599
 20
3788.213431450487
 30
0.0
 41
80.0
 42
80.0
 43
80.0
  0
TEXT
  5
83DD
  8
3
 10
4321.673636029459
 20
3808.2134314504879
 30
0.0
 40
120.0
  1
1045
  0
POINT
  5
83DE
  8
DEFPOINTS
  6
BYBLOCK
 62
     0
 10
3999.1736360294599
 20
3592.058668244696
 30
0.0
  0
POINT
  5
83DF
  8
DEFPOINTS
  6
BYBLOCK
 62
     0
 10
5044.1736360294599
 20
3487.2469217726721
 30
0.0
  0
POINT
  5
83E0
  8
DEFPOINTS
  6
BYBLOCK
 62
     0
 10
5044.1736360294599
 20
3788.213431450487
 30
0.0
  0
ENDBLK
  5
83E1
  8
0
  0
BLOCK
  8
0
  2
*D5
 70
     1
 10
0.0
 20
0.0
 30
0.0
  3
*D5
  1

  0
LINE
  5
8882
  8
3
 10
2068.403843799671
 20
4425.7567246160042
 30
0.0
 11
2068.403843799671
 21
6370.7242342938189
 31
0.0
  0
LINE
  5
8883
  8
3
 10
3359.403843799671
 20
6330.7242342938189
 30
0.0
 11
2148.403843799671
 21
6330.7242342938189
 31
0.0
  0
INSERT
  5
8884
  8
3
  2
_OPEN
 10
3439.403843799671
 20
6330.7242342938189
 30
0.0
 41
80.0
 42
80.0
 43
80.0
  0
INSERT
  5
8885
  8
3
  2
_OPEN
 10
2068.403843799671
 20
6330.7242342938189
 30
0.0
 41
80.0
 42
80.0
 43
80.0
 50
180.0
  0
TEXT
  8
3
  40
120
  5
88CC
  72
0
  71
0
 10
2513.90
 20
6198.32
 30
0.000000
  1
1371
  0
POINT
  5
8887
  8
DEFPOINTS
 62
     0
 10
3439.403843799671
 20
6134.569471088028
 30
0.0
  0
POINT
  5
8888
  8
DEFPOINTS
 62
     0
 10
2068.403843799671
 20
4385.7567246160042
 30
0.0
  0
POINT
  5
8889
  8
DEFPOINTS
 62
     0
 10
2068.403843799671
 20
6330.7242342938189
 30
0.0
  0
ENDBLK
  5
83EB
  8
0
  0
BLOCK
  8
0
  2
*D6
 70
     1
 10
0.0
 20
0.0
 30
0.0
  3
*D6
  1

  0
LINE
  5
863B
  8
3
 10
4389.4038437996787
 20
2869.7567246159829
 30
0.0
 11
4389.4038437996787
 21
2559.5005372241121
 31
0.0
  0
LINE
  5
863C
  8
3
 10
3439.403843799671
 20
2713.9770514917032
 30
0.0
 11
3439.403843799671
 21
2559.5005372241121
 31
0.0
  0
LINE
  5
863D
  8
3
 10
4309.4038437996778
 20
2599.5005372241121
 30
0.0
 11
3519.403843799671
 21
2599.5005372241121
 31
0.0
  0
INSERT
  5
863E
  8
3
  2
_OPEN
 10
4389.4038437996787
 20
2599.5005372241121
 30
0.0
 41
80.0
 42
80.0
 43
80.0
  0
INSERT
  5
863F
  8
3
  2
_OPEN
 10
3439.403843799671
 20
2599.5005372241121
 30
0.0
 41
80.0
 42
80.0
 43
80.0
 50
180.0
  0
TEXT
  5
8640
  8
3
 10
3760.1181295139609
 20
2619.5005372241121
 30
0.0
 40
120.0
  1
950
  0
POINT
  5
8641
  8
DEFPOINTS
 62
     0
 10
4389.4038437996787
 20
2909.7567246159829
 30
0.0
  0
POINT
  5
8642
  8
DEFPOINTS
 62
     0
 10
3439.403843799671
 20
2753.9770514917041
 30
0.0
  0
POINT
  5
8643
  8
DEFPOINTS
 62
     0
 10
3439.403843799671
 20
2599.5005372241121
 30
0.0
  0
ENDBLK
  5
83F6
  8
0
  0
BLOCK
  8
0
  2
*D7
 70
     1
 10
0.0
 20
0.0
 30
0.0
  3
*D7
  1

  0
LINE
  5
888A
  8
3
 10
1289.403843799671
 20
2869.7547246153381
 30
0.0
 11
1289.403843799671
 21
2559.5005372241121
 31
0.0
  0
LINE
  5
888B
  8
3
 10
3359.403843799671
 20
2599.5005372241121
 30
0.0
 11
1369.403843799671
 21
2599.5005372241121
 31
0.0
  0
INSERT
  5
888C
  8
3
  2
_OPEN
 10
3439.403843799671
 20
2599.5005372241121
 30
0.0
 41
80.0
 42
80.0
 43
80.0
  0
INSERT
  5
888D
  8
3
  2
_OPEN
 10
1289.403843799671
 20
2599.5005372241121
 30
0.0
 41
80.0
 42
80.0
 43
80.0
 50
180.0
  0
TEXT
  8
3
  40
120
  5
88CD
  72
0
  71
0
 10
2124.40
 20
2467.10
 30
0.000000
  1
2150
  0
POINT
  5
888F
  8
DEFPOINTS
 62
     0
 10
3439.403843799671
 20
2753.9770514917041
 30
0.0
  0
POINT
  5
8890
  8
DEFPOINTS
 62
     0
 10
1289.403843799671
 20
2909.7547246153381
 30
0.0
  0
POINT
  5
8891
  8
DEFPOINTS
 62
     0
 10
1289.403843799671
 20
2599.5005372241121
 30
0.0
  0
ENDBLK
  5
8400
  8
0
  0
BLOCK
  8
0
  2
*D8
 70
     1
 10
0.0
 20
0.0
 30
0.0
  3
*D8
  1

  0
LINE
  5
840D
  8
0
  6
BYBLOCK
 10
5084.1736360294599
 20
3422.2469217726712
 30
0.0
 11
5447.6237887364041
 21
3422.2469217726712
 31
0.0
  0
LINE
  5
840E
  8
0
  6
BYBLOCK
 10
5084.1736360294599
 20
1772.246921772673
 30
0.0
 11
5447.6237887364041
 21
1772.246921772673
 31
0.0
  0
LINE
  5
840F
  8
0
  6
BYBLOCK
 10
5407.623788736405
 20
3342.2469217726721
 30
0.0
 11
5407.623788736405
 21
1852.246921772673
 31
0.0
  0
INSERT
  5
8410
  8
0
  6
BYBLOCK
  2
_OPEN
 10
5407.623788736405
 20
3422.2469217726712
 30
0.0
 41
80.0
 42
80.0
 43
80.0
 50
90.0
  0
INSERT
  5
8411
  8
0
  6
BYBLOCK
  2
_OPEN
 10
5407.623788736405
 20
1772.246921772673
 30
0.0
 41
80.0
 42
80.0
 43
80.0
 50
270.0
  0
TEXT
  5
8412
  8
3
 10
5387.6237887364041
 20
2397.2469217726721
 30
0.0
 40
120.0
  1
1650
 50
90.0
  0
POINT
  5
8413
  8
DEFPOINTS
  6
BYBLOCK
 62
     0
 10
5044.1736360294599
 20
3422.2469217726712
 30
0.0
  0
POINT
  5
8414
  8
DEFPOINTS
  6
BYBLOCK
 62
     0
 10
5044.1736360294599
 20
1772.246921772673
 30
0.0
  0
POINT
  5
8415
  8
DEFPOINTS
  6
BYBLOCK
 62
     0
 10
5407.623788736405
 20
1772.246921772673
 30
0.0
  0
ENDBLK
  5
8416
  8
0
  0
BLOCK
  8
0
  2
*D9
 70
     1
 10
0.0
 20
0.0
 30
0.0
  3
*D9
  1

  0
LINE
  5
8418
  8
0
  6
BYBLOCK
 10
5084.1736360294599
 20
3422.2459217726728
 30
0.0
 11
5693.0002354034441
 21
3422.2459217726728
 31
0.0
  0
LINE
  5
8419
  8
0
  6
BYBLOCK
 10
5202.2473420693641
 20
1727.2459217726721
 30
0.0
 11
5693.0002354034441
 21
1727.2459217726721
 31
0.0
  0
LINE
  5
841A
  8
0
  6
BYBLOCK
 10
5653.0002354034441
 20
3342.2459217726719
 30
0.0
 11
5653.0002354034441
 21
1807.2459217726721
 31
0.0
  0
INSERT
  5
841B
  8
0
  6
BYBLOCK
  2
_OPEN
 10
5653.0002354034441
 20
3422.2459217726728
 30
0.0
 41
80.0
 42
80.0
 43
80.0
 50
90.0
  0
INSERT
  5
841C
  8
0
  6
BYBLOCK
  2
_OPEN
 10
5653.0002354034441
 20
1727.2459217726721
 30
0.0
 41
80.0
 42
80.0
 43
80.0
 50
270.0
  0
TEXT
  5
841D
  8
3
 10
5633.0002354034441
 20
2374.7459217726719
 30
0.0
 40
120.0
  1
1695
 50
90.0
  0
POINT
  5
841E
  8
DEFPOINTS
  6
BYBLOCK
 62
     0
 10
5044.1736360294599
 20
3422.2459217726728
 30
0.0
  0
POINT
  5
841F
  8
DEFPOINTS
  6
BYBLOCK
 62
     0
 10
5162.2473420693641
 20
1727.2459217726721
 30
0.0
  0
POINT
  5
8420
  8
DEFPOINTS
  6
BYBLOCK
 62
     0
 10
5653.0002354034441
 20
1727.2459217726721
 30
0.0
  0
ENDBLK
  5
8421
  8
0
  0
BLOCK
  8
0
  2
*D10
 70
     1
 10
0.0
 20
0.0
 30
0.0
  3
*D10
  1

  0
LINE
  5
8892
  8
3
 10
4429.4038437996778
 20
3099.7567246160029
 30
0.0
 11
5133.2304431736557
 21
3099.7567246160029
 31
0.0
  0
LINE
  5
8893
  8
3
 10
5093.2304431736557
 20
4189.7567246160042
 30
0.0
 11
5093.2304431736557
 21
3179.7567246160029
 31
0.0
  0
INSERT
  5
8894
  8
3
  2
_OPEN
 10
5093.2304431736557
 20
4269.7567246160042
 30
0.0
 41
80.0
 42
80.0
 43
80.0
 50
90.0
  0
INSERT
  5
8895
  8
3
  2
_OPEN
 10
5093.2304431736557
 20
3099.7567246160029
 30
0.0
 41
80.0
 42
80.0
 43
80.0
 50
270.0
  0
TEXT
  8
3
  40
120
  5
88CE
  72
0
  71
0
 10
4773.23
 20
3472.36
 30
0.000000
  1
1170
  0
POINT
  5
8897
  8
DEFPOINTS
 62
     0
 10
4602.4775498395757
 20
4269.7567246160042
 30
0.0
  0
POINT
  5
8898
  8
DEFPOINTS
 62
     0
 10
4389.4038437996787
 20
3099.7567246160029
 30
0.0
  0
POINT
  5
8899
  8
DEFPOINTS
 62
     0
 10
5093.2304431736557
 20
3099.7567246160029
 30
0.0
  0
ENDBLK
  5
842B
  8
0
  0
BLOCK
  8
0
  2
*D11
 70
     1
 10
0.0
 20
0.0
 30
0.0
  3
*D11
  1

  0
LINE
  5
8451
  8
0
  6
BYBLOCK
 10
5044.1736360294599
 20
3567.2469217726721
 30
0.0
 11
5044.1736360294599
 21
4097.1571958815357
 31
0.0
  0
LINE
  5
8452
  8
0
  6
BYBLOCK
 10
1849.1736360294631
 20
747.24392177202697
 30
0.0
 11
1849.1736360294631
 21
4097.1571958815357
 31
0.0
  0
LINE
  5
8453
  8
0
  6
BYBLOCK
 10
4964.1736360294599
 20
4057.1571958815362
 30
0.0
 11
1929.1736360294631
 21
4057.1571958815362
 31
0.0
  0
INSERT
  5
8454
  8
0
  6
BYBLOCK
  2
_OPEN
 10
5044.1736360294599
 20
4057.1571958815362
 30
0.0
 41
80.0
 42
80.0
 43
80.0
  0
INSERT
  5
8455
  8
0
  6
BYBLOCK
  2
_OPEN
 10
1849.1736360294631
 20
4057.1571958815362
 30
0.0
 41
80.0
 42
80.0
 43
80.0
 50
180.0
  0
TEXT
  5
8456
  8
3
 10
3246.6736360294608
 20
4077.1571958815362
 30
0.0
 40
120.0
  1
3195
  0
POINT
  5
8457
  8
DEFPOINTS
  6
BYBLOCK
 62
     0
 10
5044.1736360294599
 20
3527.2469217726721
 30
0.0
  0
POINT
  5
8458
  8
DEFPOINTS
  6
BYBLOCK
 62
     0
 10
1849.1736360294631
 20
707.24392177202708
 30
0.0
  0
POINT
  5
8459
  8
DEFPOINTS
  6
BYBLOCK
 62
     0
 10
1849.1736360294631
 20
4057.1571958815362
 30
0.0
  0
ENDBLK
  5
845A
  8
0
  0
BLOCK
  8
0
  2
*D12
 70
     1
 10
0.0
 20
0.0
 30
0.0
  3
*D12
  1

  0
LINE
  5
845C
  8
0
  6
BYBLOCK
 10
7242.9190480992693
 20
3462.2459492466928
 30
0.0
 11
7242.9190480992693
 21
3617.9476064657279
 31
0.0
  0
LINE
  5
845D
  8
0
  6
BYBLOCK
 10
8422.9190480992766
 20
3462.2459492466951
 30
0.0
 11
8422.9190480992766
 21
3617.9476064657279
 31
0.0
  0
LINE
  5
845E
  8
0
  6
BYBLOCK
 10
7322.9190480992702
 20
3577.9476064657279
 30
0.0
 11
8342.9190480992766
 21
3577.9476064657279
 31
0.0
  0
INSERT
  5
845F
  8
0
  6
BYBLOCK
  2
_OPEN
 10
7242.9190480992693
 20
3577.9476064657279
 30
0.0
 41
80.0
 42
80.0
 43
80.0
 50
180.0
  0
INSERT
  5
8460
  8
0
  6
BYBLOCK
  2
_OPEN
 10
8422.9190480992766
 20
3577.9476064657279
 30
0.0
 41
80.0
 42
80.0
 43
80.0
  0
TEXT
  5
8461
  8
3
 10
7644.3476195278454
 20
3597.9476064657279
 30
0.0
 40
120.0
  1
1180
  0
POINT
  5
8462
  8
DEFPOINTS
  6
BYBLOCK
 62
     0
 10
7242.9190480992693
 20
3422.2459492466928
 30
0.0
  0
POINT
  5
8463
  8
DEFPOINTS
  6
BYBLOCK
 62
     0
 10
8422.9190480992766
 20
3422.2459492466951
 30
0.0
  0
POINT
  5
8464
  8
DEFPOINTS
  6
BYBLOCK
 62
     0
 10
8422.9190480992766
 20
3577.9476064657279
 30
0.0
  0
ENDBLK
  5
8465
  8
0
  0
BLOCK
  8
0
  2
*D13
 70
     1
 10
0.0
 20
0.0
 30
0.0
  3
*D13
  1

  0
LINE
  5
86EB
  8
3
 10
7942.1492558694799
 20
2879.7537520900059
 30
0.0
 11
7942.1492558694799
 21
2566.7517203552188
 31
0.0
  0
LINE
  5
86EC
  8
3
 10
7273.1492558694808
 20
2646.662149314287
 30
0.0
 11
7273.1492558694808
 21
2566.7517203552188
 31
0.0
  0
LINE
  5
86ED
  8
3
 10
7862.1492558694808
 20
2606.7517203552188
 30
0.0
 11
7353.1492558694808
 21
2606.7517203552188
 31
0.0
  0
INSERT
  5
86EE
  8
3
  2
_OPEN
 10
7942.1492558694799
 20
2606.7517203552188
 30
0.0
 41
80.0
 42
80.0
 43
80.0
  0
INSERT
  5
86EF
  8
3
  2
_OPEN
 10
7273.1492558694808
 20
2606.7517203552188
 30
0.0
 41
80.0
 42
80.0
 43
80.0
 50
180.0
  0
TEXT
  5
86F0
  8
3
 10
7456.2206844409093
 20
2626.7517203552188
 30
0.0
 40
120.0
  1
669
  0
POINT
  5
86F1
  8
DEFPOINTS
 62
     0
 10
7942.1492558694799
 20
2919.7537520900059
 30
0.0
  0
POINT
  5
86F2
  8
DEFPOINTS
 62
     0
 10
7273.1492558694808
 20
2686.662149314287
 30
0.0
  0
POINT
  5
86F3
  8
DEFPOINTS
 62
     0
 10
7273.1492558694808
 20
2606.7517203552188
 30
0.0
  0
ENDBLK
  5
8470
  8
0
  0
BLOCK
  8
0
  2
*D14
 70
     1
 10
0.0
 20
0.0
 30
0.0
  3
*D14
  1

  0
LINE
  5
889A
  8
3
 10
6342.1492558694808
 20
2879.75475208938
 30
0.0
 11
6342.1492558694808
 21
2566.7517203552188
 31
0.0
  0
LINE
  5
889B
  8
3
 10
7193.1492558694817
 20
2606.7517203552188
 30
0.0
 11
6422.1492558694808
 21
2606.7517203552188
 31
0.0
  0
INSERT
  5
889C
  8
3
  2
_OPEN
 10
7273.1492558694808
 20
2606.7517203552188
 30
0.0
 41
80.0
 42
80.0
 43
80.0
  0
INSERT
  5
889D
  8
3
  2
_OPEN
 10
6342.1492558694808
 20
2606.7517203552188
 30
0.0
 41
80.0
 42
80.0
 43
80.0
 50
180.0
  0
TEXT
  8
3
  40
120
  5
88CF
  72
0
  71
0
 10
6567.65
 20
2474.35
 30
0.000000
  1
931
  0
POINT
  5
889F
  8
DEFPOINTS
 62
     0
 10
7273.1492558694808
 20
2686.662149314287
 30
0.0
  0
POINT
  5
88A0
  8
DEFPOINTS
 62
     0
 10
6342.1492558694808
 20
2919.75475208938
 30
0.0
  0
POINT
  5
88A1
  8
DEFPOINTS
 62
     0
 10
6342.1492558694808
 20
2606.7517203552188
 30
0.0
  0
ENDBLK
  5
847A
  8
0
  0
BLOCK
  8
0
  2
*D15
 70
     1
 10
0.0
 20
0.0
 30
0.0
  3
*D15
  1

  0
LINE
  5
88A2
  8
3
 10
6293.1492558694799
 20
4789.7567520900229
 30
0.0
 11
6293.1492558694799
 21
6452.7168677711388
 31
0.0
  0
LINE
  5
88A3
  8
3
 10
7193.1492558694817
 20
6412.7168677711379
 30
0.0
 11
6373.1492558694808
 21
6412.7168677711379
 31
0.0
  0
INSERT
  5
88A4
  8
3
  2
_OPEN
 10
7273.1492558694808
 20
6412.7168677711379
 30
0.0
 41
80.0
 42
80.0
 43
80.0
  0
INSERT
  5
88A5
  8
3
  2
_OPEN
 10
6293.1492558694799
 20
6412.7168677711379
 30
0.0
 41
80.0
 42
80.0
 43
80.0
 50
180.0
  0
TEXT
  8
3
  40
120
  5
88D0
  72
0
  71
0
 10
6543.15
 20
6380.32
 30
0.000000
  1
MAX
  0
TEXT
  8
3
  40
120
  5
88D1
  72
0
  71
0
 10
6543.15
 20
6224.32
 30
0.000000
  1
1080
  0
POINT
  5
88A7
  8
DEFPOINTS
 62
     0
 10
7273.1492558694808
 20
6295.1790833874857
 30
0.0
  0
POINT
  5
88A8
  8
DEFPOINTS
 62
     0
 10
6293.1492558694799
 20
4749.7567520900238
 30
0.0
  0
POINT
  5
88A9
  8
DEFPOINTS
 62
     0
 10
6293.1492558694799
 20
6412.7168677711379
 30
0.0
  0
ENDBLK
  5
85A7
  8
0
  0
BLOCK
  8
0
  2
*D16
 70
     1
 10
0.0
 20
0.0
 30
0.0
  3
*D16
  1

  0
LINE
  5
8491
  8
0
  6
BYBLOCK
 10
1849.173636029456
 20
7304.4091268431202
 30
0.0
 11
1849.173636029456
 21
8080.7257695464878
 31
0.0
  0
LINE
  5
8492
  8
0
  6
BYBLOCK
 10
3049.173636029459
 20
7804.4091268431221
 30
0.0
 11
3049.173636029459
 21
8080.7257695464878
 31
0.0
  0
LINE
  5
8493
  8
0
  6
BYBLOCK
 10
1929.173636029456
 20
8040.7257695464868
 30
0.0
 11
2969.173636029459
 21
8040.7257695464868
 31
0.0
  0
INSERT
  5
8494
  8
0
  6
BYBLOCK
  2
_OPEN
 10
1849.173636029456
 20
8040.7257695464868
 30
0.0
 41
80.0
 42
80.0
 43
80.0
 50
180.0
  0
INSERT
  5
8495
  8
0
  6
BYBLOCK
  2
_OPEN
 10
3049.173636029459
 20
8040.7257695464868
 30
0.0
 41
80.0
 42
80.0
 43
80.0
  0
TEXT
  5
8496
  8
3
 10
2249.1736360294581
 20
8060.7257695464859
 30
0.0
 40
120.0
  1
1200
  0
POINT
  5
8497
  8
DEFPOINTS
  6
BYBLOCK
 62
     0
 10
1849.173636029456
 20
7264.4091268431212
 30
0.0
  0
POINT
  5
8498
  8
DEFPOINTS
  6
BYBLOCK
 62
     0
 10
3049.173636029459
 20
7764.409126843123
 30
0.0
  0
POINT
  5
8499
  8
DEFPOINTS
  6
BYBLOCK
 62
     0
 10
3049.173636029459
 20
8040.7257695464868
 30
0.0
  0
ENDBLK
  5
849A
  8
0
  0
BLOCK
  8
0
  2
*D17
 70
     1
 10
0.0
 20
0.0
 30
0.0
  3
*D17
  1

  0
LINE
  5
88AA
  8
3
 10
4389.4038437996714
 20
9431.6160481785555
 30
0.0
 11
4389.4038437996714
 21
9707.9326908819203
 31
0.0
  0
LINE
  5
88AB
  8
3
 10
2569.403843799671
 20
9667.9326908819203
 30
0.0
 11
4309.4038437996714
 21
9667.9326908819203
 31
0.0
  0
INSERT
  5
88AC
  8
3
  2
_OPEN
 10
2489.403843799671
 20
9667.9326908819203
 30
0.0
 41
80.0
 42
80.0
 43
80.0
 50
180.0
  0
INSERT
  5
88AD
  8
3
  2
_OPEN
 10
4389.4038437996714
 20
9667.9326908819203
 30
0.0
 41
80.0
 42
80.0
 43
80.0
  0
TEXT
  8
3
  40
120
  5
88D2
  72
0
  71
0
 10
3199.40
 20
9535.53
 30
0.000000
  1
1900
  0
POINT
  5
88AF
  8
DEFPOINTS
 62
     0
 10
2489.403843799671
 20
9391.6160481785555
 30
0.0
  0
POINT
  5
88B0
  8
DEFPOINTS
 62
     0
 10
4389.4038437996714
 20
9391.6160481785555
 30
0.0
  0
POINT
  5
88B1
  8
DEFPOINTS
 62
     0
 10
4389.4038437996714
 20
9667.9326908819203
 30
0.0
  0
ENDBLK
  5
84A4
  8
0
  0
BLOCK
  8
0
  2
*D18
 70
     1
 10
0.0
 20
0.0
 30
0.0
  3
*D18
  1

  0
LINE
  5
84A6
  8
0
  6
BYBLOCK
 10
1809.173636029456
 20
7264.4091268431212
 30
0.0
 11
1471.46760343714
 21
7264.4091268431212
 31
0.0
  0
LINE
  5
84A7
  8
0
  6
BYBLOCK
 10
1809.173636029456
 20
6164.4091268431202
 30
0.0
 11
1471.46760343714
 21
6164.4091268431202
 31
0.0
  0
LINE
  5
84A8
  8
0
  6
BYBLOCK
 10
1511.46760343714
 20
7184.4091268431202
 30
0.0
 11
1511.46760343714
 21
6244.4091268431202
 31
0.0
  0
INSERT
  5
84A9
  8
0
  6
BYBLOCK
  2
_OPEN
 10
1511.46760343714
 20
7264.4091268431212
 30
0.0
 41
80.0
 42
80.0
 43
80.0
 50
90.0
  0
INSERT
  5
84AA
  8
0
  6
BYBLOCK
  2
_OPEN
 10
1511.46760343714
 20
6164.4091268431202
 30
0.0
 41
80.0
 42
80.0
 43
80.0
 50
270.0
  0
TEXT
  5
84AB
  8
3
 10
1491.46760343714
 20
6525.8376982716927
 30
0.0
 40
120.0
  1
1100
 50
90.0
  0
POINT
  5
84AC
  8
DEFPOINTS
  6
BYBLOCK
 62
     0
 10
1849.173636029456
 20
7264.4091268431212
 30
0.0
  0
POINT
  5
84AD
  8
DEFPOINTS
  6
BYBLOCK
 62
     0
 10
1849.173636029456
 20
6164.4091268431202
 30
0.0
  0
POINT
  5
84AE
  8
DEFPOINTS
  6
BYBLOCK
 62
     0
 10
1511.46760343714
 20
6164.4091268431202
 30
0.0
  0
ENDBLK
  5
84AF
  8
0
  0
BLOCK
  8
0
  2
*D19
 70
     1
 10
0.0
 20
0.0
 30
0.0
  3
*D19
  1

  0
LINE
  5
84B1
  8
0
  6
BYBLOCK
 10
4989.1736360294599
 20
7764.4091268431212
 30
0.0
 11
5419.1250429522188
 21
7764.4091268431212
 31
0.0
  0
LINE
  5
84B2
  8
0
  6
BYBLOCK
 10
4989.1736360294599
 20
6164.4091268431202
 30
0.0
 11
5419.1250429522188
 21
6164.4091268431202
 31
0.0
  0
LINE
  5
84B3
  8
0
  6
BYBLOCK
 10
5379.1250429522179
 20
7684.4091268431212
 30
0.0
 11
5379.1250429522179
 21
6244.4091268431202
 31
0.0
  0
INSERT
  5
84B4
  8
0
  6
BYBLOCK
  2
_OPEN
 10
5379.1250429522179
 20
7764.4091268431212
 30
0.0
 41
80.0
 42
80.0
 43
80.0
 50
90.0
  0
INSERT
  5
84B5
  8
0
  6
BYBLOCK
  2
_OPEN
 10
5379.1250429522179
 20
6164.4091268431202
 30
0.0
 41
80.0
 42
80.0
 43
80.0
 50
270.0
  0
TEXT
  5
84B6
  8
3
 10
5359.1250429522188
 20
6764.4091268431193
 30
0.0
 40
120.0
  1
1600
 50
90.0
  0
POINT
  5
84B7
  8
DEFPOINTS
  6
BYBLOCK
 62
     0
 10
4949.1736360294599
 20
7764.4091268431212
 30
0.0
  0
POINT
  5
84B8
  8
DEFPOINTS
  6
BYBLOCK
 62
     0
 10
4949.1736360294599
 20
6164.4091268431202
 30
0.0
  0
POINT
  5
84B9
  8
DEFPOINTS
  6
BYBLOCK
 62
     0
 10
5379.1250429522179
 20
6164.4091268431202
 30
0.0
  0
ENDBLK
  5
84BA
  8
0
  0
BLOCK
  8
0
  2
*D20
 70
     1
 10
0.0
 20
0.0
 30
0.0
  3
*D20
  1

  0
LINE
  5
84BC
  8
0
  6
BYBLOCK
 10
1849.173636029456
 20
6124.4091268431202
 30
0.0
 11
1849.173636029456
 21
5641.4165588343858
 31
0.0
  0
LINE
  5
84BD
  8
0
  6
BYBLOCK
 10
4949.1736360294599
 20
6124.4091268431202
 30
0.0
 11
4949.1736360294599
 21
5641.4165588343858
 31
0.0
  0
LINE
  5
84BE
  8
0
  6
BYBLOCK
 10
1929.173636029456
 20
5681.4165588343858
 30
0.0
 11
4869.1736360294599
 21
5681.4165588343858
 31
0.0
  0
INSERT
  5
84BF
  8
0
  6
BYBLOCK
  2
_OPEN
 10
1849.173636029456
 20
5681.4165588343858
 30
0.0
 41
80.0
 42
80.0
 43
80.0
 50
180.0
  0
INSERT
  5
84C0
  8
0
  6
BYBLOCK
  2
_OPEN
 10
4949.1736360294599
 20
5681.4165588343858
 30
0.0
 41
80.0
 42
80.0
 43
80.0
  0
TEXT
  5
84C1
  8
3
 10
3199.1736360294581
 20
5701.4165588343849
 30
0.0
 40
120.0
  1
3100
  0
POINT
  5
84C2
  8
DEFPOINTS
  6
BYBLOCK
 62
     0
 10
1849.173636029456
 20
6164.4091268431202
 30
0.0
  0
POINT
  5
84C3
  8
DEFPOINTS
  6
BYBLOCK
 62
     0
 10
4949.1736360294599
 20
6164.4091268431202
 30
0.0
  0
POINT
  5
84C4
  8
DEFPOINTS
  6
BYBLOCK
 62
     0
 10
4949.1736360294599
 20
5681.4165588343858
 30
0.0
  0
ENDBLK
  5
84C5
  8
0
  0
BLOCK
  8
0
  2
_DOT
 70
     0
 10
0.0
 20
0.0
 30
0.0
  3
_DOT
  1

  0
POLYLINE
  5
854A
  8
0
  6
BYBLOCK
 62
     0
 66
     1
 10
0.0
 20
0.0
 30
0.0
 70
     1
 40
0.25
 41
0.25
  0
VERTEX
  5
88B2
  8
0
  6
BYBLOCK
 62
     0
 10
-0.125
 20
0.0
 30
0.0
 42
1.0
  0
VERTEX
  5
88B3
  8
0
  6
BYBLOCK
 62
     0
 10
0.125
 20
0.0
 30
0.0
 42
1.0
  0
SEQEND
  5
88B4
  8
0
  6
BYBLOCK
 62
     0
  0
LINE
  5
854E
  8
0
  6
BYBLOCK
 62
     0
 10
-0.25
 20
0.0
 30
0.0
 11
-1.0
 21
0.0
 31
0.0
  0
ENDBLK
  5
851F
  8
0
  0
BLOCK
  8
0
  2
*D22
 70
     1
 10
0.0
 20
0.0
 30
0.0
  3
*D22
  1

  0
LINE
  5
88B5
  8
3
 62
     0
 10
4411.9038437996778
 20
3099.7567246160029
 30
0.0
 11
5138.2304431736557
 21
3099.7567246160029
 31
0.0
  0
LINE
  5
88B6
  8
3
 62
     0
 10
4411.9038567029047
 20
2984.7567246160079
 30
0.0
 11
5138.2304431736557
 21
2984.756724616007
 31
0.0
  0
LINE
  5
88B7
  8
3
 62
     0
 10
5093.2304431736557
 20
3099.7567246160029
 30
0.0
 11
5093.2304431736557
 21
2984.7567246160079
 31
0.0
  0
LINE
  5
88B8
  8
3
 62
     0
 10
5093.2304431736557
 20
3042.2567246160052
 30
0.0
 11
5514.3018717450841
 21
3168.5781531874331
 31
0.0
  0
LINE
  5
88B9
  8
3
 62
     0
 10
5514.3018717450841
 20
3168.5781531874331
 30
0.0
 11
5514.3018717450841
 21
3727.8638674731478
 31
0.0
  0
TEXT
  8
3
  40
135
  5
88D3
  62
0
  72
0
  71
0
 10
5096.44
 20
3209.27
 30
0.000000
  1
(115)
  0
POINT
  5
88BB
  8
DEFPOINTS
 62
     0
 10
4389.4038437996787
 20
3099.7567246160029
 30
0.0
  0
POINT
  5
88BC
  8
DEFPOINTS
 62
     0
 10
4389.4038567029047
 20
2984.7567246160079
 30
0.0
  0
POINT
  5
88BD
  8
DEFPOINTS
 62
     0
 10
5093.2304431736557
 20
2984.7567246160079
 30
0.0
  0
ENDBLK
  5
868F
  8
0
  0
BLOCK
  8
0
  2
*D23
 70
     1
 10
0.0
 20
0.0
 30
0.0
  3
*D23
  1

  0
LINE
  5
88BE
  8
3
 62
     0
 10
4411.9038567029047
 20
2984.7567246160079
 30
0.0
 11
5138.2304431736557
 21
2984.756724616007
 31
0.0
  0
LINE
  5
88BF
  8
3
 62
     0
 10
4411.9038437996778
 20
2909.7567246159829
 30
0.0
 11
5138.2304431736557
 21
2909.7567246159829
 31
0.0
  0
LINE
  5
88C0
  8
3
 62
     0
 10
5093.2304431736557
 20
2984.7567246160079
 30
0.0
 11
5093.2304431736557
 21
3074.7567246160079
 31
0.0
  0
LINE
  5
88C1
  8
3
 62
     0
 10
5093.2304431736557
 20
2819.7567246159838
 30
0.0
 11
5093.2304431736557
 21
2729.7567246159838
 31
0.0
  0
TEXT
  8
3
  40
135
  5
88D4
  62
0
  72
0
  71
0
 10
4719.14
 20
2387.30
 30
0.000000
  1
75
  0
LINE
  5
88C3
  8
3
 62
     0
 10
5093.2304431736557
 20
2984.7567246160079
 30
0.0
 11
5093.2304431736557
 21
2909.7567246159829
 31
0.0
  0
INSERT
  5
88C4
  8
3
 62
     0
  2
_DOTSMALL
 10
5093.2304431736557
 20
2984.7567246160079
 30
0.0
 41
90.0
 42
90.0
 43
90.0
 50
270.0
  0
INSERT
  5
88C5
  8
3
 62
     0
  2
_OPEN
 10
5093.2304431736557
 20
2909.7567246159829
 30
0.0
 41
90.0
 42
90.0
 43
90.0
 50
90.0
  0
POINT
  5
88C6
  8
DEFPOINTS
 62
     0
 10
4389.4038567029047
 20
2984.7567246160079
 30
0.0
  0
POINT
  5
88C7
  8
DEFPOINTS
 62
     0
 10
4389.4038437996787
 20
2909.7567246159829
 30
0.0
  0
POINT
  5
88C8
  8
DEFPOINTS
 62
     0
 10
5093.2304431736557
 20
2909.7567246159829
 30
0.0
  0
ENDBLK
  5
86A1
  8
0
  0
BLOCK
  8
0
  2
_DOTSMALL
 70
     0
 10
0.0
 20
0.0
 30
0.0
  3
_DOTSMALL
  1

  0
POLYLINE
  5
86BC
  8
3
 62
     0
 66
     1
 10
0.0
 20
0.0
 30
0.0
 70
     1
 40
0.5
 41
0.5
  0
VERTEX
  5
88C9
  8
3
 62
     0
 10
-0.0625
 20
0.0
 30
0.0
 42
1.0
  0
VERTEX
  5
88CA
  8
3
 62
     0
 10
0.0625
 20
0.0
 30
0.0
 42
1.0
  0
SEQEND
  5
88CB
  8
3
 62
     0
  0
ENDBLK
  5
86BE
  8
0
  0
BLOCK
  8
0
  2
_NONE
 70
     0
 10
0.0
 20
0.0
 30
0.0
  3
_NONE
  1

  0
ENDBLK
  5
86CC
  8
0
  0
ENDSEC
  0
SECTION
  2
ENTITIES
  0
INSERT
  5
81A4
  8
0
  2
YA_N
 10
-30783.49973385629
 20
2451.2691299808789
 30
0.0
  0
LINE
  5
81A6
  8
1
 10
6483.1492558694808
 20
4749.7567520900238
 30
0.0
 11
6293.1492558694799
 21
4749.7567520900238
 31
0.0
  0
LINE
  5
81A7
  8
1
 10
6483.1484031706277
 20
3360.4417520900229
 30
0.0
 11
6293.1482558694779
 21
3360.4417520900229
 31
0.0
  0
LINE
  5
81A8
  8
1
 10
6293.1482558694779
 20
3360.4417520900229
 30
0.0
 11
6293.1492558694799
 21
4749.7567520900238
 31
0.0
  0
LINE
  5
81A9
  8
2
 10
6734.4409325127408
 20
3580.4417520900238
 30
0.0
 11
6250.3922558694831
 21
3580.4417520900238
 31
0.0
  0
LINE
  5
81AA
  8
1
 10
6343.148255869477
 20
3430.4417520900238
 30
0.0
 11
6443.148255869477
 21
3430.4417520900238
 31
0.0
  0
LINE
  5
81AB
  8
1
 10
6343.148255869477
 20
3430.4417520900238
 30
0.0
 11
6343.148255869477
 21
3730.4417520900229
 31
0.0
  0
LINE
  5
81AC
  8
1
 10
6443.148255869477
 20
3430.4417520900238
 30
0.0
 11
6443.148255869477
 21
3730.4417520900229
 31
0.0
  0
LINE
  5
81AD
  8
1
 10
6443.148255869477
 20
3730.4417520900229
 30
0.0
 11
6343.148255869477
 21
3730.4417520900229
 31
0.0
  0
LINE
  5
81AE
  8
1
 10
6443.1492558694817
 20
4669.7567520900229
 30
0.0
 11
6443.1492558694817
 21
3869.7557520900241
 31
0.0
  0
LINE
  5
81AF
  8
1
 10
6443.1492558694817
 20
3869.7557520900241
 30
0.0
 11
6343.1492558694799
 21
3869.7557520900241
 31
0.0
  0
LINE
  5
81B0
  8
1
 10
6343.1492558694799
 20
3869.7557520900241
 30
0.0
 11
6343.1492558694799
 21
4669.7567520900229
 31
0.0
  0
LINE
  5
81B1
  8
1
 10
6343.1492558694799
 20
4669.7567520900229
 30
0.0
 11
6443.1492558694817
 21
4669.7567520900229
 31
0.0
  0
LINE
  5
81B2
  8
1
 10
7863.1492558694808
 20
3469.7537520900241
 30
0.0
 11
7997.1532558694817
 21
3469.7537520900241
 31
0.0
  0
LINE
  5
81B3
  8
1
 10
7997.1532558694817
 20
5069.7527520900239
 30
0.0
 11
7863.1492558694808
 21
5069.7527520900239
 31
0.0
  0
LINE
  5
81B4
  8
1
 10
7997.1532558694817
 20
5134.7527520900239
 30
0.0
 11
7997.1532558694817
 21
5069.7527520900239
 31
0.0
  0
LINE
  5
81B5
  8
1
 10
7997.1532558694817
 20
3404.7537520900241
 30
0.0
 11
7997.1532558694817
 21
3469.7537520900241
 31
0.0
  0
LINE
  5
81B6
  8
1
 10
6679.9482558694799
 20
3259.754752090023
 30
0.0
 11
6342.148255869477
 21
3259.754752090023
 31
0.0
  0
LINE
  5
81B7
  8
1
 10
6417.148255869477
 20
3259.754752090023
 30
0.0
 11
6342.148255869477
 21
3259.754752090023
 31
0.0
  0
LINE
  5
81B8
  8
1
 10
7997.1532558694817
 20
3404.7537520900241
 30
0.0
 11
7997.1532558694817
 21
5134.7527520900239
 31
0.0
  0
LINE
  5
81B9
  8
1
 10
7867.1492558694808
 20
3109.753798964995
 30
0.0
 11
6342.148255869477
 21
3109.754752090023
 31
0.0
  0
LINE
  5
81BA
  8
1
 10
6443.1492558694817
 20
4319.7527520900239
 30
0.0
 11
6683.1487885323304
 21
4319.7527520900239
 31
0.0
  0
LINE
  5
81BB
  8
1
 10
6443.1492558694817
 20
4219.7547520900243
 30
0.0
 11
6683.1487382820133
 21
4219.7547520900243
 31
0.0
  0
LINE
  5
81BD
  8
1
 10
6683.148255869477
 20
3259.754752090023
 30
0.0
 11
6342.148255869477
 21
3259.754752090023
 31
0.0
  0
LINE
  5
81BE
  8
1
 10
7942.1492558694799
 20
3259.754752090023
 30
0.0
 11
6342.148255869477
 21
3259.754752090023
 31
0.0
  0
LINE
  5
81BF
  8
1
 10
7867.1492558694808
 20
3109.7537520900241
 30
0.0
 11
7942.1492558694799
 21
3109.7537520900241
 31
0.0
  0
LINE
  5
81C0
  8
2
 10
7273.1492558694808
 20
2686.662149314287
 30
0.0
 11
7273.1492558694808
 21
6096.2283014036348
 31
0.0
  0
LINE
  5
81C1
  8
2
 10
8065.6133056525514
 20
4269.7567520900257
 30
0.0
 11
6293.434255869478
 21
4269.7567520900238
 31
0.0
  0
LINE
  5
81C2
  8
1
 10
6483.1484031706277
 20
3360.4417520900229
 30
0.0
 11
6483.1492558694808
 21
4749.7567520900238
 31
0.0
  0
POINT
  5
81C3
  8
1
 10
6293.1492558694799
 20
4749.7567520900238
 30
0.0
  0
LINE
  5
81C4
  8
1
 10
4419.4038437996714
 20
4314.7577246160045
 30
0.0
 11
4419.4038437996778
 21
5958.7523724683997
 31
0.0
  0
LINE
  5
81C5
  8
1
 10
4484.4038437996714
 20
4314.7577246160045
 30
0.0
 11
4484.4038437996714
 21
5964.7577246160045
 31
0.0
  0
ARC
  5
81C6
  8
1
 10
3555.4038437996719
 20
4385.7567246160042
 30
0.0
 40
1487.0
 50
94.473999999999975
 51
184.4742787963454
  0
LINE
  5
81C7
  8
1
 10
1289.4038437996751
 20
3099.754724615359
 30
0.0
 11
4389.4038437996714
 21
3099.7567246160029
 31
0.0
1001
ACAD
1000
ASC_BOUNDS
1002
{
1070
    19
1002
}
  0
LINE
  5
81C8
  8
1
 10
1289.4038437996751
 20
3249.754724615359
 30
0.0
 11
4389.4038437996714
 21
3249.7567246160029
 31
0.0
  0
LINE
  5
81C9
  8
2
 10
1639.403843799671
 20
2811.5397246160042
 30
0.0
 11
1639.403843799671
 21
4071.5236729735179
 31
0.0
  0
LINE
  5
81CA
  8
1
 10
1639.403843799671
 20
3284.7547246160038
 30
0.0
 11
1639.403843799671
 21
3854.7547246160029
 31
0.0
  0
ARC
  5
81CB
  8
1
 10
1639.403843799671
 20
3569.7547246160038
 30
0.0
 40
280.0
 50
298.69199912720882
 51
241.3080008727911
  0
LINE
  5
81CC
  8
1
 10
1326.799438042915
 20
3319.754724616002
 30
0.0
 11
1516.077975323198
 21
3319.7547246160038
 31
0.0
  0
LINE
  5
81CD
  8
2
 10
2059.7396004616448
 20
3569.7547246160038
 30
0.0
 11
1302.813932647844
 21
3569.7547246160038
 31
0.0
  0
LINE
  5
81CE
  8
1
 10
1396.403843799671
 20
3319.7547246160038
 30
0.0
 11
1396.403843799671
 21
3430.646852804226
 31
0.0
  0
LINE
  5
81CF
  8
1
 10
1314.403843799671
 20
3249.7547407443958
 30
0.0
 11
1326.799438042915
 21
3319.754724616002
 31
0.0
  0
LINE
  5
81D0
  8
1
 10
1882.403843799671
 20
3319.7547246160038
 30
0.0
 11
1882.403843799671
 21
3430.646852804226
 31
0.0
  0
LINE
  5
81D1
  8
1
 10
1773.832125673209
 20
3324.1350246069651
 30
0.0
 11
1504.9755619261341
 21
3324.1350246069651
 31
0.0
  0
LINE
  5
81D2
  8
1
 10
1762.729712276144
 20
3306.4089478747001
 30
0.0
 11
1639.403843799671
 21
3306.4089478747001
 31
0.0
  0
LINE
  5
81D3
  8
1
 10
1516.077975323198
 20
3306.4089478747001
 30
0.0
 11
1639.403843799671
 21
3306.4089478747001
 31
0.0
  0
LINE
  5
81D4
  8
1
 10
1496.403843799671
 20
3329.0245852482858
 30
0.0
 11
1496.403843799671
 21
3319.7547246160038
 31
0.0
  0
LINE
  5
81D5
  8
1
 10
1516.077975323198
 20
3319.754724616002
 30
0.0
 11
1516.077975323198
 21
3306.4089478747001
 31
0.0
  0
LINE
  5
81D6
  8
1
 10
1952.008249556435
 20
3319.754724616002
 30
0.0
 11
1762.729712276144
 21
3319.7547246160038
 31
0.0
  0
LINE
  5
81D7
  8
1
 10
1782.403843799671
 20
3329.0245852482858
 30
0.0
 11
1782.403843799671
 21
3319.7547246160038
 31
0.0
  0
LINE
  5
81D8
  8
1
 10
1762.729712276144
 20
3319.754724616002
 30
0.0
 11
1762.729712276144
 21
3306.4089478747001
 31
0.0
  0
LINE
  5
81D9
  8
1
 10
1782.403843799671
 20
3329.0245852482858
 30
0.0
 11
1782.403843799671
 21
3319.7547246160038
 31
0.0
  0
LINE
  5
81DA
  8
1
 10
1882.403843799671
 20
3319.7547246160038
 30
0.0
 11
1782.403843799671
 21
3319.7547246160038
 31
0.0
  0
LINE
  5
81DB
  8
1
 10
1964.403843799671
 20
3249.7547407443958
 30
0.0
 11
1952.008249556435
 21
3319.754724616002
 31
0.0
  0
CIRCLE
  5
81DC
  8
1
 10
1639.403843799671
 20
3569.7547246160038
 30
0.0
 40
150.0
  0
LINE
  5
81DD
  8
1
 10
4484.4038437996714
 20
5964.7577246160045
 30
0.0
 11
4484.4038437996714
 21
6029.7577246160045
 31
0.0
  0
ARC
  5
81DE
  8
1
 10
3323.4028437996749
 20
4385.7567246160042
 30
0.0
 40
1255.0
 50
185.30358042285371
 51
275.303
  0
ARC
  5
81DF
  8
1
 10
3342.402843799674
 20
4172.7567246160042
 30
0.0
 40
1042.0
 50
275.34099999999989
 51
5.3419999999999801
  0
CIRCLE
  5
81E0
  8
1
 10
3439.403843799671
 20
4269.7567246160042
 30
0.0
 40
800.0
  0
CIRCLE
  5
81E1
  8
1
 10
3439.403843799671
 20
4269.7567246160042
 30
0.0
 40
400.0
  0
CIRCLE
  5
81E2
  8
1
 10
3439.403843799671
 20
4269.7567246160042
 30
0.0
 40
865.0
  0
ARC
  5
81E3
  8
1
 10
3536.403843799671
 20
4172.7567246160042
 30
0.0
 40
848.0
 50
6.5690000000000142
 51
9.6398226475606723
  0
LINE
  5
81E4
  8
1
 10
4372.4299893232446
 20
4314.7577246160045
 30
0.0
 11
4484.4038437996714
 21
4314.7577246160045
 31
0.0
  0
LINE
  5
81E5
  8
1
 10
4484.4038437996714
 20
4314.7577246160045
 30
0.0
 11
4419.4038437996714
 21
4314.7577246160045
 31
0.0
  0
LINE
  5
81E6
  8
1
 10
4484.4038437996714
 20
4249.7577246160054
 30
0.0
 11
4484.4038437996714
 21
4314.7577246160045
 31
0.0
  0
LINE
  5
81E7
  8
1
 10
1289.403843799678
 20
2984.754724615354
 30
0.0
 11
4389.4038567029047
 21
2984.7567246160079
 31
0.0
1001
ACAD
1000
ASC_BOUNDS
1002
{
1070
    19
1002
}
  0
LINE
  5
81E8
  8
1
 10
1289.403843799678
 20
2909.7547246153381
 30
0.0
 11
4389.4039050900174
 21
2909.7567246160229
 31
0.0
  0
LINE
  5
81E9
  8
1
 10
7863.1492558694808
 20
5964.7567520900266
 30
0.0
 11
6683.1492558694727
 21
5964.7567520900247
 31
0.0
  0
LINE
  5
81EA
  8
1
 10
7863.149255869489
 20
4314.7567520900257
 30
0.0
 11
6683.1487860217667
 21
4314.7567520900238
 31
0.0
  0
LINE
  5
81EB
  8
1
 10
6683.148255869477
 20
3259.754752090023
 30
0.0
 11
6683.1487860217603
 21
4314.7567520900238
 31
0.0
  0
LINE
  5
81EC
  8
1
 10
7863.1492558694808
 20
3259.754752090023
 30
0.0
 11
7863.1492558694808
 21
4247.4567520900264
 31
0.0
  0
LINE
  5
81ED
  8
1
 10
7942.1492558694799
 20
2994.75375209002
 30
0.0
 11
6342.1482433694837
 21
2994.7547520900271
 31
0.0
  0
LINE
  5
81EE
  8
1
 10
7942.1492558694799
 20
2919.7537520900059
 30
0.0
 11
6342.1481964945197
 21
2919.7547520900421
 31
0.0
  0
LINE
  5
81EF
  8
1
 10
7942.1492558694799
 20
2919.7537520900059
 30
0.0
 11
7942.1492558694799
 21
2994.75375209002
 31
0.0
  0
ARC
  5
81F0
  8
1
 10
3439.403843799671
 20
4269.7567246160042
 30
0.0
 40
480.0
 50
283.51374930575912
 51
118.9873723062171
  0
ARC
  5
81F1
  8
1
 10
1639.403843799671
 20
3569.7547246160038
 30
0.0
 40
220.0
 50
118.9873723062171
 51
283.51374930575912
  0
LINE
  5
81F2
  8
1
 10
3206.7877573315131
 20
4689.6254616234592
 30
0.0
 11
1532.788137501768
 21
3762.1945624110872
 31
0.0
  0
LINE
  5
81F3
  8
1
 10
3247.3874086347132
 20
4620.6551267590457
 30
0.0
 11
1567.3976806128121
 21
3701.3416254196441
 31
0.0
  0
LINE
  5
81F4
  8
1
 10
3534.9056061071242
 20
3881.324731345404
 30
0.0
 11
1675.2170046649619
 21
3424.0927271395281
 31
0.0
  0
LINE
  5
81F5
  8
1
 10
1690.813157223085
 20
3355.8456726959548
 30
0.0
 11
3551.5696185416532
 21
3803.046065881354
 31
0.0
  0
INSERT
  5
81F6
  8
0
  2
YA_N
 10
-496929.49741710431
 20
-121482.73141572109
 30
0.0
 41
60.0
 42
60.0
 43
60.0
  0
INSERT
  5
81F7
  8
0
  2
YA_N
 10
-496929.49741710431
 20
-121482.73141572109
 30
0.0
 41
60.0
 42
60.0
 43
60.0
  0
INSERT
  5
81F8
  8
0
  2
YA_N
 10
-496929.49741710431
 20
-121482.73141572109
 30
0.0
 41
60.0
 42
60.0
 43
60.0
  0
INSERT
  5
81F9
  8
0
  2
YA_N
 10
-496929.49741710431
 20
-121482.73141572109
 30
0.0
 41
60.0
 42
60.0
 43
60.0
  0
INSERT
  5
81FA
  8
0
  2
YA_N
 10
-476727.95008145273
 20
-35870.320395183313
 30
0.0
 41
60.0
 42
60.0
 43
60.0
  0
INSERT
  5
81FB
  8
0
  2
YA_N
 10
-496929.49741710431
 20
-121482.73141572109
 30
0.0
 41
60.0
 42
60.0
 43
60.0
  0
INSERT
  5
81FC
  8
0
  2
YA_N
 10
-491529.49741710431
 20
-116982.73141572109
 30
0.0
 41
960.0
 42
960.0
 43
960.0
  0
INSERT
  5
81FD
  8
0
  2
YA_N
 10
-301595.1517817144
 20
-30488.50856077225
 30
0.0
 41
60.0
 42
60.0
 43
60.0
  0
INSERT
  5
81FE
  8
0
  2
YA_N
 10
-301595.1517817144
 20
-30488.50856077225
 30
0.0
 41
60.0
 42
60.0
 43
60.0
  0
INSERT
  5
81FF
  8
0
  2
YA_N
 10
-281393.6044460627
 20
55123.902459765581
 30
0.0
 41
60.0
 42
60.0
 43
60.0
  0
INSERT
  5
8200
  8
0
  2
YA_N
 10
-241281.4729683123
 20
141713.99643987321
 30
0.0
 41
60.0
 42
60.0
 43
60.0
  0
INSERT
  5
8201
  8
0
  2
YA_N
 10
-58349.921970316092
 20
125953.83318058991
 30
0.0
 41
60.0
 42
60.0
 43
60.0
  0
INSERT
  5
8202
  8
0
  2
YA_N
 10
-491529.49741710431
 20
-116982.73141572109
 30
0.0
 41
960.0
 42
960.0
 43
960.0
  0
INSERT
  5
8207
  8
0
  2
YA_N
 10
-491529.49741710431
 20
-116982.73141572109
 30
0.0
 41
960.0
 42
960.0
 43
960.0
  0
INSERT
  5
8208
  8
0
  2
YA_N
 10
-491529.49741710431
 20
-116982.73141572109
 30
0.0
 41
960.0
 42
960.0
 43
960.0
  0
INSERT
  5
8209
  8
0
  2
YA_N
 10
-491529.49741710431
 20
-116982.73141572109
 30
0.0
 41
960.0
 42
960.0
 43
960.0
  0
INSERT
  5
820F
  8
0
  2
YA_N
 10
-505921.50572048483
 20
-130033.94958233699
 30
0.0
 41
73.846153860000001
 42
73.846153860000001
 43
73.846153860000001
  0
INSERT
  5
8210
  8
0
  2
YA_N
 10
-495886.4205693627
 20
-120453.5006997007
 30
0.0
 41
73.846153860000001
 42
73.846153860000001
 43
73.846153860000001
  0
INSERT
  5
8211
  8
0
  2
YA_N
 10
-495886.4205693627
 20
-120453.5006997007
 30
0.0
 41
73.846153860000001
 42
73.846153860000001
 43
73.846153860000001
  0
INSERT
  5
8212
  8
0
  2
YA_N
 10
-495886.4205693627
 20
-120453.5006997007
 30
0.0
 41
73.846153860000001
 42
73.846153860000001
 43
73.846153860000001
  0
INSERT
  5
8213
  8
0
  2
YA_N
 10
-495886.4205693627
 20
-120453.5006997007
 30
0.0
 41
73.846153860000001
 42
73.846153860000001
 43
73.846153860000001
  0
INSERT
  5
8214
  8
0
  2
YA_N
 10
-495886.4205693627
 20
-120453.5006997007
 30
0.0
 41
73.846153860000001
 42
73.846153860000001
 43
73.846153860000001
  0
INSERT
  5
8215
  8
0
  2
YA_N
 10
-460584.6302454067
 20
101024.6615193472
 30
0.0
 41
73.846153860000001
 42
73.846153860000001
 43
73.846153860000001
  0
INSERT
  5
8216
  8
0
  2
YA_N
 10
-187173.4488100475
 20
98921.522004149068
 30
0.0
 41
73.846153860000001
 42
73.846153860000001
 43
73.846153860000001
  0
INSERT
  5
8217
  8
0
  2
YA_N
 10
-187173.4488100475
 20
98921.522004149068
 30
0.0
 41
73.846153860000001
 42
73.846153860000001
 43
73.846153860000001
  0
INSERT
  5
8218
  8
0
  2
YA_N
 10
-187173.4488100475
 20
98921.522004149068
 30
0.0
 41
73.846153860000001
 42
73.846153860000001
 43
73.846153860000001
  0
INSERT
  5
8219
  8
0
  2
YA_N
 10
-187173.4488100475
 20
98921.522004149068
 30
0.0
 41
73.846153860000001
 42
73.846153860000001
 43
73.846153860000001
  0
INSERT
  5
821A
  8
0
  2
YA_N
 10
-10319.30862350377
 20
251700.8927503195
 30
0.0
 41
73.846153860000001
 42
73.846153860000001
 43
73.846153860000001
  0
INSERT
  5
821B
  8
0
  2
YA_N
 10
-10319.30862350377
 20
251700.8927503195
 30
0.0
 41
73.846153860000001
 42
73.846153860000001
 43
73.846153860000001
  0
INSERT
  5
821C
  8
0
  2
YA_N
 10
-239979.2409402864
 20
64603.224199982556
 30
0.0
 41
73.846153860000001
 42
73.846153860000001
 43
73.846153860000001
  0
INSERT
  5
821D
  8
0
  2
YA_N
 10
-545338.02646214946
 20
-169233.87324325339
 30
0.0
 41
73.846153860000001
 42
73.846153860000001
 43
73.846153860000001
  0
INSERT
  5
821E
  8
0
  2
YA_N
 10
-490569.49749144493
 20
-116022.731468101
 30
0.0
 41
960.00000017999992
 42
960.00000017999992
 43
960.00000017999992
  0
INSERT
  5
8220
  8
0
  2
YA_N
 10
-490569.49749144493
 20
-116022.731468101
 30
0.0
 41
960.00000017999992
 42
960.00000017999992
 43
960.00000017999992
  0
INSERT
  5
8225
  8
0
  2
YA_N
 10
-490569.49749144493
 20
-116022.731468101
 30
0.0
 41
960.00000017999992
 42
960.00000017999992
 43
960.00000017999992
  0
INSERT
  5
8226
  8
0
  2
YA_N
 10
-490569.49749144493
 20
-116022.731468101
 30
0.0
 41
960.00000017999992
 42
960.00000017999992
 43
960.00000017999992
  0
INSERT
  5
8227
  8
0
  2
YA_N
 10
-490569.49749144493
 20
-116022.731468101
 30
0.0
 41
960.00000017999992
 42
960.00000017999992
 43
960.00000017999992
  0
INSERT
  5
822C
  8
0
  2
YA_N
 10
-505921.50572048483
 20
-130033.94958233699
 30
0.0
 41
73.846153860000001
 42
73.846153860000001
 43
73.846153860000001
  0
INSERT
  5
822D
  8
0
  2
YA_N
 10
-495886.4205693627
 20
-120453.5006997007
 30
0.0
 41
73.846153860000001
 42
73.846153860000001
 43
73.846153860000001
  0
INSERT
  5
822E
  8
0
  2
YA_N
 10
-495886.4205693627
 20
-120453.5006997007
 30
0.0
 41
73.846153860000001
 42
73.846153860000001
 43
73.846153860000001
  0
INSERT
  5
822F
  8
0
  2
YA_N
 10
-495886.4205693627
 20
-120453.5006997007
 30
0.0
 41
73.846153860000001
 42
73.846153860000001
 43
73.846153860000001
  0
INSERT
  5
8230
  8
0
  2
YA_N
 10
-495886.4205693627
 20
-120453.5006997007
 30
0.0
 41
73.846153860000001
 42
73.846153860000001
 43
73.846153860000001
  0
INSERT
  5
8231
  8
0
  2
YA_N
 10
-495886.4205693627
 20
-120453.5006997007
 30
0.0
 41
73.846153860000001
 42
73.846153860000001
 43
73.846153860000001
  0
INSERT
  5
8232
  8
0
  2
YA_N
 10
-460584.6302454067
 20
101024.6615193472
 30
0.0
 41
73.846153860000001
 42
73.846153860000001
 43
73.846153860000001
  0
INSERT
  5
8233
  8
0
  2
YA_N
 10
-187173.4488100475
 20
98921.522004149068
 30
0.0
 41
73.846153860000001
 42
73.846153860000001
 43
73.846153860000001
  0
INSERT
  5
8234
  8
0
  2
YA_N
 10
-187173.4488100475
 20
98921.522004149068
 30
0.0
 41
73.846153860000001
 42
73.846153860000001
 43
73.846153860000001
  0
INSERT
  5
8235
  8
0
  2
YA_N
 10
-187173.4488100475
 20
98921.522004149068
 30
0.0
 41
73.846153860000001
 42
73.846153860000001
 43
73.846153860000001
  0
INSERT
  5
8236
  8
0
  2
YA_N
 10
-187173.4488100475
 20
98921.522004149068
 30
0.0
 41
73.846153860000001
 42
73.846153860000001
 43
73.846153860000001
  0
INSERT
  5
8237
  8
0
  2
YA_N
 10
-10319.30862350377
 20
251700.8927503195
 30
0.0
 41
73.846153860000001
 42
73.846153860000001
 43
73.846153860000001
  0
INSERT
  5
8238
  8
0
  2
YA_N
 10
-10319.30862350377
 20
251700.8927503195
 30
0.0
 41
73.846153860000001
 42
73.846153860000001
 43
73.846153860000001
  0
INSERT
  5
8239
  8
0
  2
YA_N
 10
-239979.2409402864
 20
64603.224199982556
 30
0.0
 41
73.846153860000001
 42
73.846153860000001
 43
73.846153860000001
  0
INSERT
  5
823A
  8
0
  2
YA_N
 10
-545338.02646214946
 20
-169233.87324325339
 30
0.0
 41
73.846153860000001
 42
73.846153860000001
 43
73.846153860000001
  0
INSERT
  5
823B
  8
0
  2
YA_N
 10
-490569.49749144493
 20
-116022.731468101
 30
0.0
 41
960.00000017999992
 42
960.00000017999992
 43
960.00000017999992
  0
INSERT
  5
823D
  8
0
  2
YA_N
 10
-490569.49749144493
 20
-116022.731468101
 30
0.0
 41
960.00000017999992
 42
960.00000017999992
 43
960.00000017999992
  0
INSERT
  5
8242
  8
0
  2
YA_N
 10
-490569.49749144493
 20
-116022.731468101
 30
0.0
 41
960.00000017999992
 42
960.00000017999992
 43
960.00000017999992
  0
INSERT
  5
8243
  8
0
  2
YA_N
 10
-490569.49749144493
 20
-116022.731468101
 30
0.0
 41
960.00000017999992
 42
960.00000017999992
 43
960.00000017999992
  0
INSERT
  5
8244
  8
0
  2
YA_N
 10
-490569.49749144493
 20
-116022.731468101
 30
0.0
 41
960.00000017999992
 42
960.00000017999992
 43
960.00000017999992
  0
INSERT
  5
8249
  8
0
  2
YA_N
 10
-40234.886668221901
 20
-7848.1971264864251
 30
0.0
 41
60.0
 42
60.0
 43
60.0
  0
INSERT
  5
824A
  8
0
  2
YA_N
 10
-40234.886668221901
 20
-7848.1971264864251
 30
0.0
 41
60.0
 42
60.0
 43
60.0
  0
POINT
  5
824B
  8
1
 10
4389.4038567029047
 20
2984.7567246160079
 30
0.0
  0
POINT
  5
824C
  8
1
 10
4389.4039050900174
 20
2909.7567246160229
 30
0.0
  0
POINT
  5
824D
  8
1
 10
4389.4038437996714
 20
3099.7567246160029
 30
0.0
  0
POINT
  5
824E
  8
1
 10
4389.4038567029047
 20
2984.7567246160079
 30
0.0
  0
DIMENSION
  5
824F
  8
3
  2
*D2
 10
8552.2166059594092
 20
3469.7537520900241
 30
0.0
 11
8472.2166059594074
 21
4269.753252090024
 31
0.0
 12
-559.76979222978844
 22
2542.510802843331
 32
0.0
 70
     0
  1
φ1600
 13
7997.1532558694817
 23
5069.7527520900239
 33
0.0
 14
7997.1532558694817
 24
3469.7537520900241
 34
0.0
 50
90.0
1001
ACAD
1000
DSTYLE
1002
{
1070
    40
1040
40.0
1002
}
  0
DIMENSION
  5
8250
  8
3
  2
*D3
 10
7997.1532558694817
 20
6412.7168677711379
 30
0.0
 11
7629.2550268671102
 21
6412.7168677711379
 31
0.0
 12
-559.76979222978844
 22
2542.510802843331
 32
0.0
 70
   128
  1
725
 13
7273.1492558694808
 23
6295.1790833874857
 33
0.0
 14
7997.1532558694817
 24
5134.7527520900239
 34
0.0
1001
ACAD
1000
DSTYLE
1002
{
1070
    40
1040
40.0
1002
}
  0
POINT
  5
8253
  8
1
 10
6293.1492558694799
 20
4749.7567520900238
 30
0.0
  0
POINT
  5
8254
  8
1
 10
7273.1492558694808
 20
6295.1790833874857
 30
0.0
  0
INSERT
  5
8255
  8
0
  2
YA_N
 10
26030.40180667274
 20
2277.0013034054532
 30
0.0
 41
2.399999999999999
 42
2.399999999999999
 43
2.399999999999999
  0
INSERT
  5
8257
  8
0
  2
YA_N
 10
17649.014873886539
 20
17157.365687250331
 30
0.0
 41
60.0
 42
60.0
 43
60.0
 50
270.0
  0
LINE
  5
8259
  8
2
 10
3439.403843799671
 20
2753.9770514917041
 30
0.0
 11
3439.403843799671
 21
6134.569471088028
 31
0.0
  0
LINE
  5
825A
  8
2
 10
1844.446259775759
 20
4269.7567246160042
 30
0.0
 11
4602.4775498395757
 21
4269.7567246160042
 31
0.0
  0
DIMENSION
  5
825B
  8
3
  2
*D4
 10
4484.4038437996714
 20
6330.7242342938189
 30
0.0
 11
3961.903843799671
 21
6410.7242342938189
 31
0.0
 12
-559.76979222978844
 22
2542.510802843331
 32
0.0
 70
     0
 13
3439.403843799671
 23
6134.569471088028
 33
0.0
 14
4484.4038437996714
 24
6029.7577246160045
 34
0.0
1001
ACAD
1000
DSTYLE
1002
{
1070
    40
1040
40.0
1002
}
  0
DIMENSION
  5
825C
  8
3
  2
*D5
 10
2068.403843799671
 20
6330.7242342938189
 30
0.0
 11
2753.903843799671
 21
6410.7242342938189
 31
0.0
 70
     0
 13
3439.403843799671
 23
6134.569471088028
 33
0.0
 14
2068.403843799671
 24
4385.7567246160042
 34
0.0
1001
ACAD
1000
DSTYLE
1002
{
1070
   287
1070
     4
1070
   287
1070
     4
1070
   287
1070
     4
1070
    40
1040
40.0
1070
    75
1070
     1
1070
   279
1070
     1
1070
   289
1070
     3
1002
}
  0
LINE
  5
825D
  8
1
 10
4389.4038437996787
 20
2909.7567246159829
 30
0.0
 11
4389.4038437996787
 21
2984.7567246160002
 31
0.0
  0
LINE
  5
825E
  8
1
 10
4389.4038437996787
 20
3099.7567246160029
 30
0.0
 11
4389.403843799686
 21
3249.7567246160029
 31
0.0
  0
DIMENSION
  5
825F
  8
3
  2
*D6
 10
3439.403843799671
 20
2599.5005372241121
 30
0.0
 11
3914.4038437996751
 21
2679.5005372241121
 31
0.0
 70
     0
 13
4389.4038437996787
 23
2909.7567246159829
 33
0.0
 14
3439.403843799671
 24
2753.9770514917041
 34
0.0
1001
ACAD
1000
DSTYLE
1002
{
1070
    40
1040
40.0
1002
}
  0
LINE
  5
8260
  8
1
 10
1289.403843799671
 20
2909.754724615339
 30
0.0
 11
1289.403843799671
 21
2984.754724615354
 31
0.0
  0
LINE
  5
8261
  8
1
 10
1289.4038437996751
 20
3099.7547246153581
 30
0.0
 11
1289.4038437996751
 21
3249.754724615359
 31
0.0
  0
DIMENSION
  5
8262
  8
3
  2
*D7
 10
1289.403843799671
 20
2599.5005372241121
 30
0.0
 11
2364.403843799671
 21
2679.5005372241121
 31
0.0
 70
     0
 13
3439.403843799671
 23
2753.9770514917041
 33
0.0
 14
1289.403843799671
 24
2909.7547246153381
 34
0.0
1001
ACAD
1000
DSTYLE
1002
{
1070
   287
1070
     4
1070
   287
1070
     4
1070
   287
1070
     4
1070
    40
1040
40.0
1070
    75
1070
     1
1070
   279
1070
     1
1070
   289
1070
     3
1002
}
  0
DIMENSION
  5
8264
  8
3
  2
*D8
 10
4847.8539965066147
 20
4314.7577246160045
 30
0.0
 11
4767.8539965066147
 21
5139.7577246160026
 31
0.0
 12
-559.76979222978844
 22
2542.510802843331
 32
0.0
 70
     0
 13
4484.4038437996714
 23
5964.7577246160045
 33
0.0
 14
4484.4038437996714
 24
4314.7577246160045
 34
0.0
 50
90.0
1001
ACAD
1000
DSTYLE
1002
{
1070
    40
1040
40.0
1002
}
  0
LINE
  5
8265
  8
1
 10
4484.4038437996714
 20
5964.7567246160042
 30
0.0
 11
3439.407879517908
 21
5868.2255898102594
 31
0.0
  0
DIMENSION
  5
8266
  8
3
  2
*D9
 10
5093.2304431736557
 20
4269.7567246160042
 30
0.0
 11
5013.2304431736557
 21
5117.2567246160042
 31
0.0
 12
-559.76979222978844
 22
2542.510802843331
 32
0.0
 70
     0
 13
4484.4038437996714
 23
5964.7567246160042
 33
0.0
 14
4602.4775498395757
 24
4269.7567246160042
 34
0.0
 50
90.0
1001
ACAD
1000
DSTYLE
1002
{
1070
    40
1040
40.0
1002
}
  0
DIMENSION
  5
8267
  8
3
  2
*D10
 10
5093.2304431736557
 20
3099.7567246160029
 30
0.0
 11
5013.2304431736547
 21
3684.7567246160038
 31
0.0
 70
     0
 13
4602.4775498395757
 23
4269.7567246160042
 33
0.0
 14
4389.4038437996787
 24
3099.7567246160029
 34
0.0
 50
90.0
1001
ACAD
1000
DSTYLE
1002
{
1070
   287
1070
     4
1070
   287
1070
     4
1070
   287
1070
     4
1070
    40
1040
40.0
1070
    75
1070
     1
1070
   279
1070
     1
1070
   289
1070
     3
1002
}
  0
DIMENSION
  5
826B
  8
3
  2
*D11
 10
1289.4038437996751
 20
6599.6679987248681
 30
0.0
 11
2886.9038437996728
 21
6679.6679987248681
 31
0.0
 12
-559.76979222978844
 22
2542.510802843331
 32
0.0
 70
     0
 13
4484.4038437996714
 23
6069.7577246160026
 33
0.0
 14
1289.4038437996751
 24
3249.754724615359
 34
0.0
1001
ACAD
1000
DSTYLE
1002
{
1070
    40
1040
40.0
1002
}
  0
LINE
  5
826C
  8
1
 10
7942.1492558694799
 20
3259.754752090023
 30
0.0
 11
7942.1492558694799
 21
3109.7537520900241
 31
0.0
  0
LINE
  5
826D
  8
1
 10
7863.1492558694808
 20
3259.7547520900239
 30
0.0
 11
7863.149255869489
 21
5964.7567520900266
 31
0.0
  0
LINE
  5
826E
  8
1
 10
6683.1492558694799
 20
3259.754752090023
 30
0.0
 11
6683.1492558694799
 21
5964.7567520900247
 31
0.0
  0
DIMENSION
  5
826F
  8
3
  2
*D12
 10
7863.149255869489
 20
6120.4584093090598
 30
0.0
 11
7273.1492558694854
 21
6200.4584093090598
 31
0.0
 12
-559.76979222978844
 22
2542.510802843331
 32
0.0
 70
     0
 13
6683.1492558694799
 23
5964.7567520900247
 33
0.0
 14
7863.149255869489
 24
5964.7567520900266
 34
0.0
1001
ACAD
1000
DSTYLE
1002
{
1070
    40
1040
40.0
1002
}
  0
DIMENSION
  5
8270
  8
3
  2
*D13
 10
7273.1492558694808
 20
2606.7517203552188
 30
0.0
 11
7607.6492558694808
 21
2686.7517203552202
 31
0.0
 70
     0
 13
7942.1492558694799
 23
2919.7537520900059
 33
0.0
 14
7273.1492558694808
 24
2686.662149314287
 34
0.0
1001
ACAD
1000
DSTYLE
1002
{
1070
    40
1040
40.0
1002
}
  0
LINE
  5
8271
  8
1
 10
6342.1492558694808
 20
2919.75475208938
 30
0.0
 11
6342.1492558694808
 21
2994.754752089395
 31
0.0
  0
LINE
  5
8272
  8
1
 10
6342.1492558694808
 20
3109.7547520893968
 30
0.0
 11
6342.1492558694808
 21
3259.7547520900239
 31
0.0
  0
DIMENSION
  5
8273
  8
3
  2
*D14
 10
6342.1492558694808
 20
2606.7517203552188
 30
0.0
 11
6807.6492558694808
 21
2686.7517203552202
 31
0.0
 70
     0
 13
7273.1492558694808
 23
2686.662149314287
 33
0.0
 14
6342.1492558694808
 24
2919.75475208938
 34
0.0
1001
ACAD
1000
DSTYLE
1002
{
1070
   287
1070
     4
1070
   287
1070
     4
1070
   287
1070
     4
1070
    40
1040
40.0
1070
    75
1070
     1
1070
   279
1070
     1
1070
   289
1070
     3
1002
}
  0
LINE
  5
8275
  8
2
 10
1903.6212404242899
 20
8722.6160481785537
 30
0.0
 11
4414.6004205051504
 21
8722.6160481785537
 31
0.0
  0
LINE
  5
8276
  8
1
 10
2489.403843799671
 20
9391.6160481785555
 30
0.0
 11
4389.4038437996714
 21
9391.6160481785555
 31
0.0
  0
LINE
  5
8277
  8
1
 10
1289.4038437996669
 20
7791.6160481785528
 30
0.0
 11
4389.4038437996714
 21
7791.6160481785528
 31
0.0
  0
LINE
  5
8278
  8
1
 10
4389.4038437996714
 20
7791.6160481785528
 30
0.0
 11
4389.4038437996714
 21
8132.6160481785528
 31
0.0
  0
LINE
  5
8279
  8
1
 10
1289.4038437996669
 20
7791.6160481785546
 30
0.0
 11
1289.4038437996669
 21
8891.6160481785537
 31
0.0
  0
LINE
  5
827A
  8
1
 10
1289.4038437996669
 20
8891.6160481785537
 30
0.0
 11
2068.403843799671
 21
8891.6160481785537
 31
0.0
  0
LINE
  5
827B
  8
1
 10
2489.403843799671
 20
9312.6160481785555
 30
0.0
 11
2489.403843799671
 21
9391.6160481785555
 31
0.0
  0
LINE
  5
827C
  8
1
 10
4484.4038437996714
 20
8067.6160481785546
 30
0.0
 11
4484.4038437996778
 21
9377.6160481785537
 31
0.0
  0
LINE
  5
827D
  8
1
 10
2068.403843799671
 20
9312.6160481785519
 30
0.0
 11
4484.4038437996714
 21
9312.6160481785519
 31
0.0
  0
LINE
  5
827E
  8
1
 10
2068.403843799671
 20
8132.6160481785528
 30
0.0
 11
4484.4038437996714
 21
8132.6160481785528
 31
0.0
  0
LINE
  5
827F
  8
1
 10
2068.403843799671
 20
8132.6160481785528
 30
0.0
 11
2068.403843799671
 21
9312.6160481785519
 31
0.0
  0
LINE
  5
8280
  8
1
 10
4389.4038437996714
 20
9312.6160481785519
 30
0.0
 11
4389.4038437996714
 21
9391.6160481785555
 31
0.0
  0
DIMENSION
  5
8281
  8
3
  2
*D15
 10
6293.1492558694799
 20
6412.7168677711379
 30
0.0
 11
6783.1492558694808
 21
6592.716867771137
 31
0.0
 70
     0
  1
MAX\P1080
 13
7273.1492558694808
 23
6295.1790833874857
 33
0.0
 14
6293.1492558694799
 24
4749.7567520900238
 34
0.0
1001
ACAD
1000
DSTYLE
1002
{
1070
   287
1070
     4
1070
   287
1070
     4
1070
   287
1070
     4
1070
    40
1040
40.0
1070
    75
1070
     1
1070
   279
1070
     1
1070
   289
1070
     3
1002
}
  0
LINE
  5
8282
  8
1
 10
3489.403843799671
 20
7872.6160481785528
 30
0.0
 11
3489.4038437996642
 21
8132.6160481785528
 31
0.0
  0
LINE
  5
8283
  8
1
 10
3389.403843799671
 20
7872.6160481785528
 30
0.0
 11
3389.403843799671
 21
8132.6160481785528
 31
0.0
  0
LINE
  5
8284
  8
1
 10
1419.403843799671
 20
7722.6160481785537
 30
0.0
 11
1419.403843799671
 21
7912.6160481785528
 31
0.0
  0
LINE
  5
8285
  8
1
 10
3919.403843799671
 20
7722.6160481785537
 30
0.0
 11
3919.403843799671
 21
7912.6160481785528
 31
0.0
  0
LINE
  5
8286
  8
1
 10
3039.402843799674
 20
7772.61604817855
 30
0.0
 11
3839.403843799671
 21
7772.6160481785537
 31
0.0
  0
LINE
  5
8287
  8
1
 10
3839.403843799671
 20
7872.6160481785537
 30
0.0
 11
3039.402843799674
 21
7872.6160481785491
 31
0.0
  0
LINE
  5
8289
  8
1
 10
3919.403843799671
 20
7912.6160481785528
 30
0.0
 11
3919.403843799671
 21
7722.6160481785537
 31
0.0
  0
LINE
  5
828A
  8
1
 10
1419.403843799671
 20
7912.6160481785528
 30
0.0
 11
3919.403843799671
 21
7912.6160481785528
 31
0.0
  0
LINE
  5
828B
  8
1
 10
1419.403843799678
 20
7722.6159008774039
 30
0.0
 11
3919.403843799671
 21
7722.6160481785537
 31
0.0
  0
LINE
  5
828C
  8
2
 10
3439.403843799671
 20
9201.06363452203
 30
0.0
 11
3439.403843799671
 21
7684.5150937260523
 31
0.0
  0
LINE
  5
828D
  8
1
 10
1489.403843799678
 20
7872.615900877403
 30
0.0
 11
1789.403843799678
 21
7872.6159008774048
 31
0.0
  0
LINE
  5
828E
  8
1
 10
1489.403843799678
 20
7772.615900877403
 30
0.0
 11
1789.403843799678
 21
7772.6159008774039
 31
0.0
  0
LINE
  5
828F
  8
1
 10
1419.403843799671
 20
7912.6160481785528
 30
0.0
 11
1419.403843799678
 21
7722.6159008774039
 31
0.0
  0
LINE
  5
8290
  8
1
 10
1489.403843799678
 20
7772.615900877403
 30
0.0
 11
1489.403843799678
 21
7872.615900877403
 31
0.0
  0
LINE
  5
8291
  8
2
 10
1639.4038437996569
 20
8718.1906513906906
 30
0.0
 11
1639.403843799678
 21
7679.859900877409
 31
0.0
  0
LINE
  5
8292
  8
1
 10
1789.403843799678
 20
7872.6159008774048
 30
0.0
 11
1789.403843799678
 21
7772.6159008774039
 31
0.0
  0
LINE
  5
8293
  8
1
 10
3039.402843799674
 20
7872.6160481785491
 30
0.0
 11
3039.402843799674
 21
7772.61604817855
 31
0.0
  0
LINE
  5
8294
  8
1
 10
3839.403843799671
 20
7772.6160481785537
 30
0.0
 11
3839.403843799671
 21
7872.6160481785537
 31
0.0
  0
LINE
  5
8295
  8
1
 10
1489.403843799671
 20
8647.1159008774048
 30
0.0
 11
1789.403843799671
 21
8647.1159008774048
 31
0.0
  0
LINE
  5
8296
  8
1
 10
1489.403843799671
 20
8059.615900877403
 30
0.0
 11
1789.403843799671
 21
8059.6159008774048
 31
0.0
  0
LINE
  5
8297
  8
1
 10
1489.403843799671
 20
8647.1159008774048
 30
0.0
 11
1489.403843799671
 21
8059.615900877403
 31
0.0
  0
LINE
  5
8298
  8
1
 10
1789.403843799671
 20
8647.1159008774048
 30
0.0
 11
1789.403843799671
 21
8059.6159008774048
 31
0.0
  0
LINE
  5
8299
  8
1
 10
1676.903843799671
 20
8059.6159008774048
 30
0.0
 11
1676.903843799678
 21
7872.6159008774048
 31
0.0
  0
LINE
  5
829A
  8
1
 10
1601.903843799678
 20
8059.6159008774048
 30
0.0
 11
1601.903843799678
 21
7872.615900877403
 31
0.0
  0
LINE
  5
829B
  8
1
 10
6683.1492558694799
 20
3617.9417520900238
 30
0.0
 11
6483.1485612125107
 21
3617.9417520900238
 31
0.0
  0
LINE
  5
829C
  8
1
 10
6683.1492558694799
 20
3542.9417520900229
 30
0.0
 11
6483.1485151808893
 21
3542.9417520900229
 31
0.0
  0
DIMENSION
  5
829D
  8
3
  2
*D16
 10
2489.403843799671
 20
9667.9326908819203
 30
0.0
 11
1889.4038437996689
 21
9747.9326908819203
 31
0.0
 12
-559.76979222978844
 22
1627.206921335433
 32
0.0
 70
     0
 13
1289.4038437996669
 23
8891.6160481785537
 33
0.0
 14
2489.403843799671
 24
9391.6160481785555
 34
0.0
1001
ACAD
1000
DSTYLE
1002
{
1070
    40
1040
40.0
1002
}
  0
DIMENSION
  5
829E
  8
3
  2
*D17
 10
4389.4038437996714
 20
9667.9326908819203
 30
0.0
 11
3439.403843799671
 21
9747.9326908819203
 31
0.0
 70
     0
 13
2489.403843799671
 23
9391.6160481785555
 33
0.0
 14
4389.4038437996714
 24
9391.6160481785555
 34
0.0
1001
ACAD
1000
DSTYLE
1002
{
1070
   287
1070
     4
1070
   287
1070
     4
1070
   287
1070
     4
1070
    40
1040
40.0
1070
    75
1070
     1
1070
   279
1070
     1
1070
   289
1070
     3
1002
}
  0
DIMENSION
  5
829F
  8
3
  2
*D18
 10
951.69781120735195
 20
7791.6160481785528
 30
0.0
 11
871.69781120735206
 21
8341.6160481785537
 31
0.0
 12
-559.76979222978844
 22
1627.206921335433
 32
0.0
 70
     0
 13
1289.4038437996669
 23
8891.6160481785537
 33
0.0
 14
1289.4038437996669
 24
7791.6160481785528
 34
0.0
 50
90.0
1001
ACAD
1000
DSTYLE
1002
{
1070
    40
1040
40.0
1002
}
  0
DIMENSION
  5
82A0
  8
3
  2
*D19
 10
4819.3552507224313
 20
7791.6160481785528
 30
0.0
 11
4739.3552507224313
 21
8591.6160481785537
 31
0.0
 12
-559.76979222978844
 22
1627.206921335433
 32
0.0
 70
     0
 13
4389.4038437996714
 23
9391.6160481785555
 33
0.0
 14
4389.4038437996714
 24
7791.6160481785528
 34
0.0
 50
90.0
1001
ACAD
1000
DSTYLE
1002
{
1070
    40
1040
40.0
1002
}
  0
DIMENSION
  5
82A1
  8
3
  2
*D20
 10
4389.4038437996714
 20
7308.6234801698201
 30
0.0
 11
2839.4038437996701
 21
7388.6234801698192
 31
0.0
 12
-559.76979222978844
 22
1627.206921335433
 32
0.0
 70
     0
 13
1289.4038437996669
 23
7791.6160481785528
 33
0.0
 14
4389.4038437996714
 24
7791.6160481785528
 34
0.0
1001
ACAD
1000
DSTYLE
1002
{
1070
    40
1040
40.0
1002
}
  0
LINE
  5
82A2
  8
1
 10
7863.149255869489
 20
5964.7567520900266
 30
0.0
 11
6683.1492558694799
 21
4314.7567520900238
 31
0.0
  0
LINE
  5
82A3
  8
1
 10
6683.1492558694799
 20
5964.7567520900247
 30
0.0
 11
7863.1492558694808
 21
4314.7567520900257
 31
0.0
  0
LINE
  5
84D2
  8
4
 10
8325.0
 20
2250.0
 30
0.0
 11
8325.0
 21
1350.0
 31
0.0
  0
LINE
  5
84D3
  8
4
 10
5175.0
 20
2250.0
 30
0.0
 11
5175.0
 21
1350.0
 31
0.0
  0
LINE
  5
84D4
  8
4
 10
2925.0
 20
2250.0
 30
0.0
 11
2925.0
 21
1350.0
 31
0.0
  0
LINE
  5
84D7
  8
4
 10
2925.0
 20
1350.0
 30
0.0
 11
8325.0
 21
1350.0
 31
0.0
  0
LINE
  5
84D8
  8
4
 10
2925.0
 20
1800.0
 30
0.0
 11
8325.0
 21
1800.0
 31
0.0
  0
TEXT
  5
84D9
  8
4
 10
3098.259363811057
 20
1941.943616399758
 30
0.0
 40
225.0
  1
機器名称
  0
TEXT
  5
84DA
  8
4
 10
3088.1614771115892
 20
1447.403205294049
 30
0.0
 40
225.0
  1
機器型番
  0
TEXT
  5
84DB
  8
4
 10
5299.5543546944918
 20
1901.5729603090581
 30
0.0
 40
225.0
  1
ミツヤ多翼送風機
  0
TEXT
  5
84DC
  8
4
 10
5339.9452301346628
 20
1427.218129259745
 30
0.0
 40
225.0
  1
MFE#10-4
  0
TEXT
  5
84DE
  8
4
 10
3694.8372465391649
 20
10725.429785996321
 30
0.0
 40
242.99999999999989
  1
床置防振ベット
  0
TEXT
  5
84DF
  8
4
 10
1422.7541699825081
 20
11402.46439289684
 30
0.0
 40
324.0
  1
ベルト駆動式片吸込両持排煙ファン
  0
LINE
  5
84E0
  8
4
 10
1125.0
 20
11112.33939419162
 30
0.0
 11
8325.0
 21
11112.33939419162
 31
0.0
  0
LINE
  5
84E1
  8
4
 10
1125.0
 20
12012.33939419162
 30
0.0
 11
8325.0
 21
12012.33939419162
 31
0.0
  0
LINE
  5
84E2
  8
4
 10
2925.0
 20
2250.0
 30
0.0
 11
8325.0
 21
2250.0
 31
0.0
  0
LINE
  5
84E3
  8
4
 10
1125.0
 20
12012.33939419162
 30
0.0
 11
1125.0
 21
11112.33939419162
 31
0.0
  0
TEXT
  5
84E4
  8
4
 10
1733.4725014470059
 20
10720.437648958539
 30
0.0
 40
242.99999999999989
  1
右回転右横向
  0
TEXT
  5
84E5
  8
4
 10
6610.3630166218027
 20
12177.274866728891
 30
0.0
 40
252.0
  1
No.
  0
TEXT
  5
84E6
  8
4
 10
6101.7382278514779
 20
10725.429785996321
 30
0.0
 40
242.99999999999989
  1
縮尺：1/45
  0
LINE
  5
84E7
  8
4
 10
8325.0
 20
12012.33939419162
 30
0.0
 11
8325.0
 21
11112.33939419162
 31
0.0
  0
LINE
  5
84E8
  8
4
 10
9450.0
 20
13275.0
 30
0.0
 11
9450.0
 21
13275.0
 31
0.0
  0
LINE
  5
84E9
  8
4
 10
6482.7784006193906
 20
12065.686124064299
 30
0.0
 11
6482.7784006193906
 21
12539.935176973881
 31
0.0
  0
LINE
  5
84EA
  8
4
 10
6482.7784006193906
 20
12539.935176973881
 30
0.0
 11
8325.0
 21
12539.935176973881
 31
0.0
  0
LINE
  5
84EB
  8
4
 10
8325.0
 20
12539.935176973881
 30
0.0
 11
8325.0
 21
12065.686124064299
 31
0.0
  0
LINE
  5
84EC
  8
4
 10
8325.0
 20
12065.686124064299
 30
0.0
 11
6482.7784006193906
 21
12065.686124064299
 31
0.0
  0
LINE
  5
84ED
  8
4
 10
0.0
 20
0.0
 30
0.0
 11
0.0
 21
13275.0
 31
0.0
  0
LINE
  5
84EE
  8
4
 10
0.0
 20
13275.0
 30
0.0
 11
9450.0
 21
13275.0
 31
0.0
  0
LINE
  5
84EF
  8
4
 10
9450.0
 20
13275.0
 30
0.0
 11
9450.0
 21
0.0
 31
0.0
  0
LINE
  5
84F0
  8
4
 10
9450.0
 20
0.0
 30
0.0
 11
0.0
 21
0.0
 31
0.0
  0
DIMENSION
  5
867E
  8
3
  2
*D22
 10
5093.2304431736557
 20
2984.7567246160079
 30
0.0
 11
5366.4447288879401
 21
3213.5781531874341
 31
0.0
 70
     0
  1
(<>)
 13
4389.4038437996787
 23
3099.7567246160029
 33
0.0
 14
4389.4038567029047
 24
2984.7567246160079
 34
0.0
 50
90.0
1001
ACAD
1000
DSTYLE
1002
{
1070
   287
1070
     4
1070
   287
1070
     4
1070
   287
1070
     4
1070
     7
1000
NONE
1070
     6
1000
NONE
1070
    40
1040
45.0
1070
   143
1040
0.039
1070
   172
1070
     1
1070
   271
1070
     0
1070
   279
1070
     1
1070
   288
1070
     1
1002
}
  0
DIMENSION
  5
8690
  8
3
  2
*D23
 10
5093.2304431736557
 20
2909.7567246159829
 30
0.0
 11
5101.6380546958817
 21
2626.2457372573949
 31
0.0
 70
   128
 13
4389.4038567029047
 23
2984.7567246160079
 33
0.0
 14
4389.4038437996787
 24
2909.7567246159829
 34
0.0
 50
90.0
1001
ACAD
1000
DSTYLE
1002
{
1070
   287
1070
     4
1070
   287
1070
     4
1070
   287
1070
     4
1070
     6
1000
DOTSMALL
1070
    40
1040
45.0
1070
   143
1040
0.039
1070
   172
1070
     1
1070
   271
1070
     0
1070
   279
1070
     1
1070
   288
1070
     1
1002
}
  0
ENDSEC
  0
EOF
