  0
SECTION
  2
HEADER
  9
$ACADVER
  1
AC1009
  9
$INSBASE
 10
0.0
 20
0.0
 30
0.0
  9
$EXTMIN
 10
0.0
 20
0.0
 30
0.0
  9
$EXTMAX
 10
9450.0
 20
13275.0
 30
0.0
  9
$LIMMIN
 10
0.0
 20
0.0
  9
$LIMMAX
 10
297.0
 20
210.0
  9
$ORTHOMODE
 70
     0
  9
$REGENMODE
 70
     1
  9
$FILLMODE
 70
     0
  9
$QTEXTMODE
 70
     0
  9
$MIRRTEXT
 70
     1
  9
$DRAGMODE
 70
     2
  9
$LTSCALE
 40
100.0
  9
$OSMODE
 70
    37
  9
$ATTMODE
 70
     1
  9
$TEXTSIZE
 40
180.0
  9
$TRACEWID
 40
0.05
  9
$TEXTSTYLE
  7
STANDARD
  9
$CLAYER
  8
3
  9
$CELTYPE
  6
BYLAYER
  9
$CECOLOR
 62
   256
  9
$DIMSCALE
 40
45.0
  9
$DIMASZ
 40
2.0
  9
$DIMEXO
 40
0.5
  9
$DIMDLI
 40
10.0
  9
$DIMRND
 40
0.0
  9
$DIMDLE
 40
0.0
  9
$DIMEXE
 40
1.0
  9
$DIMTP
 40
1.0
  9
$DIMTM
 40
1.0
  9
$DIMTXT
 40
3.0
  9
$DIMCEN
 40
0.0
  9
$DIMTSZ
 40
0.0
  9
$DIMTOL
 70
     0
  9
$DIMLIM
 70
     0
  9
$DIMTIH
 70
     0
  9
$DIMTOH
 70
     0
  9
$DIMSE1
 70
     0
  9
$DIMSE2
 70
     0
  9
$DIMTAD
 70
     1
  9
$DIMZIN
 70
     8
  9
$DIMBLK
  1

  9
$DIMASO
 70
     1
  9
$DIMSHO
 70
     1
  9
$DIMPOST
  1

  9
$DIMAPOST
  1

  9
$DIMALT
 70
     0
  9
$DIMALTD
 70
     2
  9
$DIMALTF
 40
0.039
  9
$DIMLFAC
 40
1.0
  9
$DIMTOFL
 70
     1
  9
$DIMTVP
 40
0.0
  9
$DIMTIX
 70
     0
  9
$DIMSOXD
 70
     0
  9
$DIMSAH
 70
     1
  9
$DIMBLK1
  1
OPEN
  9
$DIMBLK2
  1
OPEN
  9
$DIMSTYLE
  2
IGA
  9
$DIMCLRD
 70
     0
  9
$DIMCLRE
 70
     0
  9
$DIMCLRT
 70
     0
  9
$DIMTFAC
 40
10.0
  9
$DIMGAP
 40
1.0
  9
$LUNITS
 70
     2
  9
$LUPREC
 70
     3
  9
$SKETCHINC
 40
0.1
  9
$FILLETRAD
 40
50.0
  9
$AUNITS
 70
     0
  9
$AUPREC
 70
     0
  9
$MENU
  1
acad
  9
$ELEVATION
 40
0.0
  9
$PELEVATION
 40
0.0
  9
$THICKNESS
 40
0.0
  9
$LIMCHECK
 70
     0
  9
$BLIPMODE
 70
     0
  9
$CHAMFERA
 40
0.5
  9
$CHAMFERB
 40
0.5
  9
$SKPOLY
 70
     0
  9
$TDCREATE
 40
2451488.6150828698
  9
$TDUPDATE
 40
2454953.833877279
  9
$TDINDWG
 40
0.0125094213
  9
$TDUSRTIMER
 40
0.0125094213
  9
$USRTIMER
 70
     1
  9
$ANGBASE
 50
0.0
  9
$ANGDIR
 70
     0
  9
$PDMODE
 70
     0
  9
$PDSIZE
 40
0.0
  9
$PLINEWID
 40
0.0
  9
$COORDS
 70
     1
  9
$SPLFRAME
 70
     0
  9
$SPLINETYPE
 70
     6
  9
$SPLINESEGS
 70
     8
  9
$ATTDIA
 70
     0
  9
$ATTREQ
 70
     1
  9
$HANDLING
 70
 10241
  9
$HANDSEED
  5
830D
  9
$SURFTAB1
 70
     6
  9
$SURFTAB2
 70
     6
  9
$SURFTYPE
 70
     6
  9
$SURFU
 70
     6
  9
$SURFV
 70
     6
  9
$UCSNAME
  2

  9
$UCSORG
 10
0.0
 20
0.0
 30
0.0
  9
$UCSXDIR
 10
1.0
 20
0.0
 30
0.0
  9
$UCSYDIR
 10
0.0
 20
1.0
 30
0.0
  9
$PUCSNAME
  2

  9
$PUCSORG
 10
0.0
 20
0.0
 30
0.0
  9
$PUCSXDIR
 10
1.0
 20
0.0
 30
0.0
  9
$PUCSYDIR
 10
0.0
 20
1.0
 30
0.0
  9
$USERI1
 70
     0
  9
$USERI2
 70
     0
  9
$USERI3
 70
     0
  9
$USERI4
 70
     0
  9
$USERI5
 70
     0
  9
$USERR1
 40
0.0
  9
$USERR2
 40
0.0
  9
$USERR3
 40
0.0
  9
$USERR4
 40
0.0
  9
$USERR5
 40
0.0
  9
$WORLDVIEW
 70
     1
  9
$SHADEDGE
 70
     3
  9
$SHADEDIF
 70
    70
  9
$TILEMODE
 70
     1
  9
$MAXACTVP
 70
    16
  9
$PLIMCHECK
 70
     0
  9
$PEXTMIN
 10
1.0000000000000000E+020
 20
1.0000000000000000E+020
 30
1.0000000000000000E+020
  9
$PEXTMAX
 10
-1.0000000000000000E+020
 20
-1.0000000000000000E+020
 30
-1.0000000000000000E+020
  9
$PLIMMIN
 10
0.0
 20
0.0
  9
$PLIMMAX
 10
12.0
 20
9.0
  9
$UNITMODE
 70
     0
  9
$VISRETAIN
 70
     0
  9
$PLINEGEN
 70
     0
  9
$PSLTSCALE
 70
     1
  0
ENDSEC
  0
SECTION
  2
TABLES
  0
TABLE
  2
VPORT
 70
     2
  0
VPORT
  2
*ACTIVE
 70
     0
 10
0.0
 20
0.0
 11
1.0
 21
1.0
 12
13562.960954446849
 22
9011.2450861320631
 13
0.0
 23
0.0
 14
10.0
 24
10.0
 15
10.0
 25
10.0
 16
0.0
 26
0.0
 36
1.0
 17
0.0
 27
0.0
 37
0.0
 40
18022.490172264119
 41
1.5051150895140659
 42
50.0
 43
0.0
 44
0.0
 50
0.0
 51
0.0
 71
     0
 72
   100
 73
     1
 74
     0
 75
     0
 76
     0
 77
     0
 78
     0
  0
ENDTAB
  0
TABLE
  2
LTYPE
 70
     2
  0
LTYPE
  2
CONTINUOUS
 70
     0
  3
Solid line
 72
    65
 73
     0
 40
0.0
  0
LTYPE
  2
CENTER
 70
     0
  3
____ _ ____ _ ____ _ ____ _ ____ _ ____ _ ____ 
 72
    65
 73
     4
 40
2.0
 49
1.25
 49
-0.25
 49
0.25
 49
-0.25
  0
ENDTAB
  0
TABLE
  2
LAYER
 70
     6
  0
LAYER
  2
0
 70
     0
 62
     7
  6
CONTINUOUS
  0
LAYER
  2
3
 70
     0
 62
     2
  6
CONTINUOUS
  0
LAYER
  2
2
 70
     0
 62
     3
  6
CENTER
  0
LAYER
  2
1
 70
     0
 62
     4
  6
CONTINUOUS
  0
LAYER
  2
4
 70
     0
 62
     7
  6
CONTINUOUS
  0
LAYER
  2
DEFPOINTS
 70
     0
 62
     7
  6
CONTINUOUS
  0
ENDTAB
  0
TABLE
  2
STYLE
 70
     1
  0
STYLE
  2
STANDARD
 70
     0
 40
0.0
 41
1.0
 50
0.0
 71
     0
 42
180.0
  3
simplex.shx
  4
extfont.shx
  0
ENDTAB
  0
TABLE
  2
VIEW
 70
     0
  0
ENDTAB
  0
TABLE
  2
UCS
 70
     0
  0
ENDTAB
  0
TABLE
  2
APPID
 70
     1
  0
APPID
  2
ACAD
 70
     0
  0
ENDTAB
  0
TABLE
  2
DIMSTYLE
 70
     2
  0
DIMSTYLE
  2
IGA
 70
     0
  3

  4

  5

  6
OPEN
  7
OPEN
 40
2.0
 41
2.0
 42
0.5
 43
10.0
 44
1.0
 45
0.0
 46
0.0
 47
1.0
 48
1.0
140
3.0
141
0.0
142
0.0
143
0.03937
144
1.0
145
0.0
146
10.0
147
1.0
 71
     0
 72
     0
 73
     0
 74
     0
 75
     0
 76
     0
 77
     1
 78
     8
170
     0
171
     2
172
     0
173
     1
174
     0
175
     0
176
     0
177
     0
178
     0
  0
DIMSTYLE
  2
MATSU
 70
     0
  3

  4

  5

  6
OPEN
  7
OPEN
 40
1.0
 41
2.0
 42
1.0
 43
10.0
 44
1.0
 45
0.0
 46
0.0
 47
0.0
 48
0.0
140
3.0
141
0.0
142
0.0
143
0.03937
144
1.0
145
0.0
146
1.0
147
0.5
 71
     0
 72
     0
 73
     0
 74
     0
 75
     0
 76
     0
 77
     1
 78
     8
170
     0
171
     2
172
     1
173
     1
174
     0
175
     0
176
   256
177
   256
178
   256
  0
ENDTAB
  0
ENDSEC
  0
SECTION
  2
BLOCKS
  0
BLOCK
  8
0
  2
$MODEL_SPACE
 70
     0
 10
0.0
 20
0.0
 30
0.0
  3
$MODEL_SPACE
  1

  0
ENDBLK
  5
1B
  8
0
  0
BLOCK
 67
     1
  8
0
  2
$PAPER_SPACE
 70
     0
 10
0.0
 20
0.0
 30
0.0
  3
$PAPER_SPACE
  1

  0
ENDBLK
  5
18
 67
     1
  8
0
  0
BLOCK
  8
0
  2
_OPEN
 70
     0
 10
0.0
 20
0.0
 30
0.0
  3
_OPEN
  1

  0
LINE
  5
79FD
  8
0
  6
BYBLOCK
 62
     0
 10
-1.0
 20
0.1666666666666666
 30
0.0
 11
0.0
 21
0.0
 31
0.0
  0
LINE
  5
79FE
  8
0
  6
BYBLOCK
 62
     0
 10
0.0
 20
0.0
 30
0.0
 11
-1.0
 21
-0.1666666666666666
 31
0.0
  0
LINE
  5
79FF
  8
0
  6
BYBLOCK
 62
     0
 10
0.0
 20
0.0
 30
0.0
 11
-1.0
 21
0.0
 31
0.0
  0
ENDBLK
  5
7A01
  8
0
  0
BLOCK
  8
0
  2
YA_N
 70
     0
 10
0.0
 20
0.0
 30
0.0
  3
YA_N
  1

  0
ENDBLK
  5
7A0C
  8
0
  0
BLOCK
  8
0
  2
*D2
 70
     1
 10
0.0
 20
0.0
 30
0.0
  3
*D2
  1

  0
LINE
  5
7E5B
  8
0
  6
BYBLOCK
 10
7177.0227158423368
 20
2824.044956925622
 30
0.0
 11
7732.0860659322643
 21
2824.044956925622
 31
0.0
  0
LINE
  5
7E5C
  8
0
  6
BYBLOCK
 10
7177.0227158423368
 20
1224.0459569256211
 30
0.0
 11
7732.0860659322643
 21
1224.0459569256211
 31
0.0
  0
LINE
  5
7E5D
  8
0
  6
BYBLOCK
 10
7692.0860659322643
 20
2744.044956925622
 30
0.0
 11
7692.0860659322643
 21
1304.0459569256211
 31
0.0
  0
INSERT
  5
7E5E
  8
0
  6
BYBLOCK
  2
_OPEN
 10
7692.0860659322643
 20
2824.044956925622
 30
0.0
 41
80.0
 42
80.0
 43
80.0
 50
90.0
  0
INSERT
  5
7E5F
  8
0
  6
BYBLOCK
  2
_OPEN
 10
7692.0860659322643
 20
1224.0459569256211
 30
0.0
 41
80.0
 42
80.0
 43
80.0
 50
270.0
  0
TEXT
  5
7E60
  8
3
 10
7672.0860659322643
 20
1764.045456925621
 30
0.0
 40
120.0
  1
φ1600
 50
90.0
  0
POINT
  5
7E61
  8
DEFPOINTS
  6
BYBLOCK
 62
     0
 10
7137.0227158423377
 20
2824.044956925622
 30
0.0
  0
POINT
  5
7E62
  8
DEFPOINTS
  6
BYBLOCK
 62
     0
 10
7137.0227158423377
 20
1224.0459569256211
 30
0.0
  0
POINT
  5
7E63
  8
DEFPOINTS
  6
BYBLOCK
 62
     0
 10
7692.0860659322643
 20
1224.0459569256211
 30
0.0
  0
ENDBLK
  5
7E64
  8
0
  0
BLOCK
  8
0
  2
*D3
 70
     1
 10
0.0
 20
0.0
 30
0.0
  3
*D3
  1

  0
LINE
  5
7E66
  8
0
  6
BYBLOCK
 10
6413.018715842335
 20
3439.4712882230829
 30
0.0
 11
6413.018715842335
 21
3557.0090726067351
 31
0.0
  0
LINE
  5
7E67
  8
0
  6
BYBLOCK
 10
7137.0227158423377
 20
2929.044956925622
 30
0.0
 11
7137.0227158423377
 21
3557.0090726067351
 31
0.0
  0
LINE
  5
7E68
  8
0
  6
BYBLOCK
 10
6493.018715842336
 20
3517.009072606736
 30
0.0
 11
7057.0227158423359
 21
3517.009072606736
 31
0.0
  0
INSERT
  5
7E69
  8
0
  6
BYBLOCK
  2
_OPEN
 10
6413.018715842335
 20
3517.009072606736
 30
0.0
 41
80.0
 42
80.0
 43
80.0
 50
180.0
  0
INSERT
  5
7E6A
  8
0
  6
BYBLOCK
  2
_OPEN
 10
7137.0227158423377
 20
3517.009072606736
 30
0.0
 41
80.0
 42
80.0
 43
80.0
  0
TEXT
  5
7E6B
  8
3
 10
6614.8387725542516
 20
3537.0090726067351
 30
0.0
 40
120.0
  1
725
  0
POINT
  5
7E6C
  8
DEFPOINTS
  6
BYBLOCK
 62
     0
 10
6413.018715842335
 20
3399.4712882230829
 30
0.0
  0
POINT
  5
7E6D
  8
DEFPOINTS
  6
BYBLOCK
 62
     0
 10
7137.0227158423377
 20
2889.0449569256211
 30
0.0
  0
POINT
  5
7E6E
  8
DEFPOINTS
  6
BYBLOCK
 62
     0
 10
7137.0227158423377
 20
3517.009072606736
 30
0.0
  0
ENDBLK
  5
7E6F
  8
0
  0
BLOCK
  8
0
  2
*D4
 70
     1
 10
0.0
 20
0.0
 30
0.0
  3
*D4
  1

  0
LINE
  5
7E71
  8
0
  6
BYBLOCK
 10
3779.8638055222468
 20
2024.048929451601
 30
0.0
 11
4347.3160757804862
 21
2024.048929451601
 31
0.0
  0
LINE
  5
7E72
  8
0
  6
BYBLOCK
 10
3675.0520590502269
 20
3069.048929451601
 30
0.0
 11
4347.3160757804862
 21
3069.048929451601
 31
0.0
  0
LINE
  5
7E73
  8
0
  6
BYBLOCK
 10
4307.3160757804862
 20
2104.048929451601
 30
0.0
 11
4307.3160757804862
 21
2989.048929451601
 31
0.0
  0
INSERT
  5
7E74
  8
0
  6
BYBLOCK
  2
_OPEN
 10
4307.3160757804862
 20
2024.048929451601
 30
0.0
 41
80.0
 42
80.0
 43
80.0
 50
270.0
  0
INSERT
  5
7E75
  8
0
  6
BYBLOCK
  2
_OPEN
 10
4307.3160757804862
 20
3069.048929451601
 30
0.0
 41
80.0
 42
80.0
 43
80.0
 50
90.0
  0
TEXT
  5
7E76
  8
3
 10
4287.3160757804872
 20
2346.548929451601
 30
0.0
 40
120.0
  1
1045
 50
90.0
  0
POINT
  5
7E77
  8
DEFPOINTS
  6
BYBLOCK
 62
     0
 10
3739.8638055222468
 20
2024.048929451601
 30
0.0
  0
POINT
  5
7E78
  8
DEFPOINTS
  6
BYBLOCK
 62
     0
 10
3635.0520590502269
 20
3069.048929451601
 30
0.0
  0
POINT
  5
7E79
  8
DEFPOINTS
  6
BYBLOCK
 62
     0
 10
4307.3160757804862
 20
3069.048929451601
 30
0.0
  0
ENDBLK
  5
7E7A
  8
0
  0
BLOCK
  8
0
  2
*D5
 70
     1
 10
0.0
 20
0.0
 30
0.0
  3
*D5
  1

  0
LINE
  5
812B
  8
3
 10
1785.286493803505
 20
3047.740900748674
 30
0.0
 11
1785.286493803505
 21
2737.4847133568028
 31
0.0
  0
LINE
  5
812C
  8
3
 10
2735.2864938035132
 20
2891.9612276243938
 30
0.0
 11
2735.2864938035132
 21
2737.4847133568028
 31
0.0
  0
LINE
  5
812D
  8
3
 10
1865.286493803505
 20
2777.4847133568019
 30
0.0
 11
2655.2864938035132
 21
2777.4847133568019
 31
0.0
  0
INSERT
  5
812E
  8
3
  2
_OPEN
 10
1785.286493803505
 20
2777.4847133568019
 30
0.0
 41
80.0
 42
80.0
 43
80.0
 50
180.0
  0
INSERT
  5
812F
  8
3
  2
_OPEN
 10
2735.2864938035132
 20
2777.4847133568019
 30
0.0
 41
80.0
 42
80.0
 43
80.0
  0
TEXT
  5
8130
  8
3
 10
2106.0007795177949
 20
2797.4847133568028
 30
0.0
 40
120.0
  1
950
  0
POINT
  5
8131
  8
DEFPOINTS
 62
     0
 10
1785.286493803505
 20
3087.7409007486749
 30
0.0
  0
POINT
  5
8132
  8
DEFPOINTS
 62
     0
 10
2735.2864938035132
 20
2931.9612276243938
 30
0.0
  0
POINT
  5
8133
  8
DEFPOINTS
 62
     0
 10
2735.2864938035132
 20
2777.4847133568019
 30
0.0
  0
ENDBLK
  5
7E85
  8
0
  0
BLOCK
  8
0
  2
*D6
 70
     1
 10
0.0
 20
0.0
 30
0.0
  3
*D6
  1

  0
LINE
  5
82BA
  8
3
 10
4885.2864938035118
 20
3047.7389007480278
 30
0.0
 11
4885.2864938035118
 21
2737.4847133568028
 31
0.0
  0
LINE
  5
82BB
  8
3
 10
2815.2864938035118
 20
2777.4847133568019
 30
0.0
 11
4805.2864938035127
 21
2777.4847133568019
 31
0.0
  0
INSERT
  5
82BC
  8
3
  2
_OPEN
 10
2735.2864938035132
 20
2777.4847133568019
 30
0.0
 41
80.0
 42
80.0
 43
80.0
 50
180.0
  0
INSERT
  5
82BD
  8
3
  2
_OPEN
 10
4885.2864938035118
 20
2777.4847133568019
 30
0.0
 41
80.0
 42
80.0
 43
80.0
  0
TEXT
  8
3
  40
120
  5
8304
  72
0
  71
0
 10
3570.29
 20
2645.08
 30
0.000000
  1
2150
  0
POINT
  5
82BF
  8
DEFPOINTS
 62
     0
 10
2735.2864938035132
 20
2931.9612276243938
 30
0.0
  0
POINT
  5
82C0
  8
DEFPOINTS
 62
     0
 10
4885.2864938035118
 20
3087.7389007480278
 30
0.0
  0
POINT
  5
82C1
  8
DEFPOINTS
 62
     0
 10
4885.2864938035118
 20
2777.4847133568019
 30
0.0
  0
ENDBLK
  5
7E8F
  8
0
  0
BLOCK
  8
0
  2
*D7
 70
     1
 10
0.0
 20
0.0
 30
0.0
  3
*D7
  1

  0
LINE
  5
7E9C
  8
0
  6
BYBLOCK
 10
3570.0520590502269
 20
3109.048929451601
 30
0.0
 11
3570.0520590502269
 21
3472.4990821585452
 31
0.0
  0
LINE
  5
7E9D
  8
0
  6
BYBLOCK
 10
1920.0520590502269
 20
3109.048929451601
 30
0.0
 11
1920.0520590502269
 21
3472.4990821585452
 31
0.0
  0
LINE
  5
7E9E
  8
0
  6
BYBLOCK
 10
3490.0520590502269
 20
3432.4990821585452
 30
0.0
 11
2000.0520590502269
 21
3432.4990821585452
 31
0.0
  0
INSERT
  5
7E9F
  8
0
  6
BYBLOCK
  2
_OPEN
 10
3570.0520590502269
 20
3432.4990821585452
 30
0.0
 41
80.0
 42
80.0
 43
80.0
  0
INSERT
  5
7EA0
  8
0
  6
BYBLOCK
  2
_OPEN
 10
1920.0520590502269
 20
3432.4990821585452
 30
0.0
 41
80.0
 42
80.0
 43
80.0
 50
180.0
  0
TEXT
  5
7EA1
  8
3
 10
2545.0520590502269
 20
3452.4990821585452
 30
0.0
 40
120.0
  1
1650
  0
POINT
  5
7EA2
  8
DEFPOINTS
  6
BYBLOCK
 62
     0
 10
3570.0520590502269
 20
3069.048929451601
 30
0.0
  0
POINT
  5
7EA3
  8
DEFPOINTS
  6
BYBLOCK
 62
     0
 10
1920.0520590502269
 20
3069.048929451601
 30
0.0
  0
POINT
  5
7EA4
  8
DEFPOINTS
  6
BYBLOCK
 62
     0
 10
1920.0520590502269
 20
3432.4990821585452
 30
0.0
  0
ENDBLK
  5
7EA5
  8
0
  0
BLOCK
  8
0
  2
*D8
 70
     1
 10
0.0
 20
0.0
 30
0.0
  3
*D8
  1

  0
LINE
  5
7EA7
  8
0
  6
BYBLOCK
 10
3570.0510590502231
 20
3109.048929451601
 30
0.0
 11
3570.0510590502231
 21
3717.8755288255852
 31
0.0
  0
LINE
  5
7EA8
  8
0
  6
BYBLOCK
 10
1875.0510590502231
 20
3227.1226354915052
 30
0.0
 11
1875.0510590502231
 21
3717.8755288255852
 31
0.0
  0
LINE
  5
7EA9
  8
0
  6
BYBLOCK
 10
3490.0510590502231
 20
3677.8755288255852
 30
0.0
 11
1955.0510590502231
 21
3677.8755288255852
 31
0.0
  0
INSERT
  5
7EAA
  8
0
  6
BYBLOCK
  2
_OPEN
 10
3570.0510590502231
 20
3677.8755288255852
 30
0.0
 41
80.0
 42
80.0
 43
80.0
  0
INSERT
  5
7EAB
  8
0
  6
BYBLOCK
  2
_OPEN
 10
1875.0510590502231
 20
3677.8755288255852
 30
0.0
 41
80.0
 42
80.0
 43
80.0
 50
180.0
  0
TEXT
  5
7EAC
  8
3
 10
2522.5510590502231
 20
3697.8755288255852
 30
0.0
 40
120.0
  1
1695
  0
POINT
  5
7EAD
  8
DEFPOINTS
  6
BYBLOCK
 62
     0
 10
3570.0510590502231
 20
3069.048929451601
 30
0.0
  0
POINT
  5
7EAE
  8
DEFPOINTS
  6
BYBLOCK
 62
     0
 10
1875.0510590502231
 20
3187.1226354915052
 30
0.0
  0
POINT
  5
7EAF
  8
DEFPOINTS
  6
BYBLOCK
 62
     0
 10
1875.0510590502231
 20
3677.8755288255852
 30
0.0
  0
ENDBLK
  5
7EB0
  8
0
  0
BLOCK
  8
0
  2
*D9
 70
     1
 10
0.0
 20
0.0
 30
0.0
  3
*D9
  1

  0
LINE
  5
7EB2
  8
0
  6
BYBLOCK
 10
5823.018715842336
 20
3109.048956925622
 30
0.0
 11
5823.018715842336
 21
3264.7506141446579
 31
0.0
  0
LINE
  5
7EB3
  8
0
  6
BYBLOCK
 10
7003.0187158423432
 20
3109.0489569256242
 30
0.0
 11
7003.0187158423432
 21
3264.7506141446579
 31
0.0
  0
LINE
  5
7EB4
  8
0
  6
BYBLOCK
 10
5903.018715842335
 20
3224.7506141446579
 30
0.0
 11
6923.0187158423432
 21
3224.7506141446579
 31
0.0
  0
INSERT
  5
7EB5
  8
0
  6
BYBLOCK
  2
_OPEN
 10
5823.018715842336
 20
3224.7506141446579
 30
0.0
 41
80.0
 42
80.0
 43
80.0
 50
180.0
  0
INSERT
  5
7EB6
  8
0
  6
BYBLOCK
  2
_OPEN
 10
7003.0187158423432
 20
3224.7506141446579
 30
0.0
 41
80.0
 42
80.0
 43
80.0
  0
TEXT
  5
7EB7
  8
3
 10
6224.4472872709111
 20
3244.750614144657
 30
0.0
 40
120.0
  1
1180
  0
POINT
  5
7EB8
  8
DEFPOINTS
  6
BYBLOCK
 62
     0
 10
5823.018715842336
 20
3069.048956925622
 30
0.0
  0
POINT
  5
7EB9
  8
DEFPOINTS
  6
BYBLOCK
 62
     0
 10
7003.0187158423432
 20
3069.0489569256242
 30
0.0
  0
POINT
  5
7EBA
  8
DEFPOINTS
  6
BYBLOCK
 62
     0
 10
7003.0187158423432
 20
3224.7506141446579
 30
0.0
  0
ENDBLK
  5
7EBB
  8
0
  0
BLOCK
  8
0
  2
*D10
 70
     1
 10
0.0
 20
0.0
 30
0.0
  3
*D10
  1

  0
LINE
  5
81A1
  8
3
 10
7942.2541505956251
 20
3047.7379282226771
 30
0.0
 11
7942.2541505956251
 21
2734.7358964878899
 31
0.0
  0
LINE
  5
81A2
  8
3
 10
7273.2541505956251
 20
2814.6463254469581
 30
0.0
 11
7273.2541505956251
 21
2734.7358964878899
 31
0.0
  0
LINE
  5
81A3
  8
3
 10
7862.2541505956242
 20
2774.7358964878899
 30
0.0
 11
7353.2541505956242
 21
2774.7358964878899
 31
0.0
  0
INSERT
  5
81A4
  8
3
  2
_OPEN
 10
7942.2541505956251
 20
2774.7358964878899
 30
0.0
 41
80.0
 42
80.0
 43
80.0
  0
INSERT
  5
81A5
  8
3
  2
_OPEN
 10
7273.2541505956251
 20
2774.7358964878899
 30
0.0
 41
80.0
 42
80.0
 43
80.0
 50
180.0
  0
TEXT
  5
81A6
  8
3
 10
7456.3255791670535
 20
2794.7358964878899
 30
0.0
 40
120.0
  1
669
  0
POINT
  5
81A7
  8
DEFPOINTS
 62
     0
 10
7942.2541505956251
 20
3087.7379282226761
 30
0.0
  0
POINT
  5
81A8
  8
DEFPOINTS
 62
     0
 10
7273.2541505956251
 20
2854.6463254469581
 30
0.0
  0
POINT
  5
81A9
  8
DEFPOINTS
 62
     0
 10
7273.2541505956251
 20
2774.7358964878899
 30
0.0
  0
ENDBLK
  5
7EC6
  8
0
  0
BLOCK
  8
0
  2
*D11
 70
     1
 10
0.0
 20
0.0
 30
0.0
  3
*D11
  1

  0
LINE
  5
82C2
  8
3
 10
6342.2541505956251
 20
3047.7389282220511
 30
0.0
 11
6342.2541505956251
 21
2734.7358964878899
 31
0.0
  0
LINE
  5
82C3
  8
3
 10
7193.2541505956251
 20
2774.7358964878899
 30
0.0
 11
6422.254150595626
 21
2774.7358964878899
 31
0.0
  0
INSERT
  5
82C4
  8
3
  2
_OPEN
 10
7273.2541505956251
 20
2774.7358964878899
 30
0.0
 41
80.0
 42
80.0
 43
80.0
  0
INSERT
  5
82C5
  8
3
  2
_OPEN
 10
6342.2541505956251
 20
2774.7358964878899
 30
0.0
 41
80.0
 42
80.0
 43
80.0
 50
180.0
  0
TEXT
  8
3
  40
120
  5
8305
  72
0
  71
0
 10
6567.75
 20
2642.34
 30
0.000000
  1
931
  0
POINT
  5
82C7
  8
DEFPOINTS
 62
     0
 10
7273.2541505956251
 20
2854.6463254469581
 30
0.0
  0
POINT
  5
82C8
  8
DEFPOINTS
 62
     0
 10
6342.2541505956251
 20
3087.7389282220511
 30
0.0
  0
POINT
  5
82C9
  8
DEFPOINTS
 62
     0
 10
6342.2541505956251
 20
2774.7358964878899
 30
0.0
  0
ENDBLK
  5
7ED0
  8
0
  0
BLOCK
  8
0
  2
*D12
 70
     1
 10
0.0
 20
0.0
 30
0.0
  3
*D12
  1

  0
LINE
  5
82CA
  8
3
 10
6293.2541505956251
 20
5197.7389282220693
 30
0.0
 11
6293.2541505956251
 21
6210.6990439031833
 31
0.0
  0
LINE
  5
82CB
  8
3
 10
7193.2541505956251
 20
6170.6990439031842
 30
0.0
 11
6373.2541505956251
 21
6170.6990439031842
 31
0.0
  0
INSERT
  5
82CC
  8
3
  2
_OPEN
 10
7273.2541505956251
 20
6170.6990439031842
 30
0.0
 41
80.0
 42
80.0
 43
80.0
  0
INSERT
  5
82CD
  8
3
  2
_OPEN
 10
6293.2541505956251
 20
6170.6990439031842
 30
0.0
 41
80.0
 42
80.0
 43
80.0
 50
180.0
  0
TEXT
  8
3
  40
120
  5
8306
  72
0
  71
0
 10
6543.25
 20
6138.30
 30
0.000000
  1
MAX
  0
TEXT
  8
3
  40
120
  5
8307
  72
0
  71
0
 10
6543.25
 20
5982.30
 30
0.000000
  1
1080
  0
POINT
  5
82CF
  8
DEFPOINTS
 62
     0
 10
7273.2541505956251
 20
6053.1612595195311
 30
0.0
  0
POINT
  5
82D0
  8
DEFPOINTS
 62
     0
 10
6293.2541505956251
 20
5157.7389282220702
 30
0.0
  0
POINT
  5
82D1
  8
DEFPOINTS
 62
     0
 10
6293.2541505956251
 20
6170.6990439031842
 30
0.0
  0
ENDBLK
  5
809D
  8
0
  0
BLOCK
  8
0
  2
*D13
 70
     1
 10
0.0
 20
0.0
 30
0.0
  3
*D13
  1

  0
LINE
  5
7EE7
  8
0
  6
BYBLOCK
 10
4025.0510590502231
 20
7601.2121345220494
 30
0.0
 11
4025.0510590502231
 21
8377.528777225416
 31
0.0
  0
LINE
  5
7EE8
  8
0
  6
BYBLOCK
 10
2825.051059050224
 20
8101.2121345220503
 30
0.0
 11
2825.051059050224
 21
8377.528777225416
 31
0.0
  0
LINE
  5
7EE9
  8
0
  6
BYBLOCK
 10
3945.0510590502231
 20
8337.5287772254178
 30
0.0
 11
2905.0510590502231
 21
8337.5287772254178
 31
0.0
  0
INSERT
  5
7EEA
  8
0
  6
BYBLOCK
  2
_OPEN
 10
4025.0510590502231
 20
8337.5287772254178
 30
0.0
 41
80.0
 42
80.0
 43
80.0
  0
INSERT
  5
7EEB
  8
0
  6
BYBLOCK
  2
_OPEN
 10
2825.051059050224
 20
8337.5287772254178
 30
0.0
 41
80.0
 42
80.0
 43
80.0
 50
180.0
  0
TEXT
  5
7EEC
  8
3
 10
3225.0510590502231
 20
8357.528777225416
 30
0.0
 40
120.0
  1
1200
  0
POINT
  5
7EED
  8
DEFPOINTS
  6
BYBLOCK
 62
     0
 10
4025.0510590502231
 20
7561.2121345220503
 30
0.0
  0
POINT
  5
7EEE
  8
DEFPOINTS
  6
BYBLOCK
 62
     0
 10
2825.051059050224
 20
8061.2121345220512
 30
0.0
  0
POINT
  5
7EEF
  8
DEFPOINTS
  6
BYBLOCK
 62
     0
 10
2825.051059050224
 20
8337.5287772254178
 30
0.0
  0
ENDBLK
  5
7EF0
  8
0
  0
BLOCK
  8
0
  2
*D14
 70
     1
 10
0.0
 20
0.0
 30
0.0
  3
*D14
  1

  0
LINE
  5
82D2
  8
3
 10
1785.286493803512
 20
9299.4200630007508
 30
0.0
 11
1785.286493803512
 21
9575.7367057041156
 31
0.0
  0
LINE
  5
82D3
  8
3
 10
3605.2864938035132
 20
9535.7367057041156
 30
0.0
 11
1865.286493803512
 21
9535.7367057041156
 31
0.0
  0
INSERT
  5
82D4
  8
3
  2
_OPEN
 10
3685.2864938035118
 20
9535.7367057041156
 30
0.0
 41
80.0
 42
80.0
 43
80.0
  0
INSERT
  5
82D5
  8
3
  2
_OPEN
 10
1785.286493803512
 20
9535.7367057041156
 30
0.0
 41
80.0
 42
80.0
 43
80.0
 50
180.0
  0
TEXT
  8
3
  40
120
  5
8308
  72
0
  71
0
 10
2495.29
 20
9403.34
 30
0.000000
  1
1900
  0
POINT
  5
82D7
  8
DEFPOINTS
 62
     0
 10
3685.2864938035118
 20
9259.4200630007508
 30
0.0
  0
POINT
  5
82D8
  8
DEFPOINTS
 62
     0
 10
1785.286493803512
 20
9259.4200630007508
 30
0.0
  0
POINT
  5
82D9
  8
DEFPOINTS
 62
     0
 10
1785.286493803512
 20
9535.7367057041156
 30
0.0
  0
ENDBLK
  5
7EFA
  8
0
  0
BLOCK
  8
0
  2
*D15
 70
     1
 10
0.0
 20
0.0
 30
0.0
  3
*D15
  1

  0
LINE
  5
7EFC
  8
0
  6
BYBLOCK
 10
4065.0510590502231
 20
7561.2121345220503
 30
0.0
 11
4402.7570916425466
 21
7561.2121345220503
 31
0.0
  0
LINE
  5
7EFD
  8
0
  6
BYBLOCK
 10
4065.0510590502231
 20
6461.2121345220503
 30
0.0
 11
4402.7570916425466
 21
6461.2121345220503
 31
0.0
  0
LINE
  5
7EFE
  8
0
  6
BYBLOCK
 10
4362.7570916425466
 20
7481.2121345220494
 30
0.0
 11
4362.7570916425466
 21
6541.2121345220503
 31
0.0
  0
INSERT
  5
7EFF
  8
0
  6
BYBLOCK
  2
_OPEN
 10
4362.7570916425466
 20
7561.2121345220503
 30
0.0
 41
80.0
 42
80.0
 43
80.0
 50
90.0
  0
INSERT
  5
7F00
  8
0
  6
BYBLOCK
  2
_OPEN
 10
4362.7570916425466
 20
6461.2121345220503
 30
0.0
 41
80.0
 42
80.0
 43
80.0
 50
270.0
  0
TEXT
  5
7F01
  8
3
 10
4342.7570916425457
 20
6822.6407059506219
 30
0.0
 40
120.0
  1
1100
 50
90.0
  0
POINT
  5
7F02
  8
DEFPOINTS
  6
BYBLOCK
 62
     0
 10
4025.0510590502231
 20
7561.2121345220503
 30
0.0
  0
POINT
  5
7F03
  8
DEFPOINTS
  6
BYBLOCK
 62
     0
 10
4025.0510590502231
 20
6461.2121345220503
 30
0.0
  0
POINT
  5
7F04
  8
DEFPOINTS
  6
BYBLOCK
 62
     0
 10
4362.7570916425466
 20
6461.2121345220503
 30
0.0
  0
ENDBLK
  5
7F05
  8
0
  0
BLOCK
  8
0
  2
*D16
 70
     1
 10
0.0
 20
0.0
 30
0.0
  3
*D16
  1

  0
LINE
  5
7F07
  8
0
  6
BYBLOCK
 10
885.05105905022344
 20
8061.2121345220494
 30
0.0
 11
455.09965212746471
 21
8061.2121345220494
 31
0.0
  0
LINE
  5
7F08
  8
0
  6
BYBLOCK
 10
885.05105905022344
 20
6461.2121345220503
 30
0.0
 11
455.09965212746471
 21
6461.2121345220503
 31
0.0
  0
LINE
  5
7F09
  8
0
  6
BYBLOCK
 10
495.09965212746459
 20
7981.2121345220503
 30
0.0
 11
495.09965212746459
 21
6541.2121345220503
 31
0.0
  0
INSERT
  5
7F0A
  8
0
  6
BYBLOCK
  2
_OPEN
 10
495.09965212746459
 20
8061.2121345220494
 30
0.0
 41
80.0
 42
80.0
 43
80.0
 50
90.0
  0
INSERT
  5
7F0B
  8
0
  6
BYBLOCK
  2
_OPEN
 10
495.09965212746459
 20
6461.2121345220503
 30
0.0
 41
80.0
 42
80.0
 43
80.0
 50
270.0
  0
TEXT
  5
7F0C
  8
3
 10
475.09965212746459
 20
7061.2121345220503
 30
0.0
 40
120.0
  1
1600
 50
90.0
  0
POINT
  5
7F0D
  8
DEFPOINTS
  6
BYBLOCK
 62
     0
 10
925.05105905022344
 20
8061.2121345220494
 30
0.0
  0
POINT
  5
7F0E
  8
DEFPOINTS
  6
BYBLOCK
 62
     0
 10
925.05105905022344
 20
6461.2121345220503
 30
0.0
  0
POINT
  5
7F0F
  8
DEFPOINTS
  6
BYBLOCK
 62
     0
 10
495.09965212746459
 20
6461.2121345220503
 30
0.0
  0
ENDBLK
  5
7F10
  8
0
  0
BLOCK
  8
0
  2
*D17
 70
     1
 10
0.0
 20
0.0
 30
0.0
  3
*D17
  1

  0
LINE
  5
7F12
  8
0
  6
BYBLOCK
 10
4025.0510590502231
 20
6421.2121345220503
 30
0.0
 11
4025.0510590502231
 21
5938.2195665133149
 31
0.0
  0
LINE
  5
7F13
  8
0
  6
BYBLOCK
 10
925.05105905022344
 20
6421.2121345220503
 30
0.0
 11
925.05105905022344
 21
5938.2195665133149
 31
0.0
  0
LINE
  5
7F14
  8
0
  6
BYBLOCK
 10
3945.0510590502231
 20
5978.2195665133149
 30
0.0
 11
1005.051059050223
 21
5978.2195665133149
 31
0.0
  0
INSERT
  5
7F15
  8
0
  6
BYBLOCK
  2
_OPEN
 10
4025.0510590502231
 20
5978.2195665133149
 30
0.0
 41
80.0
 42
80.0
 43
80.0
  0
INSERT
  5
7F16
  8
0
  6
BYBLOCK
  2
_OPEN
 10
925.05105905022344
 20
5978.2195665133149
 30
0.0
 41
80.0
 42
80.0
 43
80.0
 50
180.0
  0
TEXT
  5
7F17
  8
3
 10
2275.0510590502231
 20
5998.2195665133149
 30
0.0
 40
120.0
  1
3100
  0
POINT
  5
7F18
  8
DEFPOINTS
  6
BYBLOCK
 62
     0
 10
4025.0510590502231
 20
6461.2121345220503
 30
0.0
  0
POINT
  5
7F19
  8
DEFPOINTS
  6
BYBLOCK
 62
     0
 10
925.05105905022344
 20
6461.2121345220503
 30
0.0
  0
POINT
  5
7F1A
  8
DEFPOINTS
  6
BYBLOCK
 62
     0
 10
925.05105905022344
 20
5978.2195665133149
 30
0.0
  0
ENDBLK
  5
7F1B
  8
0
  0
BLOCK
  8
0
  2
*D18
 70
     1
 10
0.0
 20
0.0
 30
0.0
  3
*D18
  1

  0
LINE
  5
82DA
  8
3
 10
4925.2864938035127
 20
3277.7389007480492
 30
0.0
 11
5207.5515105337763
 21
3277.7389007480492
 31
0.0
  0
LINE
  5
82DB
  8
3
 10
5167.5515105337763
 20
4597.7389007480488
 30
0.0
 11
5167.5515105337763
 21
3357.7389007480492
 31
0.0
  0
INSERT
  5
82DC
  8
3
  2
_OPEN
 10
5167.5515105337763
 20
4677.7389007480488
 30
0.0
 41
80.0
 42
80.0
 43
80.0
 50
90.0
  0
INSERT
  5
82DD
  8
3
  2
_OPEN
 10
5167.5515105337763
 20
3277.7389007480492
 30
0.0
 41
80.0
 42
80.0
 43
80.0
 50
270.0
  0
TEXT
  8
3
  40
120
  5
8309
  72
0
  71
0
 10
4847.55
 20
3765.34
 30
0.000000
  1
1400
  0
POINT
  5
82DF
  8
DEFPOINTS
 62
     0
 10
4600.0992402755364
 20
4677.7389007480488
 30
0.0
  0
POINT
  5
82E0
  8
DEFPOINTS
 62
     0
 10
4885.2864938035118
 20
3277.7389007480492
 30
0.0
  0
POINT
  5
82E1
  8
DEFPOINTS
 62
     0
 10
5167.5515105337763
 20
3277.7389007480492
 30
0.0
  0
ENDBLK
  5
7F25
  8
0
  0
BLOCK
  8
0
  2
*D19
 70
     1
 10
0.0
 20
0.0
 30
0.0
  3
*D19
  1

  0
LINE
  5
82E2
  8
3
 10
1596.286493803512
 20
4601.7379007480522
 30
0.0
 11
1596.286493803512
 21
6371.565500122033
 31
0.0
  0
LINE
  5
82E3
  8
3
 10
2655.2864938035132
 20
6331.565500122033
 30
0.0
 11
1676.286493803512
 21
6331.565500122033
 31
0.0
  0
INSERT
  5
82E4
  8
3
  2
_OPEN
 10
2735.2864938035132
 20
6331.565500122033
 30
0.0
 41
80.0
 42
80.0
 43
80.0
  0
INSERT
  5
82E5
  8
3
  2
_OPEN
 10
1596.286493803512
 20
6331.565500122033
 30
0.0
 41
80.0
 42
80.0
 43
80.0
 50
180.0
  0
TEXT
  8
3
  40
120
  5
830A
  72
0
  71
0
 10
1925.79
 20
6199.17
 30
0.000000
  1
1139
  0
POINT
  5
82E7
  8
DEFPOINTS
 62
     0
 10
2735.2864938035132
 20
5840.8126067879521
 30
0.0
  0
POINT
  5
82E8
  8
DEFPOINTS
 62
     0
 10
1596.286493803512
 20
4561.7379007480522
 30
0.0
  0
POINT
  5
82E9
  8
DEFPOINTS
 62
     0
 10
1596.286493803512
 20
6331.565500122033
 30
0.0
  0
ENDBLK
  5
7F53
  8
0
  0
BLOCK
  8
0
  2
*D20
 70
     1
 10
0.0
 20
0.0
 30
0.0
  3
*D20
  1

  0
LINE
  5
7F55
  8
0
  6
BYBLOCK
 10
736.05105905022356
 20
1948.047929451604
 30
0.0
 11
736.05105905022356
 21
3997.6192340153239
 31
0.0
  0
LINE
  5
7F56
  8
0
  6
BYBLOCK
 10
4025.0510590502231
 20
814.04892945160168
 30
0.0
 11
4025.0510590502231
 21
3997.6192340153239
 31
0.0
  0
LINE
  5
7F57
  8
0
  6
BYBLOCK
 10
816.05105905022344
 20
3957.6192340153252
 30
0.0
 11
3945.0510590502231
 21
3957.6192340153252
 31
0.0
  0
INSERT
  5
7F58
  8
0
  6
BYBLOCK
  2
_OPEN
 10
736.05105905022356
 20
3957.6192340153252
 30
0.0
 41
80.0
 42
80.0
 43
80.0
 50
180.0
  0
INSERT
  5
7F59
  8
0
  6
BYBLOCK
  2
_OPEN
 10
4025.0510590502231
 20
3957.6192340153252
 30
0.0
 41
80.0
 42
80.0
 43
80.0
  0
TEXT
  5
7F5A
  8
3
 10
2171.9796304787951
 20
3977.6192340153252
 30
0.0
 40
120.0
  1
3289
  0
POINT
  5
7F5B
  8
DEFPOINTS
  6
BYBLOCK
 62
     0
 10
736.05105905022356
 20
1908.047929451604
 30
0.0
  0
POINT
  5
7F5C
  8
DEFPOINTS
  6
BYBLOCK
 62
     0
 10
4025.0510590502231
 20
774.04892945160168
 30
0.0
  0
POINT
  5
7F5D
  8
DEFPOINTS
  6
BYBLOCK
 62
     0
 10
4025.0510590502231
 20
3957.6192340153252
 30
0.0
  0
ENDBLK
  5
7F5E
  8
0
  0
BLOCK
  8
0
  2
_DOT
 70
     0
 10
0.0
 20
0.0
 30
0.0
  3
_DOT
  1

  0
POLYLINE
  5
8052
  8
0
  6
BYBLOCK
 62
     0
 66
     1
 10
0.0
 20
0.0
 30
0.0
 70
     1
 40
0.25
 41
0.25
  0
VERTEX
  5
82EA
  8
0
  6
BYBLOCK
 62
     0
 10
-0.125
 20
0.0
 30
0.0
 42
1.0
  0
VERTEX
  5
82EB
  8
0
  6
BYBLOCK
 62
     0
 10
0.125
 20
0.0
 30
0.0
 42
1.0
  0
SEQEND
  5
82EC
  8
0
  6
BYBLOCK
 62
     0
  0
LINE
  5
8056
  8
0
  6
BYBLOCK
 62
     0
 10
-0.25
 20
0.0
 30
0.0
 11
-1.0
 21
0.0
 31
0.0
  0
ENDBLK
  5
8035
  8
0
  0
BLOCK
  8
0
  2
*D22
 70
     1
 10
0.0
 20
0.0
 30
0.0
  3
*D22
  1

  0
LINE
  5
82ED
  8
3
 62
     0
 10
4907.7864938035127
 20
3277.7389007480492
 30
0.0
 11
5212.5515105337763
 21
3277.7389007480492
 31
0.0
  0
LINE
  5
82EE
  8
3
 62
     0
 10
4907.7864938035063
 20
3162.7389007480492
 30
0.0
 11
5212.5515105337763
 21
3162.7389007480492
 31
0.0
  0
LINE
  5
82EF
  8
3
 62
     0
 10
5167.5515105337763
 20
3277.7389007480492
 30
0.0
 11
5167.5515105337763
 21
3162.7389007480492
 31
0.0
  0
LINE
  5
82F0
  8
3
 62
     0
 10
5167.5515105337763
 20
3220.2389007480492
 30
0.0
 11
5588.6229391052048
 21
3346.5603293194772
 31
0.0
  0
LINE
  5
82F1
  8
3
 62
     0
 10
5588.6229391052048
 20
3346.5603293194772
 30
0.0
 11
5588.6229391052048
 21
3905.846043605191
 31
0.0
  0
TEXT
  8
3
  40
135
  5
830B
  62
0
  72
0
  71
0
 10
5170.77
 20
3387.25
 30
0.000000
  1
(115)
  0
POINT
  5
82F3
  8
DEFPOINTS
 62
     0
 10
4885.2864938035118
 20
3277.7389007480492
 30
0.0
  0
POINT
  5
82F4
  8
DEFPOINTS
 62
     0
 10
4885.2864938035054
 20
3162.7389007480492
 30
0.0
  0
POINT
  5
82F5
  8
DEFPOINTS
 62
     0
 10
5167.5515105337763
 20
3162.7389007480492
 30
0.0
  0
ENDBLK
  5
8145
  8
0
  0
BLOCK
  8
0
  2
*D23
 70
     1
 10
0.0
 20
0.0
 30
0.0
  3
*D23
  1

  0
LINE
  5
82F6
  8
3
 62
     0
 10
4907.7864938035063
 20
3162.7389007480492
 30
0.0
 11
5212.5515105337763
 21
3162.7389007480492
 31
0.0
  0
LINE
  5
82F7
  8
3
 62
     0
 10
4907.7864938035127
 20
3087.7389007480501
 30
0.0
 11
5212.5515105337763
 21
3087.7389007480492
 31
0.0
  0
LINE
  5
82F8
  8
3
 62
     0
 10
5167.5515105337763
 20
3162.7389007480492
 30
0.0
 11
5167.5515105337763
 21
3252.7389007480492
 31
0.0
  0
LINE
  5
82F9
  8
3
 62
     0
 10
5167.5515105337763
 20
2997.7389007480492
 30
0.0
 11
5167.5515105337763
 21
2907.7389007480492
 31
0.0
  0
TEXT
  8
3
  40
135
  5
830C
  62
0
  72
0
  71
0
 10
4911.71
 20
2531.26
 30
0.000000
  1
75
  0
LINE
  5
82FB
  8
3
 62
     0
 10
5167.5515105337763
 20
3162.7389007480492
 30
0.0
 11
5167.5515105337763
 21
3087.7389007480492
 31
0.0
  0
INSERT
  5
82FC
  8
3
 62
     0
  2
_DOTSMALL
 10
5167.5515105337763
 20
3162.7389007480492
 30
0.0
 41
90.0
 42
90.0
 43
90.0
 50
270.0
  0
INSERT
  5
82FD
  8
3
 62
     0
  2
_OPEN
 10
5167.5515105337763
 20
3087.7389007480492
 30
0.0
 41
90.0
 42
90.0
 43
90.0
 50
90.0
  0
POINT
  5
82FE
  8
DEFPOINTS
 62
     0
 10
4885.2864938035054
 20
3162.7389007480492
 30
0.0
  0
POINT
  5
82FF
  8
DEFPOINTS
 62
     0
 10
4885.2864938035118
 20
3087.7389007480501
 30
0.0
  0
POINT
  5
8300
  8
DEFPOINTS
 62
     0
 10
5167.5515105337763
 20
3087.7389007480492
 30
0.0
  0
ENDBLK
  5
8157
  8
0
  0
BLOCK
  8
0
  2
_DOTSMALL
 70
     0
 10
0.0
 20
0.0
 30
0.0
  3
_DOTSMALL
  1

  0
POLYLINE
  5
8172
  8
3
 62
     0
 66
     1
 10
0.0
 20
0.0
 30
0.0
 70
     1
 40
0.5
 41
0.5
  0
VERTEX
  5
8301
  8
3
 62
     0
 10
-0.0625
 20
0.0
 30
0.0
 42
1.0
  0
VERTEX
  5
8302
  8
3
 62
     0
 10
0.0625
 20
0.0
 30
0.0
 42
1.0
  0
SEQEND
  5
8303
  8
3
 62
     0
  0
ENDBLK
  5
8174
  8
0
  0
BLOCK
  8
0
  2
_NONE
 70
     0
 10
0.0
 20
0.0
 30
0.0
  3
_NONE
  1

  0
ENDBLK
  5
8182
  8
0
  0
ENDSEC
  0
SECTION
  2
ENTITIES
  0
INSERT
  5
7C3E
  8
0
  2
YA_N
 10
-32203.40006611323
 20
2748.072137659808
 30
0.0
  0
LINE
  5
7C40
  8
1
 10
6483.254150595626
 20
5157.7389282220702
 30
0.0
 11
6293.2541505956251
 21
5157.7389282220702
 31
0.0
  0
LINE
  5
7C41
  8
1
 10
6483.253297896772
 20
3527.7393201037639
 30
0.0
 11
6293.2531505956213
 21
3527.7393201037639
 31
0.0
  0
LINE
  5
7C42
  8
1
 10
6293.2531505956213
 20
3527.7393201037639
 30
0.0
 11
6293.2541505956251
 21
5157.7389282220702
 31
0.0
  0
LINE
  5
7C43
  8
2
 10
6734.545827238886
 20
3747.7393201037639
 30
0.0
 11
6250.4971505956273
 21
3747.7393201037639
 31
0.0
  0
LINE
  5
7C44
  8
1
 10
6343.2531505956222
 20
3597.7393201037639
 30
0.0
 11
6443.2531505956222
 21
3597.7393201037639
 31
0.0
  0
LINE
  5
7C45
  8
1
 10
6343.2531505956222
 20
3597.7393201037639
 30
0.0
 11
6343.2531505956222
 21
3897.7393201037639
 31
0.0
  0
LINE
  5
7C46
  8
1
 10
6443.2531505956222
 20
3597.7393201037639
 30
0.0
 11
6443.2531505956222
 21
3897.7393201037639
 31
0.0
  0
LINE
  5
7C47
  8
1
 10
6443.2531505956222
 20
3897.7393201037639
 30
0.0
 11
6343.2531505956222
 21
3897.7393201037639
 31
0.0
  0
LINE
  5
7C48
  8
1
 10
6443.2541505956251
 20
5077.7389282220693
 30
0.0
 11
6443.2541505956251
 21
4277.7379282220691
 31
0.0
  0
LINE
  5
7C49
  8
1
 10
6443.2541505956251
 20
4277.7379282220691
 30
0.0
 11
6343.2541505956251
 21
4277.7379282220691
 31
0.0
  0
LINE
  5
7C4A
  8
1
 10
6343.2541505956251
 20
4277.7379282220691
 30
0.0
 11
6343.2541505956251
 21
5077.7389282220693
 31
0.0
  0
LINE
  5
7C4B
  8
1
 10
6343.2541505956251
 20
5077.7389282220693
 30
0.0
 11
6443.2541505956251
 21
5077.7389282220693
 31
0.0
  0
LINE
  5
7C4C
  8
1
 10
7863.254150595626
 20
3877.7359282220691
 30
0.0
 11
7997.2581505956259
 21
3877.7359282220691
 31
0.0
  0
LINE
  5
7C4D
  8
1
 10
7997.2581505956259
 20
5477.7349282220694
 30
0.0
 11
7863.254150595626
 21
5477.7349282220694
 31
0.0
  0
LINE
  5
7C4E
  8
1
 10
7997.2581505956259
 20
5542.7349282220703
 30
0.0
 11
7997.2581505956259
 21
5477.7349282220694
 31
0.0
  0
LINE
  5
7C4F
  8
1
 10
7997.2581505956259
 20
3812.7359282220691
 30
0.0
 11
7997.2581505956259
 21
3877.7359282220691
 31
0.0
  0
LINE
  5
7C50
  8
1
 10
6680.0531505956242
 20
3427.7389282226941
 30
0.0
 11
6342.2531505956213
 21
3427.7389282226941
 31
0.0
  0
LINE
  5
7C51
  8
1
 10
6417.2531505956213
 20
3427.7389282226941
 30
0.0
 11
6342.2531505956213
 21
3427.7389282226941
 31
0.0
  0
LINE
  5
7C52
  8
1
 10
7997.2581505956259
 20
3812.7359282220691
 30
0.0
 11
7997.2581505956259
 21
5542.7349282220703
 31
0.0
  0
LINE
  5
7C53
  8
1
 10
7867.2541505956242
 20
3277.7379750976638
 30
0.0
 11
6342.2531505956213
 21
3277.7389282226941
 31
0.0
  0
LINE
  5
7C54
  8
1
 10
6443.2541505956251
 20
4727.7349282220694
 30
0.0
 11
6683.2536832584738
 21
4727.7349282220694
 31
0.0
  0
LINE
  5
7C55
  8
1
 10
6443.2541505956251
 20
4627.7369282220689
 30
0.0
 11
6683.2536330081557
 21
4627.7369282220689
 31
0.0
  0
LINE
  5
7C57
  8
1
 10
6683.2531505956213
 20
3427.7389282226941
 30
0.0
 11
6342.2531505956213
 21
3427.7389282226941
 31
0.0
  0
LINE
  5
7C58
  8
1
 10
7942.2541505956251
 20
3427.7389282226941
 30
0.0
 11
6342.2531505956213
 21
3427.7389282226941
 31
0.0
  0
LINE
  5
7C59
  8
1
 10
7867.2541505956242
 20
3277.7379282226939
 30
0.0
 11
7942.2541505956251
 21
3277.7379282226939
 31
0.0
  0
LINE
  5
7C5A
  8
2
 10
7273.2541505956251
 20
2854.6463254469581
 30
0.0
 11
7273.2541505956251
 21
5854.2104775356802
 31
0.0
  0
LINE
  5
7C5B
  8
2
 10
8065.7182003786947
 20
4677.738928222072
 30
0.0
 11
6293.5391505956213
 21
4677.7389282220693
 31
0.0
  0
LINE
  5
7C5C
  8
1
 10
6483.253297896772
 20
3527.7393201037639
 30
0.0
 11
6483.254150595626
 21
5157.7389282220702
 31
0.0
  0
POINT
  5
7C5D
  8
1
 10
6293.2541505956251
 20
5157.7389282220702
 30
0.0
  0
LINE
  5
7C5E
  8
1
 10
2780.2874938035161
 20
5657.7389007480488
 30
0.0
 11
4424.2821416559091
 21
5657.738900748056
 31
0.0
  0
LINE
  5
7C5F
  8
1
 10
2780.2874938035161
 20
5722.7389007480488
 30
0.0
 11
4430.2874938035166
 21
5722.7389007480488
 31
0.0
  0
ARC
  5
7C60
  8
1
 10
2851.2864938035132
 20
4793.7389007480479
 30
0.0
 40
1487.0
 50
265.52572120365443
 51
355.52600000000001
  0
LINE
  5
7C61
  8
2
 10
4535.2864938035118
 20
2989.5239007486948
 30
0.0
 11
4535.2864938035118
 21
4189.272414994568
 31
0.0
  0
LINE
  5
7C62
  8
1
 10
4535.2864938035118
 20
3462.738900748695
 30
0.0
 11
4535.2863454179242
 21
4032.7393201037639
 31
0.0
  0
ARC
  5
7C63
  8
1
 10
4535.2863454179242
 20
3747.7393201037639
 30
0.0
 40
280.0
 50
298.69199912720882
 51
241.30800087279121
  0
LINE
  5
7C64
  8
1
 10
4847.8907511746811
 20
3497.739320103763
 30
0.0
 11
4658.6122138943974
 21
3497.7393201037639
 31
0.0
  0
LINE
  5
7C65
  8
2
 10
4114.9505887559499
 20
3747.7393201037639
 30
0.0
 11
4871.8762565697471
 21
3747.7393201037639
 31
0.0
  0
LINE
  5
7C66
  8
1
 10
4778.2863454179242
 20
3497.7393201037639
 30
0.0
 11
4778.2863454179242
 21
3608.6314482919861
 31
0.0
  0
LINE
  5
7C67
  8
1
 10
4860.2863454179242
 20
3427.7393362321559
 30
0.0
 11
4847.8907511746811
 21
3497.739320103763
 31
0.0
  0
LINE
  5
7C68
  8
1
 10
4292.2863454179242
 20
3497.7393201037639
 30
0.0
 11
4292.2863454179242
 21
3608.6314482919861
 31
0.0
  0
LINE
  5
7C69
  8
1
 10
4400.8580635443868
 20
3502.1196200947261
 30
0.0
 11
4669.7146272914606
 21
3502.1196200947261
 31
0.0
  0
LINE
  5
7C6A
  8
1
 10
4411.9604769414509
 20
3484.3935433624611
 30
0.0
 11
4535.2863454179242
 21
3484.3935433624611
 31
0.0
  0
LINE
  5
7C6B
  8
1
 10
4658.6122138943974
 20
3484.3935433624611
 30
0.0
 11
4535.2863454179242
 21
3484.3935433624611
 31
0.0
  0
LINE
  5
7C6C
  8
1
 10
4678.2863454179242
 20
3507.0091807360459
 30
0.0
 11
4678.2863454179242
 21
3497.7393201037639
 31
0.0
  0
LINE
  5
7C6D
  8
1
 10
4658.6122138943974
 20
3497.739320103763
 30
0.0
 11
4658.6122138943974
 21
3484.3935433624611
 31
0.0
  0
LINE
  5
7C6E
  8
1
 10
4222.6819396611609
 20
3497.739320103763
 30
0.0
 11
4411.9604769414509
 21
3497.7393201037639
 31
0.0
  0
LINE
  5
7C6F
  8
1
 10
4392.2863454179242
 20
3507.0091807360459
 30
0.0
 11
4392.2863454179242
 21
3497.7393201037639
 31
0.0
  0
LINE
  5
7C70
  8
1
 10
4411.9604769414509
 20
3497.739320103763
 30
0.0
 11
4411.9604769414509
 21
3484.3935433624611
 31
0.0
  0
LINE
  5
7C71
  8
1
 10
4392.2863454179242
 20
3507.0091807360459
 30
0.0
 11
4392.2863454179242
 21
3497.7393201037639
 31
0.0
  0
LINE
  5
7C72
  8
1
 10
4292.2863454179242
 20
3497.7393201037639
 30
0.0
 11
4392.2863454179242
 21
3497.7393201037639
 31
0.0
  0
LINE
  5
7C73
  8
1
 10
4210.2863454179242
 20
3427.7393362321559
 30
0.0
 11
4222.6819396611609
 21
3497.739320103763
 31
0.0
  0
CIRCLE
  5
7C74
  8
1
 10
4535.2863454179242
 20
3747.7393201037639
 30
0.0
 40
150.0
  0
LINE
  5
7C75
  8
1
 10
4430.2874938035166
 20
5722.7389007480488
 30
0.0
 11
4495.2874938035156
 21
5722.7389007480488
 31
0.0
  0
ARC
  5
7C76
  8
1
 10
2851.2864938035132
 20
4561.7379007480522
 30
0.0
 40
1255.0
 50
174.69699999999989
 51
264.69641957714617
  0
ARC
  5
7C77
  8
1
 10
2638.2864938035118
 20
4580.7379007480522
 30
0.0
 40
1042.0
 50
84.657999999999987
 51
174.65899999999999
  0
CIRCLE
  5
7C78
  8
1
 10
2735.2864938035132
 20
4677.7389007480488
 30
0.0
 40
800.0
  0
CIRCLE
  5
7C79
  8
1
 10
2735.2864938035132
 20
4677.7389007480497
 30
0.0
 40
400.0
  0
CIRCLE
  5
7C7A
  8
1
 10
2735.2864938035132
 20
4677.7389007480488
 30
0.0
 40
865.0
  0
ARC
  5
7C7B
  8
1
 10
2638.2864938035118
 20
4774.7389007480479
 30
0.0
 40
848.0
 50
80.360177352439322
 51
83.430999999999969
  0
LINE
  5
7C7C
  8
1
 10
2780.2874938035161
 20
5610.7650462716229
 30
0.0
 11
2780.2874938035161
 21
5722.7389007480488
 31
0.0
  0
LINE
  5
7C7D
  8
1
 10
2780.2874938035161
 20
5722.7389007480488
 30
0.0
 11
2780.2874938035161
 21
5657.7389007480488
 31
0.0
  0
LINE
  5
7C7E
  8
1
 10
2715.2874938035161
 20
5722.7389007480488
 30
0.0
 11
2780.2874938035161
 21
5722.7389007480488
 31
0.0
  0
LINE
  5
7C7F
  8
1
 10
7938.2541505956324
 20
5722.738928222072
 30
0.0
 11
6608.2541505956187
 21
5722.7389282220711
 31
0.0
  0
LINE
  5
7C80
  8
1
 10
6683.2531505956213
 20
3427.7389282226941
 30
0.0
 11
6683.2536807479037
 21
4722.7389282220702
 31
0.0
  0
LINE
  5
7C81
  8
1
 10
7863.254150595626
 20
3427.7389282226941
 30
0.0
 11
7863.254150595626
 21
4655.43892822207
 31
0.0
  0
LINE
  5
7C82
  8
1
 10
7942.2541505956251
 20
3162.7379282226912
 30
0.0
 11
6342.2531380956279
 21
3162.7389282226982
 31
0.0
  0
LINE
  5
7C83
  8
1
 10
7942.2541505956251
 20
3087.7379282226761
 30
0.0
 11
6342.2530912206639
 21
3087.7389282227132
 31
0.0
  0
LINE
  5
7C84
  8
1
 10
7942.2541505956251
 20
3087.7379282226761
 30
0.0
 11
7942.2541505956251
 21
3162.7379282226912
 31
0.0
  0
ARC
  5
7C85
  8
1
 10
2735.2864938035132
 20
4677.7389007480497
 30
0.0
 40
480.0
 50
61.012627693782832
 51
256.48625069424082
  0
ARC
  5
7C86
  8
1
 10
4535.2863454179242
 20
3747.7393201037639
 30
0.0
 40
220.0
 50
256.48625069424082
 51
61.012627693782832
  0
LINE
  5
7C87
  8
1
 10
2967.902580271671
 20
5097.6076377555046
 30
0.0
 11
4641.9020517158278
 21
3940.1791578988482
 31
0.0
  0
LINE
  5
7C88
  8
1
 10
2927.302928968471
 20
5028.6373028910912
 30
0.0
 11
4607.2925086047844
 21
3879.3262209074041
 31
0.0
  0
LINE
  5
7C89
  8
1
 10
2639.78473149606
 20
4289.3069074774494
 30
0.0
 11
4499.473184552633
 21
3602.0773226272881
 31
0.0
  0
LINE
  5
7C8A
  8
1
 10
4483.8770319945097
 20
3533.8302681837149
 30
0.0
 11
2623.120719061531
 21
4211.0282420133999
 31
0.0
  0
INSERT
  5
7C8B
  8
0
  2
YA_N
 10
-498349.39774936117
 20
-121185.92840804219
 30
0.0
 41
60.0
 42
60.0
 43
60.0
  0
INSERT
  5
7C8C
  8
0
  2
YA_N
 10
-498349.39774936117
 20
-121185.92840804219
 30
0.0
 41
60.0
 42
60.0
 43
60.0
  0
INSERT
  5
7C8D
  8
0
  2
YA_N
 10
-498349.39774936117
 20
-121185.92840804219
 30
0.0
 41
60.0
 42
60.0
 43
60.0
  0
INSERT
  5
7C8E
  8
0
  2
YA_N
 10
-498349.39774936117
 20
-121185.92840804219
 30
0.0
 41
60.0
 42
60.0
 43
60.0
  0
INSERT
  5
7C8F
  8
0
  2
YA_N
 10
-478147.85041370947
 20
-35573.517387504377
 30
0.0
 41
60.0
 42
60.0
 43
60.0
  0
INSERT
  5
7C90
  8
0
  2
YA_N
 10
-498349.39774936117
 20
-121185.92840804219
 30
0.0
 41
60.0
 42
60.0
 43
60.0
  0
INSERT
  5
7C91
  8
0
  2
YA_N
 10
-492949.39774936129
 20
-116685.92840804219
 30
0.0
 41
960.0
 42
960.0
 43
960.0
  0
INSERT
  5
7C92
  8
0
  2
YA_N
 10
-303015.05211397132
 20
-30191.705553093328
 30
0.0
 41
60.0
 42
60.0
 43
60.0
  0
INSERT
  5
7C93
  8
0
  2
YA_N
 10
-303015.05211397132
 20
-30191.705553093328
 30
0.0
 41
60.0
 42
60.0
 43
60.0
  0
INSERT
  5
7C94
  8
0
  2
YA_N
 10
-282813.50477831962
 20
55420.70546744451
 30
0.0
 41
60.0
 42
60.0
 43
60.0
  0
INSERT
  5
7C95
  8
0
  2
YA_N
 10
-242701.37330056919
 20
142010.7994475521
 30
0.0
 41
60.0
 42
60.0
 43
60.0
  0
INSERT
  5
7C96
  8
0
  2
YA_N
 10
-59769.822302573019
 20
126250.63618826881
 30
0.0
 41
60.0
 42
60.0
 43
60.0
  0
INSERT
  5
7C97
  8
0
  2
YA_N
 10
-492949.39774936129
 20
-116685.92840804219
 30
0.0
 41
960.0
 42
960.0
 43
960.0
  0
INSERT
  5
7C9C
  8
0
  2
YA_N
 10
-492949.39774936129
 20
-116685.92840804219
 30
0.0
 41
960.0
 42
960.0
 43
960.0
  0
INSERT
  5
7C9D
  8
0
  2
YA_N
 10
-492949.39774936129
 20
-116685.92840804219
 30
0.0
 41
960.0
 42
960.0
 43
960.0
  0
INSERT
  5
7C9E
  8
0
  2
YA_N
 10
-492949.39774936129
 20
-116685.92840804219
 30
0.0
 41
960.0
 42
960.0
 43
960.0
  0
INSERT
  5
7CA4
  8
0
  2
YA_N
 10
-507341.40605274192
 20
-129737.14657465809
 30
0.0
 41
73.846153860000001
 42
73.846153860000001
 43
73.846153860000001
  0
INSERT
  5
7CA5
  8
0
  2
YA_N
 10
-497306.32090161962
 20
-120156.6976920218
 30
0.0
 41
73.846153860000001
 42
73.846153860000001
 43
73.846153860000001
  0
INSERT
  5
7CA6
  8
0
  2
YA_N
 10
-497306.32090161962
 20
-120156.6976920218
 30
0.0
 41
73.846153860000001
 42
73.846153860000001
 43
73.846153860000001
  0
INSERT
  5
7CA7
  8
0
  2
YA_N
 10
-497306.32090161962
 20
-120156.6976920218
 30
0.0
 41
73.846153860000001
 42
73.846153860000001
 43
73.846153860000001
  0
INSERT
  5
7CA8
  8
0
  2
YA_N
 10
-497306.32090161962
 20
-120156.6976920218
 30
0.0
 41
73.846153860000001
 42
73.846153860000001
 43
73.846153860000001
  0
INSERT
  5
7CA9
  8
0
  2
YA_N
 10
-497306.32090161962
 20
-120156.6976920218
 30
0.0
 41
73.846153860000001
 42
73.846153860000001
 43
73.846153860000001
  0
INSERT
  5
7CAA
  8
0
  2
YA_N
 10
-462004.53057766368
 20
101321.4645270261
 30
0.0
 41
73.846153860000001
 42
73.846153860000001
 43
73.846153860000001
  0
INSERT
  5
7CAB
  8
0
  2
YA_N
 10
-188593.34914230451
 20
99218.325011827998
 30
0.0
 41
73.846153860000001
 42
73.846153860000001
 43
73.846153860000001
  0
INSERT
  5
7CAC
  8
0
  2
YA_N
 10
-188593.34914230451
 20
99218.325011827998
 30
0.0
 41
73.846153860000001
 42
73.846153860000001
 43
73.846153860000001
  0
INSERT
  5
7CAD
  8
0
  2
YA_N
 10
-188593.34914230451
 20
99218.325011827998
 30
0.0
 41
73.846153860000001
 42
73.846153860000001
 43
73.846153860000001
  0
INSERT
  5
7CAE
  8
0
  2
YA_N
 10
-188593.34914230451
 20
99218.325011827998
 30
0.0
 41
73.846153860000001
 42
73.846153860000001
 43
73.846153860000001
  0
INSERT
  5
7CAF
  8
0
  2
YA_N
 10
-11739.208955760711
 20
251997.69575799839
 30
0.0
 41
73.846153860000001
 42
73.846153860000001
 43
73.846153860000001
  0
INSERT
  5
7CB0
  8
0
  2
YA_N
 10
-11739.208955760711
 20
251997.69575799839
 30
0.0
 41
73.846153860000001
 42
73.846153860000001
 43
73.846153860000001
  0
INSERT
  5
7CB1
  8
0
  2
YA_N
 10
-241399.14127254329
 20
64900.027207661493
 30
0.0
 41
73.846153860000001
 42
73.846153860000001
 43
73.846153860000001
  0
INSERT
  5
7CB2
  8
0
  2
YA_N
 10
-546757.92679440638
 20
-168937.0702355745
 30
0.0
 41
73.846153860000001
 42
73.846153860000001
 43
73.846153860000001
  0
INSERT
  5
7CB3
  8
0
  2
YA_N
 10
-491989.39782370173
 20
-115725.9284604221
 30
0.0
 41
960.00000017999992
 42
960.00000017999992
 43
960.00000017999992
  0
INSERT
  5
7CB5
  8
0
  2
YA_N
 10
-491989.39782370173
 20
-115725.9284604221
 30
0.0
 41
960.00000017999992
 42
960.00000017999992
 43
960.00000017999992
  0
INSERT
  5
7CBA
  8
0
  2
YA_N
 10
-491989.39782370173
 20
-115725.9284604221
 30
0.0
 41
960.00000017999992
 42
960.00000017999992
 43
960.00000017999992
  0
INSERT
  5
7CBB
  8
0
  2
YA_N
 10
-491989.39782370173
 20
-115725.9284604221
 30
0.0
 41
960.00000017999992
 42
960.00000017999992
 43
960.00000017999992
  0
INSERT
  5
7CBC
  8
0
  2
YA_N
 10
-491989.39782370173
 20
-115725.9284604221
 30
0.0
 41
960.00000017999992
 42
960.00000017999992
 43
960.00000017999992
  0
INSERT
  5
7CC1
  8
0
  2
YA_N
 10
-507341.40605274192
 20
-129737.14657465809
 30
0.0
 41
73.846153860000001
 42
73.846153860000001
 43
73.846153860000001
  0
INSERT
  5
7CC2
  8
0
  2
YA_N
 10
-497306.32090161962
 20
-120156.6976920218
 30
0.0
 41
73.846153860000001
 42
73.846153860000001
 43
73.846153860000001
  0
INSERT
  5
7CC3
  8
0
  2
YA_N
 10
-497306.32090161962
 20
-120156.6976920218
 30
0.0
 41
73.846153860000001
 42
73.846153860000001
 43
73.846153860000001
  0
INSERT
  5
7CC4
  8
0
  2
YA_N
 10
-497306.32090161962
 20
-120156.6976920218
 30
0.0
 41
73.846153860000001
 42
73.846153860000001
 43
73.846153860000001
  0
INSERT
  5
7CC5
  8
0
  2
YA_N
 10
-497306.32090161962
 20
-120156.6976920218
 30
0.0
 41
73.846153860000001
 42
73.846153860000001
 43
73.846153860000001
  0
INSERT
  5
7CC6
  8
0
  2
YA_N
 10
-497306.32090161962
 20
-120156.6976920218
 30
0.0
 41
73.846153860000001
 42
73.846153860000001
 43
73.846153860000001
  0
INSERT
  5
7CC7
  8
0
  2
YA_N
 10
-462004.53057766368
 20
101321.4645270261
 30
0.0
 41
73.846153860000001
 42
73.846153860000001
 43
73.846153860000001
  0
INSERT
  5
7CC8
  8
0
  2
YA_N
 10
-188593.34914230451
 20
99218.325011827998
 30
0.0
 41
73.846153860000001
 42
73.846153860000001
 43
73.846153860000001
  0
INSERT
  5
7CC9
  8
0
  2
YA_N
 10
-188593.34914230451
 20
99218.325011827998
 30
0.0
 41
73.846153860000001
 42
73.846153860000001
 43
73.846153860000001
  0
INSERT
  5
7CCA
  8
0
  2
YA_N
 10
-188593.34914230451
 20
99218.325011827998
 30
0.0
 41
73.846153860000001
 42
73.846153860000001
 43
73.846153860000001
  0
INSERT
  5
7CCB
  8
0
  2
YA_N
 10
-188593.34914230451
 20
99218.325011827998
 30
0.0
 41
73.846153860000001
 42
73.846153860000001
 43
73.846153860000001
  0
INSERT
  5
7CCC
  8
0
  2
YA_N
 10
-11739.208955760711
 20
251997.69575799839
 30
0.0
 41
73.846153860000001
 42
73.846153860000001
 43
73.846153860000001
  0
INSERT
  5
7CCD
  8
0
  2
YA_N
 10
-11739.208955760711
 20
251997.69575799839
 30
0.0
 41
73.846153860000001
 42
73.846153860000001
 43
73.846153860000001
  0
INSERT
  5
7CCE
  8
0
  2
YA_N
 10
-241399.14127254329
 20
64900.027207661493
 30
0.0
 41
73.846153860000001
 42
73.846153860000001
 43
73.846153860000001
  0
INSERT
  5
7CCF
  8
0
  2
YA_N
 10
-546757.92679440638
 20
-168937.0702355745
 30
0.0
 41
73.846153860000001
 42
73.846153860000001
 43
73.846153860000001
  0
INSERT
  5
7CD0
  8
0
  2
YA_N
 10
-491989.39782370173
 20
-115725.9284604221
 30
0.0
 41
960.00000017999992
 42
960.00000017999992
 43
960.00000017999992
  0
INSERT
  5
7CD2
  8
0
  2
YA_N
 10
-491989.39782370173
 20
-115725.9284604221
 30
0.0
 41
960.00000017999992
 42
960.00000017999992
 43
960.00000017999992
  0
INSERT
  5
7CD7
  8
0
  2
YA_N
 10
-491989.39782370173
 20
-115725.9284604221
 30
0.0
 41
960.00000017999992
 42
960.00000017999992
 43
960.00000017999992
  0
INSERT
  5
7CD8
  8
0
  2
YA_N
 10
-491989.39782370173
 20
-115725.9284604221
 30
0.0
 41
960.00000017999992
 42
960.00000017999992
 43
960.00000017999992
  0
INSERT
  5
7CD9
  8
0
  2
YA_N
 10
-491989.39782370173
 20
-115725.9284604221
 30
0.0
 41
960.00000017999992
 42
960.00000017999992
 43
960.00000017999992
  0
INSERT
  5
7CDE
  8
0
  2
YA_N
 10
-41654.787000478842
 20
-7551.3941188074969
 30
0.0
 41
60.0
 42
60.0
 43
60.0
  0
INSERT
  5
7CDF
  8
0
  2
YA_N
 10
-41654.787000478842
 20
-7551.3941188074969
 30
0.0
 41
60.0
 42
60.0
 43
60.0
  0
POINT
  5
7CE0
  8
1
 10
1785.2864809002781
 20
3162.7409007486981
 30
0.0
  0
POINT
  5
7CE1
  8
1
 10
1785.2864325131659
 20
3087.740900748714
 30
0.0
  0
POINT
  5
7CE2
  8
1
 10
1785.286493803512
 20
3277.7409007486931
 30
0.0
  0
POINT
  5
7CE3
  8
1
 10
1785.2864809002781
 20
3162.7409007486981
 30
0.0
  0
DIMENSION
  5
7CE4
  8
3
  2
*D2
 10
8552.3215006855535
 20
3877.7359282220691
 30
0.0
 11
8472.3215006855535
 21
4677.7354282220685
 31
0.0
 12
860.23543475328916
 22
2653.6899712964469
 32
0.0
 70
     0
  1
φ1600
 13
7997.2581505956259
 23
5477.7349282220694
 33
0.0
 14
7997.2581505956259
 24
3877.7359282220691
 34
0.0
 50
90.0
1001
ACAD
1000
DSTYLE
1002
{
1070
    40
1040
40.0
1002
}
  0
DIMENSION
  5
7CE5
  8
3
  2
*D3
 10
7997.2581505956259
 20
6170.6990439031842
 30
0.0
 11
7629.3599215932554
 21
6170.6990439031842
 31
0.0
 12
860.23543475328916
 22
2653.6899712964469
 32
0.0
 70
   128
  1
725
 13
7273.2541505956251
 23
6053.1612595195311
 33
0.0
 14
7997.2581505956259
 24
5542.7349282220703
 34
0.0
1001
ACAD
1000
DSTYLE
1002
{
1070
    40
1040
40.0
1002
}
  0
POINT
  5
7CE6
  8
1
 10
6293.2541505956251
 20
5157.7389282220702
 30
0.0
  0
POINT
  5
7CE7
  8
1
 10
7273.2541505956251
 20
6053.1612595195311
 30
0.0
  0
INSERT
  5
7CE8
  8
0
  2
YA_N
 10
24610.501474415811
 20
2573.8043110843828
 30
0.0
 41
2.399999999999999
 42
2.399999999999999
 43
2.399999999999999
  0
INSERT
  5
7CEA
  8
0
  2
YA_N
 10
16229.114541629609
 20
17454.16869492926
 30
0.0
 41
60.0
 42
60.0
 43
60.0
 50
270.0
  0
LINE
  5
7CEC
  8
2
 10
2735.2864938035132
 20
2931.9612276243938
 30
0.0
 11
2735.2864938035132
 21
5867.0992625055806
 31
0.0
  0
LINE
  5
7CED
  8
2
 10
4746.5127327625669
 20
4677.7389007480497
 30
0.0
 11
1390.507802689368
 21
4677.7389007480497
 31
0.0
  0
DIMENSION
  5
7CEE
  8
3
  2
*D4
 10
5167.5515105337763
 20
5722.7389007480488
 30
0.0
 11
5087.5515105337763
 21
5200.2389007480488
 31
0.0
 12
860.23543475328916
 22
2653.6899712964469
 32
0.0
 70
     0
 13
4600.0992402755364
 23
4677.7389007480488
 33
0.0
 14
4495.2874938035156
 24
5722.7389007480488
 34
0.0
 50
270.0
1001
ACAD
1000
DSTYLE
1002
{
1070
    40
1040
40.0
1002
}
  0
LINE
  5
7CEF
  8
1
 10
1785.286493803505
 20
3087.7389007480492
 30
0.0
 11
1785.286493803505
 21
3162.7409007486899
 31
0.0
  0
LINE
  5
7CF0
  8
1
 10
1785.286493803505
 20
3277.7389007480492
 30
0.0
 11
1785.2864938034979
 21
3427.7409007486931
 31
0.0
  0
DIMENSION
  5
7CF1
  8
3
  2
*D5
 10
2735.2864938035132
 20
2777.4847133568019
 30
0.0
 11
2260.2864938035082
 21
2857.4847133568019
 31
0.0
 70
     0
 13
1785.286493803505
 23
3087.7409007486749
 33
0.0
 14
2735.2864938035132
 24
2931.9612276243938
 34
0.0
1001
ACAD
1000
DSTYLE
1002
{
1070
    40
1040
40.0
1002
}
  0
LINE
  5
7CF2
  8
1
 10
4885.2864938035118
 20
3087.7389007480292
 30
0.0
 11
4885.2864938035118
 21
3162.7389007480451
 31
0.0
  0
LINE
  5
7CF3
  8
1
 10
4885.2864938035118
 20
3277.7389007480492
 30
0.0
 11
4885.2864938035118
 21
3427.7389007480501
 31
0.0
  0
DIMENSION
  5
7CF4
  8
3
  2
*D6
 10
4885.2864938035118
 20
2777.4847133568019
 30
0.0
 11
3810.2864938035118
 21
2857.4847133568019
 31
0.0
 70
     0
 13
2735.2864938035132
 23
2931.9612276243938
 33
0.0
 14
4885.2864938035118
 24
3087.7389007480278
 34
0.0
1001
ACAD
1000
DSTYLE
1002
{
1070
   287
1070
     4
1070
   287
1070
     4
1070
   287
1070
     4
1070
    40
1040
40.0
1070
    75
1070
     1
1070
   279
1070
     1
1070
   289
1070
     3
1002
}
  0
DIMENSION
  5
7CF6
  8
3
  2
*D7
 10
2780.2874938035161
 20
6086.189053454993
 30
0.0
 11
3605.2874938035161
 21
6166.189053454993
 31
0.0
 12
860.23543475328916
 22
2653.6899712964469
 32
0.0
 70
     0
 13
4430.2874938035166
 23
5722.7389007480488
 33
0.0
 14
2780.2874938035161
 24
5722.7389007480488
 34
0.0
 50
180.0
1001
ACAD
1000
DSTYLE
1002
{
1070
    40
1040
40.0
1002
}
  0
LINE
  5
7CF7
  8
1
 10
4430.2864938035127
 20
5722.7389007480488
 30
0.0
 11
4333.7553589977688
 21
4677.7429364662858
 31
0.0
  0
DIMENSION
  5
7CF8
  8
3
  2
*D8
 10
2735.2864938035132
 20
6331.565500122033
 30
0.0
 11
3582.7864938035118
 21
6411.565500122033
 31
0.0
 12
860.23543475328916
 22
2653.6899712964469
 32
0.0
 70
     0
 13
4430.2864938035127
 23
5722.7389007480488
 33
0.0
 14
2735.2864938035132
 24
5840.8126067879521
 34
0.0
 50
180.0
1001
ACAD
1000
DSTYLE
1002
{
1070
    40
1040
40.0
1002
}
  0
LINE
  5
7CF9
  8
1
 10
7942.2541505956251
 20
3427.7389282226941
 30
0.0
 11
7942.2541505956251
 21
3277.7379282226939
 31
0.0
  0
LINE
  5
7CFA
  8
1
 10
7863.254150595626
 20
3427.7389282226941
 30
0.0
 11
7863.2541505956333
 21
5722.738928222072
 31
0.0
  0
LINE
  5
7CFB
  8
1
 10
6683.254150595626
 20
3427.7389282226941
 30
0.0
 11
6683.254150595626
 21
5722.7389282220711
 31
0.0
  0
DIMENSION
  5
7CFC
  8
3
  2
*D9
 10
7863.2541505956333
 20
5878.4405854411052
 30
0.0
 11
7273.2541505956287
 21
5958.4405854411052
 31
0.0
 12
860.23543475328916
 22
2653.6899712964469
 32
0.0
 70
     0
 13
6683.254150595626
 23
5722.7389282220711
 33
0.0
 14
7863.2541505956333
 24
5722.738928222072
 34
0.0
1001
ACAD
1000
DSTYLE
1002
{
1070
    40
1040
40.0
1002
}
  0
DIMENSION
  5
7CFD
  8
3
  2
*D10
 10
7273.2541505956251
 20
2774.7358964878899
 30
0.0
 11
7607.7541505956242
 21
2854.7358964878899
 31
0.0
 70
     0
 13
7942.2541505956251
 23
3087.7379282226761
 33
0.0
 14
7273.2541505956251
 24
2854.6463254469581
 34
0.0
1001
ACAD
1000
DSTYLE
1002
{
1070
    40
1040
40.0
1002
}
  0
LINE
  5
7CFE
  8
1
 10
6342.2541505956251
 20
3087.7389282220511
 30
0.0
 11
6342.2541505956251
 21
3162.7389282220661
 31
0.0
  0
LINE
  5
7CFF
  8
1
 10
6342.2541505956251
 20
3277.7389282220688
 30
0.0
 11
6342.2541505956251
 21
3427.7389282226941
 31
0.0
  0
DIMENSION
  5
7D00
  8
3
  2
*D11
 10
6342.2541505956251
 20
2774.7358964878899
 30
0.0
 11
6807.7541505956242
 21
2854.7358964878899
 31
0.0
 70
     0
 13
7273.2541505956251
 23
2854.6463254469581
 33
0.0
 14
6342.2541505956251
 24
3087.7389282220511
 34
0.0
1001
ACAD
1000
DSTYLE
1002
{
1070
   287
1070
     4
1070
   287
1070
     4
1070
   287
1070
     4
1070
    40
1040
40.0
1070
    75
1070
     1
1070
   279
1070
     1
1070
   289
1070
     3
1002
}
  0
LINE
  5
7D02
  8
2
 10
4271.0690971788936
 20
8590.420063000749
 30
0.0
 11
1760.0899170980331
 21
8590.420063000749
 31
0.0
  0
LINE
  5
7D03
  8
1
 10
3685.2864938035118
 20
9259.4200630007508
 30
0.0
 11
1785.286493803512
 21
9259.4200630007508
 31
0.0
  0
LINE
  5
7D04
  8
1
 10
4885.2864938035118
 20
7659.420063000749
 30
0.0
 11
1785.286493803512
 21
7659.420063000749
 31
0.0
  0
LINE
  5
7D05
  8
1
 10
1785.286493803512
 20
7659.420063000749
 30
0.0
 11
1785.286493803512
 21
8000.420063000749
 31
0.0
  0
LINE
  5
7D06
  8
1
 10
4885.2864938035118
 20
7659.4200630007508
 30
0.0
 11
4885.2864938035118
 21
8759.420063000749
 31
0.0
  0
LINE
  5
7D07
  8
1
 10
4885.2864938035118
 20
8759.420063000749
 30
0.0
 11
4430.28649380352
 21
8759.420063000749
 31
0.0
  0
LINE
  5
7D08
  8
1
 10
3685.2864938035118
 20
9180.4200630007508
 30
0.0
 11
3685.2864938035118
 21
9259.4200630007508
 31
0.0
  0
LINE
  5
7D09
  8
1
 10
4430.2864938035127
 20
9180.4200630007472
 30
0.0
 11
1596.286493803512
 21
9180.420063000749
 31
0.0
  0
LINE
  5
7D0A
  8
1
 10
4430.2864938035127
 20
8000.420063000749
 30
0.0
 11
1596.286493803512
 21
8000.420063000749
 31
0.0
  0
LINE
  5
7D0B
  8
1
 10
1785.286493803512
 20
9180.420063000749
 30
0.0
 11
1785.286493803512
 21
9259.4200630007508
 31
0.0
  0
DIMENSION
  5
7D0C
  8
3
  2
*D12
 10
6293.2541505956251
 20
6170.6990439031842
 30
0.0
 11
6783.254150595626
 21
6350.6990439031833
 31
0.0
 70
     0
  1
MAX\P1080
 13
7273.2541505956251
 23
6053.1612595195311
 33
0.0
 14
6293.2541505956251
 24
5157.7389282220702
 34
0.0
1001
ACAD
1000
DSTYLE
1002
{
1070
   287
1070
     4
1070
   287
1070
     4
1070
   287
1070
     4
1070
    40
1040
40.0
1070
    75
1070
     1
1070
   279
1070
     1
1070
   289
1070
     3
1002
}
  0
LINE
  5
7D0D
  8
1
 10
2685.2864938035132
 20
7740.4200630007481
 30
0.0
 11
2685.28649380352
 21
8000.420063000749
 31
0.0
  0
LINE
  5
7D0E
  8
1
 10
2785.2864938035118
 20
7740.4200630007481
 30
0.0
 11
2785.2864938035118
 21
8000.420063000749
 31
0.0
  0
LINE
  5
7D0F
  8
1
 10
4755.2864938035118
 20
7590.420063000749
 30
0.0
 11
4755.2864938035118
 21
7780.4200630007481
 31
0.0
  0
LINE
  5
7D10
  8
1
 10
2255.2864938035132
 20
7590.420063000749
 30
0.0
 11
2255.2864938035132
 21
7780.4200630007481
 31
0.0
  0
LINE
  5
7D11
  8
1
 10
3135.2874938035088
 20
7640.4200630007454
 30
0.0
 11
2335.2864938035132
 21
7640.4200630007499
 31
0.0
  0
LINE
  5
7D12
  8
1
 10
2335.2864938035132
 20
7740.420063000749
 30
0.0
 11
3135.2874938035088
 21
7740.4200630007454
 31
0.0
  0
LINE
  5
7D14
  8
1
 10
2255.2864938035132
 20
7780.4200630007481
 30
0.0
 11
2255.2864938035132
 21
7590.420063000749
 31
0.0
  0
LINE
  5
7D15
  8
1
 10
4755.2864938035118
 20
7780.4200630007481
 30
0.0
 11
2255.2864938035132
 21
7780.4200630007481
 31
0.0
  0
LINE
  5
7D16
  8
1
 10
4755.2864938035054
 20
7590.4199156995983
 30
0.0
 11
2255.2864938035132
 21
7590.420063000749
 31
0.0
  0
LINE
  5
7D17
  8
2
 10
2735.2864938035132
 20
9068.8676493442254
 30
0.0
 11
2735.2864938035132
 21
7552.3191085482458
 31
0.0
  0
LINE
  5
7D18
  8
1
 10
4685.2864938035054
 20
7740.4199156995983
 30
0.0
 11
4385.2864938035054
 21
7740.4199156996001
 31
0.0
  0
LINE
  5
7D19
  8
1
 10
4685.2864938035054
 20
7640.4199156995992
 30
0.0
 11
4385.2864938035054
 21
7640.4199156996001
 31
0.0
  0
LINE
  5
7D1A
  8
1
 10
4755.2864938035118
 20
7780.4200630007481
 30
0.0
 11
4755.2864938035054
 21
7590.4199156995983
 31
0.0
  0
LINE
  5
7D1B
  8
1
 10
4685.2864938035054
 20
7640.4199156995992
 30
0.0
 11
4685.2864938035054
 21
7740.4199156995983
 31
0.0
  0
LINE
  5
7D1C
  8
2
 10
4535.2864938035273
 20
8585.9946662128859
 30
0.0
 11
4535.2864938035054
 21
7547.6639156996052
 31
0.0
  0
LINE
  5
7D1D
  8
1
 10
4385.2864938035054
 20
7740.4199156996001
 30
0.0
 11
4385.2864938035054
 21
7640.4199156996001
 31
0.0
  0
LINE
  5
7D1E
  8
1
 10
3135.2874938035088
 20
7740.4200630007454
 30
0.0
 11
3135.2874938035088
 21
7640.4200630007454
 31
0.0
  0
LINE
  5
7D1F
  8
1
 10
2335.2864938035132
 20
7640.4200630007499
 30
0.0
 11
2335.2864938035132
 21
7740.420063000749
 31
0.0
  0
LINE
  5
7D20
  8
1
 10
4685.2864938035118
 20
8514.9199156995983
 30
0.0
 11
4385.2864938035118
 21
8514.9199156996001
 31
0.0
  0
LINE
  5
7D21
  8
1
 10
4685.2864938035118
 20
7927.4199156995992
 30
0.0
 11
4385.2864938035118
 21
7927.419915699601
 31
0.0
  0
LINE
  5
7D22
  8
1
 10
4685.2864938035118
 20
8514.9199156995983
 30
0.0
 11
4685.2864938035118
 21
7927.4199156995992
 31
0.0
  0
LINE
  5
7D23
  8
1
 10
4385.2864938035118
 20
8514.9199156996001
 30
0.0
 11
4385.2864938035118
 21
7927.419915699601
 31
0.0
  0
LINE
  5
7D24
  8
1
 10
4497.7864938035118
 20
7927.419915699601
 30
0.0
 11
4497.7864938035054
 21
7740.4199156996001
 31
0.0
  0
LINE
  5
7D25
  8
1
 10
4572.7864938035054
 20
7927.419915699601
 30
0.0
 11
4572.7864938035054
 21
7740.4199156995983
 31
0.0
  0
LINE
  5
7D26
  8
1
 10
6683.254150595626
 20
3785.2393201037639
 30
0.0
 11
6483.253455938655
 21
3785.2393201037639
 31
0.0
  0
LINE
  5
7D27
  8
1
 10
6683.254150595626
 20
3710.2393201037639
 30
0.0
 11
6483.2534099070326
 21
3710.2393201037639
 31
0.0
  0
DIMENSION
  5
7D28
  8
3
  2
*D13
 10
3685.2864938035118
 20
9535.7367057041156
 30
0.0
 11
4285.2864938035118
 21
9615.7367057041156
 31
0.0
 12
860.23543475328916
 22
1198.2079284786989
 32
0.0
 70
     0
 13
4885.2864938035118
 23
8759.420063000749
 33
0.0
 14
3685.2864938035118
 24
9259.4200630007508
 34
0.0
1001
ACAD
1000
DSTYLE
1002
{
1070
    40
1040
40.0
1002
}
  0
DIMENSION
  5
7D29
  8
3
  2
*D14
 10
1785.286493803512
 20
9535.7367057041156
 30
0.0
 11
2735.2864938035132
 21
9615.7367057041156
 31
0.0
 70
     0
 13
3685.2864938035118
 23
9259.4200630007508
 33
0.0
 14
1785.286493803512
 24
9259.4200630007508
 34
0.0
1001
ACAD
1000
DSTYLE
1002
{
1070
   287
1070
     4
1070
   287
1070
     4
1070
   287
1070
     4
1070
    40
1040
40.0
1070
    75
1070
     1
1070
   279
1070
     1
1070
   289
1070
     3
1002
}
  0
DIMENSION
  5
7D2A
  8
3
  2
*D15
 10
5222.9925263958348
 20
7659.420063000749
 30
0.0
 11
5142.9925263958357
 21
8209.420063000749
 31
0.0
 12
860.23543475328916
 22
1198.2079284786989
 32
0.0
 70
     0
 13
4885.2864938035118
 23
8759.420063000749
 33
0.0
 14
4885.2864938035118
 24
7659.420063000749
 34
0.0
 50
270.0
1001
ACAD
1000
DSTYLE
1002
{
1070
    40
1040
40.0
1002
}
  0
DIMENSION
  5
7D2B
  8
3
  2
*D16
 10
1355.3350868807529
 20
7659.420063000749
 30
0.0
 11
1275.335086880754
 21
8459.420063000749
 31
0.0
 12
860.23543475328916
 22
1198.2079284786989
 32
0.0
 70
     0
 13
1785.286493803512
 23
9259.4200630007508
 33
0.0
 14
1785.286493803512
 24
7659.420063000749
 34
0.0
 50
270.0
1001
ACAD
1000
DSTYLE
1002
{
1070
    40
1040
40.0
1002
}
  0
DIMENSION
  5
7D2C
  8
3
  2
*D17
 10
1785.286493803512
 20
7176.4274949920155
 30
0.0
 11
3335.2864938035118
 21
7256.4274949920136
 31
0.0
 12
860.23543475328916
 22
1198.2079284786989
 32
0.0
 70
     0
 13
4885.2864938035118
 23
7659.420063000749
 33
0.0
 14
1785.286493803512
 24
7659.420063000749
 34
0.0
1001
ACAD
1000
DSTYLE
1002
{
1070
    40
1040
40.0
1002
}
  0
LINE
  5
7D2D
  8
1
 10
4885.2864938035054
 20
3277.7389007480492
 30
0.0
 11
1785.2864938034979
 21
3277.7389007480492
 31
0.0
  0
LINE
  5
7D2E
  8
1
 10
4885.2864938035054
 20
3427.7389007480501
 30
0.0
 11
1785.2864938034979
 21
3427.7389007480501
 31
0.0
  0
LINE
  5
7D2F
  8
1
 10
4885.2864938035054
 20
3162.7389007480492
 30
0.0
 11
1785.2864938034979
 21
3162.7389007480492
 31
0.0
  0
LINE
  5
7D30
  8
1
 10
4885.2864938035054
 20
3087.7389007480501
 30
0.0
 11
1785.2864938034979
 21
3087.7389007480492
 31
0.0
  0
DIMENSION
  5
7D31
  8
3
  2
*D18
 10
5167.5515105337763
 20
3277.7389007480492
 30
0.0
 11
5087.5515105337754
 21
3977.7389007480501
 31
0.0
 70
     0
 13
4600.0992402755364
 23
4677.7389007480488
 33
0.0
 14
4885.2864938035118
 24
3277.7389007480492
 34
0.0
 50
270.0
1001
ACAD
1000
DSTYLE
1002
{
1070
   287
1070
     4
1070
   287
1070
     4
1070
   287
1070
     4
1070
    40
1040
40.0
1070
    75
1070
     1
1070
   279
1070
     1
1070
   289
1070
     3
1002
}
  0
DIMENSION
  5
7D35
  8
3
  2
*D19
 10
1596.286493803512
 20
6331.565500122033
 30
0.0
 11
2165.7864938035118
 21
6411.565500122033
 31
0.0
 70
     0
 13
2735.2864938035132
 23
5840.8126067879521
 33
0.0
 14
1596.286493803512
 24
4561.7379007480522
 34
0.0
1001
ACAD
1000
DSTYLE
1002
{
1070
   287
1070
     4
1070
   287
1070
     4
1070
   287
1070
     4
1070
    40
1040
40.0
1070
    75
1070
     1
1070
   279
1070
     1
1070
   289
1070
     3
1002
}
  0
DIMENSION
  5
7D36
  8
3
  2
*D20
 10
4885.2864938035118
 20
6611.3092053117734
 30
0.0
 11
3240.7864938035118
 21
6691.3092053117716
 31
0.0
 12
860.23543475328916
 22
2653.6899712964469
 32
0.0
 70
     0
 13
1596.286493803512
 23
4561.7379007480522
 33
0.0
 14
4885.2864938035118
 24
3427.7389007480501
 34
0.0
1001
ACAD
1000
DSTYLE
1002
{
1070
    40
1040
40.0
1002
}
  0
LINE
  5
7D37
  8
1
 10
1596.286493803512
 20
9180.420063000749
 30
0.0
 11
1596.286493803512
 21
8000.420063000749
 31
0.0
  0
LINE
  5
7D38
  8
1
 10
4430.28649380352
 20
9180.4200630007472
 30
0.0
 11
4430.2864938035127
 21
8000.420063000749
 31
0.0
  0
LINE
  5
7D39
  8
1
 10
2780.28649380352
 20
9180.4200630007581
 30
0.0
 11
2780.2864938035132
 21
8000.4200630007581
 31
0.0
  0
LINE
  5
7D3A
  8
1
 10
2780.28649380352
 20
9180.420063000749
 30
0.0
 11
4430.2864938035127
 21
8000.420063000749
 31
0.0
  0
LINE
  5
7D3B
  8
1
 10
4430.28649380352
 20
9180.4200630007472
 30
0.0
 11
2780.2864938035132
 21
8000.420063000749
 31
0.0
  0
LINE
  5
7D3C
  8
1
 10
6683.254150595626
 20
5657.7389007480488
 30
0.0
 11
7863.2541505956333
 21
5657.7389007480488
 31
0.0
  0
LINE
  5
7F5F
  8
4
 10
8325.0
 20
2250.0
 30
0.0
 11
8325.0
 21
1350.0
 31
0.0
  0
LINE
  5
7F60
  8
4
 10
5175.0
 20
2250.0
 30
0.0
 11
5175.0
 21
1350.0
 31
0.0
  0
LINE
  5
7F61
  8
4
 10
2925.0
 20
2250.0
 30
0.0
 11
2925.0
 21
1350.0
 31
0.0
  0
LINE
  5
7F64
  8
4
 10
2925.0
 20
1350.0
 30
0.0
 11
8325.0
 21
1350.0
 31
0.0
  0
LINE
  5
7F65
  8
4
 10
2925.0
 20
1800.0
 30
0.0
 11
8325.0
 21
1800.0
 31
0.0
  0
TEXT
  5
7F66
  8
4
 10
3098.259363811057
 20
1941.943616399758
 30
0.0
 40
225.0
  1
機器名称
  0
TEXT
  5
7F67
  8
4
 10
3088.1614771115892
 20
1447.403205294049
 30
0.0
 40
225.0
  1
機器型番
  0
TEXT
  5
7F68
  8
4
 10
5299.5543546944918
 20
1901.5729603090581
 30
0.0
 40
225.0
  1
ミツヤ多翼送風機
  0
TEXT
  5
7F69
  8
4
 10
5339.9452301346628
 20
1427.218129259745
 30
0.0
 40
225.0
  1
MFE#10-4
  0
TEXT
  5
7F6B
  8
4
 10
3644.6107756401102
 20
10725.429785996321
 30
0.0
 40
242.99999999999989
  1
床置防振ベット
  0
TEXT
  5
7F6C
  8
4
 10
1422.7541699825081
 20
11402.46439289684
 30
0.0
 40
324.0
  1
ベルト駆動式片吸込両持排煙ファン
  0
LINE
  5
7F6D
  8
4
 10
1125.0
 20
11112.33939419162
 30
0.0
 11
8325.0
 21
11112.33939419162
 31
0.0
  0
LINE
  5
7F6E
  8
4
 10
1125.0
 20
12012.33939419162
 30
0.0
 11
8325.0
 21
12012.33939419162
 31
0.0
  0
LINE
  5
7F6F
  8
4
 10
2925.0
 20
2250.0
 30
0.0
 11
8325.0
 21
2250.0
 31
0.0
  0
LINE
  5
7F70
  8
4
 10
1125.0
 20
12012.33939419162
 30
0.0
 11
1125.0
 21
11112.33939419162
 31
0.0
  0
TEXT
  5
7F71
  8
4
 10
1683.2460305479501
 20
10720.437648958539
 30
0.0
 40
242.99999999999989
  1
左回転上向
  0
TEXT
  5
7F72
  8
4
 10
6610.3630166218027
 20
12177.274866728891
 30
0.0
 40
252.0
  1
No.
  0
TEXT
  5
7F73
  8
4
 10
5900.832281700059
 20
10725.429785996321
 30
0.0
 40
242.99999999999989
  1
縮尺：1/45
  0
LINE
  5
7F74
  8
4
 10
8325.0
 20
12012.33939419162
 30
0.0
 11
8325.0
 21
11112.33939419162
 31
0.0
  0
LINE
  5
7F75
  8
4
 10
9450.0
 20
13275.0
 30
0.0
 11
9450.0
 21
13275.0
 31
0.0
  0
LINE
  5
7F76
  8
4
 10
6482.7784006193906
 20
12065.686124064299
 30
0.0
 11
6482.7784006193906
 21
12539.935176973881
 31
0.0
  0
LINE
  5
7F77
  8
4
 10
6482.7784006193906
 20
12539.935176973881
 30
0.0
 11
8325.0
 21
12539.935176973881
 31
0.0
  0
LINE
  5
7F78
  8
4
 10
8325.0
 20
12539.935176973881
 30
0.0
 11
8325.0
 21
12065.686124064299
 31
0.0
  0
LINE
  5
7F79
  8
4
 10
8325.0
 20
12065.686124064299
 30
0.0
 11
6482.7784006193906
 21
12065.686124064299
 31
0.0
  0
LINE
  5
7F7A
  8
4
 10
0.0
 20
0.0
 30
0.0
 11
0.0
 21
13275.0
 31
0.0
  0
LINE
  5
7F7B
  8
4
 10
0.0
 20
13275.0
 30
0.0
 11
9450.0
 21
13275.0
 31
0.0
  0
LINE
  5
7F7C
  8
4
 10
9450.0
 20
13275.0
 30
0.0
 11
9450.0
 21
0.0
 31
0.0
  0
LINE
  5
7F7D
  8
4
 10
9450.0
 20
0.0
 30
0.0
 11
0.0
 21
0.0
 31
0.0
  0
DIMENSION
  5
8134
  8
3
  2
*D22
 10
5167.5515105337763
 20
3162.7389007480492
 30
0.0
 11
5440.7657962480607
 21
3391.5603293194781
 31
0.0
 70
     0
  1
(<>)
 13
4885.2864938035118
 23
3277.7389007480492
 33
0.0
 14
4885.2864938035054
 24
3162.7389007480492
 34
0.0
 50
270.0
1001
ACAD
1000
DSTYLE
1002
{
1070
   287
1070
     4
1070
   287
1070
     4
1070
   287
1070
     4
1070
     7
1000
NONE
1070
     6
1000
NONE
1070
    40
1040
45.0
1070
   143
1040
0.039
1070
   172
1070
     1
1070
   271
1070
     0
1070
   279
1070
     1
1070
   288
1070
     1
1002
}
  0
DIMENSION
  5
8146
  8
3
  2
*D23
 10
5167.5515105337763
 20
3087.7389007480492
 30
0.0
 11
5294.2081373602632
 21
2770.2136677354101
 31
0.0
 70
   128
 13
4885.2864938035054
 23
3162.7389007480492
 33
0.0
 14
4885.2864938035118
 24
3087.7389007480501
 34
0.0
 50
270.0
1001
ACAD
1000
DSTYLE
1002
{
1070
   287
1070
     4
1070
   287
1070
     4
1070
   287
1070
     4
1070
     6
1000
DOTSMALL
1070
    40
1040
45.0
1070
   143
1040
0.039
1070
   172
1070
     1
1070
   271
1070
     0
1070
   279
1070
     1
1070
   288
1070
     1
1002
}
  0
ENDSEC
  0
EOF
