  0
SECTION
  2
HEADER
  9
$ACADVER
  1
AC1009
  9
$INSBASE
 10
0.0
 20
0.0
 30
0.0
  9
$EXTMIN
 10
0.0
 20
0.0
 30
0.0
  9
$EXTMAX
 10
9450.0
 20
13275.0
 30
0.0
  9
$LIMMIN
 10
0.0
 20
0.0
  9
$LIMMAX
 10
297.0
 20
210.0
  9
$ORTHOMODE
 70
     0
  9
$REGENMODE
 70
     1
  9
$FILLMODE
 70
     0
  9
$QTEXTMODE
 70
     0
  9
$MIRRTEXT
 70
     1
  9
$DRAGMODE
 70
     2
  9
$LTSCALE
 40
100.0
  9
$OSMODE
 70
    37
  9
$ATTMODE
 70
     1
  9
$TEXTSIZE
 40
180.0
  9
$TRACEWID
 40
0.05
  9
$TEXTSTYLE
  7
STANDARD
  9
$CLAYER
  8
3
  9
$CELTYPE
  6
BYLAYER
  9
$CECOLOR
 62
   256
  9
$DIMSCALE
 40
45.0
  9
$DIMASZ
 40
2.0
  9
$DIMEXO
 40
0.5
  9
$DIMDLI
 40
10.0
  9
$DIMRND
 40
0.0
  9
$DIMDLE
 40
0.0
  9
$DIMEXE
 40
1.0
  9
$DIMTP
 40
1.0
  9
$DIMTM
 40
1.0
  9
$DIMTXT
 40
3.0
  9
$DIMCEN
 40
0.0
  9
$DIMTSZ
 40
0.0
  9
$DIMTOL
 70
     0
  9
$DIMLIM
 70
     0
  9
$DIMTIH
 70
     0
  9
$DIMTOH
 70
     0
  9
$DIMSE1
 70
     0
  9
$DIMSE2
 70
     0
  9
$DIMTAD
 70
     1
  9
$DIMZIN
 70
     8
  9
$DIMBLK
  1

  9
$DIMASO
 70
     1
  9
$DIMSHO
 70
     1
  9
$DIMPOST
  1

  9
$DIMAPOST
  1

  9
$DIMALT
 70
     0
  9
$DIMALTD
 70
     2
  9
$DIMALTF
 40
0.039
  9
$DIMLFAC
 40
1.0
  9
$DIMTOFL
 70
     1
  9
$DIMTVP
 40
0.0
  9
$DIMTIX
 70
     0
  9
$DIMSOXD
 70
     0
  9
$DIMSAH
 70
     1
  9
$DIMBLK1
  1
OPEN
  9
$DIMBLK2
  1
OPEN
  9
$DIMSTYLE
  2
IGA
  9
$DIMCLRD
 70
     0
  9
$DIMCLRE
 70
     0
  9
$DIMCLRT
 70
     0
  9
$DIMTFAC
 40
10.0
  9
$DIMGAP
 40
1.0
  9
$LUNITS
 70
     2
  9
$LUPREC
 70
     3
  9
$SKETCHINC
 40
0.1
  9
$FILLETRAD
 40
50.0
  9
$AUNITS
 70
     0
  9
$AUPREC
 70
     0
  9
$MENU
  1
acad
  9
$ELEVATION
 40
0.0
  9
$PELEVATION
 40
0.0
  9
$THICKNESS
 40
0.0
  9
$LIMCHECK
 70
     0
  9
$BLIPMODE
 70
     0
  9
$CHAMFERA
 40
0.5
  9
$CHAMFERB
 40
0.5
  9
$SKPOLY
 70
     0
  9
$TDCREATE
 40
2451488.6250056708
  9
$TDUPDATE
 40
2454953.8466995708
  9
$TDINDWG
 40
0.021623912
  9
$TDUSRTIMER
 40
0.021623912
  9
$USRTIMER
 70
     1
  9
$ANGBASE
 50
0.0
  9
$ANGDIR
 70
     0
  9
$PDMODE
 70
     0
  9
$PDSIZE
 40
0.0
  9
$PLINEWID
 40
0.0
  9
$COORDS
 70
     1
  9
$SPLFRAME
 70
     0
  9
$SPLINETYPE
 70
     6
  9
$SPLINESEGS
 70
     8
  9
$ATTDIA
 70
     0
  9
$ATTREQ
 70
     1
  9
$HANDLING
 70
 10241
  9
$HANDSEED
  5
81A5
  9
$SURFTAB1
 70
     6
  9
$SURFTAB2
 70
     6
  9
$SURFTYPE
 70
     6
  9
$SURFU
 70
     6
  9
$SURFV
 70
     6
  9
$UCSNAME
  2

  9
$UCSORG
 10
0.0
 20
0.0
 30
0.0
  9
$UCSXDIR
 10
1.0
 20
0.0
 30
0.0
  9
$UCSYDIR
 10
0.0
 20
1.0
 30
0.0
  9
$PUCSNAME
  2

  9
$PUCSORG
 10
0.0
 20
0.0
 30
0.0
  9
$PUCSXDIR
 10
1.0
 20
0.0
 30
0.0
  9
$PUCSYDIR
 10
0.0
 20
1.0
 30
0.0
  9
$USERI1
 70
     0
  9
$USERI2
 70
     0
  9
$USERI3
 70
     0
  9
$USERI4
 70
     0
  9
$USERI5
 70
     0
  9
$USERR1
 40
0.0
  9
$USERR2
 40
0.0
  9
$USERR3
 40
0.0
  9
$USERR4
 40
0.0
  9
$USERR5
 40
0.0
  9
$WORLDVIEW
 70
     1
  9
$SHADEDGE
 70
     3
  9
$SHADEDIF
 70
    70
  9
$TILEMODE
 70
     1
  9
$MAXACTVP
 70
    16
  9
$PLIMCHECK
 70
     0
  9
$PEXTMIN
 10
1.0000000000000000E+020
 20
1.0000000000000000E+020
 30
1.0000000000000000E+020
  9
$PEXTMAX
 10
-1.0000000000000000E+020
 20
-1.0000000000000000E+020
 30
-1.0000000000000000E+020
  9
$PLIMMIN
 10
0.0
 20
0.0
  9
$PLIMMAX
 10
12.0
 20
9.0
  9
$UNITMODE
 70
     0
  9
$VISRETAIN
 70
     0
  9
$PLINEGEN
 70
     0
  9
$PSLTSCALE
 70
     1
  0
ENDSEC
  0
SECTION
  2
TABLES
  0
TABLE
  2
VPORT
 70
     2
  0
VPORT
  2
*ACTIVE
 70
     0
 10
0.0
 20
0.0
 11
1.0
 21
1.0
 12
13562.960954446849
 22
9011.2450861320631
 13
0.0
 23
0.0
 14
10.0
 24
10.0
 15
10.0
 25
10.0
 16
0.0
 26
0.0
 36
1.0
 17
0.0
 27
0.0
 37
0.0
 40
18022.490172264119
 41
1.5051150895140659
 42
50.0
 43
0.0
 44
0.0
 50
0.0
 51
0.0
 71
     0
 72
   100
 73
     1
 74
     0
 75
     0
 76
     0
 77
     0
 78
     0
  0
ENDTAB
  0
TABLE
  2
LTYPE
 70
     2
  0
LTYPE
  2
CONTINUOUS
 70
     0
  3
Solid line
 72
    65
 73
     0
 40
0.0
  0
LTYPE
  2
CENTER
 70
     0
  3
____ _ ____ _ ____ _ ____ _ ____ _ ____ _ ____ 
 72
    65
 73
     4
 40
2.0
 49
1.25
 49
-0.25
 49
0.25
 49
-0.25
  0
ENDTAB
  0
TABLE
  2
LAYER
 70
     6
  0
LAYER
  2
0
 70
     0
 62
     7
  6
CONTINUOUS
  0
LAYER
  2
3
 70
     0
 62
     2
  6
CONTINUOUS
  0
LAYER
  2
2
 70
     0
 62
     3
  6
CENTER
  0
LAYER
  2
1
 70
     0
 62
     4
  6
CONTINUOUS
  0
LAYER
  2
4
 70
     0
 62
     7
  6
CONTINUOUS
  0
LAYER
  2
DEFPOINTS
 70
     0
 62
     7
  6
CONTINUOUS
  0
ENDTAB
  0
TABLE
  2
STYLE
 70
     1
  0
STYLE
  2
STANDARD
 70
     0
 40
0.0
 41
1.0
 50
0.0
 71
     0
 42
180.0
  3
simplex.shx
  4
extfont.shx
  0
ENDTAB
  0
TABLE
  2
VIEW
 70
     0
  0
ENDTAB
  0
TABLE
  2
UCS
 70
     0
  0
ENDTAB
  0
TABLE
  2
APPID
 70
     1
  0
APPID
  2
ACAD
 70
     0
  0
ENDTAB
  0
TABLE
  2
DIMSTYLE
 70
     2
  0
DIMSTYLE
  2
IGA
 70
     0
  3

  4

  5

  6
OPEN
  7
OPEN
 40
2.0
 41
2.0
 42
0.5
 43
10.0
 44
1.0
 45
0.0
 46
0.0
 47
1.0
 48
1.0
140
3.0
141
0.0
142
0.0
143
0.03937
144
1.0
145
0.0
146
10.0
147
1.0
 71
     0
 72
     0
 73
     0
 74
     0
 75
     0
 76
     0
 77
     1
 78
     8
170
     0
171
     2
172
     0
173
     1
174
     0
175
     0
176
     0
177
     0
178
     0
  0
DIMSTYLE
  2
MATSU
 70
     0
  3

  4

  5

  6
OPEN
  7
OPEN
 40
1.0
 41
2.0
 42
1.0
 43
10.0
 44
1.0
 45
0.0
 46
0.0
 47
0.0
 48
0.0
140
3.0
141
0.0
142
0.0
143
0.03937
144
1.0
145
0.0
146
1.0
147
0.5
 71
     0
 72
     0
 73
     0
 74
     0
 75
     0
 76
     0
 77
     1
 78
     8
170
     0
171
     2
172
     1
173
     1
174
     0
175
     0
176
   256
177
   256
178
   256
  0
ENDTAB
  0
ENDSEC
  0
SECTION
  2
BLOCKS
  0
BLOCK
  8
0
  2
$MODEL_SPACE
 70
     0
 10
0.0
 20
0.0
 30
0.0
  3
$MODEL_SPACE
  1

  0
ENDBLK
  5
1B
  8
0
  0
BLOCK
 67
     1
  8
0
  2
$PAPER_SPACE
 70
     0
 10
0.0
 20
0.0
 30
0.0
  3
$PAPER_SPACE
  1

  0
ENDBLK
  5
18
 67
     1
  8
0
  0
BLOCK
  8
0
  2
_OPEN
 70
     0
 10
0.0
 20
0.0
 30
0.0
  3
_OPEN
  1

  0
LINE
  5
79FD
  8
0
  6
BYBLOCK
 62
     0
 10
-1.0
 20
0.1666666666666666
 30
0.0
 11
0.0
 21
0.0
 31
0.0
  0
LINE
  5
79FE
  8
0
  6
BYBLOCK
 62
     0
 10
0.0
 20
0.0
 30
0.0
 11
-1.0
 21
-0.1666666666666666
 31
0.0
  0
LINE
  5
79FF
  8
0
  6
BYBLOCK
 62
     0
 10
0.0
 20
0.0
 30
0.0
 11
-1.0
 21
0.0
 31
0.0
  0
ENDBLK
  5
7A01
  8
0
  0
BLOCK
  8
0
  2
YA_N
 70
     0
 10
0.0
 20
0.0
 30
0.0
  3
YA_N
  1

  0
ENDBLK
  5
7A0C
  8
0
  0
BLOCK
  8
0
  2
*D2
 70
     1
 10
0.0
 20
0.0
 30
0.0
  3
*D2
  1

  0
LINE
  5
8043
  8
0
  6
BYBLOCK
 10
8130.0961907291421
 20
5847.9108540561019
 30
0.0
 11
8527.9292335571663
 21
5847.9108540561019
 31
0.0
  0
LINE
  5
8044
  8
0
  6
BYBLOCK
 10
8130.0961907291421
 20
4247.9118540561012
 30
0.0
 11
8527.9292335571663
 21
4247.9118540561012
 31
0.0
  0
LINE
  5
8045
  8
0
  6
BYBLOCK
 10
8487.9292335571645
 20
5767.910854056101
 30
0.0
 11
8487.9292335571645
 21
4327.9118540561012
 31
0.0
  0
INSERT
  5
8046
  8
0
  6
BYBLOCK
  2
_OPEN
 10
8487.9292335571645
 20
5847.9108540561019
 30
0.0
 41
80.0
 42
80.0
 43
80.0
 50
90.0
  0
INSERT
  5
8047
  8
0
  6
BYBLOCK
  2
_OPEN
 10
8487.9292335571645
 20
4247.9118540561012
 30
0.0
 41
80.0
 42
80.0
 43
80.0
 50
270.0
  0
TEXT
  5
8048
  8
3
 10
8467.9292335571663
 20
4787.911354056102
 30
0.0
 40
120.0
  1
φ1600
 50
90.0
  0
POINT
  5
8049
  8
DEFPOINTS
  6
BYBLOCK
 62
     0
 10
8090.0961907291412
 20
5847.9108540561019
 30
0.0
  0
POINT
  5
804A
  8
DEFPOINTS
  6
BYBLOCK
 62
     0
 10
8090.0961907291412
 20
4247.9118540561012
 30
0.0
  0
POINT
  5
804B
  8
DEFPOINTS
  6
BYBLOCK
 62
     0
 10
8487.9292335571645
 20
4247.9118540561012
 30
0.0
  0
ENDBLK
  5
804C
  8
0
  0
BLOCK
  8
0
  2
*D3
 70
     1
 10
0.0
 20
0.0
 30
0.0
  3
*D3
  1

  0
LINE
  5
8058
  8
0
  6
BYBLOCK
 10
7366.0921907291413
 20
6592.8681557021018
 30
0.0
 11
7366.0921907291413
 21
6710.405940085755
 31
0.0
  0
LINE
  5
8059
  8
0
  6
BYBLOCK
 10
8090.0961907291412
 20
5952.910854056101
 30
0.0
 11
8090.0961907291412
 21
6710.405940085755
 31
0.0
  0
LINE
  5
805A
  8
0
  6
BYBLOCK
 10
7446.0921907291422
 20
6670.4059400857541
 30
0.0
 11
8010.0961907291412
 21
6670.4059400857541
 31
0.0
  0
INSERT
  5
805B
  8
0
  6
BYBLOCK
  2
_OPEN
 10
7366.0921907291413
 20
6670.4059400857541
 30
0.0
 41
80.0
 42
80.0
 43
80.0
 50
180.0
  0
INSERT
  5
805C
  8
0
  6
BYBLOCK
  2
_OPEN
 10
8090.0961907291412
 20
6670.4059400857541
 30
0.0
 41
80.0
 42
80.0
 43
80.0
  0
TEXT
  5
805D
  8
3
 10
7567.9122474410569
 20
6690.405940085755
 30
0.0
 40
120.0
  1
725
  0
POINT
  5
805E
  8
DEFPOINTS
  6
BYBLOCK
 62
     0
 10
7366.0921907291413
 20
6552.8681557021027
 30
0.0
  0
POINT
  5
805F
  8
DEFPOINTS
  6
BYBLOCK
 62
     0
 10
8090.0961907291412
 20
5912.910854056101
 30
0.0
  0
POINT
  5
8060
  8
DEFPOINTS
  6
BYBLOCK
 62
     0
 10
8090.0961907291412
 20
6670.4059400857541
 30
0.0
  0
ENDBLK
  5
8061
  8
0
  0
BLOCK
  8
0
  2
*D4
 70
     1
 10
0.0
 20
0.0
 30
0.0
  3
*D4
  1

  0
LINE
  5
7EAB
  8
0
  6
BYBLOCK
 10
4350.5554812719192
 20
100.4530412030488
 30
0.0
 11
4714.0056339741022
 21
100.4511779909455
 31
0.0
  0
LINE
  5
7EAC
  8
0
  6
BYBLOCK
 10
4350.5639399283446
 20
1750.4530411813671
 30
0.0
 11
4714.0140926305303
 21
1750.4511779692641
 31
0.0
  0
LINE
  5
7EAD
  8
0
  6
BYBLOCK
 10
4674.006044091303
 20
180.45138304823189
 30
0.0
 11
4674.01368251438
 21
1670.451383028653
 31
0.0
  0
INSERT
  5
7EAE
  8
0
  6
BYBLOCK
  2
_OPEN
 10
4674.0056339746279
 20
100.45138304928319
 30
0.0
 41
80.0
 42
80.0
 43
80.0
 50
269.99970627556741
  0
INSERT
  5
7EAF
  8
0
  6
BYBLOCK
  2
_OPEN
 10
4674.014092631056
 20
1750.451383027601
 30
0.0
 41
80.0
 42
80.0
 43
80.0
 50
89.999706275567476
  0
TEXT
  5
7EB0
  8
3
 10
4654.0088380114148
 20
725.45148557023936
 30
0.0
 40
120.0
  1
1650
 50
89.999706275567476
  0
POINT
  5
7EB1
  8
DEFPOINTS
  6
BYBLOCK
 62
     0
 10
4310.555481272444
 20
100.4532462613865
 30
0.0
  0
POINT
  5
7EB2
  8
DEFPOINTS
  6
BYBLOCK
 62
     0
 10
4310.5639399288712
 20
1750.4532462397051
 30
0.0
  0
POINT
  5
7EB3
  8
DEFPOINTS
  6
BYBLOCK
 62
     0
 10
4674.014092631056
 20
1750.451383027601
 30
0.0
  0
ENDBLK
  5
7EB4
  8
0
  0
BLOCK
  8
0
  2
*D5
 70
     1
 10
0.0
 20
0.0
 30
0.0
  3
*D5
  1

  0
LINE
  5
7EB6
  8
0
  6
BYBLOCK
 10
6509.2985568358126
 20
2974.4596308904702
 30
0.0
 11
6509.2985568358126
 21
3130.1612881095052
 31
0.0
  0
LINE
  5
7EB7
  8
0
  6
BYBLOCK
 10
7689.2985568358199
 20
2974.459630890472
 30
0.0
 11
7689.2985568358199
 21
3130.1612881095052
 31
0.0
  0
LINE
  5
7EB8
  8
0
  6
BYBLOCK
 10
6589.2985568358126
 20
3090.1612881095061
 30
0.0
 11
7609.2985568358199
 21
3090.1612881095061
 31
0.0
  0
INSERT
  5
7EB9
  8
0
  6
BYBLOCK
  2
_OPEN
 10
6509.2985568358126
 20
3090.1612881095061
 30
0.0
 41
80.0
 42
80.0
 43
80.0
 50
180.0
  0
INSERT
  5
7EBA
  8
0
  6
BYBLOCK
  2
_OPEN
 10
7689.2985568358199
 20
3090.1612881095061
 30
0.0
 41
80.0
 42
80.0
 43
80.0
  0
TEXT
  5
7EBB
  8
3
 10
6910.7271282643878
 20
3110.1612881095052
 30
0.0
 40
120.0
  1
1180
  0
POINT
  5
7EBC
  8
DEFPOINTS
  6
BYBLOCK
 62
     0
 10
6509.2985568358126
 20
2934.4596308904702
 30
0.0
  0
POINT
  5
7EBD
  8
DEFPOINTS
  6
BYBLOCK
 62
     0
 10
7689.2985568358199
 20
2934.459630890472
 30
0.0
  0
POINT
  5
7EBE
  8
DEFPOINTS
  6
BYBLOCK
 62
     0
 10
7689.2985568358199
 20
3090.1612881095061
 30
0.0
  0
ENDBLK
  5
7EBF
  8
0
  0
BLOCK
  8
0
  2
*D6
 70
     1
 10
0.0
 20
0.0
 30
0.0
  3
*D6
  1

  0
LINE
  5
814E
  8
3
 10
6386.0921907291413
 20
5567.9148540561009
 30
0.0
 11
6386.0921907291413
 21
6710.405940085755
 31
0.0
  0
LINE
  5
814F
  8
3
 10
7286.0921907291413
 20
6670.4059400857541
 30
0.0
 11
6466.0921907291413
 21
6670.4059400857541
 31
0.0
  0
INSERT
  5
8150
  8
3
  2
_OPEN
 10
7366.0921907291413
 20
6670.4059400857541
 30
0.0
 41
80.0
 42
80.0
 43
80.0
  0
INSERT
  5
8151
  8
3
  2
_OPEN
 10
6386.0921907291413
 20
6670.4059400857541
 30
0.0
 41
80.0
 42
80.0
 43
80.0
 50
180.0
  0
TEXT
  8
3
  40
120
  5
819B
  72
0
  71
0
 10
6636.09
 20
6638.01
 30
0.000000
  1
MAX
  0
TEXT
  8
3
  40
120
  5
819C
  72
0
  71
0
 10
6636.09
 20
6482.01
 30
0.000000
  1
1080
  0
POINT
  5
8153
  8
DEFPOINTS
 62
     0
 10
7366.0921907291413
 20
6552.8681557021027
 30
0.0
  0
POINT
  5
8154
  8
DEFPOINTS
 62
     0
 10
6386.0921907291413
 20
5527.9148540561009
 30
0.0
  0
POINT
  5
8155
  8
DEFPOINTS
 62
     0
 10
6386.0921907291413
 20
6670.4059400857541
 30
0.0
  0
ENDBLK
  5
8056
  8
0
  0
BLOCK
  8
0
  2
*D7
 70
     1
 10
0.0
 20
0.0
 30
0.0
  3
*D7
  1

  0
LINE
  5
7EEB
  8
0
  6
BYBLOCK
 10
1115.553144766003
 20
7372.6228084868981
 30
0.0
 11
1115.553144766003
 21
8148.9394511902638
 31
0.0
  0
LINE
  5
7EEC
  8
0
  6
BYBLOCK
 10
2315.5531447660028
 20
7872.6228084869008
 30
0.0
 11
2315.5531447660028
 21
8148.9394511902638
 31
0.0
  0
LINE
  5
7EED
  8
0
  6
BYBLOCK
 10
1195.553144766003
 20
8108.9394511902647
 30
0.0
 11
2235.5531447660028
 21
8108.9394511902647
 31
0.0
  0
INSERT
  5
7EEE
  8
0
  6
BYBLOCK
  2
_OPEN
 10
1115.553144766003
 20
8108.9394511902647
 30
0.0
 41
80.0
 42
80.0
 43
80.0
 50
180.0
  0
INSERT
  5
7EEF
  8
0
  6
BYBLOCK
  2
_OPEN
 10
2315.5531447660028
 20
8108.9394511902647
 30
0.0
 41
80.0
 42
80.0
 43
80.0
  0
TEXT
  5
7EF0
  8
3
 10
1515.553144766003
 20
8128.9394511902638
 30
0.0
 40
120.0
  1
1200
  0
POINT
  5
7EF1
  8
DEFPOINTS
  6
BYBLOCK
 62
     0
 10
1115.553144766003
 20
7332.622808486899
 30
0.0
  0
POINT
  5
7EF2
  8
DEFPOINTS
  6
BYBLOCK
 62
     0
 10
2315.5531447660028
 20
7832.6228084868999
 30
0.0
  0
POINT
  5
7EF3
  8
DEFPOINTS
  6
BYBLOCK
 62
     0
 10
2315.5531447660028
 20
8108.9394511902647
 30
0.0
  0
ENDBLK
  5
7EF4
  8
0
  0
BLOCK
  8
0
  2
*D8
 70
     1
 10
0.0
 20
0.0
 30
0.0
  3
*D8
  1

  0
LINE
  5
8156
  8
3
 10
4482.3467786593319
 20
9619.4069447380643
 30
0.0
 11
4482.3467786593319
 21
9895.7235874414291
 31
0.0
  0
LINE
  5
8157
  8
3
 10
2662.3467786593319
 20
9855.7235874414291
 30
0.0
 11
4402.3467786593319
 21
9855.7235874414291
 31
0.0
  0
INSERT
  5
8158
  8
3
  2
_OPEN
 10
2582.346778659331
 20
9855.7235874414291
 30
0.0
 41
80.0
 42
80.0
 43
80.0
 50
180.0
  0
INSERT
  5
8159
  8
3
  2
_OPEN
 10
4482.3467786593319
 20
9855.7235874414291
 30
0.0
 41
80.0
 42
80.0
 43
80.0
  0
TEXT
  8
3
  40
120
  5
819D
  72
0
  71
0
 10
3292.35
 20
9723.32
 30
0.000000
  1
1900
  0
POINT
  5
815B
  8
DEFPOINTS
 62
     0
 10
2582.346778659331
 20
9579.4069447380662
 30
0.0
  0
POINT
  5
815C
  8
DEFPOINTS
 62
     0
 10
4482.3467786593319
 20
9579.4069447380662
 30
0.0
  0
POINT
  5
815D
  8
DEFPOINTS
 62
     0
 10
4482.3467786593319
 20
9855.7235874414291
 30
0.0
  0
ENDBLK
  5
7EFE
  8
0
  0
BLOCK
  8
0
  2
*D9
 70
     1
 10
0.0
 20
0.0
 30
0.0
  3
*D9
  1

  0
LINE
  5
7F00
  8
0
  6
BYBLOCK
 10
1075.553144766003
 20
7332.622808486899
 30
0.0
 11
737.84711217368022
 21
7332.622808486899
 31
0.0
  0
LINE
  5
7F01
  8
0
  6
BYBLOCK
 10
1075.553144766003
 20
6232.6228084868972
 30
0.0
 11
737.84711217368022
 21
6232.6228084868972
 31
0.0
  0
LINE
  5
7F02
  8
0
  6
BYBLOCK
 10
777.84711217368022
 20
7252.6228084868972
 30
0.0
 11
777.84711217368022
 21
6312.6228084868981
 31
0.0
  0
INSERT
  5
7F03
  8
0
  6
BYBLOCK
  2
_OPEN
 10
777.84711217368022
 20
7332.622808486899
 30
0.0
 41
80.0
 42
80.0
 43
80.0
 50
90.0
  0
INSERT
  5
7F04
  8
0
  6
BYBLOCK
  2
_OPEN
 10
777.84711217368022
 20
6232.6228084868972
 30
0.0
 41
80.0
 42
80.0
 43
80.0
 50
270.0
  0
TEXT
  5
7F05
  8
3
 10
757.84711217368022
 20
6594.0513799154696
 30
0.0
 40
120.0
  1
1100
 50
90.0
  0
POINT
  5
7F06
  8
DEFPOINTS
  6
BYBLOCK
 62
     0
 10
1115.553144766003
 20
7332.622808486899
 30
0.0
  0
POINT
  5
7F07
  8
DEFPOINTS
  6
BYBLOCK
 62
     0
 10
1115.553144766003
 20
6232.6228084868972
 30
0.0
  0
POINT
  5
7F08
  8
DEFPOINTS
  6
BYBLOCK
 62
     0
 10
777.84711217368022
 20
6232.6228084868972
 30
0.0
  0
ENDBLK
  5
7F09
  8
0
  0
BLOCK
  8
0
  2
*D10
 70
     1
 10
0.0
 20
0.0
 30
0.0
  3
*D10
  1

  0
LINE
  5
7F0B
  8
0
  6
BYBLOCK
 10
4255.5531447660032
 20
7832.622808486899
 30
0.0
 11
4685.5045516887621
 21
7832.622808486899
 31
0.0
  0
LINE
  5
7F0C
  8
0
  6
BYBLOCK
 10
4255.5531447660032
 20
6232.6228084868972
 30
0.0
 11
4685.5045516887621
 21
6232.6228084868972
 31
0.0
  0
LINE
  5
7F0D
  8
0
  6
BYBLOCK
 10
4645.5045516887621
 20
7752.622808486899
 30
0.0
 11
4645.5045516887621
 21
6312.6228084868981
 31
0.0
  0
INSERT
  5
7F0E
  8
0
  6
BYBLOCK
  2
_OPEN
 10
4645.5045516887621
 20
7832.622808486899
 30
0.0
 41
80.0
 42
80.0
 43
80.0
 50
90.0
  0
INSERT
  5
7F0F
  8
0
  6
BYBLOCK
  2
_OPEN
 10
4645.5045516887621
 20
6232.6228084868972
 30
0.0
 41
80.0
 42
80.0
 43
80.0
 50
270.0
  0
TEXT
  5
7F10
  8
3
 10
4625.5045516887621
 20
6832.622808486899
 30
0.0
 40
120.0
  1
1600
 50
90.0
  0
POINT
  5
7F11
  8
DEFPOINTS
  6
BYBLOCK
 62
     0
 10
4215.5531447660032
 20
7832.622808486899
 30
0.0
  0
POINT
  5
7F12
  8
DEFPOINTS
  6
BYBLOCK
 62
     0
 10
4215.5531447660032
 20
6232.6228084868972
 30
0.0
  0
POINT
  5
7F13
  8
DEFPOINTS
  6
BYBLOCK
 62
     0
 10
4645.5045516887621
 20
6232.6228084868972
 30
0.0
  0
ENDBLK
  5
7F14
  8
0
  0
BLOCK
  8
0
  2
*D11
 70
     1
 10
0.0
 20
0.0
 30
0.0
  3
*D11
  1

  0
LINE
  5
7F16
  8
0
  6
BYBLOCK
 10
1115.553144766003
 20
6192.6228084868981
 30
0.0
 11
1115.553144766003
 21
5709.6302404781636
 31
0.0
  0
LINE
  5
7F17
  8
0
  6
BYBLOCK
 10
4215.5531447660032
 20
6192.6228084868981
 30
0.0
 11
4215.5531447660032
 21
5709.6302404781636
 31
0.0
  0
LINE
  5
7F18
  8
0
  6
BYBLOCK
 10
1195.553144766003
 20
5749.6302404781636
 30
0.0
 11
4135.5531447660032
 21
5749.6302404781636
 31
0.0
  0
INSERT
  5
7F19
  8
0
  6
BYBLOCK
  2
_OPEN
 10
1115.553144766003
 20
5749.6302404781636
 30
0.0
 41
80.0
 42
80.0
 43
80.0
 50
180.0
  0
INSERT
  5
7F1A
  8
0
  6
BYBLOCK
  2
_OPEN
 10
4215.5531447660032
 20
5749.6302404781636
 30
0.0
 41
80.0
 42
80.0
 43
80.0
  0
TEXT
  5
7F1B
  8
3
 10
2465.5531447660028
 20
5769.6302404781636
 30
0.0
 40
120.0
  1
3100
  0
POINT
  5
7F1C
  8
DEFPOINTS
  6
BYBLOCK
 62
     0
 10
1115.553144766003
 20
6232.6228084868972
 30
0.0
  0
POINT
  5
7F1D
  8
DEFPOINTS
  6
BYBLOCK
 62
     0
 10
4215.5531447660032
 20
6232.6228084868972
 30
0.0
  0
POINT
  5
7F1E
  8
DEFPOINTS
  6
BYBLOCK
 62
     0
 10
4215.5531447660032
 20
5749.6302404781636
 30
0.0
  0
ENDBLK
  5
7F1F
  8
0
  0
BLOCK
  8
0
  2
*D12
 70
     1
 10
0.0
 20
0.0
 30
0.0
  3
*D12
  1

  0
LINE
  5
7F21
  8
0
  6
BYBLOCK
 10
3189.5690096755261
 20
2934.4599929891888
 30
0.0
 11
5207.6471281183667
 21
2934.4496473955851
 31
0.0
  0
LINE
  5
7F22
  8
0
  6
BYBLOCK
 10
4452.3465523887626
 20
1795.4535193976301
 30
0.0
 11
5207.6412890822021
 21
1795.449647410552
 31
0.0
  0
LINE
  5
7F23
  8
0
  6
BYBLOCK
 10
5167.6467180022173
 20
2854.4498524549731
 30
0.0
 11
5167.6416991994029
 21
1875.449852467839
 31
0.0
  0
INSERT
  5
7F24
  8
0
  6
BYBLOCK
  2
_OPEN
 10
5167.6471281188924
 20
2934.4498524539222
 30
0.0
 41
80.0
 42
80.0
 43
80.0
 50
89.999706275567476
  0
INSERT
  5
7F25
  8
0
  6
BYBLOCK
  2
_OPEN
 10
5167.6412890827278
 20
1795.44985246889
 30
0.0
 41
80.0
 42
80.0
 43
80.0
 50
269.99970627556741
  0
TEXT
  5
7F26
  8
3
 10
5147.6432565445057
 20
2179.2356692787298
 30
0.0
 40
120.0
  1
1139
 50
89.99970627556749
  0
POINT
  5
7F27
  8
DEFPOINTS
  6
BYBLOCK
 62
     0
 10
3149.5690096760518
 20
2934.4601980475268
 30
0.0
  0
POINT
  5
7F28
  8
DEFPOINTS
  6
BYBLOCK
 62
     0
 10
4412.3465523892883
 20
1795.4537244559681
 30
0.0
  0
POINT
  5
7F29
  8
DEFPOINTS
  6
BYBLOCK
 62
     0
 10
5167.6412890827278
 20
1795.44985246889
 30
0.0
  0
ENDBLK
  5
7F2A
  8
0
  0
BLOCK
  8
0
  2
*D13
 70
     1
 10
0.0
 20
0.0
 30
0.0
  3
*D13
  1

  0
LINE
  5
815E
  8
3
 10
4522.348064247647
 20
3147.9097513849292
 30
0.0
 11
5474.4251827044909
 21
3147.9048706011481
 31
0.0
  0
LINE
  5
815F
  8
3
 10
5434.4345128593786
 20
4967.90507563557
 30
0.0
 11
5434.4255928216917
 21
3227.9050756584352
 31
0.0
  0
INSERT
  5
8160
  8
3
  2
_OPEN
 10
5434.4349229760546
 20
5047.9050756345196
 30
0.0
 41
80.0
 42
80.0
 43
80.0
 50
89.999706275567476
  0
INSERT
  5
8161
  8
3
  2
_OPEN
 10
5434.4251827050157
 20
3147.9050756594861
 30
0.0
 41
80.0
 42
80.0
 43
80.0
 50
269.99970627556741
  0
TEXT
  8
3
  40
120
  5
819E
  72
0
  71
0
 10
5114.43
 20
3885.51
 30
0.000000
  1
1900
  0
POINT
  5
8163
  8
DEFPOINTS
 62
     0
 10
4679.140186282616
 20
5047.9089476215968
 30
0.0
  0
POINT
  5
8164
  8
DEFPOINTS
 62
     0
 10
4482.3480642481727
 20
3147.9099564432672
 30
0.0
  0
POINT
  5
8165
  8
DEFPOINTS
 62
     0
 10
5434.4251827050157
 20
3147.9050756594861
 30
0.0
  0
ENDBLK
  5
7F34
  8
0
  0
BLOCK
  8
0
  2
*D14
 70
     1
 10
0.0
 20
0.0
 30
0.0
  3
*D14
  1

  0
LINE
  5
7F5A
  8
0
  6
BYBLOCK
 10
4310.564478207004
 20
1855.4532462383249
 30
0.0
 11
4310.5720118601157
 21
3325.0161421933321
 31
0.0
  0
LINE
  5
7F5B
  8
0
  6
BYBLOCK
 10
3265.570472903159
 20
3024.8199651295649
 30
0.0
 11
3265.5720118738482
 21
3325.0214993424011
 31
0.0
  0
LINE
  5
7F5C
  8
0
  6
BYBLOCK
 10
4230.5718068028291
 20
3285.016552310532
 30
0.0
 11
3345.5718068144588
 21
3285.0210892262512
 31
0.0
  0
INSERT
  5
7F5D
  8
0
  6
BYBLOCK
  2
_OPEN
 10
4310.5718068017777
 20
3285.0161421938569
 30
0.0
 41
80.0
 42
80.0
 43
80.0
 50
359.99970627556752
  0
INSERT
  5
7F5E
  8
0
  6
BYBLOCK
  2
_OPEN
 10
3265.5718068155102
 20
3285.0214993429258
 30
0.0
 41
80.0
 42
80.0
 43
80.0
 50
179.99970627556749
  0
TEXT
  5
7F5F
  8
3
 10
3588.0719093404409
 20
3305.0198460598172
 30
0.0
 40
120.0
  1
1045
 50
359.99970627556752
  0
POINT
  5
7F60
  8
DEFPOINTS
  6
BYBLOCK
 62
     0
 10
4310.564273148666
 20
1815.4532462388511
 30
0.0
  0
POINT
  5
7F61
  8
DEFPOINTS
  6
BYBLOCK
 62
     0
 10
3265.570267844821
 20
2984.8199651300911
 30
0.0
  0
POINT
  5
7F62
  8
DEFPOINTS
  6
BYBLOCK
 62
     0
 10
3265.5718068155102
 20
3285.0214993429258
 30
0.0
  0
ENDBLK
  5
7F63
  8
0
  0
BLOCK
  8
0
  2
*D15
 70
     1
 10
0.0
 20
0.0
 30
0.0
  3
*D15
  1

  0
LINE
  5
8166
  8
3
 10
2161.357414938861
 20
4971.9218549293391
 30
0.0
 11
2161.365645785193
 21
6577.4837508825531
 31
0.0
  0
LINE
  5
8167
  8
3
 10
3452.3654407098911
 20
6537.477132625233
 30
0.0
 11
2241.365440725805
 21
6537.4833407664028
 31
0.0
  0
INSERT
  5
8168
  8
3
  2
_OPEN
 10
3532.3654407088402
 20
6537.476722508557
 30
0.0
 41
80.0
 42
80.0
 43
80.0
 50
359.99970627556752
  0
INSERT
  5
8169
  8
3
  2
_OPEN
 10
2161.3654407268559
 20
6537.4837508830797
 30
0.0
 41
80.0
 42
80.0
 43
80.0
 50
179.99970627556749
  0
TEXT
  8
3
  40
120
  5
819F
  72
0
  71
0
 10
2606.87
 20
6405.08
 30
0.000000
  1
1371
  0
POINT
  5
816B
  8
DEFPOINTS
 62
     0
 10
3532.3639017381502
 20
6237.2751882957218
 30
0.0
  0
POINT
  5
816C
  8
DEFPOINTS
 62
     0
 10
2161.357209880523
 20
4931.9218549298639
 30
0.0
  0
POINT
  5
816D
  8
DEFPOINTS
 62
     0
 10
2161.3654407268559
 20
6537.4837508830797
 30
0.0
  0
ENDBLK
  5
7F6D
  8
0
  0
BLOCK
  8
0
  2
*D16
 70
     1
 10
0.0
 20
0.0
 30
0.0
  3
*D16
  1

  0
LINE
  5
7F6F
  8
0
  6
BYBLOCK
 10
4310.5646832653447
 20
1895.4532462377999
 30
0.0
 11
4310.5734545997784
 21
3606.4462317442931
 31
0.0
  0
LINE
  5
7F70
  8
0
  6
BYBLOCK
 10
1115.555404422676
 20
85.470625296305656
 30
0.0
 11
1115.5734546417571
 21
3606.4626107790091
 31
0.0
  0
LINE
  5
7F71
  8
0
  6
BYBLOCK
 10
4230.57324954249
 20
3566.4466418614938
 30
0.0
 11
1195.5732495823679
 21
3566.4622006628588
 31
0.0
  0
INSERT
  5
7F72
  8
0
  6
BYBLOCK
  2
_OPEN
 10
4310.5732495414386
 20
3566.4462317448192
 30
0.0
 41
80.0
 42
80.0
 43
80.0
 50
359.99970627556752
  0
INSERT
  5
7F73
  8
0
  6
BYBLOCK
  2
_OPEN
 10
1115.5732495834191
 20
3566.4626107795339
 30
0.0
 41
80.0
 42
80.0
 43
80.0
 50
179.99970627556749
  0
TEXT
  5
7F74
  8
3
 10
2513.0733520942258
 20
3586.4554465536021
 30
0.0
 40
120.0
  1
3195
 50
359.99970627556752
  0
POINT
  5
7F75
  8
DEFPOINTS
  6
BYBLOCK
 62
     0
 10
4310.5644782070076
 20
1855.4532462383249
 30
0.0
  0
POINT
  5
7F76
  8
DEFPOINTS
  6
BYBLOCK
 62
     0
 10
1115.555199364338
 20
45.470625296831258
 30
0.0
  0
POINT
  5
7F77
  8
DEFPOINTS
  6
BYBLOCK
 62
     0
 10
1115.5732495834191
 20
3566.4626107795339
 30
0.0
  0
ENDBLK
  5
7F78
  8
0
  0
BLOCK
  8
0
  2
*D17
 70
     1
 10
0.0
 20
0.0
 30
0.0
  3
*D17
  1

  0
LINE
  5
7F7A
  8
0
  6
BYBLOCK
 10
4452.3465523887626
 20
1795.4535193976301
 30
0.0
 11
4955.5722069102676
 21
1795.450939632226
 31
0.0
  0
LINE
  5
7F7B
  8
0
  6
BYBLOCK
 10
4350.5554812770406
 20
100.4540412030527
 30
0.0
 11
4955.5635175632096
 21
100.4509396544983
 31
0.0
  0
LINE
  5
7F7C
  8
0
  6
BYBLOCK
 10
4915.5717967941182
 20
1715.4511446916149
 30
0.0
 11
4915.5639276804122
 21
180.45114471178471
 31
0.0
  0
INSERT
  5
7F7D
  8
0
  6
BYBLOCK
  2
_OPEN
 10
4915.5722069107933
 20
1795.451144690564
 30
0.0
 41
80.0
 42
80.0
 43
80.0
 50
89.999706275567476
  0
INSERT
  5
7F7E
  8
0
  6
BYBLOCK
  2
_OPEN
 10
4915.5635175637362
 20
100.4511447128359
 30
0.0
 41
80.0
 42
80.0
 43
80.0
 50
269.99970627556741
  0
TEXT
  5
7F7F
  8
3
 10
4895.566836945839
 20
747.9512472334967
 30
0.0
 40
120.0
  1
1695
 50
89.99970627556749
  0
POINT
  5
7F80
  8
DEFPOINTS
  6
BYBLOCK
 62
     0
 10
4412.3465523892883
 20
1795.4537244559681
 30
0.0
  0
POINT
  5
7F81
  8
DEFPOINTS
  6
BYBLOCK
 62
     0
 10
4310.5554812775672
 20
100.4542462613903
 30
0.0
  0
POINT
  5
7F82
  8
DEFPOINTS
  6
BYBLOCK
 62
     0
 10
4915.5635175637362
 20
100.4511447128359
 30
0.0
  0
ENDBLK
  5
7F83
  8
0
  0
BLOCK
  8
0
  2
*D18
 70
     1
 10
0.0
 20
0.0
 30
0.0
  3
*D18
  1

  0
LINE
  5
816E
  8
3
 62
     0
 10
1382.348064288904
 20
3125.4258484644338
 30
0.0
 11
1382.348064288904
 21
2830.4155212726
 31
0.0
  0
LINE
  5
816F
  8
3
 62
     0
 10
3532.3480642606501
 20
3125.4148265787871
 30
0.0
 11
3532.3480642606501
 21
2830.4155212726
 31
0.0
  0
LINE
  5
8170
  8
3
 62
     0
 10
1472.348064288904
 20
2875.4155212726
 30
0.0
 11
3442.3480642606501
 21
2875.4155212726
 31
0.0
  0
INSERT
  5
8171
  8
3
 62
     0
  2
_OPEN
 10
1382.348064288904
 20
2875.4155212726
 30
0.0
 41
90.0
 42
90.0
 43
90.0
 50
180.0
  0
INSERT
  5
8172
  8
3
 62
     0
  2
_OPEN
 10
3532.3480642606501
 20
2875.4155212726
 30
0.0
 41
90.0
 42
90.0
 43
90.0
  0
TEXT
  8
3
  40
135
  5
81A0
  62
0
  72
0
  71
0
 10
2187.35
 20
2748.97
 30
0.000000
  1
2150
  0
POINT
  5
8174
  8
DEFPOINTS
 62
     0
 10
1382.348064288904
 20
3147.9258484644329
 30
0.0
  0
POINT
  5
8175
  8
DEFPOINTS
 62
     0
 10
3532.3480642606501
 20
3147.9148265787871
 30
0.0
  0
POINT
  5
8176
  8
DEFPOINTS
 62
     0
 10
3532.3480642606501
 20
2875.4155212726
 30
0.0
  0
ENDBLK
  5
807A
  8
0
  0
BLOCK
  8
0
  2
*D19
 70
     1
 10
0.0
 20
0.0
 30
0.0
  3
*D19
  1

  0
LINE
  5
8177
  8
3
 62
     0
 10
3532.3480642606501
 20
3125.4148265787871
 30
0.0
 11
3532.3480642606501
 21
2830.4155212726
 31
0.0
  0
LINE
  5
8178
  8
3
 62
     0
 10
4482.3480642481727
 20
3125.4099564432681
 30
0.0
 11
4482.3480642481727
 21
2830.4155212726
 31
0.0
  0
LINE
  5
8179
  8
3
 62
     0
 10
3622.3480642606501
 20
2875.4155212726
 30
0.0
 11
4392.3480642481736
 21
2875.4155212726
 31
0.0
  0
INSERT
  5
817A
  8
3
 62
     0
  2
_OPEN
 10
3532.3480642606501
 20
2875.4155212726
 30
0.0
 41
90.0
 42
90.0
 43
90.0
 50
180.0
  0
INSERT
  5
817B
  8
3
 62
     0
  2
_OPEN
 10
4482.3480642481727
 20
2875.4155212726
 30
0.0
 41
90.0
 42
90.0
 43
90.0
  0
TEXT
  8
3
  40
135
  5
81A1
  62
0
  72
0
  71
0
 10
3737.35
 20
2748.97
 30
0.000000
  1
950
  0
POINT
  5
817D
  8
DEFPOINTS
 62
     0
 10
3532.3480642606501
 20
3147.9148265787871
 30
0.0
  0
POINT
  5
817E
  8
DEFPOINTS
 62
     0
 10
4482.3480642481727
 20
3147.9099564432681
 30
0.0
  0
POINT
  5
817F
  8
DEFPOINTS
 62
     0
 10
4482.3480642481727
 20
2875.4155212726
 30
0.0
  0
ENDBLK
  5
8087
  8
0
  0
BLOCK
  8
0
  2
*D20
 70
     1
 10
0.0
 20
0.0
 30
0.0
  3
*D20
  1

  0
LINE
  5
8180
  8
3
 62
     0
 10
6435.0921907291404
 20
3125.4148540561
 30
0.0
 11
6435.0921907291404
 21
2830.4155212726
 31
0.0
  0
LINE
  5
8181
  8
3
 62
     0
 10
7366.0921907291413
 20
3125.4142721814651
 30
0.0
 11
7366.0921907291413
 21
2830.4155212726
 31
0.0
  0
LINE
  5
8182
  8
3
 62
     0
 10
6525.0921907291413
 20
2875.4155212726
 30
0.0
 11
7276.0921907291413
 21
2875.4155212726
 31
0.0
  0
INSERT
  5
8183
  8
3
 62
     0
  2
_OPEN
 10
6435.0921907291404
 20
2875.4155212726
 30
0.0
 41
90.0
 42
90.0
 43
90.0
 50
180.0
  0
INSERT
  5
8184
  8
3
 62
     0
  2
_OPEN
 10
7366.0921907291413
 20
2875.4155212726
 30
0.0
 41
90.0
 42
90.0
 43
90.0
  0
TEXT
  8
3
  40
135
  5
81A2
  62
0
  72
0
  71
0
 10
6630.59
 20
2748.97
 30
0.000000
  1
931
  0
POINT
  5
8186
  8
DEFPOINTS
 62
     0
 10
6435.0921907291404
 20
3147.9148540561
 30
0.0
  0
POINT
  5
8187
  8
DEFPOINTS
 62
     0
 10
7366.0921907291413
 20
3147.9142721814651
 30
0.0
  0
POINT
  5
8188
  8
DEFPOINTS
 62
     0
 10
7366.0921907291413
 20
2875.4155212726
 30
0.0
  0
ENDBLK
  5
8094
  8
0
  0
BLOCK
  8
0
  2
*D21
 70
     1
 10
0.0
 20
0.0
 30
0.0
  3
*D21
  1

  0
LINE
  5
8189
  8
3
 62
     0
 10
7366.0921907291413
 20
3125.4142721814651
 30
0.0
 11
7366.0921907291413
 21
2830.4155212726
 31
0.0
  0
LINE
  5
818A
  8
3
 62
     0
 10
8035.0921907291431
 20
3125.413854056726
 30
0.0
 11
8035.0921907291431
 21
2830.4155212726
 31
0.0
  0
LINE
  5
818B
  8
3
 62
     0
 10
7456.0921907291404
 20
2875.4155212726
 30
0.0
 11
7945.0921907291431
 21
2875.4155212726
 31
0.0
  0
INSERT
  5
818C
  8
3
 62
     0
  2
_OPEN
 10
7366.0921907291413
 20
2875.4155212726
 30
0.0
 41
90.0
 42
90.0
 43
90.0
 50
180.0
  0
INSERT
  5
818D
  8
3
 62
     0
  2
_OPEN
 10
8035.0921907291431
 20
2875.4155212726
 30
0.0
 41
90.0
 42
90.0
 43
90.0
  0
TEXT
  8
3
  40
135
  5
81A3
  62
0
  72
0
  71
0
 10
7430.59
 20
2748.97
 30
0.000000
  1
669
  0
POINT
  5
818F
  8
DEFPOINTS
 62
     0
 10
7366.0921907291413
 20
3147.9142721814651
 30
0.0
  0
POINT
  5
8190
  8
DEFPOINTS
 62
     0
 10
8035.0921907291431
 20
3147.913854056726
 30
0.0
  0
POINT
  5
8191
  8
DEFPOINTS
 62
     0
 10
8035.0921907291431
 20
2875.4155212726
 30
0.0
  0
ENDBLK
  5
80A1
  8
0
  0
BLOCK
  8
0
  2
*D22
 70
     1
 10
0.0
 20
0.0
 30
0.0
  3
*D22
  1

  0
LINE
  5
8192
  8
3
 62
     0
 10
3478.8626435688539
 20
6186.9152161548209
 30
0.0
 11
5782.8862184137852
 21
6186.9152161548209
 31
0.0
  0
LINE
  5
8193
  8
3
 62
     0
 10
4504.8480642481727
 20
3147.9099564432681
 30
0.0
 11
5782.8862184137834
 21
3147.9099564432672
 31
0.0
  0
LINE
  5
8194
  8
3
 62
     0
 10
5737.8862184137843
 20
6096.9152161548209
 30
0.0
 11
5737.8862184137843
 21
3237.9099564432672
 31
0.0
  0
INSERT
  5
8195
  8
3
 62
     0
  2
_OPEN
 10
5737.8862184137843
 20
6186.9152161548209
 30
0.0
 41
90.0
 42
90.0
 43
90.0
 50
90.0
  0
INSERT
  5
8196
  8
3
 62
     0
  2
_OPEN
 10
5737.8862184137843
 20
3147.9099564432672
 30
0.0
 41
90.0
 42
90.0
 43
90.0
 50
270.0
  0
TEXT
  8
3
  40
135
  5
81A4
  62
0
  72
0
  71
0
 10
5355.39
 20
4428.46
 30
0.000000
  1
3039
  0
POINT
  5
8198
  8
DEFPOINTS
 62
     0
 10
3456.3626435688552
 20
6186.9152161548209
 30
0.0
  0
POINT
  5
8199
  8
DEFPOINTS
 62
     0
 10
4482.3480642481727
 20
3147.9099564432681
 30
0.0
  0
POINT
  5
819A
  8
DEFPOINTS
 62
     0
 10
5737.8862184137843
 20
3147.9099564432672
 30
0.0
  0
ENDBLK
  5
80AE
  8
0
  0
ENDSEC
  0
SECTION
  2
ENTITIES
  0
INSERT
  5
7C4B
  8
0
  2
YA_N
 10
-31517.12022511975
 20
2519.4828116246572
 30
0.0
  0
LINE
  5
7C4D
  8
1
 10
6576.0921907291413
 20
5527.9148540561009
 30
0.0
 11
6386.0921907291413
 21
5527.9148540561009
 31
0.0
  0
LINE
  5
7C4E
  8
1
 10
6576.0913380302882
 20
3397.9148104536889
 30
0.0
 11
6386.0911907291375
 21
3397.9148104536889
 31
0.0
  0
LINE
  5
7C4F
  8
1
 10
6386.0911907291375
 20
3397.9148104536889
 30
0.0
 11
6386.0921907291413
 21
5527.9148540561009
 31
0.0
  0
LINE
  5
7C50
  8
2
 10
6827.3838673724031
 20
3617.9148104536889
 30
0.0
 11
6343.3351907291444
 21
3617.9148104536889
 31
0.0
  0
LINE
  5
7C51
  8
1
 10
6436.0911907291384
 20
3467.9148104536889
 30
0.0
 11
6536.0911907291384
 21
3467.9148104536889
 31
0.0
  0
LINE
  5
7C52
  8
1
 10
6436.0911907291384
 20
3467.9148104536889
 30
0.0
 11
6436.0911907291384
 21
3767.9148104536889
 31
0.0
  0
LINE
  5
7C53
  8
1
 10
6536.0911907291384
 20
3467.9148104536889
 30
0.0
 11
6536.0911907291384
 21
3767.9148104536889
 31
0.0
  0
LINE
  5
7C54
  8
1
 10
6536.0911907291384
 20
3767.9148104536889
 30
0.0
 11
6436.0911907291384
 21
3767.9148104536889
 31
0.0
  0
LINE
  5
7C55
  8
1
 10
6536.0921907291413
 20
5447.9148540561009
 30
0.0
 11
6536.0921907291413
 21
4647.9138540561007
 31
0.0
  0
LINE
  5
7C56
  8
1
 10
6536.0921907291413
 20
4647.9138540561007
 30
0.0
 11
6436.0921907291413
 21
4647.9138540561007
 31
0.0
  0
LINE
  5
7C57
  8
1
 10
6436.0921907291413
 20
4647.9138540561007
 30
0.0
 11
6436.0921907291413
 21
5447.9148540561009
 31
0.0
  0
LINE
  5
7C58
  8
1
 10
6436.0921907291413
 20
5447.9148540561009
 30
0.0
 11
6536.0921907291413
 21
5447.9148540561009
 31
0.0
  0
LINE
  5
7C59
  8
1
 10
7956.0921907291413
 20
4247.9118540561012
 30
0.0
 11
8090.0961907291412
 21
4247.9118540561012
 31
0.0
  0
LINE
  5
7C5A
  8
1
 10
8090.0961907291412
 20
5847.9108540561019
 30
0.0
 11
7956.0921907291413
 21
5847.9108540561019
 31
0.0
  0
LINE
  5
7C5B
  8
1
 10
8090.0961907291412
 20
5912.910854056101
 30
0.0
 11
8090.0961907291412
 21
5847.9108540561019
 31
0.0
  0
LINE
  5
7C5C
  8
1
 10
8090.0961907291412
 20
4182.9118540561012
 30
0.0
 11
8090.0961907291412
 21
4247.9118540561012
 31
0.0
  0
LINE
  5
7C5D
  8
1
 10
6772.8911907291404
 20
3297.9148540567262
 30
0.0
 11
6435.0911907291384
 21
3297.9148540567262
 31
0.0
  0
LINE
  5
7C5E
  8
1
 10
6510.0911907291384
 20
3297.9148540567262
 30
0.0
 11
6435.0911907291384
 21
3297.9148540567262
 31
0.0
  0
LINE
  5
7C5F
  8
1
 10
8090.0961907291412
 20
4182.9118540561012
 30
0.0
 11
8090.0961907291412
 21
5912.910854056101
 31
0.0
  0
LINE
  5
7C60
  8
1
 10
8035.0921907291431
 20
3147.913854056726
 30
0.0
 11
6435.0911907291384
 21
3147.9148540567248
 31
0.0
  0
LINE
  5
7C61
  8
1
 10
6536.0921907291413
 20
5097.9108540561019
 30
0.0
 11
6776.091723391989
 21
5097.9108540561019
 31
0.0
  0
LINE
  5
7C62
  8
1
 10
6536.0921907291413
 20
4997.9128540560996
 30
0.0
 11
6776.0916731416728
 21
4997.9128540560996
 31
0.0
  0
LINE
  5
7C64
  8
1
 10
6776.0911907291375
 20
3297.9148540567262
 30
0.0
 11
6435.0911907291384
 21
3297.9148540567262
 31
0.0
  0
LINE
  5
7C65
  8
1
 10
8035.0921907291413
 20
3297.9148540567262
 30
0.0
 11
6435.0911907291384
 21
3297.9148540567262
 31
0.0
  0
LINE
  5
7C67
  8
2
 10
7366.0921907291413
 20
3147.9142721814651
 30
0.0
 11
7366.0921907291413
 21
6318.3864033697118
 31
0.0
  0
LINE
  5
7C68
  8
2
 10
8158.55624051221
 20
5047.9148540561027
 30
0.0
 11
6386.3771907291384
 21
5047.9148540561009
 31
0.0
  0
LINE
  5
7C69
  8
1
 10
6576.0913380302882
 20
3397.9148104536889
 30
0.0
 11
6576.0921907291413
 21
5527.9148540561009
 31
0.0
  0
POINT
  5
7C6A
  8
1
 10
6386.0921907291413
 20
5527.9148540561009
 30
0.0
  0
LINE
  5
7C6B
  8
1
 10
4512.3575738230502
 20
5002.9088026251338
 30
0.0
 11
4512.3491459528159
 21
3358.9141547943441
 31
0.0
  0
LINE
  5
7C6C
  8
1
 10
4577.3575738221989
 20
5002.9084694053372
 30
0.0
 11
4577.3491151657718
 21
3352.9084694270168
 31
0.0
  0
ARC
  5
7C6D
  8
1
 10
3648.357209860987
 20
4931.9142318861641
 30
0.0
 40
1487.0
 50
175.52542747922189
 51
265.52570627556747
  0
LINE
  5
7C6E
  8
2
 10
1732.3480642843031
 20
3147.9240542039802
 30
0.0
 11
1732.3527372207459
 21
4059.4571329544119
 31
0.0
  0
ARC
  5
7C70
  8
1
 10
1732.3506221052739
 20
3617.9240380686501
 30
0.0
 40
280.0
 50
298.69170540277622
 51
241.30770714835859
  0
LINE
  5
7C71
  8
1
 10
1419.744934738017
 20
3367.925640625429
 30
0.0
 11
1609.023472015811
 21
3367.924670296874
 31
0.0
  0
LINE
  5
7C72
  8
2
 10
2152.6863787617258
 20
3617.9218832348629
 30
0.0
 11
1395.7607109578739
 21
3617.9257635828408
 31
0.0
  0
LINE
  5
7C73
  8
1
 10
1489.3493404938561
 20
3367.9252838013358
 30
0.0
 11
1489.349908977747
 21
3478.817411988101
 31
0.0
  0
LINE
  5
7C74
  8
1
 10
1407.348981642928
 20
3297.9257203002398
 30
0.0
 11
1419.744934738017
 21
3367.925640625429
 31
0.0
  0
LINE
  5
7C75
  8
1
 10
1975.349340487468
 20
3367.9227923425342
 30
0.0
 11
1975.349908971358
 21
3478.814920529298
 31
0.0
  0
LINE
  5
7C76
  8
1
 10
1866.7776448178629
 20
3372.3036489218389
 30
0.0
 11
1597.9210810743241
 21
3372.305027203839
 31
0.0
  0
LINE
  5
7C77
  8
1
 10
1855.6751405489481
 20
3354.5776291058678
 30
0.0
 11
1732.3492720740981
 21
3354.578261330807
 31
0.0
  0
LINE
  5
7C78
  8
1
 10
1609.0234035992471
 20
3354.5788935557462
 30
0.0
 11
1732.3492720740981
 21
3354.578261330807
 31
0.0
  0
LINE
  5
7C79
  8
1
 10
1589.349388014095
 20
3377.1946317876518
 30
0.0
 11
1589.3493404925391
 21
3367.9247711554931
 31
0.0
  0
LINE
  5
7C7A
  8
1
 10
1609.023472015811
 20
3367.924670296874
 30
0.0
 11
1609.0234035992471
 21
3354.5788935557462
 31
0.0
  0
LINE
  5
7C7B
  8
1
 10
2044.953746243322
 20
3367.9224355184401
 30
0.0
 11
1855.6752089655131
 21
3367.923405846996
 31
0.0
  0
LINE
  5
7C7C
  8
1
 10
1875.349388010341
 20
3377.1931656205379
 30
0.0
 11
1875.349340488784
 21
3367.9233049883778
 31
0.0
  0
LINE
  5
7C7D
  8
1
 10
1855.6752089655131
 20
3367.9234058469951
 30
0.0
 11
1855.6751405489481
 21
3354.5776291058678
 31
0.0
  0
LINE
  5
7C7E
  8
1
 10
1875.349388010341
 20
3377.1931656205379
 30
0.0
 11
1875.349340488784
 21
3367.9233049883778
 31
0.0
  0
LINE
  5
7C7F
  8
1
 10
1975.349340487468
 20
3367.9227923425342
 30
0.0
 11
1875.349340488784
 21
3367.9233049883778
 31
0.0
  0
LINE
  5
7C80
  8
1
 10
2057.3489816343858
 20
3297.922388102254
 30
0.0
 11
2044.953746243322
 21
3367.9224355184401
 31
0.0
  0
CIRCLE
  5
7C81
  8
1
 10
1732.3506221052739
 20
3617.9240380686501
 30
0.0
 40
150.0
  0
LINE
  5
7C82
  8
1
 10
4577.3491151657718
 20
3352.9084694270168
 30
0.0
 11
4577.348781945977
 21
3287.9084694278708
 31
0.0
  0
ARC
  5
7C83
  8
1
 10
3416.3562098640391
 20
4931.9154212296489
 30
0.0
 40
1255.0
 50
84.696706275567465
 51
174.69612585271369
  0
ARC
  5
7C84
  8
1
 10
3435.357301799434
 20
5144.9153238241397
 30
0.0
 40
1042.0
 50
354.65770627556742
 51
84.658706275567525
  0
CIRCLE
  5
7C85
  8
1
 10
3532.3578045316831
 20
5047.9148265538179
 30
0.0
 40
800.0
  0
CIRCLE
  5
7C86
  8
1
 10
3532.3578045316831
 20
5047.9148265538197
 30
0.0
 40
400.0
  0
CIRCLE
  5
7C87
  8
1
 10
3532.3578045316831
 20
5047.9148265538179
 30
0.0
 40
865.0
  0
ARC
  5
7C88
  8
1
 10
3629.3583017968781
 20
5144.9143292860754
 30
0.0
 40
848.0
 50
350.3598836280068
 51
353.43070627556739
  0
LINE
  5
7C89
  8
1
 10
4465.3837193472427
 20
5002.9090434346472
 30
0.0
 11
4577.3575738221989
 21
5002.9084694053372
 31
0.0
  0
LINE
  5
7C8A
  8
1
 10
4577.3575738221989
 20
5002.9084694053372
 30
0.0
 11
4512.3575738230502
 21
5002.9088026251338
 31
0.0
  0
LINE
  5
7C8B
  8
1
 10
4577.3579070419946
 20
5067.9084694044823
 30
0.0
 11
4577.3575738221989
 21
5002.9084694053372
 31
0.0
  0
LINE
  5
7C8C
  8
1
 10
6776.091206973354
 20
3352.9148540561018
 30
0.0
 11
6776.0917208814208
 21
5092.9148540561009
 31
0.0
  0
LINE
  5
7C8D
  8
1
 10
7956.0921907291477
 20
3352.9148540561041
 30
0.0
 11
7956.0921907291413
 21
5025.6148540561026
 31
0.0
  0
ARC
  5
7C91
  8
1
 10
3532.3578045316831
 20
5047.9148265538197
 30
0.0
 40
480.0
 50
301.97096550644551
 51
134.95883264766999
  0
ARC
  5
7C92
  8
1
 10
1732.3506221052739
 20
3617.9240380686501
 30
0.0
 40
220.0
 50
134.95883264767039
 51
302.02547501577538
  0
INSERT
  5
7C93
  8
0
  2
YA_N
 10
-497663.11790836783
 20
-121414.51773407729
 30
0.0
 41
60.0
 42
60.0
 43
60.0
  0
INSERT
  5
7C94
  8
0
  2
YA_N
 10
-497663.11790836783
 20
-121414.51773407729
 30
0.0
 41
60.0
 42
60.0
 43
60.0
  0
INSERT
  5
7C95
  8
0
  2
YA_N
 10
-497663.11790836783
 20
-121414.51773407729
 30
0.0
 41
60.0
 42
60.0
 43
60.0
  0
INSERT
  5
7C96
  8
0
  2
YA_N
 10
-497663.11790836783
 20
-121414.51773407729
 30
0.0
 41
60.0
 42
60.0
 43
60.0
  0
INSERT
  5
7C97
  8
0
  2
YA_N
 10
-477461.57057271601
 20
-35802.106713539528
 30
0.0
 41
60.0
 42
60.0
 43
60.0
  0
INSERT
  5
7C98
  8
0
  2
YA_N
 10
-497663.11790836783
 20
-121414.51773407729
 30
0.0
 41
60.0
 42
60.0
 43
60.0
  0
INSERT
  5
7C99
  8
0
  2
YA_N
 10
-492263.11790836783
 20
-116914.51773407729
 30
0.0
 41
960.0
 42
960.0
 43
960.0
  0
INSERT
  5
7C9A
  8
0
  2
YA_N
 10
-302328.7722729778
 20
-30420.29487912848
 30
0.0
 41
60.0
 42
60.0
 43
60.0
  0
INSERT
  5
7C9B
  8
0
  2
YA_N
 10
-302328.7722729778
 20
-30420.29487912848
 30
0.0
 41
60.0
 42
60.0
 43
60.0
  0
INSERT
  5
7C9C
  8
0
  2
YA_N
 10
-282127.22493732622
 20
55192.116141409351
 30
0.0
 41
60.0
 42
60.0
 43
60.0
  0
INSERT
  5
7C9D
  8
0
  2
YA_N
 10
-242015.09345957579
 20
141782.2101215169
 30
0.0
 41
60.0
 42
60.0
 43
60.0
  0
INSERT
  5
7C9E
  8
0
  2
YA_N
 10
-59083.542461579549
 20
126022.04686223371
 30
0.0
 41
60.0
 42
60.0
 43
60.0
  0
INSERT
  5
7C9F
  8
0
  2
YA_N
 10
-492263.11790836783
 20
-116914.51773407729
 30
0.0
 41
960.0
 42
960.0
 43
960.0
  0
INSERT
  5
7CA4
  8
0
  2
YA_N
 10
-492263.11790836783
 20
-116914.51773407729
 30
0.0
 41
960.0
 42
960.0
 43
960.0
  0
INSERT
  5
7CA5
  8
0
  2
YA_N
 10
-492263.11790836783
 20
-116914.51773407729
 30
0.0
 41
960.0
 42
960.0
 43
960.0
  0
INSERT
  5
7CA6
  8
0
  2
YA_N
 10
-492263.11790836783
 20
-116914.51773407729
 30
0.0
 41
960.0
 42
960.0
 43
960.0
  0
INSERT
  5
7CAC
  8
0
  2
YA_N
 10
-506655.12621174828
 20
-129965.73590069319
 30
0.0
 41
73.846153860000001
 42
73.846153860000001
 43
73.846153860000001
  0
INSERT
  5
7CAD
  8
0
  2
YA_N
 10
-496620.04106062622
 20
-120385.2870180569
 30
0.0
 41
73.846153860000001
 42
73.846153860000001
 43
73.846153860000001
  0
INSERT
  5
7CAE
  8
0
  2
YA_N
 10
-496620.04106062622
 20
-120385.2870180569
 30
0.0
 41
73.846153860000001
 42
73.846153860000001
 43
73.846153860000001
  0
INSERT
  5
7CAF
  8
0
  2
YA_N
 10
-496620.04106062622
 20
-120385.2870180569
 30
0.0
 41
73.846153860000001
 42
73.846153860000001
 43
73.846153860000001
  0
INSERT
  5
7CB0
  8
0
  2
YA_N
 10
-496620.04106062622
 20
-120385.2870180569
 30
0.0
 41
73.846153860000001
 42
73.846153860000001
 43
73.846153860000001
  0
INSERT
  5
7CB1
  8
0
  2
YA_N
 10
-496620.04106062622
 20
-120385.2870180569
 30
0.0
 41
73.846153860000001
 42
73.846153860000001
 43
73.846153860000001
  0
INSERT
  5
7CB2
  8
0
  2
YA_N
 10
-461318.25073667022
 20
101092.87520099089
 30
0.0
 41
73.846153860000001
 42
73.846153860000001
 43
73.846153860000001
  0
INSERT
  5
7CB3
  8
0
  2
YA_N
 10
-187907.06930131101
 20
98989.735685792839
 30
0.0
 41
73.846153860000001
 42
73.846153860000001
 43
73.846153860000001
  0
INSERT
  5
7CB4
  8
0
  2
YA_N
 10
-187907.06930131101
 20
98989.735685792839
 30
0.0
 41
73.846153860000001
 42
73.846153860000001
 43
73.846153860000001
  0
INSERT
  5
7CB5
  8
0
  2
YA_N
 10
-187907.06930131101
 20
98989.735685792839
 30
0.0
 41
73.846153860000001
 42
73.846153860000001
 43
73.846153860000001
  0
INSERT
  5
7CB6
  8
0
  2
YA_N
 10
-187907.06930131101
 20
98989.735685792839
 30
0.0
 41
73.846153860000001
 42
73.846153860000001
 43
73.846153860000001
  0
INSERT
  5
7CB7
  8
0
  2
YA_N
 10
-11052.92911476723
 20
251769.1064319633
 30
0.0
 41
73.846153860000001
 42
73.846153860000001
 43
73.846153860000001
  0
INSERT
  5
7CB8
  8
0
  2
YA_N
 10
-11052.92911476723
 20
251769.1064319633
 30
0.0
 41
73.846153860000001
 42
73.846153860000001
 43
73.846153860000001
  0
INSERT
  5
7CB9
  8
0
  2
YA_N
 10
-240712.86143154991
 20
64671.437881626342
 30
0.0
 41
73.846153860000001
 42
73.846153860000001
 43
73.846153860000001
  0
INSERT
  5
7CBA
  8
0
  2
YA_N
 10
-546071.64695341303
 20
-169165.65956160959
 30
0.0
 41
73.846153860000001
 42
73.846153860000001
 43
73.846153860000001
  0
INSERT
  5
7CBB
  8
0
  2
YA_N
 10
-491303.11798270833
 20
-115954.51778645731
 30
0.0
 41
960.00000017999992
 42
960.00000017999992
 43
960.00000017999992
  0
INSERT
  5
7CBD
  8
0
  2
YA_N
 10
-491303.11798270833
 20
-115954.51778645731
 30
0.0
 41
960.00000017999992
 42
960.00000017999992
 43
960.00000017999992
  0
INSERT
  5
7CC2
  8
0
  2
YA_N
 10
-491303.11798270833
 20
-115954.51778645731
 30
0.0
 41
960.00000017999992
 42
960.00000017999992
 43
960.00000017999992
  0
INSERT
  5
7CC3
  8
0
  2
YA_N
 10
-491303.11798270833
 20
-115954.51778645731
 30
0.0
 41
960.00000017999992
 42
960.00000017999992
 43
960.00000017999992
  0
INSERT
  5
7CC4
  8
0
  2
YA_N
 10
-491303.11798270833
 20
-115954.51778645731
 30
0.0
 41
960.00000017999992
 42
960.00000017999992
 43
960.00000017999992
  0
INSERT
  5
7CC9
  8
0
  2
YA_N
 10
-506655.12621174828
 20
-129965.73590069319
 30
0.0
 41
73.846153860000001
 42
73.846153860000001
 43
73.846153860000001
  0
INSERT
  5
7CCA
  8
0
  2
YA_N
 10
-496620.04106062622
 20
-120385.2870180569
 30
0.0
 41
73.846153860000001
 42
73.846153860000001
 43
73.846153860000001
  0
INSERT
  5
7CCB
  8
0
  2
YA_N
 10
-496620.04106062622
 20
-120385.2870180569
 30
0.0
 41
73.846153860000001
 42
73.846153860000001
 43
73.846153860000001
  0
INSERT
  5
7CCC
  8
0
  2
YA_N
 10
-496620.04106062622
 20
-120385.2870180569
 30
0.0
 41
73.846153860000001
 42
73.846153860000001
 43
73.846153860000001
  0
INSERT
  5
7CCD
  8
0
  2
YA_N
 10
-496620.04106062622
 20
-120385.2870180569
 30
0.0
 41
73.846153860000001
 42
73.846153860000001
 43
73.846153860000001
  0
INSERT
  5
7CCE
  8
0
  2
YA_N
 10
-496620.04106062622
 20
-120385.2870180569
 30
0.0
 41
73.846153860000001
 42
73.846153860000001
 43
73.846153860000001
  0
INSERT
  5
7CCF
  8
0
  2
YA_N
 10
-461318.25073667022
 20
101092.87520099089
 30
0.0
 41
73.846153860000001
 42
73.846153860000001
 43
73.846153860000001
  0
INSERT
  5
7CD0
  8
0
  2
YA_N
 10
-187907.06930131101
 20
98989.735685792839
 30
0.0
 41
73.846153860000001
 42
73.846153860000001
 43
73.846153860000001
  0
INSERT
  5
7CD1
  8
0
  2
YA_N
 10
-187907.06930131101
 20
98989.735685792839
 30
0.0
 41
73.846153860000001
 42
73.846153860000001
 43
73.846153860000001
  0
INSERT
  5
7CD2
  8
0
  2
YA_N
 10
-187907.06930131101
 20
98989.735685792839
 30
0.0
 41
73.846153860000001
 42
73.846153860000001
 43
73.846153860000001
  0
INSERT
  5
7CD3
  8
0
  2
YA_N
 10
-187907.06930131101
 20
98989.735685792839
 30
0.0
 41
73.846153860000001
 42
73.846153860000001
 43
73.846153860000001
  0
INSERT
  5
7CD4
  8
0
  2
YA_N
 10
-11052.92911476723
 20
251769.1064319633
 30
0.0
 41
73.846153860000001
 42
73.846153860000001
 43
73.846153860000001
  0
INSERT
  5
7CD5
  8
0
  2
YA_N
 10
-11052.92911476723
 20
251769.1064319633
 30
0.0
 41
73.846153860000001
 42
73.846153860000001
 43
73.846153860000001
  0
INSERT
  5
7CD6
  8
0
  2
YA_N
 10
-240712.86143154991
 20
64671.437881626342
 30
0.0
 41
73.846153860000001
 42
73.846153860000001
 43
73.846153860000001
  0
INSERT
  5
7CD7
  8
0
  2
YA_N
 10
-546071.64695341303
 20
-169165.65956160959
 30
0.0
 41
73.846153860000001
 42
73.846153860000001
 43
73.846153860000001
  0
INSERT
  5
7CD8
  8
0
  2
YA_N
 10
-491303.11798270833
 20
-115954.51778645731
 30
0.0
 41
960.00000017999992
 42
960.00000017999992
 43
960.00000017999992
  0
INSERT
  5
7CDA
  8
0
  2
YA_N
 10
-491303.11798270833
 20
-115954.51778645731
 30
0.0
 41
960.00000017999992
 42
960.00000017999992
 43
960.00000017999992
  0
INSERT
  5
7CDF
  8
0
  2
YA_N
 10
-491303.11798270833
 20
-115954.51778645731
 30
0.0
 41
960.00000017999992
 42
960.00000017999992
 43
960.00000017999992
  0
INSERT
  5
7CE0
  8
0
  2
YA_N
 10
-491303.11798270833
 20
-115954.51778645731
 30
0.0
 41
960.00000017999992
 42
960.00000017999992
 43
960.00000017999992
  0
INSERT
  5
7CE1
  8
0
  2
YA_N
 10
-491303.11798270833
 20
-115954.51778645731
 30
0.0
 41
960.00000017999992
 42
960.00000017999992
 43
960.00000017999992
  0
INSERT
  5
7CE6
  8
0
  2
YA_N
 10
-40968.507159485358
 20
-7779.9834448426482
 30
0.0
 41
60.0
 42
60.0
 43
60.0
  0
INSERT
  5
7CE7
  8
0
  2
YA_N
 10
-40968.507159485358
 20
-7779.9834448426482
 30
0.0
 41
60.0
 42
60.0
 43
60.0
  0
DIMENSION
  5
7CEC
  8
3
  2
*D2
 10
8487.9292335571645
 20
4247.9118540561012
 30
0.0
 11
8407.9292335571663
 21
5047.9113540561002
 31
0.0
 70
     0
  1
φ1600
 13
8090.0961907291412
 23
5847.9108540561019
 33
0.0
 14
8090.0961907291412
 24
4247.9118540561012
 34
0.0
 50
90.0
1001
ACAD
1000
DSTYLE
1002
{
1070
    40
1040
40.0
1002
}
  0
DIMENSION
  5
7CED
  8
3
  2
*D3
 10
8090.0961907291412
 20
6670.4059400857541
 30
0.0
 11
7722.1979617267716
 21
6670.4059400857541
 31
0.0
 70
   128
  1
725
 13
7366.0921907291413
 23
6552.8681557021027
 33
0.0
 14
8090.0961907291412
 24
5912.910854056101
 34
0.0
1001
ACAD
1000
DSTYLE
1002
{
1070
    40
1040
40.0
1002
}
  0
POINT
  5
7CEE
  8
1
 10
6386.0921907291413
 20
5527.9148540561009
 30
0.0
  0
POINT
  5
7CEF
  8
1
 10
7366.0921907291413
 20
6552.8681557021027
 30
0.0
  0
INSERT
  5
7CF0
  8
0
  2
YA_N
 10
25296.78131540928
 20
2345.214985049231
 30
0.0
 41
2.399999999999999
 42
2.399999999999999
 43
2.399999999999999
  0
INSERT
  5
7CF2
  8
0
  2
YA_N
 10
16915.394382623079
 20
17225.579368894101
 30
0.0
 41
60.0
 42
60.0
 43
60.0
 50
270.0
  0
LINE
  5
7CF4
  8
2
 10
3532.3480642606501
 20
3147.9148265787871
 30
0.0
 11
3532.3639017381502
 21
6237.2751882957218
 31
0.0
  0
LINE
  5
7CF5
  8
2
 10
4679.1401862826169
 20
5047.9089476216004
 30
0.0
 11
1982.420037814634
 21
5047.922772245367
 31
0.0
  0
LINE
  5
7CF7
  8
1
 10
4482.3480642481727
 20
3147.9099564432681
 30
0.0
 11
4482.3488332272018
 21
3297.9119564419411
 31
0.0
  0
LINE
  5
7CFA
  8
1
 10
1382.3480642888969
 20
3147.9258484644329
 30
0.0
 11
1382.3488332576669
 21
3297.925848462462
 31
0.0
  0
DIMENSION
  5
7CFD
  8
3
  2
*D4
 10
4940.8077265243846
 20
5002.9066061932317
 30
0.0
 11
4860.8034971972202
 21
4177.9070163207489
 31
0.0
 12
266.7936338933286
 22
3252.4552231656312
 32
0.0
 70
     0
 13
4577.3491151657718
 23
3352.9084694270168
 33
0.0
 14
4577.3575738221989
 24
5002.9084694053372
 34
0.0
 50
89.999706275567476
1001
ACAD
1000
DSTYLE
1002
{
1070
    40
1040
40.0
1002
}
  0
LINE
  5
7CFE
  8
1
 10
4577.3491151708949
 20
3352.9094694270211
 30
0.0
 11
3532.3536457657169
 21
3449.4459613598779
 31
0.0
  0
LINE
  5
7CFF
  8
1
 10
8035.0921907291413
 20
3297.9148540567262
 30
0.0
 11
8035.0921907291413
 21
3147.913854056726
 31
0.0
  0
LINE
  5
7D00
  8
1
 10
7956.0921907291413
 20
3352.9148540561041
 30
0.0
 11
7956.0921907291477
 21
6186.9148540561027
 31
0.0
  0
LINE
  5
7D01
  8
1
 10
6776.0921907291422
 20
3352.9148540561018
 30
0.0
 11
6776.0921907291422
 21
6186.9148540561018
 31
0.0
  0
DIMENSION
  5
7D02
  8
3
  2
*D5
 10
7956.0921907291477
 20
6342.6165112751369
 30
0.0
 11
7366.0921907291449
 21
6422.6165112751369
 31
0.0
 12
266.7936338933286
 22
3252.4552231656312
 32
0.0
 70
     0
 13
6776.0921907291422
 23
6186.9148540561018
 33
0.0
 14
7956.0921907291477
 24
6186.9148540561027
 34
0.0
1001
ACAD
1000
DSTYLE
1002
{
1070
    40
1040
40.0
1002
}
  0
LINE
  5
7D05
  8
1
 10
6435.0921907291404
 20
3147.9148540561
 30
0.0
 11
6435.0921907291404
 21
3297.9148540567262
 31
0.0
  0
LINE
  5
7D08
  8
2
 10
1996.564175283951
 20
8910.4069447380625
 30
0.0
 11
4507.5433553648109
 21
8910.4069447380625
 31
0.0
  0
LINE
  5
7D09
  8
1
 10
2582.346778659331
 20
9579.4069447380662
 30
0.0
 11
4482.3467786593319
 21
9579.4069447380662
 31
0.0
  0
LINE
  5
7D0A
  8
1
 10
1382.346778659331
 20
7979.4069447380616
 30
0.0
 11
4482.3467786593319
 21
7979.4069447380616
 31
0.0
  0
LINE
  5
7D0B
  8
1
 10
4482.3467786593319
 20
7979.4069447380616
 30
0.0
 11
4482.3467786593319
 21
8320.4069447380625
 31
0.0
  0
LINE
  5
7D0C
  8
1
 10
1382.346778659331
 20
7979.4069447380652
 30
0.0
 11
1382.346778659331
 21
9079.4069447380625
 31
0.0
  0
LINE
  5
7D0D
  8
1
 10
1382.346778659331
 20
9079.4069447380625
 30
0.0
 11
2161.3467786593319
 21
9079.4069447380607
 31
0.0
  0
LINE
  5
7D0E
  8
1
 10
2582.346778659331
 20
9500.4069447380643
 30
0.0
 11
2582.346778659331
 21
9579.4069447380662
 31
0.0
  0
LINE
  5
7D0F
  8
1
 10
2161.3467786593319
 20
9500.4069447380607
 30
0.0
 11
4577.3467786593319
 21
9500.4069447380625
 31
0.0
  0
LINE
  5
7D10
  8
1
 10
2161.3467786593319
 20
8320.4069447380625
 30
0.0
 11
4577.3467786593319
 21
8320.4069447380643
 31
0.0
  0
LINE
  5
7D11
  8
1
 10
4482.3467786593319
 20
9500.4069447380625
 30
0.0
 11
4482.3467786593319
 21
9579.4069447380662
 31
0.0
  0
DIMENSION
  5
7D12
  8
3
  2
*D6
 10
6386.0921907291413
 20
6670.4059400857541
 30
0.0
 11
6876.0921907291422
 21
6850.4059400857559
 31
0.0
 70
     0
  1
MAX\P1080
 13
7366.0921907291413
 23
6552.8681557021027
 33
0.0
 14
6386.0921907291413
 24
5527.9148540561009
 34
0.0
1001
ACAD
1000
DSTYLE
1002
{
1070
   287
1070
     4
1070
   287
1070
     4
1070
    40
1040
40.0
1070
    75
1070
     1
1070
   279
1070
     1
1070
   289
1070
     3
1002
}
  0
LINE
  5
7D13
  8
1
 10
3582.346778659331
 20
8060.4069447380598
 30
0.0
 11
3582.3467786593242
 21
8320.4069447380625
 31
0.0
  0
LINE
  5
7D14
  8
1
 10
3482.3467786593319
 20
8060.4069447380598
 30
0.0
 11
3482.3467786593319
 21
8320.4069447380625
 31
0.0
  0
LINE
  5
7D15
  8
1
 10
1512.3467786593319
 20
7910.4069447380616
 30
0.0
 11
1512.3467786593319
 21
8100.4069447380634
 31
0.0
  0
LINE
  5
7D16
  8
1
 10
4012.346778659331
 20
7910.4069447380616
 30
0.0
 11
4012.346778659331
 21
8100.4069447380634
 31
0.0
  0
LINE
  5
7D17
  8
1
 10
3132.3457786593349
 20
7960.4069447380598
 30
0.0
 11
3932.346778659331
 21
7960.4069447380616
 31
0.0
  0
LINE
  5
7D18
  8
1
 10
3932.346778659331
 20
8060.4069447380616
 30
0.0
 11
3132.3457786593349
 21
8060.4069447380598
 31
0.0
  0
LINE
  5
7D1A
  8
1
 10
4012.346778659331
 20
8100.4069447380634
 30
0.0
 11
4012.346778659331
 21
7910.4069447380616
 31
0.0
  0
LINE
  5
7D1B
  8
1
 10
1512.3467786593319
 20
8100.4069447380634
 30
0.0
 11
4012.346778659331
 21
8100.4069447380634
 31
0.0
  0
LINE
  5
7D1C
  8
1
 10
1512.346778659339
 20
7910.4067974369118
 30
0.0
 11
4012.346778659331
 21
7910.4069447380616
 31
0.0
  0
LINE
  5
7D1D
  8
2
 10
3532.3467786593319
 20
9718.9461678905045
 30
0.0
 11
3532.3467786593319
 21
7872.3059902855603
 31
0.0
  0
LINE
  5
7D1E
  8
1
 10
1582.346778659339
 20
8060.4067974369109
 30
0.0
 11
1882.346778659339
 21
8060.4067974369154
 31
0.0
  0
LINE
  5
7D1F
  8
1
 10
1582.346778659339
 20
7960.4067974369109
 30
0.0
 11
1882.346778659339
 21
7960.4067974369136
 31
0.0
  0
LINE
  5
7D20
  8
1
 10
1512.3467786593319
 20
8100.4069447380634
 30
0.0
 11
1512.346778659339
 21
7910.4067974369118
 31
0.0
  0
LINE
  5
7D21
  8
1
 10
1582.346778659339
 20
7960.4067974369109
 30
0.0
 11
1582.346778659339
 21
8060.4067974369109
 31
0.0
  0
LINE
  5
7D22
  8
2
 10
1732.3467786593169
 20
8905.9815479501995
 30
0.0
 11
1732.346778659339
 21
7867.6507974369188
 31
0.0
  0
LINE
  5
7D23
  8
1
 10
1882.346778659339
 20
8060.4067974369154
 30
0.0
 11
1882.346778659339
 21
7960.4067974369136
 31
0.0
  0
LINE
  5
7D24
  8
1
 10
3132.3457786593349
 20
8060.4069447380598
 30
0.0
 11
3132.3457786593349
 21
7960.4069447380598
 31
0.0
  0
LINE
  5
7D25
  8
1
 10
3932.346778659331
 20
7960.4069447380616
 30
0.0
 11
3932.346778659331
 21
8060.4069447380616
 31
0.0
  0
LINE
  5
7D26
  8
1
 10
1582.346778659331
 20
8834.9067974369136
 30
0.0
 11
1882.346778659331
 21
8834.9067974369136
 31
0.0
  0
LINE
  5
7D27
  8
1
 10
1582.346778659331
 20
8247.4067974369118
 30
0.0
 11
1882.346778659331
 21
8247.4067974369136
 31
0.0
  0
LINE
  5
7D28
  8
1
 10
1582.346778659331
 20
8834.9067974369136
 30
0.0
 11
1582.346778659331
 21
8247.4067974369118
 31
0.0
  0
LINE
  5
7D29
  8
1
 10
1882.346778659331
 20
8834.9067974369136
 30
0.0
 11
1882.346778659331
 21
8247.4067974369136
 31
0.0
  0
LINE
  5
7D2A
  8
1
 10
1769.846778659331
 20
8247.4067974369136
 30
0.0
 11
1769.846778659339
 21
8060.4067974369154
 31
0.0
  0
LINE
  5
7D2B
  8
1
 10
1694.846778659339
 20
8247.4067974369136
 30
0.0
 11
1694.846778659339
 21
8060.4067974369109
 31
0.0
  0
LINE
  5
7D2C
  8
1
 10
6776.0921907291422
 20
3655.4148104536889
 30
0.0
 11
6576.0914960721702
 21
3655.4148104536889
 31
0.0
  0
LINE
  5
7D2D
  8
1
 10
6776.0921907291422
 20
3580.4148104536889
 30
0.0
 11
6576.0914500405488
 21
3580.4148104536889
 31
0.0
  0
DIMENSION
  5
7D2E
  8
3
  2
*D7
 10
2582.346778659331
 20
9855.7235874414291
 30
0.0
 11
1982.3467786593319
 21
9935.7235874414291
 31
0.0
 12
266.7936338933286
 22
1746.784136251164
 32
0.0
 70
     0
 13
1382.346778659331
 23
9079.4069447380625
 33
0.0
 14
2582.346778659331
 24
9579.4069447380662
 34
0.0
1001
ACAD
1000
DSTYLE
1002
{
1070
    40
1040
40.0
1002
}
  0
DIMENSION
  5
7D2F
  8
3
  2
*D8
 10
4482.3467786593319
 20
9855.7235874414291
 30
0.0
 11
3532.3467786593319
 21
9935.7235874414291
 31
0.0
 70
     0
 13
2582.346778659331
 23
9579.4069447380662
 33
0.0
 14
4482.3467786593319
 24
9579.4069447380662
 34
0.0
1001
ACAD
1000
DSTYLE
1002
{
1070
   287
1070
     4
1070
   287
1070
     4
1070
    40
1040
40.0
1070
    75
1070
     1
1070
   279
1070
     1
1070
   289
1070
     3
1002
}
  0
DIMENSION
  5
7D30
  8
3
  2
*D9
 10
1044.6407460670091
 20
7979.4069447380616
 30
0.0
 11
964.64074606700876
 21
8529.4069447380607
 31
0.0
 12
266.7936338933286
 22
1746.784136251164
 32
0.0
 70
     0
 13
1382.346778659331
 23
9079.4069447380625
 33
0.0
 14
1382.346778659331
 24
7979.4069447380616
 34
0.0
 50
90.0
1001
ACAD
1000
DSTYLE
1002
{
1070
    40
1040
40.0
1002
}
  0
DIMENSION
  5
7D31
  8
3
  2
*D10
 10
4912.2981855820908
 20
7979.4069447380616
 30
0.0
 11
4832.2981855820899
 21
8779.4069447380607
 31
0.0
 12
266.7936338933286
 22
1746.784136251164
 32
0.0
 70
     0
 13
4482.3467786593319
 23
9579.4069447380662
 33
0.0
 14
4482.3467786593319
 24
7979.4069447380616
 34
0.0
 50
90.0
1001
ACAD
1000
DSTYLE
1002
{
1070
    40
1040
40.0
1002
}
  0
DIMENSION
  5
7D32
  8
3
  2
*D11
 10
4482.3467786593319
 20
7496.4143767293281
 30
0.0
 11
2932.346778659331
 21
7576.4143767293281
 31
0.0
 12
266.7936338933286
 22
1746.784136251164
 32
0.0
 70
     0
 13
1382.346778659331
 23
7979.4069447380616
 33
0.0
 14
4482.3467786593319
 24
7979.4069447380616
 34
0.0
1001
ACAD
1000
DSTYLE
1002
{
1070
    40
1040
40.0
1002
}
  0
LINE
  5
7D33
  8
1
 10
1382.348064288904
 20
3147.9258484644329
 30
0.0
 11
4482.34806424818
 21
3147.9099564432672
 31
0.0
  0
LINE
  5
7D34
  8
1
 10
1382.348833257674
 20
3297.925848462462
 30
0.0
 11
4482.3488332169509
 21
3297.9099564412968
 31
0.0
  0
LINE
  5
7D37
  8
1
 10
1812.3302312789599
 20
3491.025408775718
 30
0.0
 11
3745.6367623281772
 21
4709.5184817726677
 31
0.0
  0
LINE
  5
7D38
  8
1
 10
3250.9599665801502
 20
5332.1950699690069
 30
0.0
 11
1626.826432873451
 21
3724.5291293493451
 31
0.0
  0
LINE
  5
7D39
  8
1
 10
3193.1905061215002
 20
5387.5698628614464
 30
0.0
 11
1576.8989436672709
 21
3773.5992630429778
 31
0.0
  0
LINE
  5
7D3A
  8
1
 10
3786.512740508369
 20
4640.72289574147
 30
0.0
 11
1848.83830109459
 21
3431.2944031129891
 31
0.0
  0
DIMENSION
  5
7D3B
  8
3
  2
*D12
 10
5434.4349229760564
 20
5047.9050756345196
 30
0.0
 11
5354.4378424951901
 21
5617.4054857437122
 31
0.0
 12
266.7936338933286
 22
3252.4552231656312
 32
0.0
 70
     0
 13
3416.36264356938
 23
6186.915421213158
 33
0.0
 14
4679.1401862826169
 24
5047.9089476216004
 34
0.0
 50
269.99970627556741
1001
ACAD
1000
DSTYLE
1002
{
1070
    40
1040
40.0
1002
}
  0
DIMENSION
  5
7D3C
  8
3
  2
*D13
 10
5434.4251827050157
 20
3147.9050756594861
 30
0.0
 11
5354.430052841587
 21
4097.9054857636802
 31
0.0
 70
     0
 13
4679.1401862826169
 23
5047.9089476216004
 33
0.0
 14
4482.3480642481727
 24
3147.9099564432672
 34
0.0
 50
269.99970627556741
1001
ACAD
1000
DSTYLE
1002
{
1070
   287
1070
     4
1070
   287
1070
     4
1070
    40
1040
40.0
1070
    75
1070
     1
1070
   279
1070
     1
1070
   289
1070
     3
1002
}
  0
DIMENSION
  5
7D40
  8
3
  2
*D14
 10
3532.3654407088388
 20
6537.476722508557
 30
0.0
 11
4054.8658508186481
 21
6617.4740439329717
 31
0.0
 12
266.7936338933286
 22
3252.4552231656312
 32
0.0
 70
     0
 13
4577.3579070419946
 23
5067.9084694044823
 33
0.0
 14
3532.3639017381502
 24
6237.2751882957218
 34
0.0
 50
359.99970627556752
1001
ACAD
1000
DSTYLE
1002
{
1070
    40
1040
40.0
1002
}
  0
DIMENSION
  5
7D41
  8
3
  2
*D15
 10
2161.3654407268559
 20
6537.4837508830797
 30
0.0
 11
2846.8658508345229
 21
6617.4802366947661
 31
0.0
 70
     0
 13
3532.3639017381502
 23
6237.2751882957218
 33
0.0
 14
2161.357209880523
 24
4931.9218549298639
 34
0.0
 50
359.99970627556752
1001
ACAD
1000
DSTYLE
1002
{
1070
   287
1070
     4
1070
   287
1070
     4
1070
    40
1040
40.0
1070
    75
1070
     1
1070
   279
1070
     1
1070
   289
1070
     3
1002
}
  0
DIMENSION
  5
7D42
  8
3
  2
*D16
 10
1382.3668834767479
 20
6818.9178339451637
 30
0.0
 11
2979.8672935724339
 21
6898.9096444267561
 31
0.0
 12
266.7936338933286
 22
3252.4552231656312
 32
0.0
 70
     0
 13
4577.3581121003372
 23
5107.9084694039548
 33
0.0
 14
1382.3488332576669
 24
3297.925848462462
 34
0.0
 50
359.99970627556752
1001
ACAD
1000
DSTYLE
1002
{
1070
    40
1040
40.0
1002
}
  0
LINE
  5
7D43
  8
1
 10
4577.3467786593319
 20
9575.4069447380643
 30
0.0
 11
4577.3467786593319
 21
8245.4069447380625
 31
0.0
  0
LINE
  5
7D44
  8
1
 10
2161.3467786593319
 20
9500.4069447380625
 30
0.0
 11
2161.3467786593392
 21
8320.4069447380607
 31
0.0
  0
DIMENSION
  5
7D45
  8
3
  2
*D17
 10
5182.3571514570649
 20
3352.906367878466
 30
0.0
 11
5182.3614961305939
 21
4200.406367867331
 31
0.0
 12
266.7936338933286
 22
3252.4552231656312
 32
0.0
 70
   128
 13
4679.1401862826169
 23
5047.9089476216004
 33
0.0
 14
4577.3491151708949
 24
3352.9094694270211
 34
0.0
 50
269.99970627556741
1001
ACAD
1000
DSTYLE
1002
{
1070
    40
1040
40.0
1002
}
  0
LINE
  5
7D46
  8
1
 10
7956.0921907291413
 20
3352.9148540561041
 30
0.0
 11
6776.0921907291422
 21
3352.9148540561018
 31
0.0
  0
LINE
  5
7D47
  8
1
 10
7956.0921907291413
 20
5002.9148540561036
 30
0.0
 11
6776.0921907291422
 21
5002.9148540561009
 31
0.0
  0
LINE
  5
7D48
  8
1
 10
7956.0921907291413
 20
5002.9148540561036
 30
0.0
 11
6776.0921907291422
 21
3352.9148540561018
 31
0.0
  0
LINE
  5
7D49
  8
1
 10
6776.0921907291422
 20
5002.9148540561009
 30
0.0
 11
7956.0921907291413
 21
3352.9148540561041
 31
0.0
  0
LINE
  5
7D4A
  8
1
 10
7956.0921907291477
 20
6186.9148540561027
 30
0.0
 11
6776.0921907291486
 21
6186.9148540561018
 31
0.0
  0
LINE
  5
7F84
  8
4
 10
8325.0
 20
2250.0
 30
0.0
 11
8325.0
 21
1350.0
 31
0.0
  0
LINE
  5
7F85
  8
4
 10
5175.0
 20
2250.0
 30
0.0
 11
5175.0
 21
1350.0
 31
0.0
  0
LINE
  5
7F86
  8
4
 10
2925.0
 20
2250.0
 30
0.0
 11
2925.0
 21
1350.0
 31
0.0
  0
LINE
  5
7F89
  8
4
 10
2925.0
 20
1350.0
 30
0.0
 11
8325.0
 21
1350.0
 31
0.0
  0
LINE
  5
7F8A
  8
4
 10
2925.0
 20
1800.0
 30
0.0
 11
8325.0
 21
1800.0
 31
0.0
  0
TEXT
  5
7F8B
  8
4
 10
3098.259363811057
 20
1941.943616399758
 30
0.0
 40
225.0
  1
機器名称
  0
TEXT
  5
7F8C
  8
4
 10
3088.1614771115892
 20
1447.403205294049
 30
0.0
 40
225.0
  1
機器型番
  0
TEXT
  5
7F8D
  8
4
 10
5299.5543546944918
 20
1901.5729603090581
 30
0.0
 40
225.0
  1
ミツヤ多翼送風機
  0
TEXT
  5
7F8E
  8
4
 10
5339.9452301346628
 20
1427.218129259745
 30
0.0
 40
225.0
  1
MFE#10-4
  0
TEXT
  5
7F90
  8
4
 10
3594.384247194917
 20
10725.429785996321
 30
0.0
 40
242.99999999999989
  1
床置ベット
  0
TEXT
  5
7F91
  8
4
 10
1422.7541699825081
 20
11402.46439289684
 30
0.0
 40
324.0
  1
ベルト駆動式片吸込両持排煙ファン
  0
LINE
  5
7F92
  8
4
 10
1125.0
 20
11112.33939419162
 30
0.0
 11
8325.0
 21
11112.33939419162
 31
0.0
  0
LINE
  5
7F93
  8
4
 10
1125.0
 20
12012.33939419162
 30
0.0
 11
8325.0
 21
12012.33939419162
 31
0.0
  0
LINE
  5
7F94
  8
4
 10
2925.0
 20
2250.0
 30
0.0
 11
8325.0
 21
2250.0
 31
0.0
  0
LINE
  5
7F95
  8
4
 10
1125.0
 20
12012.33939419162
 30
0.0
 11
1125.0
 21
11112.33939419162
 31
0.0
  0
TEXT
  5
7F96
  8
4
 10
1633.0195021027571
 20
10720.437648958539
 30
0.0
 40
242.99999999999989
  1
左回転右横向
  0
TEXT
  5
7F97
  8
4
 10
6610.3630166218027
 20
12177.274866728891
 30
0.0
 40
252.0
  1
No.
  0
TEXT
  5
7F98
  8
4
 10
5900.832281700059
 20
10725.429785996321
 30
0.0
 40
242.99999999999989
  1
縮尺：1/45
  0
LINE
  5
7F99
  8
4
 10
8325.0
 20
12012.33939419162
 30
0.0
 11
8325.0
 21
11112.33939419162
 31
0.0
  0
LINE
  5
7F9A
  8
4
 10
9450.0
 20
13275.0
 30
0.0
 11
9450.0
 21
13275.0
 31
0.0
  0
LINE
  5
7F9B
  8
4
 10
6482.7784006193906
 20
12065.686124064299
 30
0.0
 11
6482.7784006193906
 21
12539.935176973881
 31
0.0
  0
LINE
  5
7F9C
  8
4
 10
6482.7784006193906
 20
12539.935176973881
 30
0.0
 11
8325.0
 21
12539.935176973881
 31
0.0
  0
LINE
  5
7F9D
  8
4
 10
8325.0
 20
12539.935176973881
 30
0.0
 11
8325.0
 21
12065.686124064299
 31
0.0
  0
LINE
  5
7F9E
  8
4
 10
8325.0
 20
12065.686124064299
 30
0.0
 11
6482.7784006193906
 21
12065.686124064299
 31
0.0
  0
LINE
  5
7F9F
  8
4
 10
0.0
 20
0.0
 30
0.0
 11
0.0
 21
13275.0
 31
0.0
  0
LINE
  5
7FA0
  8
4
 10
0.0
 20
13275.0
 30
0.0
 11
9450.0
 21
13275.0
 31
0.0
  0
LINE
  5
7FA1
  8
4
 10
9450.0
 20
13275.0
 30
0.0
 11
9450.0
 21
0.0
 31
0.0
  0
LINE
  5
7FA2
  8
4
 10
9450.0
 20
0.0
 30
0.0
 11
0.0
 21
0.0
 31
0.0
  0
DIMENSION
  5
807B
  8
3
  2
*D18
 10
3532.3480642606501
 20
2875.4155212726
 30
0.0
 11
2457.3480642747768
 21
2987.9155212726
 31
0.0
 70
     0
 13
1382.348064288904
 23
3147.9258484644329
 33
0.0
 14
3532.3480642606501
 24
3147.9148265787871
 34
0.0
1001
ACAD
1000
DSTYLE
1002
{
1070
   287
1070
     3
1070
   287
1070
     3
1070
    40
1040
45.0
1070
   143
1040
0.039
1070
   172
1070
     1
1070
   271
1070
     0
1070
   279
1070
     0
1002
}
  0
DIMENSION
  5
8088
  8
3
  2
*D19
 10
4482.3480642481727
 20
2875.4155212726
 30
0.0
 11
4007.3480642544109
 21
2987.9155212726
 31
0.0
 70
     0
 13
3532.3480642606501
 23
3147.9148265787871
 33
0.0
 14
4482.3480642481727
 24
3147.9099564432681
 34
0.0
1001
ACAD
1000
DSTYLE
1002
{
1070
   287
1070
     3
1070
   287
1070
     3
1070
    40
1040
45.0
1070
   143
1040
0.039
1070
   172
1070
     1
1070
   271
1070
     0
1070
   279
1070
     0
1002
}
  0
DIMENSION
  5
8095
  8
3
  2
*D20
 10
7366.0921907291413
 20
2875.4155212726
 30
0.0
 11
6900.5921907291413
 21
2987.9155212726
 31
0.0
 70
     0
 13
6435.0921907291404
 23
3147.9148540561
 33
0.0
 14
7366.0921907291413
 24
3147.9142721814651
 34
0.0
1001
ACAD
1000
DSTYLE
1002
{
1070
   287
1070
     3
1070
   287
1070
     3
1070
    40
1040
45.0
1070
   143
1040
0.039
1070
   172
1070
     1
1070
   271
1070
     0
1070
   279
1070
     0
1002
}
  0
DIMENSION
  5
80A2
  8
3
  2
*D21
 10
8035.0921907291431
 20
2875.4155212726
 30
0.0
 11
7700.5921907291413
 21
2987.9155212726
 31
0.0
 70
     0
 13
7366.0921907291413
 23
3147.9142721814651
 33
0.0
 14
8035.0921907291431
 24
3147.913854056726
 34
0.0
1001
ACAD
1000
DSTYLE
1002
{
1070
   287
1070
     3
1070
   287
1070
     3
1070
    40
1040
45.0
1070
   143
1040
0.039
1070
   172
1070
     1
1070
   271
1070
     0
1070
   279
1070
     0
1002
}
  0
DIMENSION
  5
80AF
  8
3
  2
*D22
 10
5737.8862184137843
 20
3147.9099564432672
 30
0.0
 11
5625.3862184137824
 21
4667.4125862990459
 31
0.0
 70
     0
 13
3456.3626435688552
 23
6186.9152161548209
 33
0.0
 14
4482.3480642481727
 24
3147.9099564432681
 34
0.0
 50
90.0
1001
ACAD
1000
DSTYLE
1002
{
1070
   287
1070
     3
1070
   287
1070
     3
1070
    40
1040
45.0
1070
   143
1040
0.039
1070
   172
1070
     1
1070
   271
1070
     0
1070
   279
1070
     0
1002
}
  0
ENDSEC
  0
EOF
