  0
SECTION
  2
HEADER
  9
$ACADVER
  1
AC1009
  9
$INSBASE
 10
0.0
 20
0.0
 30
0.0
  9
$EXTMIN
 10
0.0
 20
0.0
 30
0.0
  9
$EXTMAX
 10
8400.0
 20
11800.0
 30
0.0
  9
$LIMMIN
 10
0.0
 20
0.0
  9
$LIMMAX
 10
297.0
 20
210.0
  9
$ORTHOMODE
 70
     0
  9
$REGENMODE
 70
     1
  9
$FILLMODE
 70
     0
  9
$QTEXTMODE
 70
     0
  9
$MIRRTEXT
 70
     1
  9
$DRAGMODE
 70
     2
  9
$LTSCALE
 40
100.0
  9
$OSMODE
 70
    37
  9
$ATTMODE
 70
     1
  9
$TEXTSIZE
 40
180.0
  9
$TRACEWID
 40
0.05
  9
$TEXTSTYLE
  7
STANDARD
  9
$CLAYER
  8
3
  9
$CELTYPE
  6
BYLAYER
  9
$CECOLOR
 62
   256
  9
$DIMSCALE
 40
40.0
  9
$DIMASZ
 40
2.0
  9
$DIMEXO
 40
0.5
  9
$DIMDLI
 40
10.0
  9
$DIMRND
 40
0.0
  9
$DIMDLE
 40
0.0
  9
$DIMEXE
 40
1.0
  9
$DIMTP
 40
1.0
  9
$DIMTM
 40
1.0
  9
$DIMTXT
 40
3.0
  9
$DIMCEN
 40
0.0
  9
$DIMTSZ
 40
0.0
  9
$DIMTOL
 70
     0
  9
$DIMLIM
 70
     0
  9
$DIMTIH
 70
     0
  9
$DIMTOH
 70
     0
  9
$DIMSE1
 70
     0
  9
$DIMSE2
 70
     0
  9
$DIMTAD
 70
     1
  9
$DIMZIN
 70
     8
  9
$DIMBLK
  1

  9
$DIMASO
 70
     1
  9
$DIMSHO
 70
     1
  9
$DIMPOST
  1

  9
$DIMAPOST
  1

  9
$DIMALT
 70
     0
  9
$DIMALTD
 70
     2
  9
$DIMALTF
 40
0.039
  9
$DIMLFAC
 40
1.0
  9
$DIMTOFL
 70
     1
  9
$DIMTVP
 40
0.0
  9
$DIMTIX
 70
     0
  9
$DIMSOXD
 70
     0
  9
$DIMSAH
 70
     1
  9
$DIMBLK1
  1
OPEN
  9
$DIMBLK2
  1
OPEN
  9
$DIMSTYLE
  2
IGA
  9
$DIMCLRD
 70
     0
  9
$DIMCLRE
 70
     0
  9
$DIMCLRT
 70
     0
  9
$DIMTFAC
 40
10.0
  9
$DIMGAP
 40
1.0
  9
$LUNITS
 70
     2
  9
$LUPREC
 70
     3
  9
$SKETCHINC
 40
0.1
  9
$FILLETRAD
 40
50.0
  9
$AUNITS
 70
     0
  9
$AUPREC
 70
     0
  9
$MENU
  1
acad
  9
$ELEVATION
 40
0.0
  9
$PELEVATION
 40
0.0
  9
$THICKNESS
 40
0.0
  9
$LIMCHECK
 70
     0
  9
$BLIPMODE
 70
     0
  9
$CHAMFERA
 40
0.5
  9
$CHAMFERB
 40
0.5
  9
$SKPOLY
 70
     0
  9
$TDCREATE
 40
2451408.6416193289
  9
$TDUPDATE
 40
2454953.8464525342
  9
$TDINDWG
 40
0.0121720139
  9
$TDUSRTIMER
 40
0.0121720139
  9
$USRTIMER
 70
     1
  9
$ANGBASE
 50
0.0
  9
$ANGDIR
 70
     0
  9
$PDMODE
 70
     0
  9
$PDSIZE
 40
0.0
  9
$PLINEWID
 40
0.0
  9
$COORDS
 70
     1
  9
$SPLFRAME
 70
     0
  9
$SPLINETYPE
 70
     6
  9
$SPLINESEGS
 70
     8
  9
$ATTDIA
 70
     0
  9
$ATTREQ
 70
     1
  9
$HANDLING
 70
 10241
  9
$HANDSEED
  5
8514
  9
$SURFTAB1
 70
     6
  9
$SURFTAB2
 70
     6
  9
$SURFTYPE
 70
     6
  9
$SURFU
 70
     6
  9
$SURFV
 70
     6
  9
$UCSNAME
  2

  9
$UCSORG
 10
0.0
 20
0.0
 30
0.0
  9
$UCSXDIR
 10
1.0
 20
0.0
 30
0.0
  9
$UCSYDIR
 10
0.0
 20
1.0
 30
0.0
  9
$PUCSNAME
  2

  9
$PUCSORG
 10
0.0
 20
0.0
 30
0.0
  9
$PUCSXDIR
 10
1.0
 20
0.0
 30
0.0
  9
$PUCSYDIR
 10
0.0
 20
1.0
 30
0.0
  9
$USERI1
 70
     0
  9
$USERI2
 70
     0
  9
$USERI3
 70
     0
  9
$USERI4
 70
     0
  9
$USERI5
 70
     0
  9
$USERR1
 40
0.0
  9
$USERR2
 40
0.0
  9
$USERR3
 40
0.0
  9
$USERR4
 40
0.0
  9
$USERR5
 40
0.0
  9
$WORLDVIEW
 70
     1
  9
$SHADEDGE
 70
     3
  9
$SHADEDIF
 70
    70
  9
$TILEMODE
 70
     1
  9
$MAXACTVP
 70
    16
  9
$PLIMCHECK
 70
     0
  9
$PEXTMIN
 10
1.0000000000000000E+020
 20
1.0000000000000000E+020
 30
1.0000000000000000E+020
  9
$PEXTMAX
 10
-1.0000000000000000E+020
 20
-1.0000000000000000E+020
 30
-1.0000000000000000E+020
  9
$PLIMMIN
 10
0.0
 20
0.0
  9
$PLIMMAX
 10
12.0
 20
9.0
  9
$UNITMODE
 70
     0
  9
$VISRETAIN
 70
     0
  9
$PLINEGEN
 70
     0
  9
$PSLTSCALE
 70
     1
  0
ENDSEC
  0
SECTION
  2
TABLES
  0
TABLE
  2
VPORT
 70
     2
  0
VPORT
  2
*ACTIVE
 70
     0
 10
0.0
 20
0.0
 11
1.0
 21
1.0
 12
12055.96529284164
 22
8009.9956321173886
 13
0.0
 23
0.0
 14
10.0
 24
10.0
 15
10.0
 25
10.0
 16
0.0
 26
0.0
 36
1.0
 17
0.0
 27
0.0
 37
0.0
 40
16019.991264234781
 41
1.5051150895140659
 42
50.0
 43
0.0
 44
0.0
 50
0.0
 51
0.0
 71
     0
 72
   100
 73
     1
 74
     0
 75
     0
 76
     0
 77
     0
 78
     0
  0
ENDTAB
  0
TABLE
  2
LTYPE
 70
     2
  0
LTYPE
  2
CONTINUOUS
 70
     0
  3
Solid line
 72
    65
 73
     0
 40
0.0
  0
LTYPE
  2
CENTER
 70
     0
  3
____ _ ____ _ ____ _ ____ _ ____ _ ____ _ ____ 
 72
    65
 73
     4
 40
2.0
 49
1.25
 49
-0.25
 49
0.25
 49
-0.25
  0
ENDTAB
  0
TABLE
  2
LAYER
 70
     6
  0
LAYER
  2
0
 70
     0
 62
     7
  6
CONTINUOUS
  0
LAYER
  2
3
 70
     0
 62
     2
  6
CONTINUOUS
  0
LAYER
  2
2
 70
     0
 62
     3
  6
CENTER
  0
LAYER
  2
1
 70
     0
 62
     4
  6
CONTINUOUS
  0
LAYER
  2
4
 70
     0
 62
     7
  6
CONTINUOUS
  0
LAYER
  2
DEFPOINTS
 70
     0
 62
     7
  6
CONTINUOUS
  0
ENDTAB
  0
TABLE
  2
STYLE
 70
     1
  0
STYLE
  2
STANDARD
 70
     0
 40
0.0
 41
1.0
 50
0.0
 71
     0
 42
180.0
  3
simplex.shx
  4
extfont.shx
  0
ENDTAB
  0
TABLE
  2
VIEW
 70
     0
  0
ENDTAB
  0
TABLE
  2
UCS
 70
     0
  0
ENDTAB
  0
TABLE
  2
APPID
 70
     1
  0
APPID
  2
ACAD
 70
     0
  0
ENDTAB
  0
TABLE
  2
DIMSTYLE
 70
     1
  0
DIMSTYLE
  2
IGA
 70
     0
  3

  4

  5

  6
OPEN
  7
OPEN
 40
2.0
 41
2.0
 42
0.5
 43
10.0
 44
1.0
 45
0.0
 46
0.0
 47
1.0
 48
1.0
140
3.0
141
0.0
142
0.0
143
0.03937
144
1.0
145
0.0
146
10.0
147
1.0
 71
     0
 72
     0
 73
     0
 74
     0
 75
     0
 76
     0
 77
     1
 78
     8
170
     0
171
     2
172
     0
173
     1
174
     0
175
     0
176
     0
177
     0
178
     0
  0
ENDTAB
  0
ENDSEC
  0
SECTION
  2
BLOCKS
  0
BLOCK
  8
0
  2
$MODEL_SPACE
 70
     0
 10
0.0
 20
0.0
 30
0.0
  3
$MODEL_SPACE
  1

  0
ENDBLK
  5
1B
  8
0
  0
BLOCK
 67
     1
  8
0
  2
$PAPER_SPACE
 70
     0
 10
0.0
 20
0.0
 30
0.0
  3
$PAPER_SPACE
  1

  0
ENDBLK
  5
18
 67
     1
  8
0
  0
BLOCK
  8
0
  2
_OPEN
 70
     0
 10
0.0
 20
0.0
 30
0.0
  3
_OPEN
  1

  0
LINE
  5
79FD
  8
0
  6
BYBLOCK
 62
     0
 10
-1.0
 20
0.1666666666666666
 30
0.0
 11
0.0
 21
0.0
 31
0.0
  0
LINE
  5
79FE
  8
0
  6
BYBLOCK
 62
     0
 10
0.0
 20
0.0
 30
0.0
 11
-1.0
 21
-0.1666666666666666
 31
0.0
  0
LINE
  5
79FF
  8
0
  6
BYBLOCK
 62
     0
 10
0.0
 20
0.0
 30
0.0
 11
-1.0
 21
0.0
 31
0.0
  0
ENDBLK
  5
7A01
  8
0
  0
BLOCK
  8
0
  2
YA_N
 70
     0
 10
0.0
 20
0.0
 30
0.0
  3
YA_N
  1

  0
ENDBLK
  5
7A0C
  8
0
  0
BLOCK
  8
0
  2
*D2
 70
     1
 10
0.0
 20
0.0
 30
0.0
  3
*D2
  1

  0
LINE
  5
8439
  8
3
 62
     0
 10
2063.6264749374709
 20
5260.0005522589918
 30
0.0
 11
2063.6264749374709
 21
5547.646697772665
 31
0.0
  0
LINE
  5
843A
  8
3
 62
     0
 10
3513.6264749374709
 20
5260.0005522589918
 30
0.0
 11
3513.6264749374709
 21
5547.646697772665
 31
0.0
  0
LINE
  5
843B
  8
3
 62
     0
 10
2143.6264749374709
 20
5507.646697772665
 30
0.0
 11
3433.6264749374709
 21
5507.646697772665
 31
0.0
  0
INSERT
  5
843C
  8
3
 62
     0
  2
_OPEN
 10
2063.6264749374709
 20
5507.646697772665
 30
0.0
 41
80.0
 42
80.0
 43
80.0
 50
180.0
  0
INSERT
  5
843D
  8
3
 62
     0
  2
_OPEN
 10
3513.6264749374709
 20
5507.646697772665
 30
0.0
 41
80.0
 42
80.0
 43
80.0
  0
TEXT
  8
3
  40
120
  5
84FE
  62
0
  72
0
  71
0
 10
2548.63
 20
5395.25
 30
0.000000
  1
1450
  0
POINT
  5
843F
  8
DEFPOINTS
 62
     0
 10
2063.6264749374709
 20
5240.0005522589927
 30
0.0
  0
POINT
  5
8440
  8
DEFPOINTS
 62
     0
 10
3513.6264749374709
 20
5240.0005522589927
 30
0.0
  0
POINT
  5
8441
  8
DEFPOINTS
 62
     0
 10
3513.6264749374709
 20
5507.646697772665
 30
0.0
  0
ENDBLK
  5
7F99
  8
0
  0
BLOCK
  8
0
  2
*D3
 70
     1
 10
0.0
 20
0.0
 30
0.0
  3
*D3
  1

  0
LINE
  5
8442
  8
3
 62
     0
 10
2063.6264749374709
 20
5260.0005522589918
 30
0.0
 11
2063.6264749374709
 21
5797.9992614811908
 31
0.0
  0
LINE
  5
8443
  8
3
 62
     0
 10
3554.62647493747
 20
5347.9953101100782
 30
0.0
 11
3554.62647493747
 21
5797.9992614811908
 31
0.0
  0
LINE
  5
8444
  8
3
 62
     0
 10
2143.6264749374709
 20
5757.9992614811908
 30
0.0
 11
3474.6264749374709
 21
5757.9992614811908
 31
0.0
  0
INSERT
  5
8445
  8
3
 62
     0
  2
_OPEN
 10
2063.6264749374709
 20
5757.9992614811908
 30
0.0
 41
80.0
 42
80.0
 43
80.0
 50
180.0
  0
INSERT
  5
8446
  8
3
 62
     0
  2
_OPEN
 10
3554.62647493747
 20
5757.9992614811908
 30
0.0
 41
80.0
 42
80.0
 43
80.0
  0
TEXT
  8
3
  40
120
  5
84FF
  62
0
  72
0
  71
0
 10
2569.13
 20
5645.60
 30
0.000000
  1
1491
  0
POINT
  5
8448
  8
DEFPOINTS
 62
     0
 10
2063.6264749374709
 20
5240.0005522589927
 30
0.0
  0
POINT
  5
8449
  8
DEFPOINTS
 62
     0
 10
3554.62647493747
 20
5327.9953101100773
 30
0.0
  0
POINT
  5
844A
  8
DEFPOINTS
 62
     0
 10
3554.62647493747
 20
5757.9992614811908
 30
0.0
  0
ENDBLK
  5
7F83
  8
0
  0
BLOCK
  8
0
  2
*D4
 70
     1
 10
0.0
 20
0.0
 30
0.0
  3
*D4
  1

  0
LINE
  5
844B
  8
3
 62
     0
 10
3554.62647493747
 20
5347.9953101100782
 30
0.0
 11
3554.62647493747
 21
5797.9992614811908
 31
0.0
  0
LINE
  5
844C
  8
3
 62
     0
 10
4557.6264749374714
 20
4228.0005522589918
 30
0.0
 11
4557.6264749374714
 21
5797.9992614811908
 31
0.0
  0
LINE
  5
844D
  8
3
 62
     0
 10
3634.6264749374709
 20
5757.9992614811908
 30
0.0
 11
4477.6264749374714
 21
5757.9992614811908
 31
0.0
  0
INSERT
  5
844E
  8
3
 62
     0
  2
_OPEN
 10
3554.62647493747
 20
5757.9992614811908
 30
0.0
 41
80.0
 42
80.0
 43
80.0
 50
180.0
  0
INSERT
  5
844F
  8
3
 62
     0
  2
_OPEN
 10
4557.6264749374714
 20
5757.9992614811908
 30
0.0
 41
80.0
 42
80.0
 43
80.0
  0
TEXT
  8
3
  40
120
  5
8500
  62
0
  72
0
  71
0
 10
3816.13
 20
5645.60
 30
0.000000
  1
1003
  0
POINT
  5
8451
  8
DEFPOINTS
 62
     0
 10
3554.62647493747
 20
5327.9953101100773
 30
0.0
  0
POINT
  5
8452
  8
DEFPOINTS
 62
     0
 10
4557.6264749374714
 20
4208.0005522589927
 30
0.0
  0
POINT
  5
8453
  8
DEFPOINTS
 62
     0
 10
4557.6264749374714
 20
5757.9992614811908
 30
0.0
  0
ENDBLK
  5
7F8E
  8
0
  0
BLOCK
  8
0
  2
*D5
 70
     1
 10
0.0
 20
0.0
 30
0.0
  3
*D5
  1

  0
LINE
  5
8454
  8
3
 62
     0
 10
1989.6264749374709
 20
5240.0005522589927
 30
0.0
 11
1174.003790561648
 21
5240.0005522589927
 31
0.0
  0
LINE
  5
8455
  8
3
 62
     0
 10
1857.9492943434011
 20
4310.0005522589918
 30
0.0
 11
1174.003790561648
 21
4310.0005522589918
 31
0.0
  0
LINE
  5
8456
  8
3
 62
     0
 10
1214.003790561648
 20
5160.0005522589918
 30
0.0
 11
1214.003790561648
 21
4390.0005522589918
 31
0.0
  0
INSERT
  5
8457
  8
3
 62
     0
  2
_OPEN
 10
1214.003790561648
 20
5240.0005522589927
 30
0.0
 41
80.0
 42
80.0
 43
80.0
 50
90.0
  0
INSERT
  5
8458
  8
3
 62
     0
  2
_OPEN
 10
1214.003790561648
 20
4310.0005522589918
 30
0.0
 41
80.0
 42
80.0
 43
80.0
 50
270.0
  0
TEXT
  8
3
  40
120
  5
8501
  62
0
  72
0
  71
0
 10
874.004
 20
4562.60
 30
0.000000
  1
930
  0
POINT
  5
845A
  8
DEFPOINTS
 62
     0
 10
2009.6264749374709
 20
5240.0005522589927
 30
0.0
  0
POINT
  5
845B
  8
DEFPOINTS
 62
     0
 10
1877.9492943434011
 20
4310.0005522589918
 30
0.0
  0
POINT
  5
845C
  8
DEFPOINTS
 62
     0
 10
1214.003790561648
 20
4310.0005522589918
 30
0.0
  0
ENDBLK
  5
7FA4
  8
0
  0
BLOCK
  8
0
  2
*D6
 70
     1
 10
0.0
 20
0.0
 30
0.0
  3
*D6
  1

  0
LINE
  5
845D
  8
3
 62
     0
 10
1857.9492943434011
 20
4310.0005522589918
 30
0.0
 11
1174.003790561648
 21
4310.0005522589918
 31
0.0
  0
LINE
  5
845E
  8
3
 62
     0
 10
1634.6264749374709
 20
3070.0005522589931
 30
0.0
 11
1174.003790561648
 21
3070.0005522589931
 31
0.0
  0
LINE
  5
845F
  8
3
 62
     0
 10
1214.003790561648
 20
4230.0005522589918
 30
0.0
 11
1214.003790561648
 21
3150.0005522589931
 31
0.0
  0
INSERT
  5
8460
  8
3
 62
     0
  2
_OPEN
 10
1214.003790561648
 20
4310.0005522589918
 30
0.0
 41
80.0
 42
80.0
 43
80.0
 50
90.0
  0
INSERT
  5
8461
  8
3
 62
     0
  2
_OPEN
 10
1214.003790561648
 20
3070.0005522589931
 30
0.0
 41
80.0
 42
80.0
 43
80.0
 50
270.0
  0
TEXT
  8
3
  40
120
  5
8502
  62
0
  72
0
  71
0
 10
874.004
 20
3638.28
 30
0.000000
  1
1240
  0
POINT
  5
8463
  8
DEFPOINTS
 62
     0
 10
1877.9492943434011
 20
4310.0005522589918
 30
0.0
  0
POINT
  5
8464
  8
DEFPOINTS
 62
     0
 10
1654.6264749374709
 20
3070.0005522589931
 30
0.0
  0
POINT
  5
8465
  8
DEFPOINTS
 62
     0
 10
1214.003790561648
 20
3070.0005522589931
 30
0.0
  0
ENDBLK
  5
8054
  8
0
  0
BLOCK
  8
0
  2
*D7
 70
     1
 10
0.0
 20
0.0
 30
0.0
  3
*D7
  1

  0
LINE
  5
8466
  8
3
 62
     0
 10
4404.6264749374714
 20
2860.0005522589931
 30
0.0
 11
4404.6264749374714
 21
2493.2347665893949
 31
0.0
  0
LINE
  5
8467
  8
3
 62
     0
 10
3554.62647493747
 20
2707.4162983322499
 30
0.0
 11
3554.62647493747
 21
2493.2347665893949
 31
0.0
  0
LINE
  5
8468
  8
3
 62
     0
 10
4324.6264749374704
 20
2533.2347665893958
 30
0.0
 11
3634.6264749374709
 21
2533.2347665893958
 31
0.0
  0
INSERT
  5
8469
  8
3
 62
     0
  2
_OPEN
 10
4404.6264749374714
 20
2533.2347665893958
 30
0.0
 41
80.0
 42
80.0
 43
80.0
  0
INSERT
  5
846A
  8
3
 62
     0
  2
_OPEN
 10
3554.62647493747
 20
2533.2347665893958
 30
0.0
 41
80.0
 42
80.0
 43
80.0
 50
180.0
  0
TEXT
  8
3
  40
120
  5
8503
  62
0
  72
0
  71
0
 10
3739.63
 20
2420.83
 30
0.000000
  1
850
  0
POINT
  5
846C
  8
DEFPOINTS
 62
     0
 10
4404.6264749374714
 20
2880.0005522589931
 30
0.0
  0
POINT
  5
846D
  8
DEFPOINTS
 62
     0
 10
3554.62647493747
 20
2727.4162983322499
 30
0.0
  0
POINT
  5
846E
  8
DEFPOINTS
 62
     0
 10
3554.62647493747
 20
2533.2347665893958
 30
0.0
  0
ENDBLK
  5
7FD0
  8
0
  0
BLOCK
  8
0
  2
*D8
 70
     1
 10
0.0
 20
0.0
 30
0.0
  3
*D8
  1

  0
LINE
  5
846F
  8
3
 62
     0
 10
3554.62647493747
 20
2707.4162983322499
 30
0.0
 11
3554.62647493747
 21
2493.2347665893949
 31
0.0
  0
LINE
  5
8470
  8
3
 62
     0
 10
1654.6264749374709
 20
2860.0005522589931
 30
0.0
 11
1654.6264749374709
 21
2493.2347665893949
 31
0.0
  0
LINE
  5
8471
  8
3
 62
     0
 10
3474.6264749374709
 20
2533.2347665893958
 30
0.0
 11
1734.6264749374709
 21
2533.2347665893958
 31
0.0
  0
INSERT
  5
8472
  8
3
 62
     0
  2
_OPEN
 10
3554.62647493747
 20
2533.2347665893958
 30
0.0
 41
80.0
 42
80.0
 43
80.0
  0
INSERT
  5
8473
  8
3
 62
     0
  2
_OPEN
 10
1654.6264749374709
 20
2533.2347665893958
 30
0.0
 41
80.0
 42
80.0
 43
80.0
 50
180.0
  0
TEXT
  8
3
  40
120
  5
8504
  62
0
  72
0
  71
0
 10
2364.63
 20
2420.83
 30
0.000000
  1
1900
  0
POINT
  5
8475
  8
DEFPOINTS
 62
     0
 10
3554.62647493747
 20
2727.4162983322499
 30
0.0
  0
POINT
  5
8476
  8
DEFPOINTS
 62
     0
 10
1654.6264749374709
 20
2880.0005522589931
 30
0.0
  0
POINT
  5
8477
  8
DEFPOINTS
 62
     0
 10
1654.6264749374709
 20
2533.2347665893958
 30
0.0
  0
ENDBLK
  5
7FC5
  8
0
  0
BLOCK
  8
0
  2
*D9
 70
     1
 10
0.0
 20
0.0
 30
0.0
  3
*D9
  1

  0
LINE
  5
8478
  8
3
 62
     0
 10
5756.8101484210674
 20
2860.0005522589931
 30
0.0
 11
5756.8101484210674
 21
2523.9927689726151
 31
0.0
  0
LINE
  5
8479
  8
3
 62
     0
 10
6547.8101484210674
 20
2707.4162983322499
 30
0.0
 11
6547.8101484210674
 21
2523.9927689726151
 31
0.0
  0
LINE
  5
847A
  8
3
 62
     0
 10
5836.8101484210683
 20
2563.992768972616
 30
0.0
 11
6467.8101484210674
 21
2563.992768972616
 31
0.0
  0
INSERT
  5
847B
  8
3
 62
     0
  2
_OPEN
 10
5756.8101484210674
 20
2563.992768972616
 30
0.0
 41
80.0
 42
80.0
 43
80.0
 50
180.0
  0
INSERT
  5
847C
  8
3
 62
     0
  2
_OPEN
 10
6547.8101484210674
 20
2563.992768972616
 30
0.0
 41
80.0
 42
80.0
 43
80.0
  0
TEXT
  8
3
  40
120
  5
8505
  62
0
  72
0
  71
0
 10
5912.31
 20
2451.59
 30
0.000000
  1
791
  0
POINT
  5
847E
  8
DEFPOINTS
 62
     0
 10
5756.8101484210674
 20
2880.0005522589931
 30
0.0
  0
POINT
  5
847F
  8
DEFPOINTS
 62
     0
 10
6547.8101484210674
 20
2727.4162983322499
 30
0.0
  0
POINT
  5
8480
  8
DEFPOINTS
 62
     0
 10
6547.8101484210674
 20
2563.992768972616
 30
0.0
  0
ENDBLK
  5
7FE6
  8
0
  0
BLOCK
  8
0
  2
*D10
 70
     1
 10
0.0
 20
0.0
 30
0.0
  3
*D10
  1

  0
LINE
  5
8481
  8
3
 62
     0
 10
6547.8101484210674
 20
2707.4162983322499
 30
0.0
 11
6547.8101484210674
 21
2523.9927689726151
 31
0.0
  0
LINE
  5
8482
  8
3
 62
     0
 10
7156.8101484210674
 20
2860.0005522589931
 30
0.0
 11
7156.8101484210674
 21
2523.9927689726151
 31
0.0
  0
LINE
  5
8483
  8
3
 62
     0
 10
6627.8101484210683
 20
2563.992768972616
 30
0.0
 11
7076.8101484210674
 21
2563.992768972616
 31
0.0
  0
INSERT
  5
8484
  8
3
 62
     0
  2
_OPEN
 10
6547.8101484210674
 20
2563.992768972616
 30
0.0
 41
80.0
 42
80.0
 43
80.0
 50
180.0
  0
INSERT
  5
8485
  8
3
 62
     0
  2
_OPEN
 10
7156.8101484210674
 20
2563.992768972616
 30
0.0
 41
80.0
 42
80.0
 43
80.0
  0
TEXT
  8
3
  40
120
  5
8506
  62
0
  72
0
  71
0
 10
6579.24
 20
2451.59
 30
0.000000
  1
609
  0
POINT
  5
8487
  8
DEFPOINTS
 62
     0
 10
6547.8101484210674
 20
2727.4162983322499
 30
0.0
  0
POINT
  5
8488
  8
DEFPOINTS
 62
     0
 10
7156.8101484210674
 20
2880.0005522589931
 30
0.0
  0
POINT
  5
8489
  8
DEFPOINTS
 62
     0
 10
7156.8101484210674
 20
2563.992768972616
 30
0.0
  0
ENDBLK
  5
8049
  8
0
  0
BLOCK
  8
0
  2
*D11
 70
     1
 10
0.0
 20
0.0
 30
0.0
  3
*D11
  1

  0
LINE
  5
848A
  8
3
 62
     0
 10
4404.6264749374714
 20
8508.3359218851801
 30
0.0
 11
4404.6264749374714
 21
8898.3824772439548
 31
0.0
  0
LINE
  5
848B
  8
3
 62
     0
 10
2704.6264749374709
 20
8508.3359218851801
 30
0.0
 11
2704.6264749374709
 21
8898.3824772439548
 31
0.0
  0
LINE
  5
848C
  8
3
 62
     0
 10
4324.6264749374714
 20
8858.3824772439548
 30
0.0
 11
2784.6264749374709
 21
8858.3824772439548
 31
0.0
  0
INSERT
  5
848D
  8
3
 62
     0
  2
_OPEN
 10
4404.6264749374714
 20
8858.3824772439548
 30
0.0
 41
80.0
 42
80.0
 43
80.0
  0
INSERT
  5
848E
  8
3
 62
     0
  2
_OPEN
 10
2704.6264749374709
 20
8858.3824772439548
 30
0.0
 41
80.0
 42
80.0
 43
80.0
 50
180.0
  0
TEXT
  8
3
  40
120
  5
8507
  62
0
  72
0
  71
0
 10
3314.63
 20
8745.98
 30
0.000000
  1
1700
  0
POINT
  5
8490
  8
DEFPOINTS
 62
     0
 10
4404.6264749374714
 20
8488.3359218851801
 30
0.0
  0
POINT
  5
8491
  8
DEFPOINTS
 62
     0
 10
2704.6264749374709
 20
8488.3359218851801
 30
0.0
  0
POINT
  5
8492
  8
DEFPOINTS
 62
     0
 10
2704.6264749374709
 20
8858.3824772439548
 30
0.0
  0
ENDBLK
  5
7F57
  8
0
  0
BLOCK
  8
0
  2
*D12
 70
     1
 10
0.0
 20
0.0
 30
0.0
  3
*D12
  1

  0
LINE
  5
8493
  8
3
 62
     0
 10
2704.6264749374709
 20
8508.3359218851801
 30
0.0
 11
2704.6264749374709
 21
8898.3824772439548
 31
0.0
  0
LINE
  5
8494
  8
3
 62
     0
 10
1654.6264749374709
 20
8208.3359218851783
 30
0.0
 11
1654.6264749374709
 21
8898.3824772439548
 31
0.0
  0
LINE
  5
8495
  8
3
 62
     0
 10
2624.6264749374709
 20
8858.3824772439548
 30
0.0
 11
1734.6264749374709
 21
8858.3824772439548
 31
0.0
  0
INSERT
  5
8496
  8
3
 62
     0
  2
_OPEN
 10
2704.6264749374709
 20
8858.3824772439548
 30
0.0
 41
80.0
 42
80.0
 43
80.0
  0
INSERT
  5
8497
  8
3
 62
     0
  2
_OPEN
 10
1654.6264749374709
 20
8858.3824772439548
 30
0.0
 41
80.0
 42
80.0
 43
80.0
 50
180.0
  0
TEXT
  8
3
  40
120
  5
8508
  62
0
  72
0
  71
0
 10
1939.63
 20
8745.98
 30
0.000000
  1
1050
  0
POINT
  5
8499
  8
DEFPOINTS
 62
     0
 10
2704.6264749374709
 20
8488.3359218851801
 30
0.0
  0
POINT
  5
849A
  8
DEFPOINTS
 62
     0
 10
1654.6264749374709
 20
8188.3359218851811
 30
0.0
  0
POINT
  5
849B
  8
DEFPOINTS
 62
     0
 10
1654.6264749374709
 20
8858.3824772439548
 30
0.0
  0
ENDBLK
  5
7F4C
  8
0
  0
BLOCK
  8
0
  2
*D13
 70
     1
 10
0.0
 20
0.0
 30
0.0
  3
*D13
  1

  0
LINE
  5
849C
  8
3
 62
     0
 10
1634.6264749374709
 20
8188.3359218851811
 30
0.0
 11
1133.7526986074481
 21
8188.3359218851811
 31
0.0
  0
LINE
  5
849D
  8
3
 62
     0
 10
1634.6264749374709
 20
7088.3359218851811
 30
0.0
 11
1133.7526986074481
 21
7088.3359218851811
 31
0.0
  0
LINE
  5
849E
  8
3
 62
     0
 10
1173.7526986074481
 20
8108.3359218851801
 30
0.0
 11
1173.7526986074481
 21
7168.3359218851801
 31
0.0
  0
INSERT
  5
849F
  8
3
 62
     0
  2
_OPEN
 10
1173.7526986074481
 20
8188.3359218851811
 30
0.0
 41
80.0
 42
80.0
 43
80.0
 50
90.0
  0
INSERT
  5
84A0
  8
3
 62
     0
  2
_OPEN
 10
1173.7526986074481
 20
7088.3359218851811
 30
0.0
 41
80.0
 42
80.0
 43
80.0
 50
270.0
  0
TEXT
  8
3
  40
120
  5
8509
  62
0
  72
0
  71
0
 10
833.753
 20
7425.94
 30
0.000000
  1
1100
  0
POINT
  5
84A2
  8
DEFPOINTS
 62
     0
 10
1654.6264749374709
 20
8188.3359218851811
 30
0.0
  0
POINT
  5
84A3
  8
DEFPOINTS
 62
     0
 10
1654.6264749374709
 20
7088.3359218851811
 30
0.0
  0
POINT
  5
84A4
  8
DEFPOINTS
 62
     0
 10
1173.7526986074481
 20
7088.3359218851811
 30
0.0
  0
ENDBLK
  5
7F41
  8
0
  0
BLOCK
  8
0
  2
*D14
 70
     1
 10
0.0
 20
0.0
 30
0.0
  3
*D14
  1

  0
LINE
  5
84A5
  8
3
 62
     0
 10
4424.6264749374714
 20
8488.3359218851801
 30
0.0
 11
4870.8884351933739
 21
8488.3359218851801
 31
0.0
  0
LINE
  5
84A6
  8
3
 62
     0
 10
4424.6264749374714
 20
7088.3359218851811
 30
0.0
 11
4870.8884351933739
 21
7088.3359218851811
 31
0.0
  0
LINE
  5
84A7
  8
3
 62
     0
 10
4830.8884351933739
 20
8408.3359218851801
 30
0.0
 11
4830.8884351933739
 21
7168.3359218851801
 31
0.0
  0
INSERT
  5
84A8
  8
3
 62
     0
  2
_OPEN
 10
4830.8884351933739
 20
8488.3359218851801
 30
0.0
 41
80.0
 42
80.0
 43
80.0
 50
90.0
  0
INSERT
  5
84A9
  8
3
 62
     0
  2
_OPEN
 10
4830.8884351933739
 20
7088.3359218851811
 30
0.0
 41
80.0
 42
80.0
 43
80.0
 50
270.0
  0
TEXT
  8
3
  40
120
  5
850A
  62
0
  72
0
  71
0
 10
4490.89
 20
7575.94
 30
0.000000
  1
1400
  0
POINT
  5
84AB
  8
DEFPOINTS
 62
     0
 10
4404.6264749374714
 20
8488.3359218851801
 30
0.0
  0
POINT
  5
84AC
  8
DEFPOINTS
 62
     0
 10
4404.6264749374714
 20
7088.3359218851811
 30
0.0
  0
POINT
  5
84AD
  8
DEFPOINTS
 62
     0
 10
4830.8884351933739
 20
7088.3359218851811
 30
0.0
  0
ENDBLK
  5
7F62
  8
0
  0
BLOCK
  8
0
  2
*D15
 70
     1
 10
0.0
 20
0.0
 30
0.0
  3
*D15
  1

  0
LINE
  5
84AE
  8
3
 62
     0
 10
4404.6264749374714
 20
7068.3359218851801
 30
0.0
 11
4404.6264749374714
 21
6449.8588176084513
 31
0.0
  0
LINE
  5
84AF
  8
3
 62
     0
 10
1654.6264749374709
 20
7068.3359218851801
 30
0.0
 11
1654.6264749374709
 21
6449.8588176084513
 31
0.0
  0
LINE
  5
84B0
  8
3
 62
     0
 10
4324.6264749374714
 20
6489.8588176084504
 30
0.0
 11
1734.6264749374709
 21
6489.8588176084504
 31
0.0
  0
INSERT
  5
84B1
  8
3
 62
     0
  2
_OPEN
 10
4404.6264749374714
 20
6489.8588176084504
 30
0.0
 41
80.0
 42
80.0
 43
80.0
  0
INSERT
  5
84B2
  8
3
 62
     0
  2
_OPEN
 10
1654.6264749374709
 20
6489.8588176084504
 30
0.0
 41
80.0
 42
80.0
 43
80.0
 50
180.0
  0
TEXT
  8
3
  40
120
  5
850B
  62
0
  72
0
  71
0
 10
2812.59
 20
6377.46
 30
0.000000
  1
2750
  0
POINT
  5
84B4
  8
DEFPOINTS
 62
     0
 10
4404.6264749374714
 20
7088.3359218851811
 30
0.0
  0
POINT
  5
84B5
  8
DEFPOINTS
 62
     0
 10
1654.6264749374709
 20
7088.3359218851811
 30
0.0
  0
POINT
  5
84B6
  8
DEFPOINTS
 62
     0
 10
1654.6264749374709
 20
6489.8588176084504
 30
0.0
  0
ENDBLK
  5
7F6D
  8
0
  0
BLOCK
  8
0
  2
*D16
 70
     1
 10
0.0
 20
0.0
 30
0.0
  3
*D16
  1

  0
LINE
  5
84B7
  8
3
 62
     0
 10
6017.8101484210683
 20
5260.0005522589918
 30
0.0
 11
6017.8101484210683
 21
5503.6261761524511
 31
0.0
  0
LINE
  5
84B8
  8
3
 62
     0
 10
7077.8101484210683
 20
5260.0005522589918
 30
0.0
 11
7077.8101484210683
 21
5503.6261761524511
 31
0.0
  0
LINE
  5
84B9
  8
3
 62
     0
 10
6097.8101484210683
 20
5463.6261761524511
 30
0.0
 11
6997.8101484210683
 21
5463.6261761524511
 31
0.0
  0
INSERT
  5
84BA
  8
3
 62
     0
  2
_OPEN
 10
6017.8101484210683
 20
5463.6261761524511
 30
0.0
 41
80.0
 42
80.0
 43
80.0
 50
180.0
  0
INSERT
  5
84BB
  8
3
 62
     0
  2
_OPEN
 10
7077.8101484210683
 20
5463.6261761524511
 30
0.0
 41
80.0
 42
80.0
 43
80.0
  0
TEXT
  8
3
  40
120
  5
850C
  62
0
  72
0
  71
0
 10
6307.81
 20
5351.23
 30
0.000000
  1
1060
  0
POINT
  5
84BD
  8
DEFPOINTS
 62
     0
 10
6017.8101484210683
 20
5240.0005522589927
 30
0.0
  0
POINT
  5
84BE
  8
DEFPOINTS
 62
     0
 10
7077.8101484210683
 20
5240.0005522589927
 30
0.0
  0
POINT
  5
84BF
  8
DEFPOINTS
 62
     0
 10
7077.8101484210683
 20
5463.6261761524511
 30
0.0
  0
ENDBLK
  5
8028
  8
0
  0
BLOCK
  8
0
  2
*D17
 70
     1
 10
0.0
 20
0.0
 30
0.0
  3
*D17
  1

  0
LINE
  5
84C0
  8
3
 62
     0
 10
7181.8101484210674
 20
5080.0005522589927
 30
0.0
 11
7181.8101484210674
 21
5840.4203878812659
 31
0.0
  0
LINE
  5
84C1
  8
3
 62
     0
 10
6547.8101484210674
 20
5705.285593292464
 30
0.0
 11
6547.8101484210674
 21
5840.4203878812659
 31
0.0
  0
LINE
  5
84C2
  8
3
 62
     0
 10
7101.8101484210674
 20
5800.4203878812659
 30
0.0
 11
6627.8101484210683
 21
5800.4203878812659
 31
0.0
  0
INSERT
  5
84C3
  8
3
 62
     0
  2
_OPEN
 10
7181.8101484210674
 20
5800.4203878812659
 30
0.0
 41
80.0
 42
80.0
 43
80.0
  0
INSERT
  5
84C4
  8
3
 62
     0
  2
_OPEN
 10
6547.8101484210674
 20
5800.4203878812659
 30
0.0
 41
80.0
 42
80.0
 43
80.0
 50
180.0
  0
TEXT
  8
3
  40
120
  5
850D
  62
0
  72
0
  71
0
 10
6664.67
 20
5688.02
 30
0.000000
  1
634
  0
POINT
  5
84C6
  8
DEFPOINTS
 62
     0
 10
7181.8101484210674
 20
5060.0005522589918
 30
0.0
  0
POINT
  5
84C7
  8
DEFPOINTS
 62
     0
 10
6547.8101484210674
 20
5685.285593292464
 30
0.0
  0
POINT
  5
84C8
  8
DEFPOINTS
 62
     0
 10
6547.8101484210674
 20
5800.4203878812659
 30
0.0
  0
ENDBLK
  5
803E
  8
0
  0
BLOCK
  8
0
  2
*D18
 70
     1
 10
0.0
 20
0.0
 30
0.0
  3
*D18
  1

  0
LINE
  5
84C9
  8
3
 62
     0
 10
6547.8101484210674
 20
5705.285593292464
 30
0.0
 11
6547.8101484210674
 21
5840.5282296154537
 31
0.0
  0
LINE
  5
84CA
  8
3
 62
     0
 10
5598.1101484210667
 20
4880.0005522589927
 30
0.0
 11
5598.1101484210667
 21
5840.5282296154537
 31
0.0
  0
LINE
  5
84CB
  8
3
 62
     0
 10
6467.8101484210674
 20
5800.5282296154546
 30
0.0
 11
5678.1101484210658
 21
5800.5282296154546
 31
0.0
  0
INSERT
  5
84CC
  8
3
 62
     0
  2
_OPEN
 10
6547.8101484210674
 20
5800.5282296154546
 30
0.0
 41
80.0
 42
80.0
 43
80.0
  0
INSERT
  5
84CD
  8
3
 62
     0
  2
_OPEN
 10
5598.1101484210667
 20
5800.5282296154546
 30
0.0
 41
80.0
 42
80.0
 43
80.0
 50
180.0
  0
TEXT
  8
3
  40
120
  5
850E
  62
0
  72
0
  71
0
 10
5832.96
 20
5788.13
 30
0.000000
  1
MAX
  0
TEXT
  8
3
  40
120
  5
850F
  62
0
  72
0
  71
0
 10
5832.96
 20
5632.13
 30
0.000000
  1
1030
  0
POINT
  5
84CF
  8
DEFPOINTS
 62
     0
 10
6547.8101484210674
 20
5685.285593292464
 30
0.0
  0
POINT
  5
84D0
  8
DEFPOINTS
 62
     0
 10
5598.1101484210667
 20
4860.0005522589918
 30
0.0
  0
POINT
  5
84D1
  8
DEFPOINTS
 62
     0
 10
5598.1101484210667
 20
5800.5282296154546
 30
0.0
  0
ENDBLK
  5
8065
  8
0
  0
BLOCK
  8
0
  2
*D19
 70
     1
 10
0.0
 20
0.0
 30
0.0
  3
*D19
  1

  0
LINE
  5
84D2
  8
3
 62
     0
 10
7201.8101484210674
 20
5010.0005522589918
 30
0.0
 11
7654.4007756009769
 21
5010.0005522589918
 31
0.0
  0
LINE
  5
84D3
  8
3
 62
     0
 10
7201.8101484210674
 20
3610.0005522589931
 30
0.0
 11
7654.4007756009769
 21
3610.0005522589931
 31
0.0
  0
LINE
  5
84D4
  8
3
 62
     0
 10
7614.4007756009778
 20
4930.0005522589918
 30
0.0
 11
7614.4007756009778
 21
3690.0005522589931
 31
0.0
  0
INSERT
  5
84D5
  8
3
 62
     0
  2
_OPEN
 10
7614.4007756009778
 20
5010.0005522589918
 30
0.0
 41
80.0
 42
80.0
 43
80.0
 50
90.0
  0
INSERT
  5
84D6
  8
3
 62
     0
  2
_OPEN
 10
7614.4007756009778
 20
3610.0005522589931
 30
0.0
 41
80.0
 42
80.0
 43
80.0
 50
270.0
  0
TEXT
  8
3
  40
120
  5
8510
  62
0
  72
0
  71
0
 10
7274.40
 20
4097.60
 30
0.000000
  1
φ1400
  0
POINT
  5
84D8
  8
DEFPOINTS
 62
     0
 10
7181.8101484210674
 20
5010.0005522589918
 30
0.0
  0
POINT
  5
84D9
  8
DEFPOINTS
 62
     0
 10
7181.8101484210674
 20
3610.0005522589931
 30
0.0
  0
POINT
  5
84DA
  8
DEFPOINTS
 62
     0
 10
7614.4007756009778
 20
3610.0005522589931
 30
0.0
  0
ENDBLK
  5
8033
  8
0
  0
BLOCK
  8
0
  2
*D20
 70
     1
 10
0.0
 20
0.0
 30
0.0
  3
*D20
  1

  0
LINE
  5
84DB
  8
3
 62
     0
 10
4557.6264749374714
 20
4244.5005522589927
 30
0.0
 11
4557.6264749374714
 21
6047.2837399426953
 31
0.0
  0
LINE
  5
84DC
  8
3
 62
     0
 10
1654.62647493747
 20
3240.0005522589918
 30
0.0
 11
1654.62647493747
 21
6047.2837399426953
 31
0.0
  0
LINE
  5
84DD
  8
3
 62
     0
 10
4477.6264749374714
 20
6007.2837399426953
 30
0.0
 11
1734.62647493747
 21
6007.2837399426953
 31
0.0
  0
INSERT
  5
84DE
  8
3
 62
     0
  2
_OPEN
 10
4557.6264749374714
 20
6007.2837399426953
 30
0.0
 41
80.0
 42
80.0
 43
80.0
  0
INSERT
  5
84DF
  8
3
 62
     0
  2
_OPEN
 10
1654.62647493747
 20
6007.2837399426953
 30
0.0
 41
80.0
 42
80.0
 43
80.0
 50
180.0
  0
TEXT
  8
3
  40
120
  5
8511
  62
0
  72
0
  71
0
 10
2866.13
 20
5894.88
 30
0.000000
  1
2903
  0
POINT
  5
84E1
  8
DEFPOINTS
 62
     0
 10
4557.6264749374714
 20
4224.5005522589927
 30
0.0
  0
POINT
  5
84E2
  8
DEFPOINTS
 62
     0
 10
1654.62647493747
 20
3220.0005522589931
 30
0.0
  0
POINT
  5
84E3
  8
DEFPOINTS
 62
     0
 10
1654.62647493747
 20
6007.2837399426953
 30
0.0
  0
ENDBLK
  5
7F78
  8
0
  0
BLOCK
  8
0
  2
_DOT
 70
     0
 10
0.0
 20
0.0
 30
0.0
  3
_DOT
  1

  0
POLYLINE
  5
7F2A
  8
0
  6
BYBLOCK
 62
     0
 66
     1
 10
0.0
 20
0.0
 30
0.0
 70
     1
 40
0.25
 41
0.25
  0
VERTEX
  5
84E4
  8
0
  6
BYBLOCK
 62
     0
 10
-0.125
 20
0.0
 30
0.0
 42
1.0
  0
VERTEX
  5
84E5
  8
0
  6
BYBLOCK
 62
     0
 10
0.125
 20
0.0
 30
0.0
 42
1.0
  0
SEQEND
  5
84E6
  8
0
  6
BYBLOCK
 62
     0
  0
LINE
  5
7F2E
  8
0
  6
BYBLOCK
 62
     0
 10
-0.25
 20
0.0
 30
0.0
 11
-1.0
 21
0.0
 31
0.0
  0
ENDBLK
  5
7F0D
  8
0
  0
BLOCK
  8
0
  2
*D22
 70
     1
 10
0.0
 20
0.0
 30
0.0
  3
*D22
  1

  0
LINE
  5
84E7
  8
3
 62
     0
 10
1634.6264749374709
 20
3070.0005522589931
 30
0.0
 11
1174.003790561648
 21
3070.0005522589931
 31
0.0
  0
LINE
  5
84E8
  8
3
 62
     0
 10
1634.6264749374709
 20
2955.0005522589931
 30
0.0
 11
1174.003790561648
 21
2955.0005522589931
 31
0.0
  0
LINE
  5
84E9
  8
3
 62
     0
 10
1214.003790561648
 20
3070.0005522589931
 30
0.0
 11
1214.003790561648
 21
2955.0005522589931
 31
0.0
  0
LINE
  5
84EA
  8
3
 62
     0
 10
1214.003790561648
 20
3012.5005522589931
 30
0.0
 11
1022.575219133076
 21
3069.9291236875652
 31
0.0
  0
LINE
  5
84EB
  8
3
 62
     0
 10
1022.575219133076
 20
3069.9291236875652
 30
0.0
 11
1022.575219133076
 21
3567.071980830422
 31
0.0
  0
TEXT
  8
3
  40
120
  5
8512
  62
0
  72
0
  71
0
 10
651.147
 20
3106.10
 30
0.000000
  1
(115)
  0
POINT
  5
84ED
  8
DEFPOINTS
 62
     0
 10
1654.6264749374709
 20
3070.0005522589931
 30
0.0
  0
POINT
  5
84EE
  8
DEFPOINTS
 62
     0
 10
1654.6264749374709
 20
2955.0005522589931
 30
0.0
  0
POINT
  5
84EF
  8
DEFPOINTS
 62
     0
 10
1214.003790561648
 20
2955.0005522589931
 30
0.0
  0
ENDBLK
  5
8190
  8
0
  0
BLOCK
  8
0
  2
*D23
 70
     1
 10
0.0
 20
0.0
 30
0.0
  3
*D23
  1

  0
LINE
  5
84F0
  8
3
 62
     0
 10
1634.6264749374709
 20
2955.0005522589931
 30
0.0
 11
1174.003790561648
 21
2955.0005522589931
 31
0.0
  0
LINE
  5
84F1
  8
3
 62
     0
 10
1634.6264749374709
 20
2880.0005522589931
 30
0.0
 11
1174.003790561648
 21
2880.0005522589931
 31
0.0
  0
LINE
  5
84F2
  8
3
 62
     0
 10
1214.003790561648
 20
2955.0005522589931
 30
0.0
 11
1214.003790561648
 21
3035.0005522589931
 31
0.0
  0
LINE
  5
84F3
  8
3
 62
     0
 10
1214.003790561648
 20
2800.0005522589931
 30
0.0
 11
1214.003790561648
 21
2720.0005522589931
 31
0.0
  0
TEXT
  8
3
  40
120
  5
8513
  62
0
  72
0
  71
0
 10
901.185
 20
2456.77
 30
0.000000
  1
75
  0
LINE
  5
84F5
  8
3
 62
     0
 10
1214.003790561648
 20
2955.0005522589931
 30
0.0
 11
1214.003790561648
 21
2880.0005522589931
 31
0.0
  0
INSERT
  5
84F6
  8
3
 62
     0
  2
_DOTSMALL
 10
1214.003790561648
 20
2955.0005522589931
 30
0.0
 41
80.0
 42
80.0
 43
80.0
 50
270.0
  0
INSERT
  5
84F7
  8
3
 62
     0
  2
_OPEN
 10
1214.003790561648
 20
2880.0005522589931
 30
0.0
 41
80.0
 42
80.0
 43
80.0
 50
90.0
  0
POINT
  5
84F8
  8
DEFPOINTS
 62
     0
 10
1654.6264749374709
 20
2955.0005522589931
 30
0.0
  0
POINT
  5
84F9
  8
DEFPOINTS
 62
     0
 10
1654.6264749374709
 20
2880.0005522589931
 30
0.0
  0
POINT
  5
84FA
  8
DEFPOINTS
 62
     0
 10
1214.003790561648
 20
2880.0005522589931
 30
0.0
  0
ENDBLK
  5
81C6
  8
0
  0
BLOCK
  8
0
  2
_DOTSMALL
 70
     0
 10
0.0
 20
0.0
 30
0.0
  3
_DOTSMALL
  1

  0
POLYLINE
  5
81EC
  8
3
 62
     0
 66
     1
 10
0.0
 20
0.0
 30
0.0
 70
     1
 40
0.5
 41
0.5
  0
VERTEX
  5
84FB
  8
3
 62
     0
 10
-0.0625
 20
0.0
 30
0.0
 42
1.0
  0
VERTEX
  5
84FC
  8
3
 62
     0
 10
0.0625
 20
0.0
 30
0.0
 42
1.0
  0
SEQEND
  5
84FD
  8
3
 62
     0
  0
ENDBLK
  5
81EE
  8
0
  0
BLOCK
  8
0
  2
_NONE
 70
     0
 10
0.0
 20
0.0
 30
0.0
  3
_NONE
  1

  0
ENDBLK
  5
81FC
  8
0
  0
ENDSEC
  0
SECTION
  2
ENTITIES
  0
INSERT
  5
7BE0
  8
0
  2
YA_N
 10
6.0
 20
5.0
 30
0.0
  0
INSERT
  5
7BE2
  8
0
  2
YA_N
 10
6.0
 20
5.0
 30
0.0
  0
LINE
  5
7BE4
  8
2
 10
3554.62647493747
 20
5327.9953101100773
 30
0.0
 11
3554.62647493747
 21
2727.4162983322499
 31
0.0
  0
LINE
  5
7BE5
  8
1
 10
3567.6264749374709
 20
5240.0005522589927
 30
0.0
 11
2009.6264749374709
 21
5240.0005522589927
 31
0.0
  0
LINE
  5
7BE6
  8
1
 10
3513.6264749374709
 20
5240.0005522589927
 30
0.0
 11
3513.6264749374709
 21
5130.9042969823713
 31
0.0
  0
ARC
  5
7BE7
  8
1
 10
3452.6264749374709
 20
4412.0005522589927
 30
0.0
 40
1309.0
 50
184.469136655521
 51
270.0
  0
ARC
  5
7BE8
  8
1
 10
3452.6264749374709
 20
4208.0005522589927
 30
0.0
 40
1105.0
 50
270.0
 51
0.8555796354301165
  0
ARC
  5
7BE9
  8
1
 10
3640.1264749374709
 20
4224.5005522589927
 30
0.0
 40
917.5
 50
5.3470378034862636
 51
90.0
  0
ARC
  5
7BEA
  8
1
 10
3640.1264749374709
 20
4395.2005522589943
 30
0.0
 40
746.49999999999989
 50
90.0
 51
99.756276618116615
  0
LINE
  5
7BEB
  8
1
 10
2063.6264749374709
 20
5240.0005522589927
 30
0.0
 11
2147.5126216397589
 21
4310.0005522589918
 31
0.0
  0
LINE
  5
7BEC
  8
1
 10
4404.6264749374714
 20
3070.0005522589931
 30
0.0
 11
1654.6264749374709
 21
3070.0005522589931
 31
0.0
  0
LINE
  5
7BED
  8
1
 10
4404.6264749374714
 20
3220.0005522589931
 30
0.0
 11
1654.6264749374709
 21
3220.0005522589931
 31
0.0
  0
LINE
  5
7BEE
  8
1
 10
4404.6264749374714
 20
3220.0005522589931
 30
0.0
 11
4404.6264749374714
 21
3070.0005522589931
 31
0.0
  0
LINE
  5
7BEF
  8
1
 10
1654.6264749374709
 20
3220.0005522589931
 30
0.0
 11
1654.6264749374709
 21
3070.0005522589931
 31
0.0
  0
LINE
  5
7BF0
  8
1
 10
3513.6264749374709
 20
5190.0005522589927
 30
0.0
 11
2068.1364828246901
 21
5190.0005522589927
 31
0.0
  0
LINE
  5
7BF1
  8
2
 10
5411.0603047389532
 20
4310.0005522589918
 30
0.0
 11
7302.0430244691634
 21
4310.0005522589918
 31
0.0
  0
LINE
  5
7BF2
  8
2
 10
6547.8101484210674
 20
5442.5674219699358
 30
0.0
 11
6547.8101484210674
 21
2727.4162983322499
 31
0.0
  0
LINE
  5
7BF3
  8
1
 10
5756.8101484210674
 20
3220.0005522589931
 30
0.0
 11
7156.8101484210674
 21
3220.0005522589931
 31
0.0
  0
LINE
  5
7BF4
  8
1
 10
5756.8101484210674
 20
3070.0005522589931
 30
0.0
 11
7156.8101484210674
 21
3070.0005522589931
 31
0.0
  0
LINE
  5
7BF5
  8
1
 10
4404.6264749374714
 20
7088.3359218851811
 30
0.0
 11
1654.6264749374709
 21
7088.3359218851811
 31
0.0
  0
LINE
  5
7BF6
  8
1
 10
4404.6264749374714
 20
8488.3359218851801
 30
0.0
 11
2704.6264749374709
 21
8488.3359218851801
 31
0.0
  0
LINE
  5
7BF7
  8
1
 10
4404.6264749374714
 20
8488.3359218851801
 30
0.0
 11
4404.6264749374714
 21
8409.3359218851801
 31
0.0
  0
LINE
  5
7BF8
  8
1
 10
2704.6264749374709
 20
8488.3359218851801
 30
0.0
 11
2704.6264749374709
 21
8409.3359218851783
 31
0.0
  0
LINE
  5
7BF9
  8
1
 10
2063.6264749374709
 20
8188.3359218851811
 30
0.0
 11
1654.6264749374709
 21
8188.3359218851811
 31
0.0
  0
LINE
  5
7BFA
  8
1
 10
1654.6264749374709
 20
8188.3359218851811
 30
0.0
 11
1654.6264749374709
 21
7088.3359218851811
 31
0.0
  0
LINE
  5
7BFB
  8
1
 10
5967.8101484210683
 20
5240.0005522589927
 30
0.0
 11
7127.8101484210683
 21
5240.0005522589927
 31
0.0
  0
LINE
  5
7BFC
  8
1
 10
7077.8101484210683
 20
5240.0005522589927
 30
0.0
 11
7077.8101484210683
 21
4319.0005522589936
 31
0.0
  0
LINE
  5
7BFD
  8
1
 10
6017.8101484210683
 20
5240.0005522589927
 30
0.0
 11
6017.8101484210683
 21
4310.0005522589918
 31
0.0
  0
LINE
  5
7BFE
  8
1
 10
6017.8101484210683
 20
5190.0005522589927
 30
0.0
 11
7077.8101484210683
 21
5190.0005522589927
 31
0.0
  0
LINE
  5
7BFF
  8
2
 10
4636.3830018191356
 20
4310.0005522589918
 30
0.0
 11
1877.9492943434011
 21
4310.0005522589918
 31
0.0
  0
LINE
  5
7C00
  8
1
 10
2148.3244230594591
 20
4301.0005522589927
 30
0.0
 11
2148.9192567252389
 21
4294.4059555237409
 31
0.0
  0
ARC
  5
7C01
  8
1
 10
3640.1264749374709
 20
4224.5005522589927
 30
0.0
 40
917.5
 50
0.0
 51
5.3470378034862636
  0
LINE
  5
7C02
  8
2
 10
1954.6264749374709
 20
3892.9968708815541
 30
0.0
 11
1954.6264749374709
 21
3139.6492256067081
 31
0.0
  0
LINE
  5
7C03
  8
2
 10
2181.5891939777789
 20
3455.0005522589931
 30
0.0
 11
1654.6264749374709
 21
3455.0005522589931
 31
0.0
  0
LINE
  5
7C04
  8
2
 10
6100.812098162718
 20
3455.0005522589931
 30
0.0
 11
5580.7850671913948
 21
3455.0005522589931
 31
0.0
  0
CIRCLE
  5
7C05
  8
1
 10
3554.62647493747
 20
4310.0005522589918
 30
0.0
 40
700.0
  0
CIRCLE
  5
7C06
  8
1
 10
3554.62647493747
 20
4310.0005522589918
 30
0.0
 40
750.0
  0
LINE
  5
7C07
  8
1
 10
7081.0101484210682
 20
5010.0005522589918
 30
0.0
 11
7181.8101484210674
 21
5010.0005522589918
 31
0.0
  0
LINE
  5
7C08
  8
1
 10
7081.0101484210682
 20
3610.0005522589931
 30
0.0
 11
7181.8101484210674
 21
3610.0005522589931
 31
0.0
  0
LINE
  5
7C09
  8
1
 10
7181.8101484210674
 20
5060.0005522589918
 30
0.0
 11
7181.8101484210674
 21
3560.0005522589931
 31
0.0
  0
LINE
  5
7C0A
  8
1
 10
1792.6264749374709
 20
3345.0030570297349
 30
0.0
 11
1802.2555288272231
 21
3354.5548217301762
 31
0.0
  0
LINE
  5
7C0B
  8
1
 10
2116.6264749374709
 20
3345.0030570297349
 30
0.0
 11
2106.9974210477189
 21
3354.5548217301762
 31
0.0
  0
LINE
  5
7C0C
  8
1
 10
1792.6264749374709
 20
3275.0005522589931
 30
0.0
 11
1792.6264749374709
 21
3345.0030570297349
 31
0.0
  0
LINE
  5
7C0D
  8
1
 10
1703.8007828553721
 20
3275.0005522589931
 30
0.0
 11
1871.2881553592231
 21
3275.0005522589931
 31
0.0
  0
ARC
  5
7C0E
  8
1
 10
1954.6264749374709
 20
3455.0005522589931
 30
0.0
 40
182.5
 50
285.78279193357162
 51
254.2172080664283
  0
LINE
  5
7C0F
  8
1
 10
2004.264877094836
 20
3279.3808522499548
 30
0.0
 11
1904.988072780106
 21
3279.3808522499548
 31
0.0
  0
LINE
  5
7C10
  8
1
 10
2116.6264749374709
 20
3275.0005522589931
 30
0.0
 11
2116.6264749374709
 21
3345.0030570297358
 31
0.0
  0
LINE
  5
7C11
  8
1
 10
2116.6264749374709
 20
3275.0005522589931
 30
0.0
 11
2056.6264749374709
 21
3275.0005522589931
 31
0.0
  0
CIRCLE
  5
7C12
  8
1
 10
1954.6264749374709
 20
3455.0005522589931
 30
0.0
 40
106.0
  0
LINE
  5
7C13
  8
1
 10
1694.6264749374691
 20
3220.0005522589931
 30
0.0
 11
1703.8007828553721
 21
3275.0005522589931
 31
0.0
  0
LINE
  5
7C14
  8
1
 10
1871.2881553592231
 20
3275.0005522589931
 30
0.0
 11
1871.2881553592231
 21
3265.5242076973918
 31
0.0
  0
LINE
  5
7C15
  8
1
 10
1871.2881553592231
 20
3265.5242076973918
 30
0.0
 11
1954.639255824997
 21
3265.5242076973918
 31
0.0
  0
LINE
  5
7C16
  8
1
 10
2214.6264749374718
 20
3220.0005522589931
 30
0.0
 11
2205.4521670195682
 21
3275.0005522589931
 31
0.0
  0
LINE
  5
7C17
  8
1
 10
2205.4521670195691
 20
3275.0005522589931
 30
0.0
 11
2037.964794515718
 21
3275.0005522589931
 31
0.0
  0
LINE
  5
7C18
  8
1
 10
2037.964794515718
 20
3265.5242076973918
 30
0.0
 11
1954.6136940499439
 21
3265.5242076973918
 31
0.0
  0
LINE
  5
7C19
  8
1
 10
2037.964794515718
 20
3275.0005522589931
 30
0.0
 11
2037.964794515718
 21
3265.5242076973918
 31
0.0
  0
LINE
  5
7C1A
  8
1
 10
5748.1101484210667
 20
4390.0005522589918
 30
0.0
 11
5748.1101484210667
 21
4230.0005522589918
 31
0.0
  0
LINE
  5
7C1B
  8
1
 10
5648.1101484210667
 20
4710.0005522589918
 30
0.0
 11
5648.1101484210667
 21
3349.0005522589931
 31
0.0
  0
LINE
  5
7C1C
  8
1
 10
5726.0101484210672
 20
4710.0005522589918
 30
0.0
 11
5726.0101484210672
 21
3349.0005522589931
 31
0.0
  0
LINE
  5
7C1D
  8
1
 10
5726.0101484210672
 20
4390.0005522589918
 30
0.0
 11
5748.1101484210667
 21
4390.0005522589918
 31
0.0
  0
LINE
  5
7C1E
  8
1
 10
5726.0101484210672
 20
4230.0005522589918
 30
0.0
 11
5748.1101484210667
 21
4230.0005522589918
 31
0.0
  0
LINE
  5
7C1F
  8
1
 10
5648.1101484210667
 20
3561.000552258994
 30
0.0
 11
5726.0101484210672
 21
3561.000552258994
 31
0.0
  0
LINE
  5
7C20
  8
1
 10
5648.1101484210667
 20
3349.0005522589931
 30
0.0
 11
5726.0101484210672
 21
3349.0005522589931
 31
0.0
  0
LINE
  5
7C21
  8
1
 10
5741.1101484210667
 20
3515.0005522589931
 30
0.0
 11
5741.1101484210667
 21
3395.0005522589931
 31
0.0
  0
LINE
  5
7C22
  8
1
 10
5726.0101484210672
 20
3515.0005522589918
 30
0.0
 11
5741.1101484210667
 21
3515.0005522589931
 31
0.0
  0
LINE
  5
7C23
  8
1
 10
5726.0101484210672
 20
3395.0005522589931
 30
0.0
 11
5741.1101484210667
 21
3395.0005522589931
 31
0.0
  0
LINE
  5
7C24
  8
1
 10
5598.1101484210667
 20
3235.0005522589931
 30
0.0
 11
5798.1101484210658
 21
3235.0005522589931
 31
0.0
  0
LINE
  5
7C25
  8
1
 10
5598.1101484210667
 20
4860.0005522589918
 30
0.0
 11
5598.1101484210667
 21
3235.0005522589931
 31
0.0
  0
LINE
  5
7C26
  8
1
 10
5798.1101484210658
 20
4860.0005522589918
 30
0.0
 11
5798.1101484210658
 21
3235.0005522589931
 31
0.0
  0
LINE
  5
7C27
  8
1
 10
5748.1101484210667
 20
4352.5005522589927
 30
0.0
 11
6017.8101484210683
 21
4352.5005522589927
 31
0.0
  0
LINE
  5
7C28
  8
1
 10
5748.1101484210667
 20
4267.5005522589927
 30
0.0
 11
6017.8101484210683
 21
4267.5005522589927
 31
0.0
  0
LINE
  5
7C29
  8
1
 10
4404.6264749374714
 20
2955.0005522589931
 30
0.0
 11
4404.6264749374714
 21
2880.0005522589931
 31
0.0
  0
LINE
  5
7C2A
  8
1
 10
4404.6264749374714
 20
2955.0005522589931
 30
0.0
 11
1654.6264749374709
 21
2955.0005522589931
 31
0.0
  0
LINE
  5
7C2B
  8
1
 10
1654.6264749374709
 20
2955.0005522589931
 30
0.0
 11
1654.6264749374709
 21
2880.0005522589931
 31
0.0
  0
LINE
  5
7C2C
  8
1
 10
4404.6264749374714
 20
2880.0005522589931
 30
0.0
 11
1654.6264749374709
 21
2880.0005522589931
 31
0.0
  0
LINE
  5
7C2D
  8
1
 10
5756.8101484210674
 20
2955.0005522589931
 30
0.0
 11
7156.8101484210674
 21
2955.000552258994
 31
0.0
  0
LINE
  5
7C2E
  8
1
 10
5756.8101484210674
 20
2880.0005522589931
 30
0.0
 11
7156.8101484210674
 21
2880.0005522589931
 31
0.0
  0
LINE
  5
7C2F
  8
1
 10
5756.8101484210674
 20
2955.0005522589931
 30
0.0
 11
5756.8101484210674
 21
2880.0005522589931
 31
0.0
  0
LINE
  5
7C30
  8
1
 10
7156.8101484210692
 20
2955.000552258994
 30
0.0
 11
7156.8101484210674
 21
2880.0005522589931
 31
0.0
  0
POINT
  5
7C31
  8
1
 10
1654.6264749374709
 20
3070.0005522589931
 30
0.0
  0
POINT
  5
7C32
  8
1
 10
1654.6264749374709
 20
2955.0005522589931
 30
0.0
  0
POINT
  5
7C33
  8
1
 10
1654.6264749374709
 20
2955.0005522589931
 30
0.0
  0
POINT
  5
7C34
  8
1
 10
1654.6264749374709
 20
2880.0005522589931
 30
0.0
  0
LINE
  5
7C35
  8
1
 10
6017.8101484210683
 20
4310.0005522589918
 30
0.0
 11
6017.8101484210683
 21
3220.0005522589931
 31
0.0
  0
LINE
  5
7C36
  8
1
 10
7077.8101484210683
 20
4301.0005522589927
 30
0.0
 11
7077.8101484210683
 21
3220.0005522589931
 31
0.0
  0
POINT
  5
7C37
  8
1
 10
6547.8101484210674
 20
5685.285593292464
 30
0.0
  0
INSERT
  5
7C38
  8
0
  6
BYBLOCK
 62
     2
  2
YA_N
 10
5372.4018783245183
 20
-226.14356067562309
 30
0.0
 41
90.0
 42
90.0
 43
90.0
 50
210.0117675348119
  0
CIRCLE
  5
7C39
  8
1
 10
3554.62647493747
 20
4310.0005522589918
 30
0.0
 40
400.0
  0
ARC
  5
7C3A
  8
1
 10
3554.62647493747
 20
4310.0005522589918
 30
0.0
 40
550.0
 50
287.63810194355568
 51
128.5997638979342
  0
ARC
  5
7C3B
  8
1
 10
1954.6264749374709
 20
3455.0005522589931
 30
0.0
 40
220.0
 50
128.5997638979342
 51
287.63810194355568
  0
LINE
  5
7C3C
  8
1
 10
3211.4944680016069
 20
4739.8382260570988
 30
0.0
 11
1817.3736721631251
 21
3626.9356217782361
 31
0.0
  0
LINE
  5
7C3D
  8
1
 10
3311.4236087353238
 20
4627.5731673741211
 30
0.0
 11
1890.1777153939011
 21
3539.157295264502
 31
0.0
  0
LINE
  5
7C3E
  8
1
 10
1988.773185727232
 20
3354.651151950668
 30
0.0
 11
3683.4819873516631
 21
3931.323569963427
 31
0.0
  0
LINE
  5
7C3F
  8
1
 10
3721.2785098281502
 20
3785.8563933992418
 30
0.0
 11
2021.287288893742
 21
3245.3428887150931
 31
0.0
  0
LINE
  5
7C40
  8
1
 10
5648.1101484210667
 20
4710.0005522589918
 30
0.0
 11
5726.0101484210672
 21
4710.0005522589918
 31
0.0
  0
LINE
  5
7C41
  8
1
 10
5648.1101484210667
 20
3910.0005522589931
 30
0.0
 11
5726.0101484210672
 21
3910.0005522589931
 31
0.0
  0
LINE
  5
7C42
  8
1
 10
5598.1101484210667
 20
4860.0005522589918
 30
0.0
 11
5798.1101484210658
 21
4860.0005522589918
 31
0.0
  0
LINE
  5
7C43
  8
1
 10
5741.1101484210676
 20
3497.5005522589931
 30
0.0
 11
6017.8101484210656
 21
3497.5005522589931
 31
0.0
  0
LINE
  5
7C44
  8
1
 10
5741.1101484210667
 20
3412.5005522589931
 30
0.0
 11
6017.8101484210656
 21
3412.5005522589931
 31
0.0
  0
DIMENSION
  5
7C45
  8
3
  2
*D2
 10
3513.6264749374709
 20
5507.646697772665
 30
0.0
 11
2788.6264749374709
 21
5607.646697772665
 31
0.0
 70
     0
 13
2063.6264749374709
 23
5240.0005522589927
 33
0.0
 14
3513.6264749374709
 24
5240.0005522589927
 34
0.0
1001
ACAD
1000
DSTYLE
1002
{
1070
   287
1070
     3
1070
   287
1070
     3
1070
   287
1070
     3
1070
    40
1040
40.0
1070
   143
1040
0.039
1070
   172
1070
     1
1070
   271
1070
     0
1070
   279
1070
     0
1070
   288
1070
     1
1002
}
  0
DIMENSION
  5
7C46
  8
3
  2
*D3
 10
3554.62647493747
 20
5757.9992614811908
 30
0.0
 11
2809.1264749374709
 21
5857.9992614811899
 31
0.0
 70
     0
 13
2063.6264749374709
 23
5240.0005522589927
 33
0.0
 14
3554.62647493747
 24
5327.9953101100773
 34
0.0
1001
ACAD
1000
DSTYLE
1002
{
1070
   287
1070
     3
1070
   287
1070
     3
1070
   287
1070
     3
1070
    40
1040
40.0
1070
   143
1040
0.039
1070
   172
1070
     1
1070
   271
1070
     0
1070
   279
1070
     0
1070
   288
1070
     1
1002
}
  0
DIMENSION
  5
7C47
  8
3
  2
*D4
 10
4557.6264749374714
 20
5757.9992614811908
 30
0.0
 11
4056.1264749374709
 21
5857.9992614811899
 31
0.0
 70
     0
 13
3554.62647493747
 23
5327.9953101100773
 33
0.0
 14
4557.6264749374714
 24
4208.0005522589927
 34
0.0
1001
ACAD
1000
DSTYLE
1002
{
1070
   287
1070
     3
1070
   287
1070
     3
1070
   287
1070
     3
1070
    40
1040
40.0
1070
   143
1040
0.039
1070
   172
1070
     1
1070
   271
1070
     0
1070
   279
1070
     0
1070
   288
1070
     1
1002
}
  0
DIMENSION
  5
7C48
  8
3
  2
*D5
 10
1214.003790561648
 20
4310.0005522589918
 30
0.0
 11
1114.0037905616471
 21
4775.0005522589927
 31
0.0
 70
     0
 13
2009.6264749374709
 23
5240.0005522589927
 33
0.0
 14
1877.9492943434011
 24
4310.0005522589918
 34
0.0
 50
270.0
1001
ACAD
1000
DSTYLE
1002
{
1070
   287
1070
     3
1070
   287
1070
     3
1070
   287
1070
     3
1070
    40
1040
40.0
1070
   143
1040
0.039
1070
   172
1070
     1
1070
   271
1070
     0
1070
   279
1070
     0
1070
   288
1070
     1
1002
}
  0
DIMENSION
  5
7C49
  8
3
  2
*D6
 10
1214.003790561648
 20
3070.0005522589931
 30
0.0
 11
1214.003790561648
 21
3850.6801372273562
 31
0.0
 70
   128
 13
1877.9492943434011
 23
4310.0005522589918
 33
0.0
 14
1654.6264749374709
 24
3070.0005522589931
 34
0.0
 50
270.0
1001
ACAD
1000
DSTYLE
1002
{
1070
   287
1070
     3
1070
   287
1070
     3
1070
   287
1070
     3
1070
    40
1040
40.0
1070
   143
1040
0.039
1070
   172
1070
     1
1070
   271
1070
     0
1070
   279
1070
     0
1070
   288
1070
     1
1002
}
  0
DIMENSION
  5
7C4D
  8
3
  2
*D7
 10
3554.62647493747
 20
2533.2347665893958
 30
0.0
 11
3979.62647493747
 21
2633.2347665893958
 31
0.0
 70
     0
 13
4404.6264749374714
 23
2880.0005522589931
 33
0.0
 14
3554.62647493747
 24
2727.4162983322499
 34
0.0
1001
ACAD
1000
DSTYLE
1002
{
1070
   287
1070
     3
1070
   287
1070
     3
1070
   287
1070
     3
1070
    40
1040
40.0
1070
   143
1040
0.039
1070
   172
1070
     1
1070
   271
1070
     0
1070
   279
1070
     0
1070
   288
1070
     1
1002
}
  0
DIMENSION
  5
7C4E
  8
3
  2
*D8
 10
1654.6264749374709
 20
2533.2347665893958
 30
0.0
 11
2604.6264749374709
 21
2633.2347665893958
 31
0.0
 70
     0
 13
3554.62647493747
 23
2727.4162983322499
 33
0.0
 14
1654.6264749374709
 24
2880.0005522589931
 34
0.0
1001
ACAD
1000
DSTYLE
1002
{
1070
   287
1070
     3
1070
   287
1070
     3
1070
   287
1070
     3
1070
    40
1040
40.0
1070
   143
1040
0.039
1070
   172
1070
     1
1070
   271
1070
     0
1070
   279
1070
     0
1070
   288
1070
     1
1002
}
  0
DIMENSION
  5
7C50
  8
3
  2
*D9
 10
6547.8101484210674
 20
2563.992768972616
 30
0.0
 11
6152.3101484210683
 21
2663.9927689726151
 31
0.0
 70
     0
 13
5756.8101484210674
 23
2880.0005522589931
 33
0.0
 14
6547.8101484210674
 24
2727.4162983322499
 34
0.0
1001
ACAD
1000
DSTYLE
1002
{
1070
   287
1070
     3
1070
   287
1070
     3
1070
   287
1070
     3
1070
    40
1040
40.0
1070
   143
1040
0.039
1070
   172
1070
     1
1070
   271
1070
     0
1070
   279
1070
     0
1070
   288
1070
     1
1002
}
  0
DIMENSION
  5
7C51
  8
3
  2
*D10
 10
7156.8101484210674
 20
2563.992768972616
 30
0.0
 11
6819.238719849639
 21
2563.992768972616
 31
0.0
 70
   128
 13
6547.8101484210674
 23
2727.4162983322499
 33
0.0
 14
7156.8101484210674
 24
2880.0005522589931
 34
0.0
1001
ACAD
1000
DSTYLE
1002
{
1070
   287
1070
     3
1070
   287
1070
     3
1070
   287
1070
     3
1070
    40
1040
40.0
1070
   143
1040
0.039
1070
   172
1070
     1
1070
   271
1070
     0
1070
   279
1070
     0
1070
   288
1070
     1
1002
}
  0
DIMENSION
  5
7C53
  8
3
  2
*D11
 10
2704.6264749374709
 20
8858.3824772439548
 30
0.0
 11
3554.6264749374709
 21
8958.3824772439566
 31
0.0
 70
     0
 13
4404.6264749374714
 23
8488.3359218851801
 33
0.0
 14
2704.6264749374709
 24
8488.3359218851801
 34
0.0
1001
ACAD
1000
DSTYLE
1002
{
1070
   287
1070
     3
1070
   287
1070
     3
1070
   287
1070
     3
1070
    40
1040
40.0
1070
   143
1040
0.039
1070
   172
1070
     1
1070
   271
1070
     0
1070
   279
1070
     0
1070
   288
1070
     1
1002
}
  0
DIMENSION
  5
7C54
  8
3
  2
*D12
 10
1654.6264749374709
 20
8858.3824772439548
 30
0.0
 11
2179.6264749374709
 21
8958.3824772439566
 31
0.0
 70
     0
 13
2704.6264749374709
 23
8488.3359218851801
 33
0.0
 14
1654.6264749374709
 24
8188.3359218851811
 34
0.0
1001
ACAD
1000
DSTYLE
1002
{
1070
   287
1070
     3
1070
   287
1070
     3
1070
   287
1070
     3
1070
    40
1040
40.0
1070
   143
1040
0.039
1070
   172
1070
     1
1070
   271
1070
     0
1070
   279
1070
     0
1070
   288
1070
     1
1002
}
  0
DIMENSION
  5
7C55
  8
3
  2
*D13
 10
1173.7526986074481
 20
7088.3359218851811
 30
0.0
 11
1073.752698607447
 21
7638.3359218851811
 31
0.0
 70
     0
 13
1654.6264749374709
 23
8188.3359218851811
 33
0.0
 14
1654.6264749374709
 24
7088.3359218851811
 34
0.0
 50
270.0
1001
ACAD
1000
DSTYLE
1002
{
1070
   287
1070
     3
1070
   287
1070
     3
1070
   287
1070
     3
1070
    40
1040
40.0
1070
   143
1040
0.039
1070
   172
1070
     1
1070
   271
1070
     0
1070
   279
1070
     0
1070
   288
1070
     1
1002
}
  0
DIMENSION
  5
7C56
  8
3
  2
*D14
 10
4830.8884351933739
 20
7088.3359218851811
 30
0.0
 11
4730.888435193373
 21
7788.335921885182
 31
0.0
 70
     0
 13
4404.6264749374714
 23
8488.3359218851801
 33
0.0
 14
4404.6264749374714
 24
7088.3359218851811
 34
0.0
 50
270.0
1001
ACAD
1000
DSTYLE
1002
{
1070
   287
1070
     3
1070
   287
1070
     3
1070
   287
1070
     3
1070
    40
1040
40.0
1070
   143
1040
0.039
1070
   172
1070
     1
1070
   271
1070
     0
1070
   279
1070
     0
1070
   288
1070
     1
1002
}
  0
DIMENSION
  5
7C57
  8
3
  2
*D15
 10
1654.6264749374709
 20
6489.8588176084504
 30
0.0
 11
3052.5931300608131
 21
6489.8588176084504
 31
0.0
 70
   128
 13
4404.6264749374714
 23
7088.3359218851811
 33
0.0
 14
1654.6264749374709
 24
7088.3359218851811
 34
0.0
1001
ACAD
1000
DSTYLE
1002
{
1070
   287
1070
     3
1070
   287
1070
     3
1070
   287
1070
     3
1070
    40
1040
40.0
1070
   143
1040
0.039
1070
   172
1070
     1
1070
   271
1070
     0
1070
   279
1070
     0
1070
   288
1070
     1
1002
}
  0
DIMENSION
  5
7C58
  8
3
  2
*D16
 10
7077.8101484210683
 20
5463.6261761524511
 30
0.0
 11
6547.8101484210674
 21
5563.6261761524511
 31
0.0
 70
     0
 13
6017.8101484210683
 23
5240.0005522589927
 33
0.0
 14
7077.8101484210683
 24
5240.0005522589927
 34
0.0
1001
ACAD
1000
DSTYLE
1002
{
1070
   287
1070
     3
1070
   287
1070
     3
1070
   287
1070
     3
1070
    40
1040
40.0
1070
   143
1040
0.039
1070
   172
1070
     1
1070
   271
1070
     0
1070
   279
1070
     0
1070
   288
1070
     1
1002
}
  0
DIMENSION
  5
7C59
  8
3
  2
*D17
 10
6547.8101484210674
 20
5800.4203878812659
 30
0.0
 11
6904.6672912782124
 21
5800.4203878812659
 31
0.0
 70
   128
 13
7181.8101484210674
 23
5060.0005522589918
 33
0.0
 14
6547.8101484210674
 24
5685.285593292464
 34
0.0
1001
ACAD
1000
DSTYLE
1002
{
1070
   287
1070
     3
1070
   287
1070
     3
1070
   287
1070
     3
1070
    40
1040
40.0
1070
   143
1040
0.039
1070
   172
1070
     1
1070
   271
1070
     0
1070
   279
1070
     0
1070
   288
1070
     1
1002
}
  0
DIMENSION
  5
7C5A
  8
3
  2
*D18
 10
5598.1101484210667
 20
5800.5282296154546
 30
0.0
 11
6072.9601484210671
 21
6000.5282296154537
 31
0.0
 70
     0
  1
MAX\P1030
 13
6547.8101484210674
 23
5685.285593292464
 33
0.0
 14
5598.1101484210667
 24
4860.0005522589918
 34
0.0
1001
ACAD
1000
DSTYLE
1002
{
1070
   287
1070
     3
1070
   287
1070
     3
1070
   287
1070
     3
1070
    40
1040
40.0
1070
   143
1040
0.039
1070
   172
1070
     1
1070
   271
1070
     0
1070
   279
1070
     0
1070
   288
1070
     1
1002
}
  0
DIMENSION
  5
7C5B
  8
3
  2
*D19
 10
7614.4007756009778
 20
3610.0005522589931
 30
0.0
 11
7514.4007756009769
 21
4310.0005522589927
 31
0.0
 70
     0
 13
7181.8101484210674
 23
5010.0005522589918
 33
0.0
 14
7181.8101484210674
 24
3610.0005522589931
 34
0.0
 50
90.0
1001
ACAD
1000
DSTYLE
1002
{
1070
   287
1070
     3
1070
   287
1070
     3
1070
   287
1070
     3
1070
     3
1000
φ<>
1070
    40
1040
40.0
1070
   143
1040
0.039
1070
   172
1070
     1
1070
   271
1070
     0
1070
   279
1070
     0
1070
   288
1070
     1
1002
}
  0
LINE
  5
7C5C
  8
2
 10
3554.62647493747
 20
6903.3527479060122
 30
0.0
 11
3554.62647493747
 21
8583.0329079386593
 31
0.0
  0
LINE
  5
7C5D
  8
2
 10
4525.0380553496543
 20
7879.3359218851801
 30
0.0
 11
1572.2991762172269
 21
7879.3359218851792
 31
0.0
  0
LINE
  5
7C5E
  8
1
 10
4557.6264749374714
 20
8409.3359218851801
 30
0.0
 11
2063.62647493747
 21
8409.3359218851783
 31
0.0
  0
LINE
  5
7C5F
  8
1
 10
4557.6264749374714
 20
7349.3359218851811
 30
0.0
 11
2063.62647493747
 21
7349.3359218851811
 31
0.0
  0
LINE
  5
7C60
  8
1
 10
2063.6264749374709
 20
7349.3359218851792
 30
0.0
 11
2063.62647493747
 21
8409.3359218851783
 31
0.0
  0
LINE
  5
7C61
  8
1
 10
3513.6264749374709
 20
7349.3359218851811
 30
0.0
 11
3513.6264749374709
 21
8409.3359218851801
 31
0.0
  0
LINE
  5
7C62
  8
1
 10
4557.6264749374714
 20
7349.3359218851811
 30
0.0
 11
4557.6264749374714
 21
8409.3359218851801
 31
0.0
  0
LINE
  5
7C63
  8
1
 10
4404.6264749374714
 20
7349.3359218851811
 30
0.0
 11
4404.6264749374714
 21
7088.3359218851811
 31
0.0
  0
LINE
  5
7C64
  8
1
 10
2063.62647493747
 20
8409.3359218851783
 30
0.0
 11
3513.6264749374709
 21
7349.3359218851811
 31
0.0
  0
LINE
  5
7C65
  8
1
 10
3513.6264749374709
 20
8409.3359218851801
 30
0.0
 11
2063.6264749374709
 21
7349.3359218851811
 31
0.0
  0
DIMENSION
  5
7C66
  8
3
  2
*D20
 10
1654.62647493747
 20
6007.2837399426953
 30
0.0
 11
3106.1264749374709
 21
6107.2837399426953
 31
0.0
 70
     0
 13
4557.6264749374714
 23
4224.5005522589927
 33
0.0
 14
1654.62647493747
 24
3220.0005522589931
 34
0.0
1001
ACAD
1000
DSTYLE
1002
{
1070
   287
1070
     3
1070
   287
1070
     3
1070
   287
1070
     3
1070
    40
1040
40.0
1070
   143
1040
0.039
1070
   172
1070
     1
1070
   271
1070
     0
1070
   279
1070
     0
1070
   288
1070
     1
1002
}
  0
LINE
  5
7C67
  8
1
 10
7156.8101484210674
 20
3220.0005522589931
 30
0.0
 11
7156.8101484210674
 21
3070.0005522589931
 31
0.0
  0
LINE
  5
7C68
  8
1
 10
5756.8101484210674
 20
3220.0005522589931
 30
0.0
 11
5756.8101484210674
 21
3070.0005522589931
 31
0.0
  0
LINE
  5
7C69
  8
1
 10
4104.6264749374714
 20
7129.6359218851794
 30
0.0
 11
1734.6264749374709
 21
7129.6359218851794
 31
0.0
  0
LINE
  5
7C6A
  8
1
 10
4104.6264749374714
 20
6929.6359218851794
 30
0.0
 11
1734.6264749374709
 21
6929.6359218851794
 31
0.0
  0
LINE
  5
7C6B
  8
1
 10
3954.62647493747
 20
7057.5359218851791
 30
0.0
 11
3154.6264749374709
 21
7057.5359218851791
 31
0.0
  0
LINE
  5
7C6C
  8
1
 10
3954.62647493747
 20
6979.6359218851794
 30
0.0
 11
3154.6264749374709
 21
6979.6359218851794
 31
0.0
  0
LINE
  5
7C6D
  8
1
 10
1912.1264749374709
 20
7072.6359218851794
 30
0.0
 11
1912.1264749374709
 21
7187.6359218851794
 31
0.0
  0
LINE
  5
7C6E
  8
1
 10
1997.1264749374709
 20
7072.6359218851794
 30
0.0
 11
1997.1264749374709
 21
7187.6359218851794
 31
0.0
  0
LINE
  5
7C6F
  8
2
 10
1954.6264749374709
 20
7766.1915020347678
 30
0.0
 11
1954.6264749374709
 21
6912.3108406555066
 31
0.0
  0
LINE
  5
7C70
  8
1
 10
1734.6264749374709
 20
6929.6359218851794
 30
0.0
 11
1734.6264749374709
 21
7129.6359218851794
 31
0.0
  0
LINE
  5
7C71
  8
1
 10
1848.6264749374709
 20
6979.6359218851794
 30
0.0
 11
1848.6264749374709
 21
7057.5359218851791
 31
0.0
  0
LINE
  5
7C72
  8
1
 10
2060.6264749374718
 20
6979.6359218851794
 30
0.0
 11
2060.6264749374718
 21
7057.5359218851791
 31
0.0
  0
LINE
  5
7C73
  8
1
 10
2014.626474937472
 20
7072.6359218851794
 30
0.0
 11
1894.626474937472
 21
7072.6359218851794
 31
0.0
  0
LINE
  5
7C74
  8
1
 10
1894.6264749374709
 20
7057.5359218851791
 30
0.0
 11
1894.626474937472
 21
7072.6359218851794
 31
0.0
  0
LINE
  5
7C75
  8
1
 10
2014.6264749374709
 20
7057.5359218851791
 30
0.0
 11
2014.626474937472
 21
7072.6359218851794
 31
0.0
  0
LINE
  5
7C76
  8
1
 10
3512.12647493747
 20
7079.6359218851794
 30
0.0
 11
3512.12647493747
 21
7349.3359218851811
 31
0.0
  0
LINE
  5
7C77
  8
1
 10
3597.1264749374709
 20
7079.6359218851794
 30
0.0
 11
3597.1264749374709
 21
7349.3359218851811
 31
0.0
  0
LINE
  5
7C78
  8
1
 10
3154.6264749374709
 20
6979.6359218851794
 30
0.0
 11
3154.6264749374709
 21
7057.5359218851791
 31
0.0
  0
LINE
  5
7C79
  8
1
 10
3634.6264749374709
 20
7079.6359218851794
 30
0.0
 11
3474.6264749374709
 21
7079.6359218851794
 31
0.0
  0
LINE
  5
7C7A
  8
1
 10
3474.6264749374709
 20
7057.5359218851791
 30
0.0
 11
3474.6264749374709
 21
7079.6359218851794
 31
0.0
  0
LINE
  5
7C7B
  8
1
 10
3634.6264749374709
 20
7057.5359218851791
 30
0.0
 11
3634.6264749374709
 21
7079.6359218851794
 31
0.0
  0
LINE
  5
7C7C
  8
1
 10
4104.6264749374714
 20
6929.6359218851794
 30
0.0
 11
4104.6264749374714
 21
7129.6359218851794
 31
0.0
  0
LINE
  5
7C7D
  8
1
 10
3954.62647493747
 20
6979.6359218851794
 30
0.0
 11
3954.62647493747
 21
7057.5359218851791
 31
0.0
  0
LINE
  5
7C7E
  8
1
 10
2137.1264749374709
 20
7749.1359218851803
 30
0.0
 11
1772.1264749374709
 21
7749.1359218851803
 31
0.0
  0
LINE
  5
7C7F
  8
1
 10
2137.1264749374709
 20
7187.6359218851794
 30
0.0
 11
1772.1264749374709
 21
7187.6359218851794
 31
0.0
  0
LINE
  5
7C80
  8
1
 10
2137.1264749374709
 20
7749.1359218851776
 30
0.0
 11
2137.1264749374709
 21
7187.6359218851794
 31
0.0
  0
LINE
  5
7C81
  8
1
 10
1772.1264749374709
 20
7749.1359218851776
 30
0.0
 11
1772.1264749374709
 21
7187.6359218851794
 31
0.0
  0
LINE
  5
7C82
  8
1
 10
2060.6264749374718
 20
7057.5359218851791
 30
0.0
 11
1848.6264749374709
 21
7057.5359218851791
 31
0.0
  0
LINE
  5
7C83
  8
1
 10
2060.6264749374718
 20
6979.6359218851794
 30
0.0
 11
1848.6264749374709
 21
6979.6359218851794
 31
0.0
  0
LINE
  5
7EA6
  8
4
 10
7400.0
 20
2000.0
 30
0.0
 11
7400.0
 21
1200.0
 31
0.0
  0
LINE
  5
7EA7
  8
4
 10
4600.0
 20
2000.0
 30
0.0
 11
4600.0
 21
1200.0
 31
0.0
  0
LINE
  5
7EA8
  8
4
 10
2600.0
 20
2000.0
 30
0.0
 11
2600.0
 21
1200.0
 31
0.0
  0
LINE
  5
7EAB
  8
4
 10
2600.0
 20
1200.0
 30
0.0
 11
7400.0
 21
1200.0
 31
0.0
  0
LINE
  5
7EAC
  8
4
 10
2600.0
 20
1600.0
 30
0.0
 11
7400.0
 21
1600.0
 31
0.0
  0
TEXT
  5
7EAD
  8
4
 10
2754.0083233876071
 20
1726.1721034664511
 30
0.0
 40
200.0
  1
機器名称
  0
TEXT
  5
7EAE
  8
4
 10
2745.0324240991899
 20
1286.5806269280431
 30
0.0
 40
200.0
  1
機器型番
  0
TEXT
  5
7EAF
  8
4
 10
4710.7149819506594
 20
1690.287075830274
 30
0.0
 40
200.0
  1
ミツヤ多翼送風機
  0
TEXT
  5
7EB0
  8
4
 10
4746.6179823419234
 20
1268.638337119773
 30
0.0
 40
200.0
  1
MFE#9-4
  0
TEXT
  5
7EB2
  8
4
 10
3112.2211069507462
 20
9533.7153653300629
 30
0.0
 40
215.99999999999989
  1
床置防振ベット
  0
TEXT
  5
7EB3
  8
4
 10
1264.6703733177851
 20
10135.52390479719
 30
0.0
 40
288.0
  1
ベルト駆動式片吸込両持排煙ファン
  0
LINE
  5
7EB4
  8
4
 10
1000.0
 20
9877.6350170592195
 30
0.0
 11
7400.0
 21
9877.6350170592195
 31
0.0
  0
LINE
  5
7EB5
  8
4
 10
1000.0
 20
10677.63501705921
 30
0.0
 11
7400.0
 21
10677.63501705921
 31
0.0
  0
LINE
  5
7EB6
  8
4
 10
2600.0
 20
2000.0
 30
0.0
 11
7400.0
 21
2000.0
 31
0.0
  0
LINE
  5
7EB7
  8
4
 10
1000.0
 20
10677.63501705921
 30
0.0
 11
1000.0
 21
9877.6350170592195
 31
0.0
  0
TEXT
  5
7EB8
  8
4
 10
1368.7857779799369
 20
9529.2779101853739
 30
0.0
 40
215.99999999999989
  1
右回転上向
  0
TEXT
  5
7EB9
  8
4
 10
5875.8782369971586
 20
10824.24432598123
 30
0.0
 40
224.0
  1
No.
  0
TEXT
  5
7EBA
  8
4
 10
5245.1842504000524
 20
9533.7153653300629
 30
0.0
 40
215.99999999999989
  1
縮尺：1/40
  0
LINE
  5
7EBB
  8
4
 10
7400.0
 20
10677.63501705921
 30
0.0
 11
7400.0
 21
9877.6350170592195
 31
0.0
  0
LINE
  5
7EBC
  8
4
 10
8400.0
 20
11800.0
 30
0.0
 11
8400.0
 21
11800.0
 31
0.0
  0
LINE
  5
7EBD
  8
4
 10
5762.4696894394583
 20
10725.054332501601
 30
0.0
 11
5762.4696894394583
 21
11146.609046199001
 31
0.0
  0
LINE
  5
7EBE
  8
4
 10
5762.4696894394583
 20
11146.609046199001
 30
0.0
 11
7400.0
 21
11146.609046199001
 31
0.0
  0
LINE
  5
7EBF
  8
4
 10
7400.0
 20
11146.609046199001
 30
0.0
 11
7400.0
 21
10725.054332501601
 31
0.0
  0
LINE
  5
7EC0
  8
4
 10
7400.0
 20
10725.054332501601
 30
0.0
 11
5762.4696894394583
 21
10725.054332501601
 31
0.0
  0
LINE
  5
7EC1
  8
4
 10
0.0
 20
0.0
 30
0.0
 11
0.0
 21
11800.0
 31
0.0
  0
LINE
  5
7EC2
  8
4
 10
0.0
 20
11800.0
 30
0.0
 11
8400.0
 21
11800.0
 31
0.0
  0
LINE
  5
7EC3
  8
4
 10
8400.0
 20
11800.0
 30
0.0
 11
8400.0
 21
0.0
 31
0.0
  0
LINE
  5
7EC4
  8
4
 10
8400.0
 20
0.0
 30
0.0
 11
0.0
 21
0.0
 31
0.0
  0
DIMENSION
  5
817F
  8
3
  2
*D22
 10
1214.003790561648
 20
2955.0005522589931
 30
0.0
 11
891.14664770450486
 21
3109.9291236875652
 31
0.0
 70
     0
  1
(<>)
 13
1654.6264749374709
 23
3070.0005522589931
 33
0.0
 14
1654.6264749374709
 24
2955.0005522589931
 34
0.0
 50
270.0
1001
ACAD
1000
DSTYLE
1002
{
1070
   287
1070
     4
1070
   287
1070
     4
1070
   287
1070
     4
1070
     7
1000
NONE
1070
     6
1000
NONE
1070
    40
1040
40.0
1070
   143
1040
0.039
1070
   172
1070
     1
1070
   271
1070
     0
1070
   279
1070
     1
1070
   288
1070
     1
1002
}
  0
DIMENSION
  5
81B5
  8
3
  2
*D23
 10
1214.003790561648
 20
2880.0005522589931
 30
0.0
 11
1241.18489853914
 21
2669.166592526391
 31
0.0
 70
   128
  1
<>
 13
1654.6264749374709
 23
2955.0005522589931
 33
0.0
 14
1654.6264749374709
 24
2880.0005522589931
 34
0.0
 50
270.0
1001
ACAD
1000
DSTYLE
1002
{
1070
   287
1070
     4
1070
   287
1070
     4
1070
   287
1070
     4
1070
     6
1000
DOTSMALL
1070
    40
1040
40.0
1070
   143
1040
0.039
1070
   172
1070
     1
1070
   271
1070
     0
1070
   279
1070
     1
1070
   288
1070
     1
1002
}
  0
ENDSEC
  0
EOF
