  0
SECTION
  2
HEADER
  9
$ACADVER
  1
AC1009
  9
$INSBASE
 10
0.0
 20
0.0
 30
0.0
  9
$EXTMIN
 10
0.0
 20
0.0
 30
0.0
  9
$EXTMAX
 10
8400.0
 20
11800.0
 30
0.0
  9
$LIMMIN
 10
0.0
 20
0.0
  9
$LIMMAX
 10
297.0
 20
210.0
  9
$ORTHOMODE
 70
     0
  9
$REGENMODE
 70
     1
  9
$FILLMODE
 70
     0
  9
$QTEXTMODE
 70
     0
  9
$MIRRTEXT
 70
     1
  9
$DRAGMODE
 70
     2
  9
$LTSCALE
 40
100.0
  9
$OSMODE
 70
    37
  9
$ATTMODE
 70
     1
  9
$TEXTSIZE
 40
180.0
  9
$TRACEWID
 40
0.05
  9
$TEXTSTYLE
  7
STANDARD
  9
$CLAYER
  8
4
  9
$CELTYPE
  6
BYLAYER
  9
$CECOLOR
 62
   256
  9
$DIMSCALE
 40
40.0
  9
$DIMASZ
 40
2.0
  9
$DIMEXO
 40
0.5
  9
$DIMDLI
 40
10.0
  9
$DIMRND
 40
0.0
  9
$DIMDLE
 40
0.0
  9
$DIMEXE
 40
1.0
  9
$DIMTP
 40
1.0
  9
$DIMTM
 40
1.0
  9
$DIMTXT
 40
3.0
  9
$DIMCEN
 40
0.0
  9
$DIMTSZ
 40
0.0
  9
$DIMTOL
 70
     0
  9
$DIMLIM
 70
     0
  9
$DIMTIH
 70
     0
  9
$DIMTOH
 70
     0
  9
$DIMSE1
 70
     0
  9
$DIMSE2
 70
     0
  9
$DIMTAD
 70
     1
  9
$DIMZIN
 70
     8
  9
$DIMBLK
  1

  9
$DIMASO
 70
     1
  9
$DIMSHO
 70
     1
  9
$DIMPOST
  1

  9
$DIMAPOST
  1

  9
$DIMALT
 70
     0
  9
$DIMALTD
 70
     2
  9
$DIMALTF
 40
0.039
  9
$DIMLFAC
 40
1.0
  9
$DIMTOFL
 70
     1
  9
$DIMTVP
 40
0.0
  9
$DIMTIX
 70
     0
  9
$DIMSOXD
 70
     0
  9
$DIMSAH
 70
     1
  9
$DIMBLK1
  1
OPEN
  9
$DIMBLK2
  1
OPEN
  9
$DIMSTYLE
  2
IGA
  9
$DIMCLRD
 70
     0
  9
$DIMCLRE
 70
     0
  9
$DIMCLRT
 70
     0
  9
$DIMTFAC
 40
10.0
  9
$DIMGAP
 40
1.0
  9
$LUNITS
 70
     2
  9
$LUPREC
 70
     3
  9
$SKETCHINC
 40
0.1
  9
$FILLETRAD
 40
50.0
  9
$AUNITS
 70
     0
  9
$AUPREC
 70
     0
  9
$MENU
  1
acad
  9
$ELEVATION
 40
0.0
  9
$PELEVATION
 40
0.0
  9
$THICKNESS
 40
0.0
  9
$LIMCHECK
 70
     0
  9
$BLIPMODE
 70
     0
  9
$CHAMFERA
 40
0.5
  9
$CHAMFERB
 40
0.5
  9
$SKPOLY
 70
     0
  9
$TDCREATE
 40
2451409.395401157
  9
$TDUPDATE
 40
2454953.8458781829
  9
$TDINDWG
 40
0.0115654745
  9
$TDUSRTIMER
 40
0.0115654745
  9
$USRTIMER
 70
     1
  9
$ANGBASE
 50
0.0
  9
$ANGDIR
 70
     0
  9
$PDMODE
 70
     0
  9
$PDSIZE
 40
0.0
  9
$PLINEWID
 40
0.0
  9
$COORDS
 70
     1
  9
$SPLFRAME
 70
     0
  9
$SPLINETYPE
 70
     6
  9
$SPLINESEGS
 70
     8
  9
$ATTDIA
 70
     0
  9
$ATTREQ
 70
     1
  9
$HANDLING
 70
 10241
  9
$HANDSEED
  5
8286
  9
$SURFTAB1
 70
     6
  9
$SURFTAB2
 70
     6
  9
$SURFTYPE
 70
     6
  9
$SURFU
 70
     6
  9
$SURFV
 70
     6
  9
$UCSNAME
  2

  9
$UCSORG
 10
0.0
 20
0.0
 30
0.0
  9
$UCSXDIR
 10
1.0
 20
0.0
 30
0.0
  9
$UCSYDIR
 10
0.0
 20
1.0
 30
0.0
  9
$PUCSNAME
  2

  9
$PUCSORG
 10
0.0
 20
0.0
 30
0.0
  9
$PUCSXDIR
 10
1.0
 20
0.0
 30
0.0
  9
$PUCSYDIR
 10
0.0
 20
1.0
 30
0.0
  9
$USERI1
 70
     0
  9
$USERI2
 70
     0
  9
$USERI3
 70
     0
  9
$USERI4
 70
     0
  9
$USERI5
 70
     0
  9
$USERR1
 40
0.0
  9
$USERR2
 40
0.0
  9
$USERR3
 40
0.0
  9
$USERR4
 40
0.0
  9
$USERR5
 40
0.0
  9
$WORLDVIEW
 70
     1
  9
$SHADEDGE
 70
     3
  9
$SHADEDIF
 70
    70
  9
$TILEMODE
 70
     1
  9
$MAXACTVP
 70
    16
  9
$PLIMCHECK
 70
     0
  9
$PEXTMIN
 10
1.0000000000000000E+020
 20
1.0000000000000000E+020
 30
1.0000000000000000E+020
  9
$PEXTMAX
 10
-1.0000000000000000E+020
 20
-1.0000000000000000E+020
 30
-1.0000000000000000E+020
  9
$PLIMMIN
 10
0.0
 20
0.0
  9
$PLIMMAX
 10
12.0
 20
9.0
  9
$UNITMODE
 70
     0
  9
$VISRETAIN
 70
     0
  9
$PLINEGEN
 70
     0
  9
$PSLTSCALE
 70
     1
  0
ENDSEC
  0
SECTION
  2
TABLES
  0
TABLE
  2
VPORT
 70
     2
  0
VPORT
  2
*ACTIVE
 70
     0
 10
0.0
 20
0.0
 11
1.0
 21
1.0
 12
12055.96529284164
 22
8009.9956321173886
 13
0.0
 23
0.0
 14
10.0
 24
10.0
 15
10.0
 25
10.0
 16
0.0
 26
0.0
 36
1.0
 17
0.0
 27
0.0
 37
0.0
 40
16019.991264234781
 41
1.5051150895140659
 42
50.0
 43
0.0
 44
0.0
 50
0.0
 51
0.0
 71
     0
 72
   100
 73
     1
 74
     0
 75
     0
 76
     0
 77
     0
 78
     0
  0
ENDTAB
  0
TABLE
  2
LTYPE
 70
     2
  0
LTYPE
  2
CONTINUOUS
 70
     0
  3
Solid line
 72
    65
 73
     0
 40
0.0
  0
LTYPE
  2
CENTER
 70
     0
  3
____ _ ____ _ ____ _ ____ _ ____ _ ____ _ ____ 
 72
    65
 73
     4
 40
2.0
 49
1.25
 49
-0.25
 49
0.25
 49
-0.25
  0
ENDTAB
  0
TABLE
  2
LAYER
 70
     6
  0
LAYER
  2
0
 70
     0
 62
     7
  6
CONTINUOUS
  0
LAYER
  2
3
 70
     0
 62
     2
  6
CONTINUOUS
  0
LAYER
  2
2
 70
     0
 62
     3
  6
CENTER
  0
LAYER
  2
1
 70
     0
 62
     4
  6
CONTINUOUS
  0
LAYER
  2
4
 70
     0
 62
     7
  6
CONTINUOUS
  0
LAYER
  2
DEFPOINTS
 70
     0
 62
     7
  6
CONTINUOUS
  0
ENDTAB
  0
TABLE
  2
STYLE
 70
     1
  0
STYLE
  2
STANDARD
 70
     0
 40
0.0
 41
1.0
 50
0.0
 71
     0
 42
180.0
  3
simplex.shx
  4
extfont.shx
  0
ENDTAB
  0
TABLE
  2
VIEW
 70
     0
  0
ENDTAB
  0
TABLE
  2
UCS
 70
     0
  0
ENDTAB
  0
TABLE
  2
APPID
 70
     1
  0
APPID
  2
ACAD
 70
     0
  0
ENDTAB
  0
TABLE
  2
DIMSTYLE
 70
     1
  0
DIMSTYLE
  2
IGA
 70
     0
  3

  4

  5

  6
OPEN
  7
OPEN
 40
2.0
 41
2.0
 42
0.5
 43
10.0
 44
1.0
 45
0.0
 46
0.0
 47
1.0
 48
1.0
140
3.0
141
0.0
142
0.0
143
0.03937
144
1.0
145
0.0
146
10.0
147
1.0
 71
     0
 72
     0
 73
     0
 74
     0
 75
     0
 76
     0
 77
     1
 78
     8
170
     0
171
     2
172
     0
173
     1
174
     0
175
     0
176
     0
177
     0
178
     0
  0
ENDTAB
  0
ENDSEC
  0
SECTION
  2
BLOCKS
  0
BLOCK
  8
0
  2
$MODEL_SPACE
 70
     0
 10
0.0
 20
0.0
 30
0.0
  3
$MODEL_SPACE
  1

  0
ENDBLK
  5
1B
  8
0
  0
BLOCK
 67
     1
  8
0
  2
$PAPER_SPACE
 70
     0
 10
0.0
 20
0.0
 30
0.0
  3
$PAPER_SPACE
  1

  0
ENDBLK
  5
18
 67
     1
  8
0
  0
BLOCK
  8
0
  2
_OPEN
 70
     0
 10
0.0
 20
0.0
 30
0.0
  3
_OPEN
  1

  0
LINE
  5
79FD
  8
0
  6
BYBLOCK
 62
     0
 10
-1.0
 20
0.1666666666666666
 30
0.0
 11
0.0
 21
0.0
 31
0.0
  0
LINE
  5
79FE
  8
0
  6
BYBLOCK
 62
     0
 10
0.0
 20
0.0
 30
0.0
 11
-1.0
 21
-0.1666666666666666
 31
0.0
  0
LINE
  5
79FF
  8
0
  6
BYBLOCK
 62
     0
 10
0.0
 20
0.0
 30
0.0
 11
-1.0
 21
0.0
 31
0.0
  0
ENDBLK
  5
7A01
  8
0
  0
BLOCK
  8
0
  2
YA_N
 70
     0
 10
0.0
 20
0.0
 30
0.0
  3
YA_N
  1

  0
ENDBLK
  5
7A0C
  8
0
  0
BLOCK
  8
0
  2
*D2
 70
     1
 10
0.0
 20
0.0
 30
0.0
  3
*D2
  1

  0
LINE
  5
81A4
  8
3
 62
     0
 10
4037.7002116079379
 20
3176.9820417084702
 30
0.0
 11
4325.3463571216089
 21
3176.9820417084702
 31
0.0
  0
LINE
  5
81A5
  8
3
 62
     0
 10
4037.7002116079379
 20
4626.9820417084702
 30
0.0
 11
4325.3463571216089
 21
4626.9820417084702
 31
0.0
  0
LINE
  5
81A6
  8
3
 62
     0
 10
4285.3463571216089
 20
3256.9820417084702
 30
0.0
 11
4285.3463571216089
 21
4546.9820417084702
 31
0.0
  0
INSERT
  5
81A7
  8
3
 62
     0
  2
_OPEN
 10
4285.3463571216089
 20
3176.9820417084702
 30
0.0
 41
80.0
 42
80.0
 43
80.0
 50
270.0
  0
INSERT
  5
81A8
  8
3
 62
     0
  2
_OPEN
 10
4285.3463571216089
 20
4626.9820417084702
 30
0.0
 41
80.0
 42
80.0
 43
80.0
 50
90.0
  0
TEXT
  8
3
  40
120
  5
826F
  62
0
  72
0
  71
0
 10
3945.35
 20
3689.58
 30
0.000000
  1
1450
  0
POINT
  5
81AA
  8
DEFPOINTS
 62
     0
 10
4017.7002116079379
 20
3176.9820417084702
 30
0.0
  0
POINT
  5
81AB
  8
DEFPOINTS
 62
     0
 10
4017.7002116079379
 20
4626.9820417084702
 30
0.0
  0
POINT
  5
81AC
  8
DEFPOINTS
 62
     0
 10
4285.3463571216089
 20
4626.9820417084702
 30
0.0
  0
ENDBLK
  5
7FFA
  8
0
  0
BLOCK
  8
0
  2
*D3
 70
     1
 10
0.0
 20
0.0
 30
0.0
  3
*D3
  1

  0
LINE
  5
81AD
  8
3
 62
     0
 10
3937.7002116079379
 20
2962.9820417084702
 30
0.0
 11
3937.7002116079379
 21
2596.2162560388729
 31
0.0
  0
LINE
  5
81AE
  8
3
 62
     0
 10
3087.7002116079379
 20
2810.3977877817269
 30
0.0
 11
3087.7002116079379
 21
2596.2162560388729
 31
0.0
  0
LINE
  5
81AF
  8
3
 62
     0
 10
3857.7002116079379
 20
2636.2162560388729
 30
0.0
 11
3167.7002116079379
 21
2636.2162560388729
 31
0.0
  0
INSERT
  5
81B0
  8
3
 62
     0
  2
_OPEN
 10
3937.7002116079379
 20
2636.2162560388729
 30
0.0
 41
80.0
 42
80.0
 43
80.0
  0
INSERT
  5
81B1
  8
3
 62
     0
  2
_OPEN
 10
3087.7002116079379
 20
2636.2162560388729
 30
0.0
 41
80.0
 42
80.0
 43
80.0
 50
180.0
  0
TEXT
  8
3
  40
120
  5
8270
  62
0
  72
0
  71
0
 10
3272.70
 20
2523.82
 30
0.000000
  1
850
  0
POINT
  5
81B3
  8
DEFPOINTS
 62
     0
 10
3937.7002116079379
 20
2982.9820417084702
 30
0.0
  0
POINT
  5
81B4
  8
DEFPOINTS
 62
     0
 10
3087.7002116079379
 20
2830.3977877817269
 30
0.0
  0
POINT
  5
81B5
  8
DEFPOINTS
 62
     0
 10
3087.7002116079379
 20
2636.2162560388729
 30
0.0
  0
ENDBLK
  5
7FEF
  8
0
  0
BLOCK
  8
0
  2
*D4
 70
     1
 10
0.0
 20
0.0
 30
0.0
  3
*D4
  1

  0
LINE
  5
81B6
  8
3
 62
     0
 10
3087.7002116079379
 20
2810.3977877817269
 30
0.0
 11
3087.7002116079379
 21
2596.2162560388729
 31
0.0
  0
LINE
  5
81B7
  8
3
 62
     0
 10
1187.7002116079379
 20
2962.9820417084702
 30
0.0
 11
1187.7002116079379
 21
2596.2162560388729
 31
0.0
  0
LINE
  5
81B8
  8
3
 62
     0
 10
3007.7002116079379
 20
2636.2162560388729
 30
0.0
 11
1267.7002116079379
 21
2636.2162560388729
 31
0.0
  0
INSERT
  5
81B9
  8
3
 62
     0
  2
_OPEN
 10
3087.7002116079379
 20
2636.2162560388729
 30
0.0
 41
80.0
 42
80.0
 43
80.0
  0
INSERT
  5
81BA
  8
3
 62
     0
  2
_OPEN
 10
1187.7002116079379
 20
2636.2162560388729
 30
0.0
 41
80.0
 42
80.0
 43
80.0
 50
180.0
  0
TEXT
  8
3
  40
120
  5
8271
  62
0
  72
0
  71
0
 10
1897.70
 20
2523.82
 30
0.000000
  1
1900
  0
POINT
  5
81BC
  8
DEFPOINTS
 62
     0
 10
3087.7002116079379
 20
2830.3977877817269
 30
0.0
  0
POINT
  5
81BD
  8
DEFPOINTS
 62
     0
 10
1187.7002116079379
 20
2982.9820417084702
 30
0.0
  0
POINT
  5
81BE
  8
DEFPOINTS
 62
     0
 10
1187.7002116079379
 20
2636.2162560388729
 30
0.0
  0
ENDBLK
  5
7FE4
  8
0
  0
BLOCK
  8
0
  2
*D5
 70
     1
 10
0.0
 20
0.0
 30
0.0
  3
*D5
  1

  0
LINE
  5
81BF
  8
3
 62
     0
 10
6111.4657096838746
 20
2962.9820417084711
 30
0.0
 11
6111.4657096838746
 21
2626.974258422093
 31
0.0
  0
LINE
  5
81C0
  8
3
 62
     0
 10
6902.4657096838746
 20
2810.3977877817269
 30
0.0
 11
6902.4657096838746
 21
2626.974258422093
 31
0.0
  0
LINE
  5
81C1
  8
3
 62
     0
 10
6191.4657096838746
 20
2666.974258422093
 30
0.0
 11
6822.4657096838737
 21
2666.974258422093
 31
0.0
  0
INSERT
  5
81C2
  8
3
 62
     0
  2
_OPEN
 10
6111.4657096838746
 20
2666.974258422093
 30
0.0
 41
80.0
 42
80.0
 43
80.0
 50
180.0
  0
INSERT
  5
81C3
  8
3
 62
     0
  2
_OPEN
 10
6902.4657096838746
 20
2666.974258422093
 30
0.0
 41
80.0
 42
80.0
 43
80.0
  0
TEXT
  8
3
  40
120
  5
8272
  62
0
  72
0
  71
0
 10
6266.97
 20
2554.57
 30
0.000000
  1
791
  0
POINT
  5
81C5
  8
DEFPOINTS
 62
     0
 10
6111.4657096838746
 20
2982.9820417084711
 30
0.0
  0
POINT
  5
81C6
  8
DEFPOINTS
 62
     0
 10
6902.4657096838746
 20
2830.3977877817269
 30
0.0
  0
POINT
  5
81C7
  8
DEFPOINTS
 62
     0
 10
6902.4657096838746
 20
2666.974258422093
 30
0.0
  0
ENDBLK
  5
7FCE
  8
0
  0
BLOCK
  8
0
  2
*D6
 70
     1
 10
0.0
 20
0.0
 30
0.0
  3
*D6
  1

  0
LINE
  5
81C8
  8
3
 62
     0
 10
6902.4657096838746
 20
2810.3977877817269
 30
0.0
 11
6902.4657096838746
 21
2626.974258422093
 31
0.0
  0
LINE
  5
81C9
  8
3
 62
     0
 10
7511.4657096838737
 20
2962.9820417084711
 30
0.0
 11
7511.4657096838737
 21
2626.974258422093
 31
0.0
  0
LINE
  5
81CA
  8
3
 62
     0
 10
6982.4657096838746
 20
2666.974258422093
 30
0.0
 11
7431.4657096838737
 21
2666.974258422093
 31
0.0
  0
INSERT
  5
81CB
  8
3
 62
     0
  2
_OPEN
 10
6902.4657096838746
 20
2666.974258422093
 30
0.0
 41
80.0
 42
80.0
 43
80.0
 50
180.0
  0
INSERT
  5
81CC
  8
3
 62
     0
  2
_OPEN
 10
7511.4657096838737
 20
2666.974258422093
 30
0.0
 41
80.0
 42
80.0
 43
80.0
  0
TEXT
  8
3
  40
120
  5
8273
  62
0
  72
0
  71
0
 10
6933.89
 20
2554.57
 30
0.000000
  1
609
  0
POINT
  5
81CE
  8
DEFPOINTS
 62
     0
 10
6902.4657096838746
 20
2830.3977877817269
 30
0.0
  0
POINT
  5
81CF
  8
DEFPOINTS
 62
     0
 10
7511.4657096838737
 20
2982.9820417084711
 30
0.0
  0
POINT
  5
81D0
  8
DEFPOINTS
 62
     0
 10
7511.4657096838737
 20
2666.974258422093
 30
0.0
  0
ENDBLK
  5
8065
  8
0
  0
BLOCK
  8
0
  2
*D7
 70
     1
 10
0.0
 20
0.0
 30
0.0
  3
*D7
  1

  0
LINE
  5
81D1
  8
3
 62
     0
 10
3937.7002116079379
 20
8751.6866684445085
 30
0.0
 11
3937.7002116079379
 21
9141.7332238032832
 31
0.0
  0
LINE
  5
81D2
  8
3
 62
     0
 10
2237.7002116079379
 20
8751.6866684445085
 30
0.0
 11
2237.7002116079379
 21
9141.7332238032832
 31
0.0
  0
LINE
  5
81D3
  8
3
 62
     0
 10
3857.7002116079379
 20
9101.7332238032832
 30
0.0
 11
2317.7002116079379
 21
9101.7332238032832
 31
0.0
  0
INSERT
  5
81D4
  8
3
 62
     0
  2
_OPEN
 10
3937.7002116079379
 20
9101.7332238032832
 30
0.0
 41
80.0
 42
80.0
 43
80.0
  0
INSERT
  5
81D5
  8
3
 62
     0
  2
_OPEN
 10
2237.7002116079379
 20
9101.7332238032832
 30
0.0
 41
80.0
 42
80.0
 43
80.0
 50
180.0
  0
TEXT
  8
3
  40
120
  5
8274
  62
0
  72
0
  71
0
 10
2847.70
 20
8989.33
 30
0.000000
  1
1700
  0
POINT
  5
81D7
  8
DEFPOINTS
 62
     0
 10
3937.7002116079379
 20
8731.6866684445085
 30
0.0
  0
POINT
  5
81D8
  8
DEFPOINTS
 62
     0
 10
2237.7002116079379
 20
8731.6866684445085
 30
0.0
  0
POINT
  5
81D9
  8
DEFPOINTS
 62
     0
 10
2237.7002116079379
 20
9101.7332238032832
 30
0.0
  0
ENDBLK
  5
7FAD
  8
0
  0
BLOCK
  8
0
  2
*D8
 70
     1
 10
0.0
 20
0.0
 30
0.0
  3
*D8
  1

  0
LINE
  5
81DA
  8
3
 62
     0
 10
2237.7002116079379
 20
8751.6866684445085
 30
0.0
 11
2237.7002116079379
 21
9141.7332238032832
 31
0.0
  0
LINE
  5
81DB
  8
3
 62
     0
 10
1187.7002116079379
 20
8451.6866684445085
 30
0.0
 11
1187.7002116079379
 21
9141.7332238032832
 31
0.0
  0
LINE
  5
81DC
  8
3
 62
     0
 10
2157.7002116079379
 20
9101.7332238032832
 30
0.0
 11
1267.7002116079379
 21
9101.7332238032832
 31
0.0
  0
INSERT
  5
81DD
  8
3
 62
     0
  2
_OPEN
 10
2237.7002116079379
 20
9101.7332238032832
 30
0.0
 41
80.0
 42
80.0
 43
80.0
  0
INSERT
  5
81DE
  8
3
 62
     0
  2
_OPEN
 10
1187.7002116079379
 20
9101.7332238032832
 30
0.0
 41
80.0
 42
80.0
 43
80.0
 50
180.0
  0
TEXT
  8
3
  40
120
  5
8275
  62
0
  72
0
  71
0
 10
1472.70
 20
8989.33
 30
0.000000
  1
1050
  0
POINT
  5
81E0
  8
DEFPOINTS
 62
     0
 10
2237.7002116079379
 20
8731.6866684445085
 30
0.0
  0
POINT
  5
81E1
  8
DEFPOINTS
 62
     0
 10
1187.7002116079379
 20
8431.6866684445085
 30
0.0
  0
POINT
  5
81E2
  8
DEFPOINTS
 62
     0
 10
1187.7002116079379
 20
9101.7332238032832
 30
0.0
  0
ENDBLK
  5
7FA2
  8
0
  0
BLOCK
  8
0
  2
*D9
 70
     1
 10
0.0
 20
0.0
 30
0.0
  3
*D9
  1

  0
LINE
  5
81E3
  8
3
 62
     0
 10
1167.7002116079379
 20
8431.6866684445085
 30
0.0
 11
839.52337191689378
 21
8431.6866684445085
 31
0.0
  0
LINE
  5
81E4
  8
3
 62
     0
 10
1167.7002116079379
 20
7331.6866684445095
 30
0.0
 11
839.52337191689367
 21
7331.6866684445095
 31
0.0
  0
LINE
  5
81E5
  8
3
 62
     0
 10
879.52337191689389
 20
8351.6866684445085
 30
0.0
 11
879.52337191689367
 21
7411.6866684445095
 31
0.0
  0
INSERT
  5
81E6
  8
3
 62
     0
  2
_OPEN
 10
879.52337191689389
 20
8431.6866684445085
 30
0.0
 41
80.0
 42
80.0
 43
80.0
 50
90.0
  0
INSERT
  5
81E7
  8
3
 62
     0
  2
_OPEN
 10
879.52337191689367
 20
7331.6866684445095
 30
0.0
 41
80.0
 42
80.0
 43
80.0
 50
270.0
  0
TEXT
  8
3
  40
120
  5
8276
  62
0
  72
0
  71
0
 10
539.523
 20
7669.29
 30
0.000000
  1
1100
  0
POINT
  5
81E9
  8
DEFPOINTS
 62
     0
 10
1187.7002116079379
 20
8431.6866684445085
 30
0.0
  0
POINT
  5
81EA
  8
DEFPOINTS
 62
     0
 10
1187.7002116079379
 20
7331.6866684445095
 30
0.0
  0
POINT
  5
81EB
  8
DEFPOINTS
 62
     0
 10
879.52337191689367
 20
7331.6866684445095
 30
0.0
  0
ENDBLK
  5
7F97
  8
0
  0
BLOCK
  8
0
  2
*D10
 70
     1
 10
0.0
 20
0.0
 30
0.0
  3
*D10
  1

  0
LINE
  5
81EC
  8
3
 62
     0
 10
3957.7002116079379
 20
8731.6866684445085
 30
0.0
 11
4403.9621718638409
 21
8731.6866684445085
 31
0.0
  0
LINE
  5
81ED
  8
3
 62
     0
 10
3957.7002116079379
 20
7331.6866684445095
 30
0.0
 11
4403.9621718638409
 21
7331.6866684445095
 31
0.0
  0
LINE
  5
81EE
  8
3
 62
     0
 10
4363.9621718638409
 20
8651.6866684445067
 30
0.0
 11
4363.9621718638409
 21
7411.6866684445095
 31
0.0
  0
INSERT
  5
81EF
  8
3
 62
     0
  2
_OPEN
 10
4363.9621718638409
 20
8731.6866684445085
 30
0.0
 41
80.0
 42
80.0
 43
80.0
 50
90.0
  0
INSERT
  5
81F0
  8
3
 62
     0
  2
_OPEN
 10
4363.9621718638409
 20
7331.6866684445095
 30
0.0
 41
80.0
 42
80.0
 43
80.0
 50
270.0
  0
TEXT
  8
3
  40
120
  5
8277
  62
0
  72
0
  71
0
 10
4023.96
 20
7819.29
 30
0.000000
  1
1400
  0
POINT
  5
81F2
  8
DEFPOINTS
 62
     0
 10
3937.7002116079379
 20
8731.6866684445085
 30
0.0
  0
POINT
  5
81F3
  8
DEFPOINTS
 62
     0
 10
3937.7002116079379
 20
7331.6866684445095
 30
0.0
  0
POINT
  5
81F4
  8
DEFPOINTS
 62
     0
 10
4363.9621718638409
 20
7331.6866684445095
 30
0.0
  0
ENDBLK
  5
7F8C
  8
0
  0
BLOCK
  8
0
  2
*D11
 70
     1
 10
0.0
 20
0.0
 30
0.0
  3
*D11
  1

  0
LINE
  5
81F5
  8
3
 62
     0
 10
3937.7002116079379
 20
7311.6866684445076
 30
0.0
 11
3937.7002116079379
 21
6742.108161916789
 31
0.0
  0
LINE
  5
81F6
  8
3
 62
     0
 10
1187.7002116079379
 20
7311.6866684445076
 30
0.0
 11
1187.7002116079379
 21
6742.108161916789
 31
0.0
  0
LINE
  5
81F7
  8
3
 62
     0
 10
3857.7002116079379
 20
6782.108161916788
 30
0.0
 11
1267.7002116079379
 21
6782.108161916788
 31
0.0
  0
INSERT
  5
81F8
  8
3
 62
     0
  2
_OPEN
 10
3937.7002116079379
 20
6782.108161916788
 30
0.0
 41
80.0
 42
80.0
 43
80.0
  0
INSERT
  5
81F9
  8
3
 62
     0
  2
_OPEN
 10
1187.7002116079379
 20
6782.108161916788
 30
0.0
 41
80.0
 42
80.0
 43
80.0
 50
180.0
  0
TEXT
  8
3
  40
120
  5
8278
  62
0
  72
0
  71
0
 10
2322.70
 20
6669.71
 30
0.000000
  1
2750
  0
POINT
  5
81FB
  8
DEFPOINTS
 62
     0
 10
3937.7002116079379
 20
7331.6866684445095
 30
0.0
  0
POINT
  5
81FC
  8
DEFPOINTS
 62
     0
 10
1187.7002116079379
 20
7331.6866684445095
 30
0.0
  0
POINT
  5
81FD
  8
DEFPOINTS
 62
     0
 10
1187.7002116079379
 20
6782.108161916788
 30
0.0
  0
ENDBLK
  5
7F81
  8
0
  0
BLOCK
  8
0
  2
*D12
 70
     1
 10
0.0
 20
0.0
 30
0.0
  3
*D12
  1

  0
LINE
  5
81FE
  8
3
 62
     0
 10
7536.4657096838737
 20
5437.9820417084702
 30
0.0
 11
7536.4657096838737
 21
6296.7388870799396
 31
0.0
  0
LINE
  5
81FF
  8
3
 62
     0
 10
6902.4657096838746
 20
6161.4962507569498
 30
0.0
 11
6902.4657096838746
 21
6296.7388870799396
 31
0.0
  0
LINE
  5
8200
  8
3
 62
     0
 10
7456.4657096838737
 20
6256.7388870799396
 30
0.0
 11
6982.4657096838746
 21
6256.7388870799396
 31
0.0
  0
INSERT
  5
8201
  8
3
 62
     0
  2
_OPEN
 10
7536.4657096838737
 20
6256.7388870799396
 30
0.0
 41
80.0
 42
80.0
 43
80.0
  0
INSERT
  5
8202
  8
3
 62
     0
  2
_OPEN
 10
6902.4657096838746
 20
6256.7388870799396
 30
0.0
 41
80.0
 42
80.0
 43
80.0
 50
180.0
  0
TEXT
  8
3
  40
120
  5
8279
  62
0
  72
0
  71
0
 10
7019.32
 20
6144.34
 30
0.000000
  1
634
  0
POINT
  5
8204
  8
DEFPOINTS
 62
     0
 10
7536.4657096838737
 20
5417.9820417084702
 30
0.0
  0
POINT
  5
8205
  8
DEFPOINTS
 62
     0
 10
6902.4657096838746
 20
6141.4962507569498
 30
0.0
  0
POINT
  5
8206
  8
DEFPOINTS
 62
     0
 10
6902.4657096838746
 20
6256.7388870799396
 30
0.0
  0
ENDBLK
  5
805A
  8
0
  0
BLOCK
  8
0
  2
*D13
 70
     1
 10
0.0
 20
0.0
 30
0.0
  3
*D13
  1

  0
LINE
  5
8207
  8
3
 62
     0
 10
6902.4657096838746
 20
6161.4962507569498
 30
0.0
 11
6902.4657096838746
 21
6296.7388870799396
 31
0.0
  0
LINE
  5
8208
  8
3
 62
     0
 10
5952.765709683873
 20
5237.9820417084702
 30
0.0
 11
5952.765709683873
 21
6296.7388870799396
 31
0.0
  0
LINE
  5
8209
  8
3
 62
     0
 10
6822.4657096838737
 20
6256.7388870799396
 30
0.0
 11
6032.7657096838739
 21
6256.7388870799396
 31
0.0
  0
INSERT
  5
820A
  8
3
 62
     0
  2
_OPEN
 10
6902.4657096838746
 20
6256.7388870799396
 30
0.0
 41
80.0
 42
80.0
 43
80.0
  0
INSERT
  5
820B
  8
3
 62
     0
  2
_OPEN
 10
5952.765709683873
 20
6256.7388870799396
 30
0.0
 41
80.0
 42
80.0
 43
80.0
 50
180.0
  0
TEXT
  8
3
  40
120
  5
827A
  62
0
  72
0
  71
0
 10
6187.62
 20
6244.34
 30
0.000000
  1
MAX
  0
TEXT
  8
3
  40
120
  5
827B
  62
0
  72
0
  71
0
 10
6187.62
 20
6088.34
 30
0.000000
  1
1030
  0
POINT
  5
820D
  8
DEFPOINTS
 62
     0
 10
6902.4657096838746
 20
6141.4962507569498
 30
0.0
  0
POINT
  5
820E
  8
DEFPOINTS
 62
     0
 10
5952.765709683873
 20
5217.9820417084702
 30
0.0
  0
POINT
  5
820F
  8
DEFPOINTS
 62
     0
 10
5952.765709683873
 20
6256.7388870799396
 30
0.0
  0
ENDBLK
  5
8081
  8
0
  0
BLOCK
  8
0
  2
*D14
 70
     1
 10
0.0
 20
0.0
 30
0.0
  3
*D14
  1

  0
LINE
  5
8210
  8
3
 62
     0
 10
4017.7002116079379
 20
4646.9820417084702
 30
0.0
 11
4017.7002116079379
 21
6347.1710280909101
 31
0.0
  0
LINE
  5
8211
  8
3
 62
     0
 10
1187.7002116079379
 20
3247.9820417084702
 30
0.0
 11
1187.7002116079379
 21
6347.1710280909101
 31
0.0
  0
LINE
  5
8212
  8
3
 62
     0
 10
3937.7002116079379
 20
6307.1710280909101
 30
0.0
 11
1267.7002116079379
 21
6307.1710280909101
 31
0.0
  0
INSERT
  5
8213
  8
3
 62
     0
  2
_OPEN
 10
4017.7002116079379
 20
6307.1710280909101
 30
0.0
 41
80.0
 42
80.0
 43
80.0
  0
INSERT
  5
8214
  8
3
 62
     0
  2
_OPEN
 10
1187.7002116079379
 20
6307.1710280909101
 30
0.0
 41
80.0
 42
80.0
 43
80.0
 50
180.0
  0
TEXT
  8
3
  40
120
  5
827C
  62
0
  72
0
  71
0
 10
2362.70
 20
6194.77
 30
0.000000
  1
2830
  0
POINT
  5
8216
  8
DEFPOINTS
 62
     0
 10
4017.7002116079379
 20
4626.9820417084702
 30
0.0
  0
POINT
  5
8217
  8
DEFPOINTS
 62
     0
 10
1187.7002116079379
 20
3227.9820417084702
 30
0.0
  0
POINT
  5
8218
  8
DEFPOINTS
 62
     0
 10
1187.7002116079379
 20
6307.1710280909101
 30
0.0
  0
ENDBLK
  5
7F60
  8
0
  0
BLOCK
  8
0
  2
*D15
 70
     1
 10
0.0
 20
0.0
 30
0.0
  3
*D15
  1

  0
LINE
  5
8219
  8
3
 62
     0
 10
4189.4567384896027
 20
4667.9820417084702
 30
0.0
 11
4591.392842882291
 21
4667.9820417084702
 31
0.0
  0
LINE
  5
821A
  8
3
 62
     0
 10
4037.7002116079379
 20
3176.9820417084702
 30
0.0
 11
4591.392842882291
 21
3176.9820417084702
 31
0.0
  0
LINE
  5
821B
  8
3
 62
     0
 10
4551.3928428822901
 20
4587.9820417084702
 30
0.0
 11
4551.3928428822901
 21
3256.9820417084702
 31
0.0
  0
INSERT
  5
821C
  8
3
 62
     0
  2
_OPEN
 10
4551.3928428822901
 20
4667.9820417084702
 30
0.0
 41
80.0
 42
80.0
 43
80.0
 50
90.0
  0
INSERT
  5
821D
  8
3
 62
     0
  2
_OPEN
 10
4551.3928428822901
 20
3176.9820417084702
 30
0.0
 41
80.0
 42
80.0
 43
80.0
 50
270.0
  0
TEXT
  8
3
  40
120
  5
827D
  62
0
  72
0
  71
0
 10
4211.39
 20
3710.08
 30
0.000000
  1
1491
  0
POINT
  5
821F
  8
DEFPOINTS
 62
     0
 10
4169.4567384896027
 20
4667.9820417084702
 30
0.0
  0
POINT
  5
8220
  8
DEFPOINTS
 62
     0
 10
4017.7002116079379
 20
3176.9820417084702
 30
0.0
  0
POINT
  5
8221
  8
DEFPOINTS
 62
     0
 10
4551.3928428822901
 20
3176.9820417084702
 30
0.0
  0
ENDBLK
  5
7F55
  8
0
  0
BLOCK
  8
0
  2
*D16
 70
     1
 10
0.0
 20
0.0
 30
0.0
  3
*D16
  1

  0
LINE
  5
8222
  8
3
 62
     0
 10
3005.7002116079379
 20
5670.9820417084693
 30
0.0
 11
4863.8870240315546
 21
5670.9820417084693
 31
0.0
  0
LINE
  5
8223
  8
3
 62
     0
 10
4189.4567384896027
 20
4667.9820417084702
 30
0.0
 11
4863.8870240315546
 21
4667.9820417084702
 31
0.0
  0
LINE
  5
8224
  8
3
 62
     0
 10
4823.8870240315564
 20
5590.9820417084702
 30
0.0
 11
4823.8870240315564
 21
4747.9820417084702
 31
0.0
  0
INSERT
  5
8225
  8
3
 62
     0
  2
_OPEN
 10
4823.8870240315564
 20
5670.9820417084693
 30
0.0
 41
80.0
 42
80.0
 43
80.0
 50
90.0
  0
INSERT
  5
8226
  8
3
 62
     0
  2
_OPEN
 10
4823.8870240315564
 20
4667.9820417084702
 30
0.0
 41
80.0
 42
80.0
 43
80.0
 50
270.0
  0
TEXT
  8
3
  40
120
  5
827E
  62
0
  72
0
  71
0
 10
4483.89
 20
4957.08
 30
0.000000
  1
1003
  0
POINT
  5
8228
  8
DEFPOINTS
 62
     0
 10
2985.7002116079379
 20
5670.9820417084693
 30
0.0
  0
POINT
  5
8229
  8
DEFPOINTS
 62
     0
 10
4169.4567384896027
 20
4667.9820417084702
 30
0.0
  0
POINT
  5
822A
  8
DEFPOINTS
 62
     0
 10
4823.8870240315564
 20
4667.9820417084702
 30
0.0
  0
ENDBLK
  5
7F4A
  8
0
  0
BLOCK
  8
0
  2
*D17
 70
     1
 10
0.0
 20
0.0
 30
0.0
  3
*D17
  1

  0
LINE
  5
822B
  8
3
 62
     0
 10
4189.4567384896027
 20
4667.9820417084702
 30
0.0
 11
4863.8870240315546
 21
4667.9820417084702
 31
0.0
  0
LINE
  5
822C
  8
3
 62
     0
 10
3957.7002116079379
 20
3077.9820417084702
 30
0.0
 11
4863.8870240315546
 21
3077.9820417084702
 31
0.0
  0
LINE
  5
822D
  8
3
 62
     0
 10
4823.8870240315564
 20
4587.9820417084702
 30
0.0
 11
4823.8870240315564
 21
3157.9820417084702
 31
0.0
  0
INSERT
  5
822E
  8
3
 62
     0
  2
_OPEN
 10
4823.8870240315564
 20
4667.9820417084702
 30
0.0
 41
80.0
 42
80.0
 43
80.0
 50
90.0
  0
INSERT
  5
822F
  8
3
 62
     0
  2
_OPEN
 10
4823.8870240315564
 20
3077.9820417084702
 30
0.0
 41
80.0
 42
80.0
 43
80.0
 50
270.0
  0
TEXT
  8
3
  40
120
  5
827F
  62
0
  72
0
  71
0
 10
4483.89
 20
3660.58
 30
0.000000
  1
1590
  0
POINT
  5
8231
  8
DEFPOINTS
 62
     0
 10
4169.4567384896027
 20
4667.9820417084702
 30
0.0
  0
POINT
  5
8232
  8
DEFPOINTS
 62
     0
 10
3937.7002116079379
 20
3077.9820417084702
 30
0.0
  0
POINT
  5
8233
  8
DEFPOINTS
 62
     0
 10
4823.8870240315564
 20
3077.9820417084702
 30
0.0
  0
ENDBLK
  5
7F3F
  8
0
  0
BLOCK
  8
0
  2
*D18
 70
     1
 10
0.0
 20
0.0
 30
0.0
  3
*D18
  1

  0
LINE
  5
802B
  8
0
  6
BYBLOCK
 62
     0
 10
3957.7002116079379
 20
3077.9820417084702
 30
0.0
 11
4863.8870240315546
 21
3077.9820417084702
 31
0.0
  0
LINE
  5
802C
  8
0
  6
BYBLOCK
 62
     0
 10
3957.7002116079379
 20
3057.9820417084702
 30
0.0
 11
4863.8870240315546
 21
3057.9820417084702
 31
0.0
  0
LINE
  5
802D
  8
0
  6
BYBLOCK
 62
     0
 10
4823.8870240315564
 20
3157.9820417084702
 30
0.0
 11
4823.8870240315564
 21
3237.9820417084702
 31
0.0
  0
LINE
  5
802E
  8
0
  6
BYBLOCK
 62
     0
 10
4823.8870240315564
 20
2977.9820417084702
 30
0.0
 11
4823.8870240315564
 21
2897.9820417084702
 31
0.0
  0
TEXT
  5
802F
  8
4
 62
     0
 10
5065.6727383172692
 20
3026.975173407197
 30
0.0
 40
120.0
  1
(20)
 50
90.0
  0
LINE
  5
8030
  8
0
  6
BYBLOCK
 62
     0
 10
4823.8870240315564
 20
3077.9820417084702
 30
0.0
 11
4823.8870240315564
 21
3057.9820417084702
 31
0.0
  0
INSERT
  5
8031
  8
0
  6
BYBLOCK
 62
     0
  2
_OPEN
 10
4823.8870240315564
 20
3077.9820417084702
 30
0.0
 41
80.0
 42
80.0
 43
80.0
 50
270.0
  0
INSERT
  5
8032
  8
0
  6
BYBLOCK
 62
     0
  2
_DOT
 10
4823.8870240315564
 20
3057.9820417084702
 30
0.0
 41
80.0
 42
80.0
 43
80.0
 50
90.0
  0
POINT
  5
8033
  8
DEFPOINTS
  6
BYBLOCK
 62
     0
 10
3937.7002116079379
 20
3077.9820417084702
 30
0.0
  0
POINT
  5
8034
  8
DEFPOINTS
  6
BYBLOCK
 62
     0
 10
3937.7002116079379
 20
3057.9820417084702
 30
0.0
  0
POINT
  5
8035
  8
DEFPOINTS
  6
BYBLOCK
 62
     0
 10
4823.8870240315564
 20
3057.9820417084702
 30
0.0
  0
ENDBLK
  5
8036
  8
0
  0
BLOCK
  8
0
  2
*D19
 70
     1
 10
0.0
 20
0.0
 30
0.0
  3
*D19
  1

  0
LINE
  5
8234
  8
3
 62
     0
 10
3957.7002116079379
 20
3057.9820417084702
 30
0.0
 11
4863.8870240315546
 21
3057.9820417084702
 31
0.0
  0
LINE
  5
8235
  8
3
 62
     0
 10
3957.7002116079379
 20
2982.9820417084702
 30
0.0
 11
4863.8870240315546
 21
2982.9820417084702
 31
0.0
  0
LINE
  5
8236
  8
3
 62
     0
 10
4823.8870240315564
 20
3137.9820417084702
 30
0.0
 11
4823.8870240315564
 21
3217.9820417084702
 31
0.0
  0
LINE
  5
8237
  8
3
 62
     0
 10
4823.8870240315564
 20
2902.9820417084702
 30
0.0
 11
4823.8870240315564
 21
2548.696327422756
 31
0.0
  0
LINE
  5
8238
  8
3
 62
     0
 10
4823.8870240315564
 20
3057.9820417084702
 30
0.0
 11
4823.8870240315564
 21
2982.9820417084702
 31
0.0
  0
INSERT
  5
8239
  8
3
 62
     0
  2
_DOT
 10
4823.8870240315564
 20
3057.9820417084702
 30
0.0
 41
80.0
 42
80.0
 43
80.0
 50
270.0
  0
INSERT
  5
823A
  8
3
 62
     0
  2
_OPEN
 10
4823.8870240315564
 20
2982.9820417084702
 30
0.0
 41
80.0
 42
80.0
 43
80.0
 50
90.0
  0
TEXT
  8
3
  40
120
  5
8280
  62
0
  72
0
  71
0
 10
4483.89
 20
2473.44
 30
0.000000
  1
75
  0
POINT
  5
823C
  8
DEFPOINTS
 62
     0
 10
3937.7002116079379
 20
3057.9820417084702
 30
0.0
  0
POINT
  5
823D
  8
DEFPOINTS
 62
     0
 10
3937.7002116079379
 20
2982.9820417084702
 30
0.0
  0
POINT
  5
823E
  8
DEFPOINTS
 62
     0
 10
4823.8870240315564
 20
2982.9820417084702
 30
0.0
  0
ENDBLK
  5
8043
  8
0
  0
BLOCK
  8
0
  2
*D20
 70
     1
 10
0.0
 20
0.0
 30
0.0
  3
*D20
  1

  0
LINE
  5
823F
  8
3
 62
     0
 10
3005.7002116079379
 20
5670.9820417084693
 30
0.0
 11
5210.6256058680083
 21
5670.9820417084693
 31
0.0
  0
LINE
  5
8240
  8
3
 62
     0
 10
3957.7002116079379
 20
2982.9820417084702
 30
0.0
 11
5210.6256058680083
 21
2982.9820417084688
 31
0.0
  0
LINE
  5
8241
  8
3
 62
     0
 10
5170.6256058680083
 20
5590.9820417084702
 30
0.0
 11
5170.6256058680083
 21
3062.9820417084688
 31
0.0
  0
INSERT
  5
8242
  8
3
 62
     0
  2
_OPEN
 10
5170.6256058680083
 20
5670.9820417084693
 30
0.0
 41
80.0
 42
80.0
 43
80.0
 50
90.0
  0
INSERT
  5
8243
  8
3
 62
     0
  2
_OPEN
 10
5170.6256058680083
 20
2982.9820417084688
 30
0.0
 41
80.0
 42
80.0
 43
80.0
 50
270.0
  0
TEXT
  8
3
  40
120
  5
8281
  62
0
  72
0
  71
0
 10
4830.63
 20
4114.58
 30
0.000000
  1
2688
  0
POINT
  5
8245
  8
DEFPOINTS
 62
     0
 10
2985.7002116079379
 20
5670.9820417084693
 30
0.0
  0
POINT
  5
8246
  8
DEFPOINTS
 62
     0
 10
3937.7002116079379
 20
2982.9820417084702
 30
0.0
  0
POINT
  5
8247
  8
DEFPOINTS
 62
     0
 10
5170.6256058680083
 20
2982.9820417084688
 30
0.0
  0
ENDBLK
  5
7F1A
  8
0
  0
BLOCK
  8
0
  2
*D21
 70
     1
 10
0.0
 20
0.0
 30
0.0
  3
*D21
  1

  0
LINE
  5
8248
  8
3
 62
     0
 10
4017.7002116079379
 20
4696.9820417084702
 30
0.0
 11
4017.7002116079379
 21
6049.1052144799833
 31
0.0
  0
LINE
  5
8249
  8
3
 62
     0
 10
3087.7002116079379
 20
5874.4482673031198
 30
0.0
 11
3087.7002116079379
 21
6049.1052144799833
 31
0.0
  0
LINE
  5
824A
  8
3
 62
     0
 10
3937.7002116079379
 20
6009.1052144799833
 30
0.0
 11
3167.7002116079379
 21
6009.1052144799833
 31
0.0
  0
INSERT
  5
824B
  8
3
 62
     0
  2
_OPEN
 10
4017.7002116079379
 20
6009.1052144799833
 30
0.0
 41
80.0
 42
80.0
 43
80.0
  0
INSERT
  5
824C
  8
3
 62
     0
  2
_OPEN
 10
3087.7002116079379
 20
6009.1052144799833
 30
0.0
 41
80.0
 42
80.0
 43
80.0
 50
180.0
  0
TEXT
  8
3
  40
120
  5
8282
  62
0
  72
0
  71
0
 10
3312.70
 20
5896.71
 30
0.000000
  1
930
  0
POINT
  5
824E
  8
DEFPOINTS
 62
     0
 10
4017.7002116079379
 20
4676.9820417084702
 30
0.0
  0
POINT
  5
824F
  8
DEFPOINTS
 62
     0
 10
3087.7002116079379
 20
5854.4482673031189
 30
0.0
  0
POINT
  5
8250
  8
DEFPOINTS
 62
     0
 10
3087.7002116079379
 20
6009.1052144799833
 30
0.0
  0
ENDBLK
  5
7F0F
  8
0
  0
BLOCK
  8
0
  2
*D22
 70
     1
 10
0.0
 20
0.0
 30
0.0
  3
*D22
  1

  0
LINE
  5
8251
  8
3
 62
     0
 10
3087.7002116079379
 20
5874.4482673031198
 30
0.0
 11
3087.7002116079379
 21
6049.1052144799833
 31
0.0
  0
LINE
  5
8252
  8
3
 62
     0
 10
1880.7002116079379
 20
4585.9820417084702
 30
0.0
 11
1880.7002116079379
 21
6049.1052144799833
 31
0.0
  0
LINE
  5
8253
  8
3
 62
     0
 10
3007.7002116079379
 20
6009.1052144799833
 30
0.0
 11
1960.7002116079379
 21
6009.1052144799833
 31
0.0
  0
INSERT
  5
8254
  8
3
 62
     0
  2
_OPEN
 10
3087.7002116079379
 20
6009.1052144799833
 30
0.0
 41
80.0
 42
80.0
 43
80.0
  0
INSERT
  5
8255
  8
3
 62
     0
  2
_OPEN
 10
1880.7002116079379
 20
6009.1052144799833
 30
0.0
 41
80.0
 42
80.0
 43
80.0
 50
180.0
  0
TEXT
  8
3
  40
120
  5
8283
  62
0
  72
0
  71
0
 10
2244.20
 20
5896.71
 30
0.000000
  1
1207
  0
POINT
  5
8257
  8
DEFPOINTS
 62
     0
 10
3087.7002116079379
 20
5854.4482673031189
 30
0.0
  0
POINT
  5
8258
  8
DEFPOINTS
 62
     0
 10
1880.7002116079379
 20
4565.9820417084702
 30
0.0
  0
POINT
  5
8259
  8
DEFPOINTS
 62
     0
 10
1880.7002116079379
 20
6009.1052144799833
 30
0.0
  0
ENDBLK
  5
7F04
  8
0
  0
BLOCK
  8
0
  2
*D23
 70
     1
 10
0.0
 20
0.0
 30
0.0
  3
*D23
  1

  0
LINE
  5
825A
  8
3
 62
     0
 10
7432.4657096838737
 20
5690.9820417084702
 30
0.0
 11
7432.4657096838737
 21
5970.6603626111637
 31
0.0
  0
LINE
  5
825B
  8
3
 62
     0
 10
6372.4657096838746
 20
5690.9820417084711
 30
0.0
 11
6372.4657096838746
 21
5970.6603626111637
 31
0.0
  0
LINE
  5
825C
  8
3
 62
     0
 10
7352.4657096838746
 20
5930.6603626111637
 30
0.0
 11
6452.4657096838746
 21
5930.6603626111637
 31
0.0
  0
INSERT
  5
825D
  8
3
 62
     0
  2
_OPEN
 10
7432.4657096838737
 20
5930.6603626111637
 30
0.0
 41
80.0
 42
80.0
 43
80.0
  0
INSERT
  5
825E
  8
3
 62
     0
  2
_OPEN
 10
6372.4657096838746
 20
5930.6603626111637
 30
0.0
 41
80.0
 42
80.0
 43
80.0
 50
180.0
  0
TEXT
  8
3
  40
120
  5
8284
  62
0
  72
0
  71
0
 10
6662.47
 20
5818.26
 30
0.000000
  1
1060
  0
POINT
  5
8260
  8
DEFPOINTS
 62
     0
 10
7432.4657096838737
 20
5670.9820417084693
 30
0.0
  0
POINT
  5
8261
  8
DEFPOINTS
 62
     0
 10
6372.4657096838746
 20
5670.9820417084711
 30
0.0
  0
POINT
  5
8262
  8
DEFPOINTS
 62
     0
 10
6372.4657096838746
 20
5930.6603626111637
 30
0.0
  0
ENDBLK
  5
7EF9
  8
0
  0
BLOCK
  8
0
  2
*D24
 70
     1
 10
0.0
 20
0.0
 30
0.0
  3
*D24
  1

  0
LINE
  5
8263
  8
3
 62
     0
 10
7556.4657096838737
 20
5367.9820417084702
 30
0.0
 11
7968.9324831012991
 21
5367.9820417084702
 31
0.0
  0
LINE
  5
8264
  8
3
 62
     0
 10
7556.4657096838737
 20
3967.9820417084702
 30
0.0
 11
7968.9324831012991
 21
3967.9820417084702
 31
0.0
  0
LINE
  5
8265
  8
3
 62
     0
 10
7928.9324831013
 20
5287.9820417084702
 30
0.0
 11
7928.9324831013
 21
4047.9820417084711
 31
0.0
  0
INSERT
  5
8266
  8
3
 62
     0
  2
_OPEN
 10
7928.9324831013
 20
5367.9820417084702
 30
0.0
 41
80.0
 42
80.0
 43
80.0
 50
90.0
  0
INSERT
  5
8267
  8
3
 62
     0
  2
_OPEN
 10
7928.9324831013
 20
3967.9820417084702
 30
0.0
 41
80.0
 42
80.0
 43
80.0
 50
270.0
  0
TEXT
  8
3
  40
120
  5
8285
  62
0
  72
0
  71
0
 10
7588.93
 20
4455.58
 30
0.000000
  1
φ1400
  0
POINT
  5
8269
  8
DEFPOINTS
 62
     0
 10
7536.4657096838737
 20
5367.9820417084702
 30
0.0
  0
POINT
  5
826A
  8
DEFPOINTS
 62
     0
 10
7536.4657096838737
 20
3967.9820417084702
 30
0.0
  0
POINT
  5
826B
  8
DEFPOINTS
 62
     0
 10
7928.9324831013
 20
3967.9820417084702
 30
0.0
  0
ENDBLK
  5
8070
  8
0
  0
BLOCK
  8
0
  2
_DOT
 70
     0
 10
0.0
 20
0.0
 30
0.0
  3
_DOT
  1

  0
POLYLINE
  5
8047
  8
0
  6
BYBLOCK
 62
     0
 66
     1
 10
0.0
 20
0.0
 30
0.0
 70
     1
 40
0.25
 41
0.25
  0
VERTEX
  5
826C
  8
0
  6
BYBLOCK
 62
     0
 10
-0.125
 20
0.0
 30
0.0
 42
1.0
  0
VERTEX
  5
826D
  8
0
  6
BYBLOCK
 62
     0
 10
0.125
 20
0.0
 30
0.0
 42
1.0
  0
SEQEND
  5
826E
  8
0
  6
BYBLOCK
 62
     0
  0
LINE
  5
804B
  8
0
  6
BYBLOCK
 62
     0
 10
-0.25
 20
0.0
 30
0.0
 11
-1.0
 21
0.0
 31
0.0
  0
ENDBLK
  5
8029
  8
0
  0
ENDSEC
  0
SECTION
  2
ENTITIES
  0
INSERT
  5
7BE9
  8
0
  2
YA_N
 10
6.0
 20
5.0
 30
0.0
  0
INSERT
  5
7BEB
  8
0
  2
YA_N
 10
6.0
 20
5.0
 30
0.0
  0
LINE
  5
7BED
  8
2
 10
3087.7002116079379
 20
5854.4482673031189
 30
0.0
 11
3087.7002116079379
 21
2830.3977877817269
 31
0.0
  0
LINE
  5
7BEE
  8
1
 10
4017.7002116079379
 20
4680.9820417084702
 30
0.0
 11
4017.7002116079379
 21
3122.9820417084702
 31
0.0
  0
LINE
  5
7BEF
  8
1
 10
4017.7002116079379
 20
4626.9820417084702
 30
0.0
 11
3908.6039563313152
 21
4626.9820417084702
 31
0.0
  0
ARC
  5
7BF0
  8
1
 10
3189.7002116079379
 20
4565.9820417084702
 30
0.0
 40
1309.0
 50
180.0
 51
265.53086334447892
  0
ARC
  5
7BF1
  8
1
 10
2985.7002116079379
 20
4565.9820417084702
 30
0.0
 40
1105.0
 50
84.703619088147676
 51
180.0
  0
ARC
  5
7BF2
  8
1
 10
3002.2002116079379
 20
4753.4820417084702
 30
0.0
 40
917.5
 50
0.0
 51
84.652962196513741
  0
ARC
  5
7BF3
  8
1
 10
-17243.90726334403
 20
5302.8908597916143
 30
0.0
 40
21163.30748320909
 50
358.16978941759498
 51
358.77496955873858
  0
LINE
  5
7BF4
  8
1
 10
4017.7002116079379
 20
3176.9820417084702
 30
0.0
 11
3087.7002116079379
 21
3260.8681884107582
 31
0.0
  0
LINE
  5
7BF5
  8
1
 10
3937.7002116079379
 20
3077.9820417084702
 30
0.0
 11
1187.7002116079379
 21
3077.9820417084702
 31
0.0
  0
LINE
  5
7BF6
  8
1
 10
3937.7002116079379
 20
3227.9820417084702
 30
0.0
 11
1187.7002116079379
 21
3227.9820417084702
 31
0.0
  0
LINE
  5
7BF7
  8
1
 10
3937.7002116079379
 20
3227.9820417084702
 30
0.0
 11
3937.7002116079379
 21
3077.9820417084702
 31
0.0
  0
LINE
  5
7BF8
  8
1
 10
1187.7002116079379
 20
3227.9820417084702
 30
0.0
 11
1187.7002116079379
 21
3077.9820417084702
 31
0.0
  0
LINE
  5
7BF9
  8
1
 10
3967.7002116079379
 20
4626.9820417084702
 30
0.0
 11
3967.7002116079379
 21
3181.492049595689
 31
0.0
  0
LINE
  5
7BFA
  8
2
 10
5871.5555862472474
 20
4667.9820417084702
 30
0.0
 11
7656.6985857319696
 21
4667.9820417084702
 31
0.0
  0
LINE
  5
7BFB
  8
2
 10
6902.4657096838746
 20
5898.7780794344208
 30
0.0
 11
6902.4657096838746
 21
2830.3977877817269
 31
0.0
  0
LINE
  5
7BFC
  8
1
 10
6111.4657096838746
 20
3227.9820417084702
 30
0.0
 11
7511.4657096838737
 21
3227.9820417084702
 31
0.0
  0
LINE
  5
7BFD
  8
1
 10
6111.4657096838746
 20
3077.9820417084702
 30
0.0
 11
7511.4657096838737
 21
3077.9820417084711
 31
0.0
  0
LINE
  5
7BFE
  8
1
 10
3937.7002116079379
 20
7331.6866684445095
 30
0.0
 11
1187.7002116079379
 21
7331.6866684445095
 31
0.0
  0
LINE
  5
7BFF
  8
1
 10
3937.7002116079379
 20
8731.6866684445085
 30
0.0
 11
2237.7002116079379
 21
8731.6866684445085
 31
0.0
  0
LINE
  5
7C00
  8
1
 10
3937.7002116079379
 20
8731.6866684445085
 30
0.0
 11
3937.7002116079379
 21
8652.6866684445067
 31
0.0
  0
LINE
  5
7C01
  8
1
 10
2237.7002116079379
 20
8731.6866684445085
 30
0.0
 11
2237.7002116079379
 21
8652.6866684445067
 31
0.0
  0
LINE
  5
7C02
  8
1
 10
1880.7002116079379
 20
8431.6866684445067
 30
0.0
 11
1187.7002116079379
 21
8431.6866684445085
 31
0.0
  0
LINE
  5
7C03
  8
1
 10
1187.7002116079379
 20
8431.6866684445085
 30
0.0
 11
1187.7002116079379
 21
7331.6866684445095
 31
0.0
  0
LINE
  5
7C04
  8
1
 10
7432.4657096838737
 20
5670.9820417084693
 30
0.0
 11
7432.4657096838737
 21
4676.9820417084711
 31
0.0
  0
LINE
  5
7C05
  8
1
 10
6372.4657096838746
 20
5670.9820417084711
 30
0.0
 11
6372.4657096838746
 21
4667.9820417084702
 31
0.0
  0
LINE
  5
7C06
  8
2
 10
4169.4567384896027
 20
4667.9820417084702
 30
0.0
 11
1411.0230310138679
 21
4667.9820417084702
 31
0.0
  0
LINE
  5
7C07
  8
2
 10
1487.7002116079379
 20
3900.9783603310311
 30
0.0
 11
1487.7002116079379
 21
3147.6307150561861
 31
0.0
  0
LINE
  5
7C08
  8
2
 10
1714.6629306482459
 20
3462.9820417084702
 30
0.0
 11
1187.7002116079379
 21
3462.9820417084702
 31
0.0
  0
LINE
  5
7C09
  8
2
 10
6455.4676594255261
 20
3462.9820417084711
 30
0.0
 11
5935.4406284542019
 21
3462.9820417084711
 31
0.0
  0
CIRCLE
  5
7C0A
  8
1
 10
3087.7002116079379
 20
4667.9820417084702
 30
0.0
 40
700.0
  0
CIRCLE
  5
7C0B
  8
1
 10
3087.7002116079379
 20
4667.9820417084702
 30
0.0
 40
750.0
  0
LINE
  5
7C0C
  8
1
 10
7435.6657096838762
 20
5367.9820417084702
 30
0.0
 11
7536.4657096838737
 21
5367.9820417084702
 31
0.0
  0
LINE
  5
7C0D
  8
1
 10
7435.6657096838762
 20
3967.9820417084702
 30
0.0
 11
7536.4657096838737
 21
3967.9820417084702
 31
0.0
  0
LINE
  5
7C0E
  8
1
 10
7536.4657096838737
 20
5417.9820417084702
 30
0.0
 11
7536.4657096838737
 21
3917.9820417084702
 31
0.0
  0
LINE
  5
7C0F
  8
1
 10
1325.7002116079379
 20
3352.984546479212
 30
0.0
 11
1335.3292654976899
 21
3362.5363111796541
 31
0.0
  0
LINE
  5
7C10
  8
1
 10
1649.7002116079379
 20
3352.984546479212
 30
0.0
 11
1640.071157718186
 21
3362.5363111796541
 31
0.0
  0
LINE
  5
7C11
  8
1
 10
1325.7002116079379
 20
3282.9820417084702
 30
0.0
 11
1325.7002116079379
 21
3352.984546479212
 31
0.0
  0
LINE
  5
7C12
  8
1
 10
1236.8745195258391
 20
3282.9820417084702
 30
0.0
 11
1404.3618920296899
 21
3282.9820417084702
 31
0.0
  0
ARC
  5
7C13
  8
1
 10
1487.7002116079379
 20
3462.9820417084702
 30
0.0
 40
182.5
 50
285.78279193357162
 51
254.2172080664283
  0
LINE
  5
7C14
  8
1
 10
1537.3386137653031
 20
3287.3623416994328
 30
0.0
 11
1438.061809450573
 21
3287.3623416994328
 31
0.0
  0
LINE
  5
7C15
  8
1
 10
1649.7002116079379
 20
3282.9820417084702
 30
0.0
 11
1649.7002116079379
 21
3352.9845464792138
 31
0.0
  0
LINE
  5
7C16
  8
1
 10
1649.7002116079379
 20
3282.9820417084702
 30
0.0
 11
1589.7002116079379
 21
3282.9820417084702
 31
0.0
  0
CIRCLE
  5
7C17
  8
1
 10
1487.7002116079379
 20
3462.9820417084702
 30
0.0
 40
106.0
  0
LINE
  5
7C18
  8
1
 10
1227.7002116079359
 20
3227.9820417084702
 30
0.0
 11
1236.8745195258391
 21
3282.9820417084702
 31
0.0
  0
LINE
  5
7C19
  8
1
 10
1404.3618920296899
 20
3282.9820417084702
 30
0.0
 11
1404.3618920296899
 21
3273.5056971468689
 31
0.0
  0
LINE
  5
7C1A
  8
1
 10
1404.3618920296899
 20
3273.5056971468689
 30
0.0
 11
1487.7129924954641
 21
3273.5056971468689
 31
0.0
  0
LINE
  5
7C1B
  8
1
 10
1747.7002116079379
 20
3227.9820417084702
 30
0.0
 11
1738.525903690035
 21
3282.9820417084702
 31
0.0
  0
LINE
  5
7C1C
  8
1
 10
1738.525903690035
 20
3282.9820417084702
 30
0.0
 11
1571.038531186186
 21
3282.9820417084702
 31
0.0
  0
LINE
  5
7C1D
  8
1
 10
1571.038531186186
 20
3273.5056971468689
 30
0.0
 11
1487.6874307204121
 21
3273.5056971468689
 31
0.0
  0
LINE
  5
7C1E
  8
1
 10
1571.038531186186
 20
3282.9820417084702
 30
0.0
 11
1571.038531186186
 21
3273.5056971468689
 31
0.0
  0
LINE
  5
7C1F
  8
1
 10
6102.7657096838739
 20
4747.9820417084702
 30
0.0
 11
6102.7657096838739
 21
4587.9820417084702
 31
0.0
  0
LINE
  5
7C20
  8
1
 10
6002.7657096838739
 20
5067.9820417084711
 30
0.0
 11
6002.7657096838739
 21
3356.9820417084702
 31
0.0
  0
LINE
  5
7C21
  8
1
 10
6080.6657096838753
 20
5067.9820417084711
 30
0.0
 11
6080.6657096838744
 21
3356.9820417084702
 31
0.0
  0
LINE
  5
7C22
  8
1
 10
6080.6657096838753
 20
4747.9820417084702
 30
0.0
 11
6102.7657096838739
 21
4747.9820417084702
 31
0.0
  0
LINE
  5
7C23
  8
1
 10
6080.6657096838753
 20
4587.9820417084702
 30
0.0
 11
6102.7657096838739
 21
4587.9820417084702
 31
0.0
  0
LINE
  5
7C24
  8
1
 10
6002.7657096838739
 20
3568.9820417084711
 30
0.0
 11
6080.6657096838744
 21
3568.9820417084711
 31
0.0
  0
LINE
  5
7C25
  8
1
 10
6002.7657096838739
 20
3356.9820417084702
 30
0.0
 11
6080.6657096838744
 21
3356.9820417084702
 31
0.0
  0
LINE
  5
7C26
  8
1
 10
6095.7657096838739
 20
3522.9820417084711
 30
0.0
 11
6095.7657096838739
 21
3402.9820417084711
 31
0.0
  0
LINE
  5
7C27
  8
1
 10
6080.6657096838744
 20
3522.9820417084711
 30
0.0
 11
6095.7657096838739
 21
3522.9820417084711
 31
0.0
  0
LINE
  5
7C28
  8
1
 10
6080.6657096838744
 20
3402.9820417084711
 30
0.0
 11
6095.7657096838739
 21
3402.9820417084711
 31
0.0
  0
LINE
  5
7C29
  8
1
 10
5952.765709683873
 20
3242.9820417084702
 30
0.0
 11
6152.765709683873
 21
3242.9820417084702
 31
0.0
  0
LINE
  5
7C2A
  8
1
 10
5952.765709683873
 20
5217.9820417084702
 30
0.0
 11
5952.765709683873
 21
3242.9820417084702
 31
0.0
  0
LINE
  5
7C2B
  8
1
 10
6152.765709683873
 20
5217.9820417084702
 30
0.0
 11
6152.765709683873
 21
3242.9820417084702
 31
0.0
  0
LINE
  5
7C2C
  8
1
 10
6102.7657096838739
 20
4710.4820417084702
 30
0.0
 11
6372.4657096838746
 21
4710.4820417084702
 31
0.0
  0
LINE
  5
7C2D
  8
1
 10
6102.7657096838739
 20
4625.4820417084702
 30
0.0
 11
6372.4657096838746
 21
4625.4820417084711
 31
0.0
  0
LINE
  5
7C2E
  8
1
 10
3937.7002116079379
 20
3057.9820417084702
 30
0.0
 11
3937.7002116079379
 21
2982.9820417084702
 31
0.0
  0
LINE
  5
7C2F
  8
1
 10
3937.7002116079379
 20
3057.9820417084702
 30
0.0
 11
1187.7002116079379
 21
3057.9820417084702
 31
0.0
  0
LINE
  5
7C30
  8
1
 10
1187.7002116079379
 20
3057.9820417084702
 30
0.0
 11
1187.7002116079379
 21
2982.9820417084702
 31
0.0
  0
LINE
  5
7C31
  8
1
 10
3937.7002116079379
 20
2982.9820417084702
 30
0.0
 11
1187.7002116079379
 21
2982.9820417084702
 31
0.0
  0
LINE
  5
7C32
  8
1
 10
6111.4657096838746
 20
3057.9820417084702
 30
0.0
 11
7511.4657096838737
 21
3057.9820417084711
 31
0.0
  0
LINE
  5
7C33
  8
1
 10
6111.4657096838746
 20
2982.9820417084711
 30
0.0
 11
7511.4657096838737
 21
2982.9820417084711
 31
0.0
  0
LINE
  5
7C34
  8
1
 10
6111.4657096838746
 20
3057.9820417084702
 30
0.0
 11
6111.4657096838746
 21
2982.9820417084711
 31
0.0
  0
LINE
  5
7C35
  8
1
 10
7511.4657096838737
 20
3057.9820417084711
 30
0.0
 11
7511.4657096838737
 21
2982.9820417084711
 31
0.0
  0
POINT
  5
7C36
  8
1
 10
1187.7002116079379
 20
3077.9820417084702
 30
0.0
  0
POINT
  5
7C37
  8
1
 10
1187.7002116079379
 20
3057.9820417084702
 30
0.0
  0
POINT
  5
7C38
  8
1
 10
1187.7002116079379
 20
3057.9820417084702
 30
0.0
  0
POINT
  5
7C39
  8
1
 10
1187.7002116079379
 20
2982.9820417084702
 30
0.0
  0
LINE
  5
7C3A
  8
1
 10
6372.4657096838746
 20
4667.9820417084702
 30
0.0
 11
6372.4657096838746
 21
3176.9820417084702
 31
0.0
  0
LINE
  5
7C3B
  8
1
 10
7432.4657096838737
 20
4658.9820417084702
 30
0.0
 11
7432.4657096838737
 21
3176.9820417084702
 31
0.0
  0
POINT
  5
7C3C
  8
1
 10
6902.4657096838746
 20
6141.4962507569498
 30
0.0
  0
INSERT
  5
7C3D
  8
0
  6
BYBLOCK
 62
     2
  2
YA_N
 10
5372.4018783245183
 20
-226.14356067562309
 30
0.0
 41
90.0
 42
90.0
 43
90.0
 50
210.0117675348119
  0
CIRCLE
  5
7C3E
  8
1
 10
3087.7002116079379
 20
4667.9820417084702
 30
0.0
 40
400.0
  0
ARC
  5
7C3F
  8
1
 10
3087.7002116079379
 20
4667.9820417084702
 30
0.0
 40
550.0
 50
297.50145797619052
 51
128.5997638979342
  0
ARC
  5
7C40
  8
1
 10
1487.7002116079379
 20
3462.9820417084702
 30
0.0
 40
220.0
 50
128.5997638979342
 51
297.50145797619052
  0
LINE
  5
7C41
  8
1
 10
2744.568204672074
 20
5097.8197155065764
 30
0.0
 11
1350.4474088335919
 21
3634.9171112277122
 31
0.0
  0
LINE
  5
7C42
  8
1
 10
2844.4973454057908
 20
4985.5546568235977
 30
0.0
 11
1423.251452064369
 21
3547.138784713979
 31
0.0
  0
LINE
  5
7C43
  8
1
 10
6002.7657096838739
 20
5067.9820417084711
 30
0.0
 11
6080.6657096838744
 21
5067.9820417084711
 31
0.0
  0
LINE
  5
7C44
  8
1
 10
5952.765709683873
 20
5217.9820417084702
 30
0.0
 11
6152.765709683873
 21
5217.9820417084702
 31
0.0
  0
LINE
  5
7C45
  8
1
 10
6095.7657096838739
 20
3505.4820417084702
 30
0.0
 11
6372.4657096838746
 21
3505.4820417084702
 31
0.0
  0
LINE
  5
7C46
  8
1
 10
6095.7657096838739
 20
3420.4820417084702
 30
0.0
 11
6372.4657096838746
 21
3420.4820417084702
 31
0.0
  0
DIMENSION
  5
7C47
  8
3
  2
*D2
 10
4285.3463571216089
 20
4626.9820417084702
 30
0.0
 11
4185.346357121608
 21
3901.9820417084711
 31
0.0
 70
     0
 13
4017.7002116079379
 23
3176.9820417084702
 33
0.0
 14
4017.7002116079379
 24
4626.9820417084702
 34
0.0
 50
270.0
1001
ACAD
1000
DSTYLE
1002
{
1070
   287
1070
     3
1070
   287
1070
     3
1070
    40
1040
40.0
1070
   143
1040
0.039
1070
   172
1070
     1
1070
   271
1070
     0
1070
   279
1070
     0
1070
   288
1070
     1
1002
}
  0
DIMENSION
  5
7C48
  8
3
  2
*D3
 10
3087.7002116079379
 20
2636.2162560388729
 30
0.0
 11
3512.7002116079379
 21
2736.2162560388729
 31
0.0
 70
     0
 13
3937.7002116079379
 23
2982.9820417084702
 33
0.0
 14
3087.7002116079379
 24
2830.3977877817269
 34
0.0
1001
ACAD
1000
DSTYLE
1002
{
1070
   287
1070
     3
1070
   287
1070
     3
1070
    40
1040
40.0
1070
   143
1040
0.039
1070
   172
1070
     1
1070
   271
1070
     0
1070
   279
1070
     0
1070
   288
1070
     1
1002
}
  0
DIMENSION
  5
7C49
  8
3
  2
*D4
 10
1187.7002116079379
 20
2636.2162560388729
 30
0.0
 11
2137.7002116079379
 21
2736.2162560388729
 31
0.0
 70
     0
 13
3087.7002116079379
 23
2830.3977877817269
 33
0.0
 14
1187.7002116079379
 24
2982.9820417084702
 34
0.0
1001
ACAD
1000
DSTYLE
1002
{
1070
   287
1070
     3
1070
   287
1070
     3
1070
    40
1040
40.0
1070
   143
1040
0.039
1070
   172
1070
     1
1070
   271
1070
     0
1070
   279
1070
     0
1070
   288
1070
     1
1002
}
  0
DIMENSION
  5
7C4B
  8
3
  2
*D5
 10
6902.4657096838746
 20
2666.974258422093
 30
0.0
 11
6506.9657096838746
 21
2766.974258422093
 31
0.0
 70
     0
 13
6111.4657096838746
 23
2982.9820417084711
 33
0.0
 14
6902.4657096838746
 24
2830.3977877817269
 34
0.0
1001
ACAD
1000
DSTYLE
1002
{
1070
   287
1070
     3
1070
   287
1070
     3
1070
    40
1040
40.0
1070
   143
1040
0.039
1070
   172
1070
     1
1070
   271
1070
     0
1070
   279
1070
     0
1070
   288
1070
     1
1002
}
  0
DIMENSION
  5
7C4C
  8
3
  2
*D6
 10
7511.4657096838737
 20
2666.974258422093
 30
0.0
 11
7173.8942811124452
 21
2666.974258422093
 31
0.0
 70
   128
 13
6902.4657096838746
 23
2830.3977877817269
 33
0.0
 14
7511.4657096838737
 24
2982.9820417084711
 34
0.0
1001
ACAD
1000
DSTYLE
1002
{
1070
   287
1070
     3
1070
   287
1070
     3
1070
    40
1040
40.0
1070
   143
1040
0.039
1070
   172
1070
     1
1070
   271
1070
     0
1070
   279
1070
     0
1070
   288
1070
     1
1002
}
  0
DIMENSION
  5
7C4E
  8
3
  2
*D7
 10
2237.7002116079379
 20
9101.7332238032832
 30
0.0
 11
3087.7002116079379
 21
9201.7332238032832
 31
0.0
 70
     0
 13
3937.7002116079379
 23
8731.6866684445085
 33
0.0
 14
2237.7002116079379
 24
8731.6866684445085
 34
0.0
1001
ACAD
1000
DSTYLE
1002
{
1070
   287
1070
     3
1070
   287
1070
     3
1070
    40
1040
40.0
1070
   143
1040
0.039
1070
   172
1070
     1
1070
   271
1070
     0
1070
   279
1070
     0
1070
   288
1070
     1
1002
}
  0
DIMENSION
  5
7C4F
  8
3
  2
*D8
 10
1187.7002116079379
 20
9101.7332238032832
 30
0.0
 11
1712.7002116079379
 21
9201.7332238032832
 31
0.0
 70
     0
 13
2237.7002116079379
 23
8731.6866684445085
 33
0.0
 14
1187.7002116079379
 24
8431.6866684445085
 34
0.0
1001
ACAD
1000
DSTYLE
1002
{
1070
   287
1070
     3
1070
   287
1070
     3
1070
    40
1040
40.0
1070
   143
1040
0.039
1070
   172
1070
     1
1070
   271
1070
     0
1070
   279
1070
     0
1070
   288
1070
     1
1002
}
  0
DIMENSION
  5
7C50
  8
3
  2
*D9
 10
879.52337191689367
 20
7331.6866684445095
 30
0.0
 11
779.52337191689253
 21
7881.6866684445076
 31
0.0
 70
     0
 13
1187.7002116079379
 23
8431.6866684445085
 33
0.0
 14
1187.7002116079379
 24
7331.6866684445095
 34
0.0
 50
270.0
1001
ACAD
1000
DSTYLE
1002
{
1070
   287
1070
     3
1070
   287
1070
     3
1070
    40
1040
40.0
1070
   143
1040
0.039
1070
   172
1070
     1
1070
   271
1070
     0
1070
   279
1070
     0
1070
   288
1070
     1
1002
}
  0
DIMENSION
  5
7C51
  8
3
  2
*D10
 10
4363.9621718638409
 20
7331.6866684445095
 30
0.0
 11
4263.96217186384
 21
8031.6866684445095
 31
0.0
 70
     0
 13
3937.7002116079379
 23
8731.6866684445085
 33
0.0
 14
3937.7002116079379
 24
7331.6866684445095
 34
0.0
 50
270.0
1001
ACAD
1000
DSTYLE
1002
{
1070
   287
1070
     3
1070
   287
1070
     3
1070
    40
1040
40.0
1070
   143
1040
0.039
1070
   172
1070
     1
1070
   271
1070
     0
1070
   279
1070
     0
1070
   288
1070
     1
1002
}
  0
DIMENSION
  5
7C52
  8
3
  2
*D11
 10
1187.7002116079379
 20
6782.108161916788
 30
0.0
 11
2562.7002116079379
 21
6782.108161916788
 31
0.0
 70
   128
 13
3937.7002116079379
 23
7331.6866684445095
 33
0.0
 14
1187.7002116079379
 24
7331.6866684445095
 34
0.0
1001
ACAD
1000
DSTYLE
1002
{
1070
   287
1070
     3
1070
   287
1070
     3
1070
    40
1040
40.0
1070
   143
1040
0.039
1070
   172
1070
     1
1070
   271
1070
     0
1070
   279
1070
     0
1070
   288
1070
     1
1002
}
  0
DIMENSION
  5
7C53
  8
3
  2
*D12
 10
6902.4657096838746
 20
6256.7388870799396
 30
0.0
 11
7259.3228525410177
 21
6256.7388870799396
 31
0.0
 70
   128
 13
7536.4657096838737
 23
5417.9820417084702
 33
0.0
 14
6902.4657096838746
 24
6141.4962507569498
 34
0.0
1001
ACAD
1000
DSTYLE
1002
{
1070
   287
1070
     3
1070
   287
1070
     3
1070
    40
1040
40.0
1070
   143
1040
0.039
1070
   172
1070
     1
1070
   271
1070
     0
1070
   279
1070
     0
1070
   288
1070
     1
1002
}
  0
DIMENSION
  5
7C54
  8
3
  2
*D13
 10
5952.765709683873
 20
6256.7388870799396
 30
0.0
 11
6427.6157096838742
 21
6456.7388870799396
 31
0.0
 70
     0
  1
MAX\P1030
 13
6902.4657096838746
 23
6141.4962507569498
 33
0.0
 14
5952.765709683873
 24
5217.9820417084702
 34
0.0
1001
ACAD
1000
DSTYLE
1002
{
1070
   287
1070
     3
1070
   287
1070
     3
1070
    40
1040
40.0
1070
   143
1040
0.039
1070
   172
1070
     1
1070
   271
1070
     0
1070
   279
1070
     0
1070
   288
1070
     1
1002
}
  0
LINE
  5
7C55
  8
2
 10
3087.7002116079379
 20
7396.6946628742398
 30
0.0
 11
3087.7002116079379
 21
8592.5224754497522
 31
0.0
  0
LINE
  5
7C56
  8
2
 10
3937.7002116079379
 20
8122.6866684445076
 30
0.0
 11
1339.8013628487529
 21
8122.6866684445058
 31
0.0
  0
LINE
  5
7C57
  8
1
 10
4017.7002116079379
 20
8652.6866684445067
 30
0.0
 11
1880.7002116079379
 21
8652.6866684445067
 31
0.0
  0
LINE
  5
7C58
  8
1
 10
4017.7002116079379
 20
7592.6866684445095
 30
0.0
 11
1880.7002116079379
 21
7592.6866684445095
 31
0.0
  0
LINE
  5
7C59
  8
1
 10
3937.7002116079379
 20
7592.6866684445095
 30
0.0
 11
3937.7002116079379
 21
7331.6866684445095
 31
0.0
  0
DIMENSION
  5
7C5A
  8
3
  2
*D14
 10
1187.7002116079379
 20
6307.1710280909101
 30
0.0
 11
2602.7002116079379
 21
6407.1710280909101
 31
0.0
 70
     0
 13
4017.7002116079379
 23
4626.9820417084702
 33
0.0
 14
1187.7002116079379
 24
3227.9820417084702
 34
0.0
1001
ACAD
1000
DSTYLE
1002
{
1070
   287
1070
     3
1070
   287
1070
     3
1070
    40
1040
40.0
1070
   143
1040
0.039
1070
   172
1070
     1
1070
   271
1070
     0
1070
   279
1070
     0
1070
   288
1070
     1
1002
}
  0
LINE
  5
7C5B
  8
1
 10
7511.4657096838737
 20
3227.9820417084702
 30
0.0
 11
7511.4657096838737
 21
3077.9820417084711
 31
0.0
  0
LINE
  5
7C5C
  8
1
 10
6111.4657096838746
 20
3227.9820417084702
 30
0.0
 11
6111.4657096838746
 21
3077.9820417084702
 31
0.0
  0
LINE
  5
7C5D
  8
1
 10
4017.7002116079379
 20
7542.6866684445095
 30
0.0
 11
4017.7002116079379
 21
8702.6866684445085
 31
0.0
  0
LINE
  5
7C5E
  8
1
 10
1880.7002116079379
 20
7592.6866684445095
 30
0.0
 11
1880.7002116079379
 21
8652.6866684445067
 31
0.0
  0
LINE
  5
7C5F
  8
1
 10
3341.6743630242781
 20
4180.1325460519201
 30
0.0
 11
1589.2898721744741
 21
3267.8422434458498
 31
0.0
  0
LINE
  5
7C60
  8
1
 10
3278.8334626596238
 20
4316.6017913493852
 30
0.0
 11
1538.350523136635
 21
3369.8662753633121
 31
0.0
  0
DIMENSION
  5
7C61
  8
3
  2
*D15
 10
4551.3928428822901
 20
3176.9820417084702
 30
0.0
 11
4451.3928428822901
 21
3922.4820417084702
 31
0.0
 70
     0
 13
4169.4567384896027
 23
4667.9820417084702
 33
0.0
 14
4017.7002116079379
 24
3176.9820417084702
 34
0.0
 50
90.0
1001
ACAD
1000
DSTYLE
1002
{
1070
   287
1070
     3
1070
   287
1070
     3
1070
    40
1040
40.0
1070
   143
1040
0.039
1070
   172
1070
     1
1070
   271
1070
     0
1070
   279
1070
     0
1070
   288
1070
     1
1002
}
  0
DIMENSION
  5
7C62
  8
3
  2
*D16
 10
4823.8870240315564
 20
4667.9820417084702
 30
0.0
 11
4723.8870240315537
 21
5169.4820417084711
 31
0.0
 70
     0
 13
2985.7002116079379
 23
5670.9820417084693
 33
0.0
 14
4169.4567384896027
 24
4667.9820417084702
 34
0.0
 50
90.0
1001
ACAD
1000
DSTYLE
1002
{
1070
   287
1070
     3
1070
   287
1070
     3
1070
    40
1040
40.0
1070
   143
1040
0.039
1070
   172
1070
     1
1070
   271
1070
     0
1070
   279
1070
     0
1070
   288
1070
     1
1002
}
  0
DIMENSION
  5
7C63
  8
3
  2
*D17
 10
4823.8870240315564
 20
3077.9820417084702
 30
0.0
 11
4723.8870240315537
 21
3872.9820417084711
 31
0.0
 70
     0
 13
4169.4567384896027
 23
4667.9820417084702
 33
0.0
 14
3937.7002116079379
 24
3077.9820417084702
 34
0.0
 50
90.0
1001
ACAD
1000
DSTYLE
1002
{
1070
   287
1070
     3
1070
   287
1070
     3
1070
    40
1040
40.0
1070
   143
1040
0.039
1070
   172
1070
     1
1070
   271
1070
     0
1070
   279
1070
     0
1070
   288
1070
     1
1002
}
  0
DIMENSION
  5
7C64
  8
3
  2
*D18
 10
4823.8870240315564
 20
3057.9820417084702
 30
0.0
 11
5025.6727383172692
 21
3201.2608876929112
 31
0.0
 70
   128
  1
(<>)
 13
3937.7002116079379
 23
3077.9820417084702
 33
0.0
 14
3937.7002116079379
 24
3057.9820417084702
 34
0.0
 50
90.0
1001
ACAD
1000
DSTYLE
1002
{
1070
   288
1070
     1
1070
   172
1070
     1
1070
    40
1040
40.0
1070
   271
1070
     0
1070
     7
1000
_DOT
1070
   143
1040
0.039
1002
}
  0
DIMENSION
  5
7C65
  8
3
  2
*D19
 10
4823.8870240315564
 20
2982.9820417084702
 30
0.0
 11
4723.8870240315537
 21
2685.8391845656129
 31
0.0
 70
     0
 13
3937.7002116079379
 23
3057.9820417084702
 33
0.0
 14
3937.7002116079379
 24
2982.9820417084702
 34
0.0
 50
90.0
1001
ACAD
1000
DSTYLE
1002
{
1070
   287
1070
     3
1070
   287
1070
     3
1070
    40
1040
40.0
1070
   143
1040
0.039
1070
   172
1070
     1
1070
   271
1070
     0
1070
   279
1070
     0
1070
   288
1070
     1
1070
     6
1000
DOT
1002
}
  0
DIMENSION
  5
7C66
  8
3
  2
*D20
 10
5170.6256058680083
 20
2982.9820417084688
 30
0.0
 11
5070.6256058680074
 21
4326.9820417084711
 31
0.0
 70
     0
 13
2985.7002116079379
 23
5670.9820417084693
 33
0.0
 14
3937.7002116079379
 24
2982.9820417084702
 34
0.0
 50
90.0
1001
ACAD
1000
DSTYLE
1002
{
1070
   287
1070
     3
1070
   287
1070
     3
1070
    40
1040
40.0
1070
   143
1040
0.039
1070
   172
1070
     1
1070
   271
1070
     0
1070
   279
1070
     0
1070
   288
1070
     1
1002
}
  0
LINE
  5
7C67
  8
1
 10
6002.7657096838739
 20
4267.9820417084702
 30
0.0
 11
6080.6657096838744
 21
4267.9820417084702
 31
0.0
  0
LINE
  5
7C68
  8
1
 10
6372.4657096838746
 20
5670.9820417084711
 30
0.0
 11
7432.4657096838737
 21
5670.9820417084693
 31
0.0
  0
LINE
  5
7C69
  8
1
 10
6372.4657096838746
 20
3176.9820417084702
 30
0.0
 11
7432.4657096838737
 21
3176.9820417084702
 31
0.0
  0
LINE
  5
7C6A
  8
1
 10
6372.4657096838773
 20
4626.9820417084702
 30
0.0
 11
7432.4657096838737
 21
4626.9820417084702
 31
0.0
  0
LINE
  5
7C6B
  8
1
 10
7432.4657096838737
 20
4626.9820417084702
 30
0.0
 11
6372.4657096838746
 21
3176.9820417084702
 31
0.0
  0
LINE
  5
7C6C
  8
1
 10
6372.4657096838746
 20
4625.4820417084711
 30
0.0
 11
7432.4657096838737
 21
3176.9820417084702
 31
0.0
  0
DIMENSION
  5
7C6D
  8
3
  2
*D21
 10
3087.7002116079379
 20
6009.1052144799833
 30
0.0
 11
3552.7002116079379
 21
6109.1052144799833
 31
0.0
 70
     0
 13
4017.7002116079379
 23
4676.9820417084702
 33
0.0
 14
3087.7002116079379
 24
5854.4482673031189
 34
0.0
1001
ACAD
1000
DSTYLE
1002
{
1070
   287
1070
     3
1070
   287
1070
     3
1070
    40
1040
40.0
1070
   143
1040
0.039
1070
   172
1070
     1
1070
   271
1070
     0
1070
   279
1070
     0
1070
   288
1070
     1
1002
}
  0
DIMENSION
  5
7C6E
  8
3
  2
*D22
 10
1880.7002116079379
 20
6009.1052144799833
 30
0.0
 11
2484.2002116079379
 21
6109.1052144799833
 31
0.0
 70
     0
 13
3087.7002116079379
 23
5854.4482673031189
 33
0.0
 14
1880.7002116079379
 24
4565.9820417084702
 34
0.0
1001
ACAD
1000
DSTYLE
1002
{
1070
   287
1070
     3
1070
   287
1070
     3
1070
    40
1040
40.0
1070
   143
1040
0.039
1070
   172
1070
     1
1070
   271
1070
     0
1070
   279
1070
     0
1070
   288
1070
     1
1002
}
  0
DIMENSION
  5
7C6F
  8
3
  2
*D23
 10
6372.4657096838746
 20
5930.6603626111637
 30
0.0
 11
6902.4657096838746
 21
6030.6603626111646
 31
0.0
 70
     0
 13
7432.4657096838737
 23
5670.9820417084693
 33
0.0
 14
6372.4657096838746
 24
5670.9820417084711
 34
0.0
1001
ACAD
1000
DSTYLE
1002
{
1070
   287
1070
     3
1070
   287
1070
     3
1070
    40
1040
40.0
1070
   143
1040
0.039
1070
   172
1070
     1
1070
   271
1070
     0
1070
   279
1070
     0
1070
   288
1070
     1
1002
}
  0
LINE
  5
7C70
  8
1
 10
3487.7002116079379
 20
7222.9866684445069
 30
0.0
 11
2687.7002116079379
 21
7222.9866684445087
 31
0.0
  0
LINE
  5
7C71
  8
1
 10
3487.7002116079379
 20
7300.8866684445084
 30
0.0
 11
2687.7002116079379
 21
7300.8866684445084
 31
0.0
  0
LINE
  5
7C72
  8
1
 10
3637.7002116079379
 20
7172.9866684445069
 30
0.0
 11
1267.7002116079379
 21
7172.9866684445069
 31
0.0
  0
LINE
  5
7C73
  8
1
 10
3637.7002116079379
 20
7372.9866684445078
 30
0.0
 11
1267.7002116079379
 21
7372.9866684445069
 31
0.0
  0
LINE
  5
7C74
  8
2
 10
1487.7002116079379
 20
8023.4700908316563
 30
0.0
 11
1487.7002116079379
 21
7155.6615872148359
 31
0.0
  0
LINE
  5
7C75
  8
1
 10
1381.7002116079379
 20
7222.9866684445087
 30
0.0
 11
1381.7002116079379
 21
7300.8866684445074
 31
0.0
  0
LINE
  5
7C76
  8
1
 10
1267.7002116079379
 20
7172.9866684445069
 30
0.0
 11
1267.7002116079379
 21
7372.9866684445078
 31
0.0
  0
LINE
  5
7C77
  8
1
 10
1530.2002116079379
 20
7315.9866684445078
 30
0.0
 11
1530.2002116079379
 21
7430.9866684445078
 31
0.0
  0
LINE
  5
7C78
  8
1
 10
1445.2002116079379
 20
7315.9866684445078
 30
0.0
 11
1445.2002116079379
 21
7430.9866684445051
 31
0.0
  0
LINE
  5
7C79
  8
1
 10
1547.7002116079379
 20
7315.9866684445078
 30
0.0
 11
1427.7002116079379
 21
7315.9866684445078
 31
0.0
  0
LINE
  5
7C7A
  8
1
 10
1427.7002116079379
 20
7300.8866684445074
 30
0.0
 11
1427.7002116079379
 21
7315.9866684445078
 31
0.0
  0
LINE
  5
7C7B
  8
1
 10
1547.7002116079379
 20
7300.8866684445084
 30
0.0
 11
1547.7002116079379
 21
7315.9866684445078
 31
0.0
  0
LINE
  5
7C7C
  8
1
 10
3167.7002116079379
 20
7322.9866684445078
 30
0.0
 11
3007.7002116079379
 21
7322.9866684445078
 31
0.0
  0
LINE
  5
7C7D
  8
1
 10
2687.7002116079379
 20
7222.9866684445087
 30
0.0
 11
2687.7002116079379
 21
7300.8866684445084
 31
0.0
  0
LINE
  5
7C7E
  8
1
 10
1593.7002116079379
 20
7222.9866684445087
 30
0.0
 11
1593.7002116079379
 21
7300.8866684445074
 31
0.0
  0
LINE
  5
7C7F
  8
1
 10
3007.7002116079379
 20
7300.8866684445084
 30
0.0
 11
3007.7002116079379
 21
7322.9866684445078
 31
0.0
  0
LINE
  5
7C80
  8
1
 10
3637.7002116079379
 20
7172.9866684445069
 30
0.0
 11
3637.7002116079379
 21
7372.9866684445069
 31
0.0
  0
LINE
  5
7C81
  8
1
 10
3487.7002116079379
 20
7222.9866684445087
 30
0.0
 11
3487.7002116079379
 21
7300.8866684445084
 31
0.0
  0
LINE
  5
7C82
  8
1
 10
3130.2002116079379
 20
7322.9866684445078
 30
0.0
 11
3130.2002116079379
 21
7592.6866684445095
 31
0.0
  0
LINE
  5
7C83
  8
1
 10
3045.2002116079379
 20
7322.9866684445069
 30
0.0
 11
3045.2002116079379
 21
7592.6866684445095
 31
0.0
  0
LINE
  5
7C84
  8
1
 10
3167.7002116079379
 20
7300.8866684445084
 30
0.0
 11
3167.7002116079379
 21
7322.9866684445078
 31
0.0
  0
LINE
  5
7C85
  8
1
 10
1670.2002116079379
 20
7992.4866684445078
 30
0.0
 11
1670.2002116079379
 21
7430.9866684445096
 31
0.0
  0
LINE
  5
7C86
  8
1
 10
1305.2002116079379
 20
7992.486668444506
 30
0.0
 11
1305.2002116079379
 21
7430.9866684445051
 31
0.0
  0
LINE
  5
7C87
  8
1
 10
1670.2002116079379
 20
7992.4866684445078
 30
0.0
 11
1305.2002116079379
 21
7992.486668444506
 31
0.0
  0
LINE
  5
7C88
  8
1
 10
1670.2002116079379
 20
7430.9866684445078
 30
0.0
 11
1305.2002116079379
 21
7430.9866684445051
 31
0.0
  0
LINE
  5
7C89
  8
1
 10
1593.7002116079379
 20
7300.8866684445084
 30
0.0
 11
1381.7002116079379
 21
7300.8866684445084
 31
0.0
  0
LINE
  5
7C8A
  8
1
 10
1593.7002116079379
 20
7222.9866684445087
 30
0.0
 11
1381.7002116079379
 21
7222.9866684445087
 31
0.0
  0
DIMENSION
  5
7C8B
  8
3
  2
*D24
 10
7928.9324831013
 20
3967.9820417084702
 30
0.0
 11
7828.9324831012991
 21
4667.9820417084711
 31
0.0
 70
     0
 13
7536.4657096838737
 23
5367.9820417084702
 33
0.0
 14
7536.4657096838737
 24
3967.9820417084702
 34
0.0
 50
90.0
1001
ACAD
1000
DSTYLE
1002
{
1070
   287
1070
     3
1070
   287
1070
     3
1070
     3
1000
φ<>
1070
    40
1040
40.0
1070
   143
1040
0.039
1070
   172
1070
     1
1070
   271
1070
     0
1070
   279
1070
     0
1070
   288
1070
     1
1002
}
  0
LINE
  5
7EC5
  8
4
 10
7400.0
 20
2000.0
 30
0.0
 11
7400.0
 21
1200.0
 31
0.0
  0
LINE
  5
7EC6
  8
4
 10
4600.0
 20
2000.0
 30
0.0
 11
4600.0
 21
1200.0
 31
0.0
  0
LINE
  5
7EC7
  8
4
 10
2600.0
 20
2000.0
 30
0.0
 11
2600.0
 21
1200.0
 31
0.0
  0
LINE
  5
7ECA
  8
4
 10
2600.0
 20
1200.0
 30
0.0
 11
7400.0
 21
1200.0
 31
0.0
  0
LINE
  5
7ECB
  8
4
 10
2600.0
 20
1600.0
 30
0.0
 11
7400.0
 21
1600.0
 31
0.0
  0
TEXT
  5
7ECC
  8
4
 10
2754.0083233876071
 20
1726.1721034664511
 30
0.0
 40
200.0
  1
機器名称
  0
TEXT
  5
7ECD
  8
4
 10
2745.0324240991899
 20
1286.5806269280431
 30
0.0
 40
200.0
  1
機器型番
  0
TEXT
  5
7ECE
  8
4
 10
4710.7149819506594
 20
1690.287075830274
 30
0.0
 40
200.0
  1
ミツヤ多翼送風機
  0
TEXT
  5
7ECF
  8
4
 10
4746.6179823419234
 20
1268.638337119773
 30
0.0
 40
200.0
  1
MFE#9-4
  0
TEXT
  5
7ED1
  8
4
 10
3260.0733317074191
 20
9533.7153653300629
 30
0.0
 40
215.99999999999989
  1
床置防振ベット
  0
TEXT
  5
7ED2
  8
4
 10
1264.6703733177851
 20
10135.52390479719
 30
0.0
 40
288.0
  1
ベルト駆動式片吸込両持排煙ファン
  0
LINE
  5
7ED3
  8
4
 10
1000.0
 20
9877.6350170592195
 30
0.0
 11
7400.0
 21
9877.6350170592195
 31
0.0
  0
LINE
  5
7ED4
  8
4
 10
1000.0
 20
10677.63501705921
 30
0.0
 11
7400.0
 21
10677.63501705921
 31
0.0
  0
LINE
  5
7ED5
  8
4
 10
2600.0
 20
2000.0
 30
0.0
 11
7400.0
 21
2000.0
 31
0.0
  0
LINE
  5
7ED6
  8
4
 10
1000.0
 20
10677.63501705921
 30
0.0
 11
1000.0
 21
9877.6350170592195
 31
0.0
  0
TEXT
  5
7ED7
  8
4
 10
1516.6380027366099
 20
9529.2779101853739
 30
0.0
 40
215.99999999999989
  1
左回転右横向
  0
TEXT
  5
7ED8
  8
4
 10
5875.8782369971586
 20
10824.24432598123
 30
0.0
 40
224.0
  1
No.
  0
TEXT
  5
7ED9
  8
4
 10
5245.1842504000524
 20
9533.7153653300629
 30
0.0
 40
215.99999999999989
  1
縮尺：1/40
  0
LINE
  5
7EDA
  8
4
 10
7400.0
 20
10677.63501705921
 30
0.0
 11
7400.0
 21
9877.6350170592195
 31
0.0
  0
LINE
  5
7EDB
  8
4
 10
8400.0
 20
11800.0
 30
0.0
 11
8400.0
 21
11800.0
 31
0.0
  0
LINE
  5
7EDC
  8
4
 10
5762.4696894394583
 20
10725.054332501601
 30
0.0
 11
5762.4696894394583
 21
11146.609046199001
 31
0.0
  0
LINE
  5
7EDD
  8
4
 10
5762.4696894394583
 20
11146.609046199001
 30
0.0
 11
7400.0
 21
11146.609046199001
 31
0.0
  0
LINE
  5
7EDE
  8
4
 10
7400.0
 20
11146.609046199001
 30
0.0
 11
7400.0
 21
10725.054332501601
 31
0.0
  0
LINE
  5
7EDF
  8
4
 10
7400.0
 20
10725.054332501601
 30
0.0
 11
5762.4696894394583
 21
10725.054332501601
 31
0.0
  0
LINE
  5
7EE0
  8
4
 10
0.0
 20
0.0
 30
0.0
 11
0.0
 21
11800.0
 31
0.0
  0
LINE
  5
7EE1
  8
4
 10
0.0
 20
11800.0
 30
0.0
 11
8400.0
 21
11800.0
 31
0.0
  0
LINE
  5
7EE2
  8
4
 10
8400.0
 20
11800.0
 30
0.0
 11
8400.0
 21
0.0
 31
0.0
  0
LINE
  5
7EE3
  8
4
 10
8400.0
 20
0.0
 30
0.0
 11
0.0
 21
0.0
 31
0.0
  0
ENDSEC
  0
EOF
