  0
SECTION
  2
HEADER
  9
$ACADVER
  1
AC1009
  9
$INSBASE
 10
0.0
 20
0.0
 30
0.0
  9
$EXTMIN
 10
0.0
 20
0.0
 30
0.0
  9
$EXTMAX
 10
8400.0
 20
11800.0
 30
0.0
  9
$LIMMIN
 10
0.0
 20
0.0
  9
$LIMMAX
 10
297.0
 20
210.0
  9
$ORTHOMODE
 70
     0
  9
$REGENMODE
 70
     1
  9
$FILLMODE
 70
     0
  9
$QTEXTMODE
 70
     0
  9
$MIRRTEXT
 70
     1
  9
$DRAGMODE
 70
     2
  9
$LTSCALE
 40
100.0
  9
$OSMODE
 70
    37
  9
$ATTMODE
 70
     1
  9
$TEXTSIZE
 40
180.0
  9
$TRACEWID
 40
0.05
  9
$TEXTSTYLE
  7
STANDARD
  9
$CLAYER
  8
3
  9
$CELTYPE
  6
BYLAYER
  9
$CECOLOR
 62
   256
  9
$DIMSCALE
 40
40.0
  9
$DIMASZ
 40
2.0
  9
$DIMEXO
 40
0.5
  9
$DIMDLI
 40
10.0
  9
$DIMRND
 40
0.0
  9
$DIMDLE
 40
0.0
  9
$DIMEXE
 40
1.0
  9
$DIMTP
 40
1.0
  9
$DIMTM
 40
1.0
  9
$DIMTXT
 40
3.0
  9
$DIMCEN
 40
0.0
  9
$DIMTSZ
 40
0.0
  9
$DIMTOL
 70
     0
  9
$DIMLIM
 70
     0
  9
$DIMTIH
 70
     0
  9
$DIMTOH
 70
     0
  9
$DIMSE1
 70
     0
  9
$DIMSE2
 70
     0
  9
$DIMTAD
 70
     1
  9
$DIMZIN
 70
     8
  9
$DIMBLK
  1

  9
$DIMASO
 70
     1
  9
$DIMSHO
 70
     1
  9
$DIMPOST
  1

  9
$DIMAPOST
  1

  9
$DIMALT
 70
     0
  9
$DIMALTD
 70
     2
  9
$DIMALTF
 40
0.039
  9
$DIMLFAC
 40
1.0
  9
$DIMTOFL
 70
     1
  9
$DIMTVP
 40
0.0
  9
$DIMTIX
 70
     0
  9
$DIMSOXD
 70
     0
  9
$DIMSAH
 70
     1
  9
$DIMBLK1
  1
OPEN
  9
$DIMBLK2
  1
OPEN
  9
$DIMSTYLE
  2
IGA
  9
$DIMCLRD
 70
     0
  9
$DIMCLRE
 70
     0
  9
$DIMCLRT
 70
     0
  9
$DIMTFAC
 40
10.0
  9
$DIMGAP
 40
1.0
  9
$LUNITS
 70
     2
  9
$LUPREC
 70
     3
  9
$SKETCHINC
 40
0.1
  9
$FILLETRAD
 40
50.0
  9
$AUNITS
 70
     0
  9
$AUPREC
 70
     0
  9
$MENU
  1
acad
  9
$ELEVATION
 40
0.0
  9
$PELEVATION
 40
0.0
  9
$THICKNESS
 40
0.0
  9
$LIMCHECK
 70
     0
  9
$BLIPMODE
 70
     0
  9
$CHAMFERA
 40
0.5
  9
$CHAMFERB
 40
0.5
  9
$SKPOLY
 70
     0
  9
$TDCREATE
 40
2451408.6272821748
  9
$TDUPDATE
 40
2454953.84557147
  9
$TDINDWG
 40
0.0429103704
  9
$TDUSRTIMER
 40
0.0429103704
  9
$USRTIMER
 70
     1
  9
$ANGBASE
 50
0.0
  9
$ANGDIR
 70
     0
  9
$PDMODE
 70
     0
  9
$PDSIZE
 40
0.0
  9
$PLINEWID
 40
0.0
  9
$COORDS
 70
     1
  9
$SPLFRAME
 70
     0
  9
$SPLINETYPE
 70
     6
  9
$SPLINESEGS
 70
     8
  9
$ATTDIA
 70
     0
  9
$ATTREQ
 70
     1
  9
$HANDLING
 70
 10241
  9
$HANDSEED
  5
8294
  9
$SURFTAB1
 70
     6
  9
$SURFTAB2
 70
     6
  9
$SURFTYPE
 70
     6
  9
$SURFU
 70
     6
  9
$SURFV
 70
     6
  9
$UCSNAME
  2

  9
$UCSORG
 10
0.0
 20
0.0
 30
0.0
  9
$UCSXDIR
 10
1.0
 20
0.0
 30
0.0
  9
$UCSYDIR
 10
0.0
 20
1.0
 30
0.0
  9
$PUCSNAME
  2

  9
$PUCSORG
 10
0.0
 20
0.0
 30
0.0
  9
$PUCSXDIR
 10
1.0
 20
0.0
 30
0.0
  9
$PUCSYDIR
 10
0.0
 20
1.0
 30
0.0
  9
$USERI1
 70
     0
  9
$USERI2
 70
     0
  9
$USERI3
 70
     0
  9
$USERI4
 70
     0
  9
$USERI5
 70
     0
  9
$USERR1
 40
0.0
  9
$USERR2
 40
0.0
  9
$USERR3
 40
0.0
  9
$USERR4
 40
0.0
  9
$USERR5
 40
0.0
  9
$WORLDVIEW
 70
     1
  9
$SHADEDGE
 70
     3
  9
$SHADEDIF
 70
    70
  9
$TILEMODE
 70
     1
  9
$MAXACTVP
 70
    16
  9
$PLIMCHECK
 70
     0
  9
$PEXTMIN
 10
1.0000000000000000E+020
 20
1.0000000000000000E+020
 30
1.0000000000000000E+020
  9
$PEXTMAX
 10
-1.0000000000000000E+020
 20
-1.0000000000000000E+020
 30
-1.0000000000000000E+020
  9
$PLIMMIN
 10
0.0
 20
0.0
  9
$PLIMMAX
 10
12.0
 20
9.0
  9
$UNITMODE
 70
     0
  9
$VISRETAIN
 70
     0
  9
$PLINEGEN
 70
     0
  9
$PSLTSCALE
 70
     1
  0
ENDSEC
  0
SECTION
  2
TABLES
  0
TABLE
  2
VPORT
 70
     2
  0
VPORT
  2
*ACTIVE
 70
     0
 10
0.0
 20
0.0
 11
1.0
 21
1.0
 12
12055.96529284164
 22
8009.9956321173886
 13
0.0
 23
0.0
 14
10.0
 24
10.0
 15
10.0
 25
10.0
 16
0.0
 26
0.0
 36
1.0
 17
0.0
 27
0.0
 37
0.0
 40
16019.991264234781
 41
1.5051150895140659
 42
50.0
 43
0.0
 44
0.0
 50
0.0
 51
0.0
 71
     0
 72
   100
 73
     1
 74
     0
 75
     0
 76
     0
 77
     0
 78
     0
  0
ENDTAB
  0
TABLE
  2
LTYPE
 70
     2
  0
LTYPE
  2
CONTINUOUS
 70
     0
  3
Solid line
 72
    65
 73
     0
 40
0.0
  0
LTYPE
  2
CENTER
 70
     0
  3
____ _ ____ _ ____ _ ____ _ ____ _ ____ _ ____ 
 72
    65
 73
     4
 40
2.0
 49
1.25
 49
-0.25
 49
0.25
 49
-0.25
  0
ENDTAB
  0
TABLE
  2
LAYER
 70
     6
  0
LAYER
  2
0
 70
     0
 62
     7
  6
CONTINUOUS
  0
LAYER
  2
3
 70
     0
 62
     2
  6
CONTINUOUS
  0
LAYER
  2
2
 70
     0
 62
     3
  6
CENTER
  0
LAYER
  2
1
 70
     0
 62
     4
  6
CONTINUOUS
  0
LAYER
  2
4
 70
     0
 62
     7
  6
CONTINUOUS
  0
LAYER
  2
DEFPOINTS
 70
     0
 62
     7
  6
CONTINUOUS
  0
ENDTAB
  0
TABLE
  2
STYLE
 70
     1
  0
STYLE
  2
STANDARD
 70
     0
 40
0.0
 41
1.0
 50
0.0
 71
     0
 42
180.0
  3
simplex.shx
  4
extfont.shx
  0
ENDTAB
  0
TABLE
  2
VIEW
 70
     0
  0
ENDTAB
  0
TABLE
  2
UCS
 70
     0
  0
ENDTAB
  0
TABLE
  2
APPID
 70
     1
  0
APPID
  2
ACAD
 70
     0
  0
ENDTAB
  0
TABLE
  2
DIMSTYLE
 70
     1
  0
DIMSTYLE
  2
IGA
 70
     0
  3

  4

  5

  6
OPEN
  7
OPEN
 40
2.0
 41
2.0
 42
0.5
 43
10.0
 44
1.0
 45
0.0
 46
0.0
 47
1.0
 48
1.0
140
3.0
141
0.0
142
0.0
143
0.03937
144
1.0
145
0.0
146
10.0
147
1.0
 71
     0
 72
     0
 73
     0
 74
     0
 75
     0
 76
     0
 77
     1
 78
     8
170
     0
171
     2
172
     0
173
     1
174
     0
175
     0
176
     0
177
     0
178
     0
  0
ENDTAB
  0
ENDSEC
  0
SECTION
  2
BLOCKS
  0
BLOCK
  8
0
  2
$MODEL_SPACE
 70
     0
 10
0.0
 20
0.0
 30
0.0
  3
$MODEL_SPACE
  1

  0
ENDBLK
  5
1B
  8
0
  0
BLOCK
 67
     1
  8
0
  2
$PAPER_SPACE
 70
     0
 10
0.0
 20
0.0
 30
0.0
  3
$PAPER_SPACE
  1

  0
ENDBLK
  5
18
 67
     1
  8
0
  0
BLOCK
  8
0
  2
_OPEN
 70
     0
 10
0.0
 20
0.0
 30
0.0
  3
_OPEN
  1

  0
LINE
  5
79FD
  8
0
  6
BYBLOCK
 62
     0
 10
-1.0
 20
0.1666666666666666
 30
0.0
 11
0.0
 21
0.0
 31
0.0
  0
LINE
  5
79FE
  8
0
  6
BYBLOCK
 62
     0
 10
0.0
 20
0.0
 30
0.0
 11
-1.0
 21
-0.1666666666666666
 31
0.0
  0
LINE
  5
79FF
  8
0
  6
BYBLOCK
 62
     0
 10
0.0
 20
0.0
 30
0.0
 11
-1.0
 21
0.0
 31
0.0
  0
ENDBLK
  5
7A01
  8
0
  0
BLOCK
  8
0
  2
YA_N
 70
     0
 10
0.0
 20
0.0
 30
0.0
  3
YA_N
  1

  0
ENDBLK
  5
7A0C
  8
0
  0
BLOCK
  8
0
  2
*D2
 70
     1
 10
0.0
 20
0.0
 30
0.0
  3
*D2
  1

  0
LINE
  5
81C8
  8
3
 62
     0
 10
3991.5587254778361
 20
5643.4966865157512
 30
0.0
 11
4279.2048709915071
 21
5643.4966865157512
 31
0.0
  0
LINE
  5
81C9
  8
3
 62
     0
 10
3991.5587254778361
 20
4193.4966865157512
 30
0.0
 11
4279.2048709915071
 21
4193.4966865157512
 31
0.0
  0
LINE
  5
81CA
  8
3
 62
     0
 10
4239.2048709915071
 20
5563.4966865157512
 30
0.0
 11
4239.2048709915071
 21
4273.4966865157512
 31
0.0
  0
INSERT
  5
81CB
  8
3
 62
     0
  2
_OPEN
 10
4239.2048709915071
 20
5643.4966865157512
 30
0.0
 41
80.0
 42
80.0
 43
80.0
 50
90.0
  0
INSERT
  5
81CC
  8
3
 62
     0
  2
_OPEN
 10
4239.2048709915071
 20
4193.4966865157512
 30
0.0
 41
80.0
 42
80.0
 43
80.0
 50
270.0
  0
TEXT
  8
3
  40
120
  5
827F
  62
0
  72
0
  71
0
 10
3899.20
 20
4706.10
 30
0.000000
  1
1450
  0
POINT
  5
81CE
  8
DEFPOINTS
 62
     0
 10
3971.5587254778361
 20
5643.4966865157512
 30
0.0
  0
POINT
  5
81CF
  8
DEFPOINTS
 62
     0
 10
3971.5587254778361
 20
4193.4966865157512
 30
0.0
  0
POINT
  5
81D0
  8
DEFPOINTS
 62
     0
 10
4239.2048709915071
 20
4193.4966865157512
 30
0.0
  0
ENDBLK
  5
7F9D
  8
0
  0
BLOCK
  8
0
  2
*D3
 70
     1
 10
0.0
 20
0.0
 30
0.0
  3
*D3
  1

  0
LINE
  5
81D1
  8
3
 62
     0
 10
3991.5587254778361
 20
5643.4966865157512
 30
0.0
 11
4529.5574347000329
 21
5643.4966865157512
 31
0.0
  0
LINE
  5
81D2
  8
3
 62
     0
 10
4079.5534833289198
 20
4152.4966865157512
 30
0.0
 11
4529.5574347000329
 21
4152.4966865157512
 31
0.0
  0
LINE
  5
81D3
  8
3
 62
     0
 10
4489.557434700032
 20
5563.4966865157512
 30
0.0
 11
4489.557434700032
 21
4232.4966865157512
 31
0.0
  0
INSERT
  5
81D4
  8
3
 62
     0
  2
_OPEN
 10
4489.557434700032
 20
5643.4966865157512
 30
0.0
 41
80.0
 42
80.0
 43
80.0
 50
90.0
  0
INSERT
  5
81D5
  8
3
 62
     0
  2
_OPEN
 10
4489.557434700032
 20
4152.4966865157512
 30
0.0
 41
80.0
 42
80.0
 43
80.0
 50
270.0
  0
TEXT
  8
3
  40
120
  5
8280
  62
0
  72
0
  71
0
 10
4149.56
 20
4685.60
 30
0.000000
  1
1491
  0
POINT
  5
81D7
  8
DEFPOINTS
 62
     0
 10
3971.5587254778361
 20
5643.4966865157512
 30
0.0
  0
POINT
  5
81D8
  8
DEFPOINTS
 62
     0
 10
4059.5534833289198
 20
4152.4966865157512
 30
0.0
  0
POINT
  5
81D9
  8
DEFPOINTS
 62
     0
 10
4489.557434700032
 20
4152.4966865157512
 30
0.0
  0
ENDBLK
  5
7F92
  8
0
  0
BLOCK
  8
0
  2
*D4
 70
     1
 10
0.0
 20
0.0
 30
0.0
  3
*D4
  1

  0
LINE
  5
81DA
  8
3
 62
     0
 10
3891.5587254778361
 20
8749.2262574106862
 30
0.0
 11
3891.5587254778361
 21
9139.2728127694609
 31
0.0
  0
LINE
  5
81DB
  8
3
 62
     0
 10
2191.5587254778361
 20
8749.2262574106862
 30
0.0
 11
2191.5587254778361
 21
9139.2728127694609
 31
0.0
  0
LINE
  5
81DC
  8
3
 62
     0
 10
3811.558725477837
 20
9099.2728127694609
 30
0.0
 11
2271.5587254778361
 21
9099.2728127694609
 31
0.0
  0
INSERT
  5
81DD
  8
3
 62
     0
  2
_OPEN
 10
3891.5587254778361
 20
9099.2728127694609
 30
0.0
 41
80.0
 42
80.0
 43
80.0
  0
INSERT
  5
81DE
  8
3
 62
     0
  2
_OPEN
 10
2191.5587254778361
 20
9099.2728127694609
 30
0.0
 41
80.0
 42
80.0
 43
80.0
 50
180.0
  0
TEXT
  8
3
  40
120
  5
8281
  62
0
  72
0
  71
0
 10
2801.56
 20
8986.87
 30
0.000000
  1
1700
  0
POINT
  5
81E0
  8
DEFPOINTS
 62
     0
 10
3891.5587254778361
 20
8729.2262574106844
 30
0.0
  0
POINT
  5
81E1
  8
DEFPOINTS
 62
     0
 10
2191.5587254778361
 20
8729.2262574106844
 30
0.0
  0
POINT
  5
81E2
  8
DEFPOINTS
 62
     0
 10
2191.5587254778361
 20
9099.2728127694609
 30
0.0
  0
ENDBLK
  5
7F50
  8
0
  0
BLOCK
  8
0
  2
*D5
 70
     1
 10
0.0
 20
0.0
 30
0.0
  3
*D5
  1

  0
LINE
  5
81E3
  8
3
 62
     0
 10
2191.5587254778361
 20
8749.2262574106862
 30
0.0
 11
2191.5587254778361
 21
9139.2728127694609
 31
0.0
  0
LINE
  5
81E4
  8
3
 62
     0
 10
1141.5587254778361
 20
8449.2262574106862
 30
0.0
 11
1141.5587254778361
 21
9139.2728127694609
 31
0.0
  0
LINE
  5
81E5
  8
3
 62
     0
 10
2111.5587254778361
 20
9099.2728127694609
 30
0.0
 11
1221.5587254778361
 21
9099.2728127694609
 31
0.0
  0
INSERT
  5
81E6
  8
3
 62
     0
  2
_OPEN
 10
2191.5587254778361
 20
9099.2728127694609
 30
0.0
 41
80.0
 42
80.0
 43
80.0
  0
INSERT
  5
81E7
  8
3
 62
     0
  2
_OPEN
 10
1141.5587254778361
 20
9099.2728127694609
 30
0.0
 41
80.0
 42
80.0
 43
80.0
 50
180.0
  0
TEXT
  8
3
  40
120
  5
8282
  62
0
  72
0
  71
0
 10
1426.56
 20
8986.87
 30
0.000000
  1
1050
  0
POINT
  5
81E9
  8
DEFPOINTS
 62
     0
 10
2191.5587254778361
 20
8729.2262574106844
 30
0.0
  0
POINT
  5
81EA
  8
DEFPOINTS
 62
     0
 10
1141.5587254778361
 20
8429.2262574106862
 30
0.0
  0
POINT
  5
81EB
  8
DEFPOINTS
 62
     0
 10
1141.5587254778361
 20
9099.2728127694609
 30
0.0
  0
ENDBLK
  5
7F45
  8
0
  0
BLOCK
  8
0
  2
*D6
 70
     1
 10
0.0
 20
0.0
 30
0.0
  3
*D6
  1

  0
LINE
  5
81EC
  8
3
 62
     0
 10
1121.5587254778361
 20
8429.2262574106862
 30
0.0
 11
793.38188578679205
 21
8429.2262574106862
 31
0.0
  0
LINE
  5
81ED
  8
3
 62
     0
 10
1121.5587254778361
 20
7329.2262574106853
 30
0.0
 11
793.38188578679183
 21
7329.2262574106853
 31
0.0
  0
LINE
  5
81EE
  8
3
 62
     0
 10
833.38188578679205
 20
8349.2262574106862
 30
0.0
 11
833.38188578679171
 21
7409.2262574106862
 31
0.0
  0
INSERT
  5
81EF
  8
3
 62
     0
  2
_OPEN
 10
833.38188578679205
 20
8429.2262574106862
 30
0.0
 41
80.0
 42
80.0
 43
80.0
 50
90.0
  0
INSERT
  5
81F0
  8
3
 62
     0
  2
_OPEN
 10
833.38188578679171
 20
7329.2262574106853
 30
0.0
 41
80.0
 42
80.0
 43
80.0
 50
270.0
  0
TEXT
  8
3
  40
120
  5
8283
  62
0
  72
0
  71
0
 10
493.382
 20
7666.83
 30
0.000000
  1
1100
  0
POINT
  5
81F2
  8
DEFPOINTS
 62
     0
 10
1141.5587254778361
 20
8429.2262574106862
 30
0.0
  0
POINT
  5
81F3
  8
DEFPOINTS
 62
     0
 10
1141.5587254778361
 20
7329.2262574106853
 30
0.0
  0
POINT
  5
81F4
  8
DEFPOINTS
 62
     0
 10
833.38188578679171
 20
7329.2262574106853
 30
0.0
  0
ENDBLK
  5
7F3A
  8
0
  0
BLOCK
  8
0
  2
*D7
 70
     1
 10
0.0
 20
0.0
 30
0.0
  3
*D7
  1

  0
LINE
  5
81F5
  8
3
 62
     0
 10
3911.558725477837
 20
8729.2262574106844
 30
0.0
 11
4357.8206857337391
 21
8729.2262574106844
 31
0.0
  0
LINE
  5
81F6
  8
3
 62
     0
 10
3911.558725477837
 20
7329.2262574106853
 30
0.0
 11
4357.8206857337391
 21
7329.2262574106853
 31
0.0
  0
LINE
  5
81F7
  8
3
 62
     0
 10
4317.8206857337391
 20
8649.2262574106844
 30
0.0
 11
4317.8206857337391
 21
7409.2262574106862
 31
0.0
  0
INSERT
  5
81F8
  8
3
 62
     0
  2
_OPEN
 10
4317.8206857337391
 20
8729.2262574106844
 30
0.0
 41
80.0
 42
80.0
 43
80.0
 50
90.0
  0
INSERT
  5
81F9
  8
3
 62
     0
  2
_OPEN
 10
4317.8206857337391
 20
7329.2262574106853
 30
0.0
 41
80.0
 42
80.0
 43
80.0
 50
270.0
  0
TEXT
  8
3
  40
120
  5
8284
  62
0
  72
0
  71
0
 10
3977.82
 20
7816.83
 30
0.000000
  1
1400
  0
POINT
  5
81FB
  8
DEFPOINTS
 62
     0
 10
3891.5587254778361
 20
8729.2262574106844
 30
0.0
  0
POINT
  5
81FC
  8
DEFPOINTS
 62
     0
 10
3891.5587254778361
 20
7329.2262574106853
 30
0.0
  0
POINT
  5
81FD
  8
DEFPOINTS
 62
     0
 10
4317.8206857337391
 20
7329.2262574106853
 30
0.0
  0
ENDBLK
  5
7F5B
  8
0
  0
BLOCK
  8
0
  2
*D8
 70
     1
 10
0.0
 20
0.0
 30
0.0
  3
*D8
  1

  0
LINE
  5
81FE
  8
3
 62
     0
 10
3891.5587254778361
 20
7309.2262574106871
 30
0.0
 11
3891.5587254778361
 21
6710.1284891679788
 31
0.0
  0
LINE
  5
81FF
  8
3
 62
     0
 10
1141.5587254778361
 20
7309.2262574106871
 30
0.0
 11
1141.5587254778361
 21
6710.1284891679788
 31
0.0
  0
LINE
  5
8200
  8
3
 62
     0
 10
3811.558725477837
 20
6750.1284891679788
 30
0.0
 11
1221.5587254778361
 21
6750.1284891679788
 31
0.0
  0
INSERT
  5
8201
  8
3
 62
     0
  2
_OPEN
 10
3891.5587254778361
 20
6750.1284891679788
 30
0.0
 41
80.0
 42
80.0
 43
80.0
  0
INSERT
  5
8202
  8
3
 62
     0
  2
_OPEN
 10
1141.5587254778361
 20
6750.1284891679788
 30
0.0
 41
80.0
 42
80.0
 43
80.0
 50
180.0
  0
TEXT
  8
3
  40
120
  5
8285
  62
0
  72
0
  71
0
 10
2276.56
 20
6637.73
 30
0.000000
  1
2750
  0
POINT
  5
8204
  8
DEFPOINTS
 62
     0
 10
3891.5587254778361
 20
7329.2262574106853
 30
0.0
  0
POINT
  5
8205
  8
DEFPOINTS
 62
     0
 10
1141.5587254778361
 20
7329.2262574106853
 30
0.0
  0
POINT
  5
8206
  8
DEFPOINTS
 62
     0
 10
1141.5587254778361
 20
6750.1284891679788
 30
0.0
  0
ENDBLK
  5
7F66
  8
0
  0
BLOCK
  8
0
  2
*D9
 70
     1
 10
0.0
 20
0.0
 30
0.0
  3
*D9
  1

  0
LINE
  5
8207
  8
3
 62
     0
 10
5967.2544956771353
 20
5663.4966865157521
 30
0.0
 11
5967.2544956771353
 21
5907.1223104092096
 31
0.0
  0
LINE
  5
8208
  8
3
 62
     0
 10
7027.2544956771344
 20
5663.4966865157521
 30
0.0
 11
7027.2544956771344
 21
5907.1223104092096
 31
0.0
  0
LINE
  5
8209
  8
3
 62
     0
 10
6047.2544956771344
 20
5867.1223104092096
 30
0.0
 11
6947.2544956771344
 21
5867.1223104092096
 31
0.0
  0
INSERT
  5
820A
  8
3
 62
     0
  2
_OPEN
 10
5967.2544956771353
 20
5867.1223104092096
 30
0.0
 41
80.0
 42
80.0
 43
80.0
 50
180.0
  0
INSERT
  5
820B
  8
3
 62
     0
  2
_OPEN
 10
7027.2544956771344
 20
5867.1223104092096
 30
0.0
 41
80.0
 42
80.0
 43
80.0
  0
TEXT
  8
3
  40
120
  5
8286
  62
0
  72
0
  71
0
 10
6257.25
 20
5754.72
 30
0.000000
  1
1060
  0
POINT
  5
820D
  8
DEFPOINTS
 62
     0
 10
5967.2544956771353
 20
5643.4966865157512
 30
0.0
  0
POINT
  5
820E
  8
DEFPOINTS
 62
     0
 10
7027.2544956771344
 20
5643.4966865157512
 30
0.0
  0
POINT
  5
820F
  8
DEFPOINTS
 62
     0
 10
7027.2544956771344
 20
5867.1223104092096
 30
0.0
  0
ENDBLK
  5
8021
  8
0
  0
BLOCK
  8
0
  2
*D10
 70
     1
 10
0.0
 20
0.0
 30
0.0
  3
*D10
  1

  0
LINE
  5
8210
  8
3
 62
     0
 10
7131.2544956771353
 20
4922.4966865157512
 30
0.0
 11
7131.2544956771353
 21
6244.0243638722131
 31
0.0
  0
LINE
  5
8211
  8
3
 62
     0
 10
6497.2544956771344
 20
6108.7817275492234
 30
0.0
 11
6497.2544956771344
 21
6244.0243638722131
 31
0.0
  0
LINE
  5
8212
  8
3
 62
     0
 10
7051.2544956771353
 20
6204.0243638722131
 30
0.0
 11
6577.2544956771344
 21
6204.0243638722131
 31
0.0
  0
INSERT
  5
8213
  8
3
 62
     0
  2
_OPEN
 10
7131.2544956771353
 20
6204.0243638722131
 30
0.0
 41
80.0
 42
80.0
 43
80.0
  0
INSERT
  5
8214
  8
3
 62
     0
  2
_OPEN
 10
6497.2544956771344
 20
6204.0243638722131
 30
0.0
 41
80.0
 42
80.0
 43
80.0
 50
180.0
  0
TEXT
  8
3
  40
120
  5
8287
  62
0
  72
0
  71
0
 10
6614.11
 20
6091.62
 30
0.000000
  1
634
  0
POINT
  5
8216
  8
DEFPOINTS
 62
     0
 10
7131.2544956771353
 20
4902.4966865157512
 30
0.0
  0
POINT
  5
8217
  8
DEFPOINTS
 62
     0
 10
6497.2544956771344
 20
6088.7817275492216
 30
0.0
  0
POINT
  5
8218
  8
DEFPOINTS
 62
     0
 10
6497.2544956771344
 20
6204.0243638722131
 30
0.0
  0
ENDBLK
  5
802C
  8
0
  0
BLOCK
  8
0
  2
*D11
 70
     1
 10
0.0
 20
0.0
 30
0.0
  3
*D11
  1

  0
LINE
  5
8219
  8
3
 62
     0
 10
6497.2544956771344
 20
6108.7817275492234
 30
0.0
 11
6497.2544956771344
 21
6244.0243638722131
 31
0.0
  0
LINE
  5
821A
  8
3
 62
     0
 10
5547.5544956771328
 20
4722.4966865157512
 30
0.0
 11
5547.5544956771328
 21
6244.0243638722131
 31
0.0
  0
LINE
  5
821B
  8
3
 62
     0
 10
6417.2544956771344
 20
6204.0243638722131
 30
0.0
 11
5627.5544956771337
 21
6204.0243638722131
 31
0.0
  0
INSERT
  5
821C
  8
3
 62
     0
  2
_OPEN
 10
6497.2544956771344
 20
6204.0243638722131
 30
0.0
 41
80.0
 42
80.0
 43
80.0
  0
INSERT
  5
821D
  8
3
 62
     0
  2
_OPEN
 10
5547.5544956771328
 20
6204.0243638722131
 30
0.0
 41
80.0
 42
80.0
 43
80.0
 50
180.0
  0
TEXT
  8
3
  40
120
  5
8288
  62
0
  72
0
  71
0
 10
5782.40
 20
6191.62
 30
0.000000
  1
MAX
  0
TEXT
  8
3
  40
120
  5
8289
  62
0
  72
0
  71
0
 10
5782.40
 20
6035.62
 30
0.000000
  1
1030
  0
POINT
  5
821F
  8
DEFPOINTS
 62
     0
 10
6497.2544956771344
 20
6088.7817275492216
 30
0.0
  0
POINT
  5
8220
  8
DEFPOINTS
 62
     0
 10
5547.5544956771328
 20
4702.4966865157512
 30
0.0
  0
POINT
  5
8221
  8
DEFPOINTS
 62
     0
 10
5547.5544956771328
 20
6204.0243638722131
 30
0.0
  0
ENDBLK
  5
8067
  8
0
  0
BLOCK
  8
0
  2
*D12
 70
     1
 10
0.0
 20
0.0
 30
0.0
  3
*D12
  1

  0
LINE
  5
8222
  8
3
 62
     0
 10
4079.5534833289198
 20
4152.4966865157512
 30
0.0
 11
4529.5574347000329
 21
4152.4966865157512
 31
0.0
  0
LINE
  5
8223
  8
3
 62
     0
 10
3911.558725477837
 20
3112.4966865157512
 30
0.0
 11
4529.5574347000329
 21
3112.4966865157512
 31
0.0
  0
LINE
  5
8224
  8
3
 62
     0
 10
4489.557434700032
 20
4072.4966865157512
 30
0.0
 11
4489.557434700032
 21
3192.4966865157512
 31
0.0
  0
INSERT
  5
8225
  8
3
 62
     0
  2
_OPEN
 10
4489.557434700032
 20
4152.4966865157512
 30
0.0
 41
80.0
 42
80.0
 43
80.0
 50
90.0
  0
INSERT
  5
8226
  8
3
 62
     0
  2
_OPEN
 10
4489.557434700032
 20
3112.4966865157512
 30
0.0
 41
80.0
 42
80.0
 43
80.0
 50
270.0
  0
TEXT
  8
3
  40
120
  5
828A
  62
0
  72
0
  71
0
 10
4149.56
 20
3420.10
 30
0.000000
  1
1040
  0
POINT
  5
8228
  8
DEFPOINTS
 62
     0
 10
4059.5534833289198
 20
4152.4966865157512
 30
0.0
  0
POINT
  5
8229
  8
DEFPOINTS
 62
     0
 10
3891.5587254778361
 20
3112.4966865157512
 30
0.0
  0
POINT
  5
822A
  8
DEFPOINTS
 62
     0
 10
4489.557434700032
 20
3112.4966865157512
 30
0.0
  0
ENDBLK
  5
7FA8
  8
0
  0
BLOCK
  8
0
  2
*D13
 70
     1
 10
0.0
 20
0.0
 30
0.0
  3
*D13
  1

  0
LINE
  5
822B
  8
3
 62
     0
 10
3971.5587254778361
 20
5717.4966865157512
 30
0.0
 11
3971.5587254778361
 21
6001.0254883623384
 31
0.0
  0
LINE
  5
822C
  8
3
 62
     0
 10
3041.5587254778361
 20
5805.3745172878771
 30
0.0
 11
3041.5587254778361
 21
6001.0254883623384
 31
0.0
  0
LINE
  5
822D
  8
3
 62
     0
 10
3891.5587254778361
 20
5961.0254883623384
 30
0.0
 11
3121.5587254778361
 21
5961.0254883623384
 31
0.0
  0
INSERT
  5
822E
  8
3
 62
     0
  2
_OPEN
 10
3971.5587254778361
 20
5961.0254883623384
 30
0.0
 41
80.0
 42
80.0
 43
80.0
  0
INSERT
  5
822F
  8
3
 62
     0
  2
_OPEN
 10
3041.5587254778361
 20
5961.0254883623384
 30
0.0
 41
80.0
 42
80.0
 43
80.0
 50
180.0
  0
TEXT
  8
3
  40
120
  5
828B
  62
0
  72
0
  71
0
 10
3266.56
 20
5848.63
 30
0.000000
  1
930
  0
POINT
  5
8231
  8
DEFPOINTS
 62
     0
 10
3971.5587254778361
 20
5697.4966865157512
 30
0.0
  0
POINT
  5
8232
  8
DEFPOINTS
 62
     0
 10
3041.5587254778361
 20
5785.3745172878771
 30
0.0
  0
POINT
  5
8233
  8
DEFPOINTS
 62
     0
 10
3041.5587254778361
 20
5961.0254883623384
 30
0.0
  0
ENDBLK
  5
7F87
  8
0
  0
BLOCK
  8
0
  2
*D14
 70
     1
 10
0.0
 20
0.0
 30
0.0
  3
*D14
  1

  0
LINE
  5
8234
  8
3
 62
     0
 10
3041.5587254778361
 20
5805.3745172878771
 30
0.0
 11
3041.5587254778361
 21
6001.0254883623384
 31
0.0
  0
LINE
  5
8235
  8
3
 62
     0
 10
1834.5587254778361
 20
4274.4966865157512
 30
0.0
 11
1834.5587254778361
 21
6001.0254883623384
 31
0.0
  0
LINE
  5
8236
  8
3
 62
     0
 10
2961.5587254778361
 20
5961.0254883623384
 30
0.0
 11
1914.5587254778361
 21
5961.0254883623384
 31
0.0
  0
INSERT
  5
8237
  8
3
 62
     0
  2
_OPEN
 10
3041.5587254778361
 20
5961.0254883623384
 30
0.0
 41
80.0
 42
80.0
 43
80.0
  0
INSERT
  5
8238
  8
3
 62
     0
  2
_OPEN
 10
1834.5587254778361
 20
5961.0254883623384
 30
0.0
 41
80.0
 42
80.0
 43
80.0
 50
180.0
  0
TEXT
  8
3
  40
120
  5
828C
  62
0
  72
0
  71
0
 10
2198.06
 20
5848.63
 30
0.000000
  1
1207
  0
POINT
  5
823A
  8
DEFPOINTS
 62
     0
 10
3041.5587254778361
 20
5785.3745172878771
 30
0.0
  0
POINT
  5
823B
  8
DEFPOINTS
 62
     0
 10
1834.5587254778361
 20
4254.4966865157512
 30
0.0
  0
POINT
  5
823C
  8
DEFPOINTS
 62
     0
 10
1834.5587254778361
 20
5961.0254883623384
 30
0.0
  0
ENDBLK
  5
7F7C
  8
0
  0
BLOCK
  8
0
  2
*D15
 70
     1
 10
0.0
 20
0.0
 30
0.0
  3
*D15
  1

  0
LINE
  5
823D
  8
3
 62
     0
 10
3971.5587254778361
 20
5663.4966865157521
 30
0.0
 11
3971.5587254778361
 21
6282.0670467010159
 31
0.0
  0
LINE
  5
823E
  8
3
 62
     0
 10
1141.5587254778361
 20
3282.4966865157512
 30
0.0
 11
1141.5587254778361
 21
6282.0670467010159
 31
0.0
  0
LINE
  5
823F
  8
3
 62
     0
 10
3891.5587254778361
 20
6242.0670467010159
 30
0.0
 11
1221.5587254778361
 21
6242.0670467010159
 31
0.0
  0
INSERT
  5
8240
  8
3
 62
     0
  2
_OPEN
 10
3971.5587254778361
 20
6242.0670467010159
 30
0.0
 41
80.0
 42
80.0
 43
80.0
  0
INSERT
  5
8241
  8
3
 62
     0
  2
_OPEN
 10
1141.5587254778361
 20
6242.0670467010159
 30
0.0
 41
80.0
 42
80.0
 43
80.0
 50
180.0
  0
TEXT
  8
3
  40
120
  5
828D
  62
0
  72
0
  71
0
 10
2316.56
 20
6129.67
 30
0.000000
  1
2830
  0
POINT
  5
8243
  8
DEFPOINTS
 62
     0
 10
3971.5587254778361
 20
5643.4966865157512
 30
0.0
  0
POINT
  5
8244
  8
DEFPOINTS
 62
     0
 10
1141.5587254778361
 20
3262.4966865157512
 30
0.0
  0
POINT
  5
8245
  8
DEFPOINTS
 62
     0
 10
1141.5587254778361
 20
6242.0670467010159
 30
0.0
  0
ENDBLK
  5
7F71
  8
0
  0
BLOCK
  8
0
  2
*D16
 70
     1
 10
0.0
 20
0.0
 30
0.0
  3
*D16
  1

  0
LINE
  5
8246
  8
3
 62
     0
 10
7151.2544956771353
 20
4852.4966865157521
 30
0.0
 11
7538.4654525351689
 21
4852.4966865157521
 31
0.0
  0
LINE
  5
8247
  8
3
 62
     0
 10
7151.2544956771353
 20
3452.4966865157512
 30
0.0
 11
7538.4654525351689
 21
3452.4966865157498
 31
0.0
  0
LINE
  5
8248
  8
3
 62
     0
 10
7498.465452535168
 20
4772.4966865157512
 30
0.0
 11
7498.465452535168
 21
3532.4966865157498
 31
0.0
  0
INSERT
  5
8249
  8
3
 62
     0
  2
_OPEN
 10
7498.465452535168
 20
4852.4966865157521
 30
0.0
 41
80.0
 42
80.0
 43
80.0
 50
90.0
  0
INSERT
  5
824A
  8
3
 62
     0
  2
_OPEN
 10
7498.465452535168
 20
3452.4966865157498
 30
0.0
 41
80.0
 42
80.0
 43
80.0
 50
270.0
  0
TEXT
  8
3
  40
120
  5
828E
  62
0
  72
0
  71
0
 10
7158.47
 20
3940.10
 30
0.000000
  1
φ1400
  0
POINT
  5
824C
  8
DEFPOINTS
 62
     0
 10
7131.2544956771353
 20
4852.4966865157521
 30
0.0
  0
POINT
  5
824D
  8
DEFPOINTS
 62
     0
 10
7131.2544956771353
 20
3452.4966865157512
 30
0.0
  0
POINT
  5
824E
  8
DEFPOINTS
 62
     0
 10
7498.465452535168
 20
3452.4966865157498
 30
0.0
  0
ENDBLK
  5
804D
  8
0
  0
BLOCK
  8
0
  2
_DOT
 70
     0
 10
0.0
 20
0.0
 30
0.0
  3
_DOT
  1

  0
POLYLINE
  5
7F23
  8
0
  6
BYBLOCK
 62
     0
 66
     1
 10
0.0
 20
0.0
 30
0.0
 70
     1
 40
0.25
 41
0.25
  0
VERTEX
  5
824F
  8
0
  6
BYBLOCK
 62
     0
 10
-0.125
 20
0.0
 30
0.0
 42
1.0
  0
VERTEX
  5
8250
  8
0
  6
BYBLOCK
 62
     0
 10
0.125
 20
0.0
 30
0.0
 42
1.0
  0
SEQEND
  5
8251
  8
0
  6
BYBLOCK
 62
     0
  0
LINE
  5
7F27
  8
0
  6
BYBLOCK
 62
     0
 10
-0.25
 20
0.0
 30
0.0
 11
-1.0
 21
0.0
 31
0.0
  0
ENDBLK
  5
7F06
  8
0
  0
BLOCK
  8
0
  2
*D18
 70
     1
 10
0.0
 20
0.0
 30
0.0
  3
*D18
  1

  0
LINE
  5
8252
  8
3
 62
     0
 10
1141.5587254778361
 20
3092.4966865157512
 30
0.0
 11
1141.5587254778361
 21
2806.5212563020241
 31
0.0
  0
LINE
  5
8253
  8
3
 62
     0
 10
3041.558725477837
 20
3092.4966865157512
 30
0.0
 11
3041.558725477837
 21
2806.5212563020241
 31
0.0
  0
LINE
  5
8254
  8
3
 62
     0
 10
1221.5587254778361
 20
2846.521256302025
 30
0.0
 11
2961.558725477837
 21
2846.521256302025
 31
0.0
  0
INSERT
  5
8255
  8
3
 62
     0
  2
_OPEN
 10
1141.5587254778361
 20
2846.521256302025
 30
0.0
 41
80.0
 42
80.0
 43
80.0
 50
180.0
  0
INSERT
  5
8256
  8
3
 62
     0
  2
_OPEN
 10
3041.558725477837
 20
2846.521256302025
 30
0.0
 41
80.0
 42
80.0
 43
80.0
  0
TEXT
  8
3
  40
120
  5
828F
  62
0
  72
0
  71
0
 10
1851.56
 20
2734.12
 30
0.000000
  1
1900
  0
POINT
  5
8258
  8
DEFPOINTS
 62
     0
 10
1141.5587254778361
 20
3112.4966865157512
 30
0.0
  0
POINT
  5
8259
  8
DEFPOINTS
 62
     0
 10
3041.558725477837
 20
3112.4966865157512
 30
0.0
  0
POINT
  5
825A
  8
DEFPOINTS
 62
     0
 10
3041.558725477837
 20
2846.521256302025
 30
0.0
  0
ENDBLK
  5
8090
  8
0
  0
BLOCK
  8
0
  2
*D19
 70
     1
 10
0.0
 20
0.0
 30
0.0
  3
*D19
  1

  0
LINE
  5
825B
  8
3
 62
     0
 10
3041.558725477837
 20
3092.4966865157512
 30
0.0
 11
3041.558725477837
 21
2806.5212563020241
 31
0.0
  0
LINE
  5
825C
  8
3
 62
     0
 10
3891.5587254778361
 20
3092.4966865157512
 30
0.0
 11
3891.5587254778361
 21
2806.5212563020241
 31
0.0
  0
LINE
  5
825D
  8
3
 62
     0
 10
3121.558725477837
 20
2846.521256302025
 30
0.0
 11
3811.558725477837
 21
2846.521256302025
 31
0.0
  0
INSERT
  5
825E
  8
3
 62
     0
  2
_OPEN
 10
3041.558725477837
 20
2846.521256302025
 30
0.0
 41
80.0
 42
80.0
 43
80.0
 50
180.0
  0
INSERT
  5
825F
  8
3
 62
     0
  2
_OPEN
 10
3891.5587254778361
 20
2846.521256302025
 30
0.0
 41
80.0
 42
80.0
 43
80.0
  0
TEXT
  8
3
  40
120
  5
8290
  62
0
  72
0
  71
0
 10
3226.56
 20
2734.12
 30
0.000000
  1
850
  0
POINT
  5
8261
  8
DEFPOINTS
 62
     0
 10
3041.558725477837
 20
3112.4966865157512
 30
0.0
  0
POINT
  5
8262
  8
DEFPOINTS
 62
     0
 10
3891.5587254778361
 20
3112.4966865157512
 30
0.0
  0
POINT
  5
8263
  8
DEFPOINTS
 62
     0
 10
3891.5587254778361
 20
2846.521256302025
 30
0.0
  0
ENDBLK
  5
809D
  8
0
  0
BLOCK
  8
0
  2
*D20
 70
     1
 10
0.0
 20
0.0
 30
0.0
  3
*D20
  1

  0
LINE
  5
8264
  8
3
 62
     0
 10
5706.2544956771353
 20
3092.4966865157512
 30
0.0
 11
5706.2544956771353
 21
2806.5212563020241
 31
0.0
  0
LINE
  5
8265
  8
3
 62
     0
 10
6497.2544956771344
 20
3092.4966865157512
 30
0.0
 11
6497.2544956771344
 21
2806.5212563020241
 31
0.0
  0
LINE
  5
8266
  8
3
 62
     0
 10
5786.2544956771344
 20
2846.521256302025
 30
0.0
 11
6417.2544956771344
 21
2846.521256302025
 31
0.0
  0
INSERT
  5
8267
  8
3
 62
     0
  2
_OPEN
 10
5706.2544956771353
 20
2846.521256302025
 30
0.0
 41
80.0
 42
80.0
 43
80.0
 50
180.0
  0
INSERT
  5
8268
  8
3
 62
     0
  2
_OPEN
 10
6497.2544956771344
 20
2846.521256302025
 30
0.0
 41
80.0
 42
80.0
 43
80.0
  0
TEXT
  8
3
  40
120
  5
8291
  62
0
  72
0
  71
0
 10
5861.75
 20
2734.12
 30
0.000000
  1
791
  0
POINT
  5
826A
  8
DEFPOINTS
 62
     0
 10
5706.2544956771353
 20
3112.4966865157512
 30
0.0
  0
POINT
  5
826B
  8
DEFPOINTS
 62
     0
 10
6497.2544956771344
 20
3112.4966865157512
 30
0.0
  0
POINT
  5
826C
  8
DEFPOINTS
 62
     0
 10
6497.2544956771344
 20
2846.521256302025
 30
0.0
  0
ENDBLK
  5
80AA
  8
0
  0
BLOCK
  8
0
  2
*D21
 70
     1
 10
0.0
 20
0.0
 30
0.0
  3
*D21
  1

  0
LINE
  5
826D
  8
3
 62
     0
 10
6497.2544956771344
 20
3092.4966865157512
 30
0.0
 11
6497.2544956771344
 21
2806.5212563020241
 31
0.0
  0
LINE
  5
826E
  8
3
 62
     0
 10
7106.2544956771344
 20
3092.4966865157521
 30
0.0
 11
7106.2544956771344
 21
2806.5212563020241
 31
0.0
  0
LINE
  5
826F
  8
3
 62
     0
 10
6577.2544956771344
 20
2846.521256302025
 30
0.0
 11
7026.2544956771353
 21
2846.521256302025
 31
0.0
  0
INSERT
  5
8270
  8
3
 62
     0
  2
_OPEN
 10
6497.2544956771344
 20
2846.521256302025
 30
0.0
 41
80.0
 42
80.0
 43
80.0
 50
180.0
  0
INSERT
  5
8271
  8
3
 62
     0
  2
_OPEN
 10
7106.2544956771344
 20
2846.521256302025
 30
0.0
 41
80.0
 42
80.0
 43
80.0
  0
TEXT
  8
3
  40
120
  5
8292
  62
0
  72
0
  71
0
 10
6561.75
 20
2734.12
 30
0.000000
  1
609
  0
POINT
  5
8273
  8
DEFPOINTS
 62
     0
 10
6497.2544956771344
 20
3112.4966865157512
 30
0.0
  0
POINT
  5
8274
  8
DEFPOINTS
 62
     0
 10
7106.2544956771344
 20
3112.4966865157521
 30
0.0
  0
POINT
  5
8275
  8
DEFPOINTS
 62
     0
 10
7106.2544956771344
 20
2846.521256302025
 30
0.0
  0
ENDBLK
  5
80B7
  8
0
  0
BLOCK
  8
0
  2
*D22
 70
     1
 10
0.0
 20
0.0
 30
0.0
  3
*D22
  1

  0
LINE
  5
8276
  8
3
 62
     0
 10
4011.5587254778361
 20
5643.4966865157512
 30
0.0
 11
4822.765139419389
 21
5643.4966865157512
 31
0.0
  0
LINE
  5
8277
  8
3
 62
     0
 10
3911.558725477837
 20
3112.4966865157512
 30
0.0
 11
4822.765139419389
 21
3112.4966865157512
 31
0.0
  0
LINE
  5
8278
  8
3
 62
     0
 10
4782.765139419389
 20
5563.4966865157512
 30
0.0
 11
4782.765139419389
 21
3192.4966865157512
 31
0.0
  0
INSERT
  5
8279
  8
3
 62
     0
  2
_OPEN
 10
4782.765139419389
 20
5643.4966865157512
 30
0.0
 41
80.0
 42
80.0
 43
80.0
 50
90.0
  0
INSERT
  5
827A
  8
3
 62
     0
  2
_OPEN
 10
4782.765139419389
 20
3112.4966865157512
 30
0.0
 41
80.0
 42
80.0
 43
80.0
 50
270.0
  0
TEXT
  8
3
  40
120
  5
8293
  62
0
  72
0
  71
0
 10
4442.77
 20
4165.60
 30
0.000000
  1
2531
  0
POINT
  5
827C
  8
DEFPOINTS
 62
     0
 10
3991.5587254778361
 20
5643.4966865157512
 30
0.0
  0
POINT
  5
827D
  8
DEFPOINTS
 62
     0
 10
3891.5587254778361
 20
3112.4966865157512
 30
0.0
  0
POINT
  5
827E
  8
DEFPOINTS
 62
     0
 10
4782.765139419389
 20
3112.4966865157512
 30
0.0
  0
ENDBLK
  5
80C4
  8
0
  0
ENDSEC
  0
SECTION
  2
ENTITIES
  0
INSERT
  5
7BDB
  8
0
  2
YA_N
 10
6.0
 20
5.0
 30
0.0
  0
INSERT
  5
7BDD
  8
0
  2
YA_N
 10
6.0
 20
5.0
 30
0.0
  0
LINE
  5
7BDF
  8
2
 10
3041.5587254778361
 20
5785.3745172878771
 30
0.0
 11
3041.558725477837
 21
3112.4966865157512
 31
0.0
  0
LINE
  5
7BE0
  8
1
 10
3971.5587254778361
 20
4139.4966865157512
 30
0.0
 11
3971.5587254778361
 21
5697.4966865157512
 31
0.0
  0
LINE
  5
7BE1
  8
1
 10
3971.5587254778361
 20
4193.4966865157512
 30
0.0
 11
3862.4624702012129
 21
4193.4966865157512
 31
0.0
  0
ARC
  5
7BE2
  8
1
 10
3143.5587254778361
 20
4254.4966865157512
 30
0.0
 40
1309.0
 50
94.469136655521041
 51
180.0
  0
ARC
  5
7BE3
  8
1
 10
2939.5587254778361
 20
4254.4966865157512
 30
0.0
 40
1105.0
 50
180.0
 51
275.29638091185228
  0
ARC
  5
7BE4
  8
1
 10
2956.0587254778361
 20
4066.9966865157512
 30
0.0
 40
917.5
 50
275.34703780348622
 51
0.0
  0
ARC
  5
7BE5
  8
1
 10
3126.758725477835
 20
4066.9966865157512
 30
0.0
 40
746.49999999999989
 50
0.0
 51
9.7562766181166172
  0
LINE
  5
7BE6
  8
1
 10
3971.5587254778361
 20
5643.4966865157512
 30
0.0
 11
3041.5587254778361
 21
5559.6105398134632
 31
0.0
  0
LINE
  5
7BE7
  8
1
 10
3891.5587254778361
 20
3112.4966865157512
 30
0.0
 11
1141.5587254778361
 21
3112.4966865157512
 31
0.0
  0
LINE
  5
7BE8
  8
1
 10
3891.5587254778361
 20
3262.4966865157512
 30
0.0
 11
1141.5587254778361
 21
3262.4966865157512
 31
0.0
  0
LINE
  5
7BE9
  8
1
 10
3891.5587254778361
 20
3262.4966865157512
 30
0.0
 11
3891.5587254778361
 21
3112.4966865157512
 31
0.0
  0
LINE
  5
7BEA
  8
1
 10
1141.5587254778361
 20
3262.4966865157512
 30
0.0
 11
1141.5587254778361
 21
3112.4966865157512
 31
0.0
  0
LINE
  5
7BEB
  8
1
 10
3921.5587254778361
 20
4193.4966865157512
 30
0.0
 11
3921.5587254778361
 21
5638.986678628532
 31
0.0
  0
LINE
  5
7BEC
  8
2
 10
5360.5046519950192
 20
4152.4966865157512
 30
0.0
 11
7251.4873717252303
 21
4152.4966865157512
 31
0.0
  0
LINE
  5
7BED
  8
2
 10
6497.2544956771344
 20
5846.0635562266943
 30
0.0
 11
6497.2544956771344
 21
3112.4966865157512
 31
0.0
  0
LINE
  5
7BEE
  8
1
 10
5706.2544956771353
 20
3262.4966865157512
 30
0.0
 11
7106.2544956771344
 21
3262.4966865157512
 31
0.0
  0
LINE
  5
7BEF
  8
1
 10
5706.2544956771353
 20
3112.4966865157512
 30
0.0
 11
7106.2544956771344
 21
3112.4966865157521
 31
0.0
  0
LINE
  5
7BF0
  8
1
 10
3891.5587254778361
 20
7329.2262574106853
 30
0.0
 11
1141.5587254778361
 21
7329.2262574106853
 31
0.0
  0
LINE
  5
7BF1
  8
1
 10
3891.5587254778361
 20
8729.2262574106844
 30
0.0
 11
2191.5587254778361
 21
8729.2262574106844
 31
0.0
  0
LINE
  5
7BF2
  8
1
 10
3891.5587254778361
 20
8729.2262574106844
 30
0.0
 11
3891.5587254778361
 21
8650.2262574106862
 31
0.0
  0
LINE
  5
7BF3
  8
1
 10
2191.5587254778361
 20
8729.2262574106844
 30
0.0
 11
2191.5587254778361
 21
8650.2262574106844
 31
0.0
  0
LINE
  5
7BF4
  8
1
 10
1834.5587254778361
 20
8429.2262574106844
 30
0.0
 11
1141.5587254778361
 21
8429.2262574106862
 31
0.0
  0
LINE
  5
7BF5
  8
1
 10
1141.5587254778361
 20
8429.2262574106862
 30
0.0
 11
1141.5587254778361
 21
7329.2262574106853
 31
0.0
  0
LINE
  5
7BF6
  8
1
 10
5967.2544956771353
 20
5643.4966865157512
 30
0.0
 11
7027.2544956771344
 21
5643.4966865157512
 31
0.0
  0
LINE
  5
7BF7
  8
1
 10
7027.2544956771344
 20
5643.4966865157521
 30
0.0
 11
7027.2544956771344
 21
4161.4966865157521
 31
0.0
  0
LINE
  5
7BF8
  8
1
 10
5967.2544956771353
 20
5643.4966865157512
 30
0.0
 11
5967.2544956771353
 21
4152.4966865157512
 31
0.0
  0
LINE
  5
7BF9
  8
2
 10
4123.3152523595018
 20
4152.4966865157512
 30
0.0
 11
1364.881544883767
 21
4152.4966865157512
 31
0.0
  0
LINE
  5
7BFA
  8
2
 10
1441.5587254778361
 20
3935.493005138313
 30
0.0
 11
1441.5587254778361
 21
3182.1453598634671
 31
0.0
  0
LINE
  5
7BFB
  8
2
 10
1668.5214445181441
 20
3497.4966865157512
 30
0.0
 11
1141.5587254778361
 21
3497.4966865157512
 31
0.0
  0
LINE
  5
7BFC
  8
2
 10
6050.256445418785
 20
3497.4966865157512
 30
0.0
 11
5530.2294144474608
 21
3497.4966865157512
 31
0.0
  0
CIRCLE
  5
7BFD
  8
1
 10
3041.5587254778361
 20
4152.4966865157512
 30
0.0
 40
700.0
  0
CIRCLE
  5
7BFE
  8
1
 10
3041.5587254778361
 20
4152.4966865157512
 30
0.0
 40
750.0
  0
LINE
  5
7BFF
  8
1
 10
7030.4544956771351
 20
4852.4966865157521
 30
0.0
 11
7131.2544956771353
 21
4852.4966865157521
 31
0.0
  0
LINE
  5
7C00
  8
1
 10
7030.4544956771351
 20
3452.4966865157512
 30
0.0
 11
7131.2544956771353
 21
3452.4966865157512
 31
0.0
  0
LINE
  5
7C01
  8
1
 10
7131.2544956771353
 20
4902.4966865157512
 30
0.0
 11
7131.2544956771353
 21
3402.4966865157512
 31
0.0
  0
LINE
  5
7C02
  8
1
 10
1279.5587254778361
 20
3387.499191286493
 30
0.0
 11
1289.1877793675881
 21
3397.0509559869352
 31
0.0
  0
LINE
  5
7C03
  8
1
 10
1603.5587254778361
 20
3387.499191286493
 30
0.0
 11
1593.9296715880839
 21
3397.0509559869352
 31
0.0
  0
LINE
  5
7C04
  8
1
 10
1279.5587254778361
 20
3317.4966865157512
 30
0.0
 11
1279.5587254778361
 21
3387.499191286493
 31
0.0
  0
LINE
  5
7C05
  8
1
 10
1190.733033395737
 20
3317.4966865157512
 30
0.0
 11
1358.2204058995881
 21
3317.4966865157512
 31
0.0
  0
ARC
  5
7C06
  8
1
 10
1441.5587254778361
 20
3497.4966865157512
 30
0.0
 40
182.5
 50
285.78279193357162
 51
254.2172080664283
  0
LINE
  5
7C07
  8
1
 10
1491.197127635201
 20
3321.8769865067129
 30
0.0
 11
1391.920323320471
 21
3321.8769865067129
 31
0.0
  0
LINE
  5
7C08
  8
1
 10
1603.5587254778361
 20
3317.4966865157512
 30
0.0
 11
1603.5587254778361
 21
3387.4991912864962
 31
0.0
  0
LINE
  5
7C09
  8
1
 10
1603.5587254778361
 20
3317.4966865157512
 30
0.0
 11
1543.5587254778361
 21
3317.4966865157512
 31
0.0
  0
CIRCLE
  5
7C0A
  8
1
 10
1441.5587254778361
 20
3497.4966865157512
 30
0.0
 40
106.0
  0
LINE
  5
7C0B
  8
1
 10
1181.5587254778341
 20
3262.4966865157512
 30
0.0
 11
1190.733033395737
 21
3317.4966865157512
 31
0.0
  0
LINE
  5
7C0C
  8
1
 10
1358.2204058995881
 20
3317.4966865157512
 30
0.0
 11
1358.2204058995881
 21
3308.0203419541499
 31
0.0
  0
LINE
  5
7C0D
  8
1
 10
1358.2204058995881
 20
3308.0203419541499
 30
0.0
 11
1441.571506365362
 21
3308.0203419541499
 31
0.0
  0
LINE
  5
7C0E
  8
1
 10
1701.5587254778361
 20
3262.4966865157512
 30
0.0
 11
1692.3844175599329
 21
3317.4966865157512
 31
0.0
  0
LINE
  5
7C0F
  8
1
 10
1692.3844175599329
 20
3317.4966865157512
 30
0.0
 11
1524.8970450560839
 21
3317.4966865157512
 31
0.0
  0
LINE
  5
7C10
  8
1
 10
1524.8970450560839
 20
3308.0203419541499
 30
0.0
 11
1441.54594459031
 21
3308.0203419541499
 31
0.0
  0
LINE
  5
7C11
  8
1
 10
1524.8970450560839
 20
3317.4966865157512
 30
0.0
 11
1524.8970450560839
 21
3308.0203419541499
 31
0.0
  0
LINE
  5
7C12
  8
1
 10
5697.5544956771337
 20
4232.4966865157512
 30
0.0
 11
5697.5544956771337
 21
4072.4966865157512
 31
0.0
  0
LINE
  5
7C13
  8
1
 10
5597.5544956771328
 20
4552.4966865157512
 30
0.0
 11
5597.5544956771328
 21
3391.4966865157498
 31
0.0
  0
LINE
  5
7C14
  8
1
 10
5675.454495677136
 20
4552.4966865157512
 30
0.0
 11
5675.4544956771333
 21
3391.4966865157498
 31
0.0
  0
LINE
  5
7C15
  8
1
 10
5675.454495677136
 20
4232.4966865157512
 30
0.0
 11
5697.5544956771337
 21
4232.4966865157512
 31
0.0
  0
LINE
  5
7C16
  8
1
 10
5675.454495677136
 20
4072.4966865157512
 30
0.0
 11
5697.5544956771337
 21
4072.4966865157512
 31
0.0
  0
LINE
  5
7C17
  8
1
 10
5597.5544956771328
 20
3603.4966865157521
 30
0.0
 11
5675.4544956771333
 21
3603.4966865157521
 31
0.0
  0
LINE
  5
7C18
  8
1
 10
5597.5544956771328
 20
3391.4966865157498
 30
0.0
 11
5675.4544956771333
 21
3391.4966865157498
 31
0.0
  0
LINE
  5
7C19
  8
1
 10
5690.5544956771328
 20
3557.4966865157521
 30
0.0
 11
5690.5544956771328
 21
3437.4966865157521
 31
0.0
  0
LINE
  5
7C1A
  8
1
 10
5675.4544956771333
 20
3557.4966865157512
 30
0.0
 11
5690.5544956771328
 21
3557.4966865157521
 31
0.0
  0
LINE
  5
7C1B
  8
1
 10
5675.4544956771333
 20
3437.4966865157512
 30
0.0
 11
5690.5544956771328
 21
3437.4966865157521
 31
0.0
  0
LINE
  5
7C1C
  8
1
 10
5547.5544956771328
 20
3277.4966865157512
 30
0.0
 11
5747.5544956771337
 21
3277.4966865157512
 31
0.0
  0
LINE
  5
7C1D
  8
1
 10
5547.5544956771328
 20
4702.4966865157512
 30
0.0
 11
5547.5544956771328
 21
3277.4966865157512
 31
0.0
  0
LINE
  5
7C1E
  8
1
 10
5747.5544956771337
 20
4702.4966865157512
 30
0.0
 11
5747.5544956771337
 21
3277.4966865157512
 31
0.0
  0
LINE
  5
7C1F
  8
1
 10
5697.5544956771337
 20
4194.9966865157512
 30
0.0
 11
5967.2544956771353
 21
4194.9966865157512
 31
0.0
  0
LINE
  5
7C20
  8
1
 10
5697.5544956771337
 20
4109.9966865157512
 30
0.0
 11
5967.2544956771353
 21
4109.9966865157521
 31
0.0
  0
LINE
  5
7C2D
  8
1
 10
5967.2544956771353
 20
4152.4966865157512
 30
0.0
 11
5967.2544956771353
 21
3262.4966865157512
 31
0.0
  0
LINE
  5
7C2E
  8
1
 10
7027.2544956771344
 20
4143.4966865157512
 30
0.0
 11
7027.2544956771344
 21
3262.4966865157512
 31
0.0
  0
POINT
  5
7C2F
  8
1
 10
6497.2544956771344
 20
6088.7817275492216
 30
0.0
  0
INSERT
  5
7C30
  8
0
  6
BYBLOCK
 62
     2
  2
YA_N
 10
5372.4018783245183
 20
-226.14356067562309
 30
0.0
 41
90.0
 42
90.0
 43
90.0
 50
210.0117675348119
  0
CIRCLE
  5
7C31
  8
1
 10
3041.5587254778361
 20
4152.4966865157512
 30
0.0
 40
400.0
  0
ARC
  5
7C32
  8
1
 10
3041.5587254778361
 20
4152.4966865157512
 30
0.0
 40
550.0
 50
281.25911036006329
 51
128.5997638979342
  0
ARC
  5
7C33
  8
1
 10
1441.5587254778361
 20
3497.4966865157512
 30
0.0
 40
220.0
 50
128.5997638979342
 51
281.25911036006329
  0
LINE
  5
7C34
  8
1
 10
2698.4267185419721
 20
4582.3343603138574
 30
0.0
 11
1304.3059227034901
 21
3669.4317560349941
 31
0.0
  0
LINE
  5
7C35
  8
1
 10
2798.355859275689
 20
4470.0693016308787
 30
0.0
 11
1377.1099659342669
 21
3581.65342952126
 31
0.0
  0
LINE
  5
7C36
  8
1
 10
5597.5544956771328
 20
4552.4966865157512
 30
0.0
 11
5675.4544956771333
 21
4552.4966865157512
 31
0.0
  0
LINE
  5
7C37
  8
1
 10
5597.5544956771328
 20
3752.4966865157512
 30
0.0
 11
5675.4544956771333
 21
3752.4966865157512
 31
0.0
  0
LINE
  5
7C38
  8
1
 10
5547.5544956771328
 20
4702.4966865157512
 30
0.0
 11
5747.5544956771337
 21
4702.4966865157512
 31
0.0
  0
LINE
  5
7C39
  8
1
 10
5690.5544956771328
 20
3539.9966865157512
 30
0.0
 11
5967.2544956771353
 21
3539.9966865157512
 31
0.0
  0
LINE
  5
7C3A
  8
1
 10
5690.5544956771328
 20
3454.9966865157512
 30
0.0
 11
5967.2544956771353
 21
3454.9966865157512
 31
0.0
  0
DIMENSION
  5
7C3B
  8
3
  2
*D2
 10
4239.2048709915071
 20
4193.4966865157512
 30
0.0
 11
4139.2048709915052
 21
4918.4966865157521
 31
0.0
 70
     0
 13
3971.5587254778361
 23
5643.4966865157512
 33
0.0
 14
3971.5587254778361
 24
4193.4966865157512
 34
0.0
 50
270.0
1001
ACAD
1000
DSTYLE
1002
{
1070
   287
1070
     3
1070
   287
1070
     3
1070
    40
1040
40.0
1070
   143
1040
0.039
1070
   172
1070
     1
1070
   271
1070
     0
1070
   279
1070
     0
1070
   288
1070
     1
1002
}
  0
DIMENSION
  5
7C3C
  8
3
  2
*D3
 10
4489.557434700032
 20
4152.4966865157512
 30
0.0
 11
4389.557434700032
 21
4897.9966865157521
 31
0.0
 70
     0
 13
3971.5587254778361
 23
5643.4966865157512
 33
0.0
 14
4059.5534833289198
 24
4152.4966865157512
 34
0.0
 50
270.0
1001
ACAD
1000
DSTYLE
1002
{
1070
   287
1070
     3
1070
   287
1070
     3
1070
    40
1040
40.0
1070
   143
1040
0.039
1070
   172
1070
     1
1070
   271
1070
     0
1070
   279
1070
     0
1070
   288
1070
     1
1002
}
  0
DIMENSION
  5
7C43
  8
3
  2
*D4
 10
2191.5587254778361
 20
9099.2728127694609
 30
0.0
 11
3041.5587254778361
 21
9199.2728127694609
 31
0.0
 70
     0
 13
3891.5587254778361
 23
8729.2262574106844
 33
0.0
 14
2191.5587254778361
 24
8729.2262574106844
 34
0.0
1001
ACAD
1000
DSTYLE
1002
{
1070
   287
1070
     3
1070
   287
1070
     3
1070
    40
1040
40.0
1070
   143
1040
0.039
1070
   172
1070
     1
1070
   271
1070
     0
1070
   279
1070
     0
1070
   288
1070
     1
1002
}
  0
DIMENSION
  5
7C44
  8
3
  2
*D5
 10
1141.5587254778361
 20
9099.2728127694609
 30
0.0
 11
1666.5587254778361
 21
9199.2728127694609
 31
0.0
 70
     0
 13
2191.5587254778361
 23
8729.2262574106844
 33
0.0
 14
1141.5587254778361
 24
8429.2262574106862
 34
0.0
1001
ACAD
1000
DSTYLE
1002
{
1070
   287
1070
     3
1070
   287
1070
     3
1070
    40
1040
40.0
1070
   143
1040
0.039
1070
   172
1070
     1
1070
   271
1070
     0
1070
   279
1070
     0
1070
   288
1070
     1
1002
}
  0
DIMENSION
  5
7C45
  8
3
  2
*D6
 10
833.38188578679171
 20
7329.2262574106853
 30
0.0
 11
733.38188578679069
 21
7879.2262574106853
 31
0.0
 70
     0
 13
1141.5587254778361
 23
8429.2262574106862
 33
0.0
 14
1141.5587254778361
 24
7329.2262574106853
 34
0.0
 50
270.0
1001
ACAD
1000
DSTYLE
1002
{
1070
   287
1070
     3
1070
   287
1070
     3
1070
    40
1040
40.0
1070
   143
1040
0.039
1070
   172
1070
     1
1070
   271
1070
     0
1070
   279
1070
     0
1070
   288
1070
     1
1002
}
  0
DIMENSION
  5
7C46
  8
3
  2
*D7
 10
4317.8206857337391
 20
7329.2262574106853
 30
0.0
 11
4217.8206857337373
 21
8029.2262574106862
 31
0.0
 70
     0
 13
3891.5587254778361
 23
8729.2262574106844
 33
0.0
 14
3891.5587254778361
 24
7329.2262574106853
 34
0.0
 50
270.0
1001
ACAD
1000
DSTYLE
1002
{
1070
   287
1070
     3
1070
   287
1070
     3
1070
    40
1040
40.0
1070
   143
1040
0.039
1070
   172
1070
     1
1070
   271
1070
     0
1070
   279
1070
     0
1070
   288
1070
     1
1002
}
  0
DIMENSION
  5
7C47
  8
3
  2
*D8
 10
1141.5587254778361
 20
6750.1284891679788
 30
0.0
 11
2516.5587254778361
 21
6750.1284891679788
 31
0.0
 70
   128
 13
3891.5587254778361
 23
7329.2262574106853
 33
0.0
 14
1141.5587254778361
 24
7329.2262574106853
 34
0.0
1001
ACAD
1000
DSTYLE
1002
{
1070
   287
1070
     3
1070
   287
1070
     3
1070
    40
1040
40.0
1070
   143
1040
0.039
1070
   172
1070
     1
1070
   271
1070
     0
1070
   279
1070
     0
1070
   288
1070
     1
1002
}
  0
DIMENSION
  5
7C48
  8
3
  2
*D9
 10
7027.2544956771344
 20
5867.1223104092096
 30
0.0
 11
6497.2544956771344
 21
5967.1223104092096
 31
0.0
 70
     0
 13
5967.2544956771353
 23
5643.4966865157512
 33
0.0
 14
7027.2544956771344
 24
5643.4966865157512
 34
0.0
1001
ACAD
1000
DSTYLE
1002
{
1070
   287
1070
     3
1070
   287
1070
     3
1070
    40
1040
40.0
1070
   143
1040
0.039
1070
   172
1070
     1
1070
   271
1070
     0
1070
   279
1070
     0
1070
   288
1070
     1
1002
}
  0
DIMENSION
  5
7C49
  8
3
  2
*D10
 10
6497.2544956771344
 20
6204.0243638722131
 30
0.0
 11
6854.1116385342766
 21
6204.0243638722131
 31
0.0
 70
   128
 13
7131.2544956771353
 23
4902.4966865157512
 33
0.0
 14
6497.2544956771344
 24
6088.7817275492216
 34
0.0
1001
ACAD
1000
DSTYLE
1002
{
1070
   287
1070
     3
1070
   287
1070
     3
1070
    40
1040
40.0
1070
   143
1040
0.039
1070
   172
1070
     1
1070
   271
1070
     0
1070
   279
1070
     0
1070
   288
1070
     1
1002
}
  0
DIMENSION
  5
7C4A
  8
3
  2
*D11
 10
5547.5544956771328
 20
6204.0243638722131
 30
0.0
 11
6022.404495677134
 21
6404.0243638722131
 31
0.0
 70
     0
  1
MAX\P1030
 13
6497.2544956771344
 23
6088.7817275492216
 33
0.0
 14
5547.5544956771328
 24
4702.4966865157512
 34
0.0
1001
ACAD
1000
DSTYLE
1002
{
1070
   287
1070
     3
1070
   287
1070
     3
1070
    40
1040
40.0
1070
   143
1040
0.039
1070
   172
1070
     1
1070
   271
1070
     0
1070
   279
1070
     0
1070
   288
1070
     1
1002
}
  0
LINE
  5
7C4B
  8
2
 10
3041.5587254778361
 20
7120.2808888724776
 30
0.0
 11
3041.5587254778361
 21
8590.0620644159317
 31
0.0
  0
LINE
  5
7C4C
  8
2
 10
3891.5587254778361
 20
8120.2262574106871
 30
0.0
 11
1293.659876718651
 21
8120.2262574106826
 31
0.0
  0
LINE
  5
7C4D
  8
1
 10
3971.5587254778361
 20
8650.2262574106862
 30
0.0
 11
1834.5587254778361
 21
8650.2262574106844
 31
0.0
  0
LINE
  5
7C4E
  8
1
 10
3971.5587254778361
 20
7590.2262574106871
 30
0.0
 11
1834.5587254778361
 21
7590.2262574106871
 31
0.0
  0
LINE
  5
7C4F
  8
1
 10
3891.5587254778361
 20
7590.2262574106871
 30
0.0
 11
3891.5587254778361
 21
7329.2262574106853
 31
0.0
  0
LINE
  5
7C50
  8
1
 10
3127.944432984079
 20
3761.9361796302692
 30
0.0
 11
1464.4509379669901
 21
3393.9981521910991
 31
0.0
  0
LINE
  5
7C51
  8
1
 10
3148.944174020151
 20
3613.0818503818482
 30
0.0
 11
1484.512904894762
 21
3281.7307520621912
 31
0.0
  0
DIMENSION
  5
7C52
  8
3
  2
*D12
 10
4489.557434700032
 20
3112.4966865157512
 30
0.0
 11
4389.557434700032
 21
3632.4966865157521
 31
0.0
 70
     0
 13
4059.5534833289198
 23
4152.4966865157512
 33
0.0
 14
3891.5587254778361
 24
3112.4966865157512
 34
0.0
 50
90.0
1001
ACAD
1000
DSTYLE
1002
{
1070
   287
1070
     3
1070
   287
1070
     3
1070
    40
1040
40.0
1070
   143
1040
0.039
1070
   172
1070
     1
1070
   271
1070
     0
1070
   279
1070
     0
1070
   288
1070
     1
1002
}
  0
DIMENSION
  5
7C55
  8
3
  2
*D13
 10
3041.5587254778361
 20
5961.0254883623384
 30
0.0
 11
3506.5587254778361
 21
6061.0254883623384
 31
0.0
 70
     0
 13
3971.5587254778361
 23
5697.4966865157512
 33
0.0
 14
3041.5587254778361
 24
5785.3745172878771
 34
0.0
1001
ACAD
1000
DSTYLE
1002
{
1070
   287
1070
     3
1070
   287
1070
     3
1070
    40
1040
40.0
1070
   143
1040
0.039
1070
   172
1070
     1
1070
   271
1070
     0
1070
   279
1070
     0
1070
   288
1070
     1
1002
}
  0
DIMENSION
  5
7C56
  8
3
  2
*D14
 10
1834.5587254778361
 20
5961.0254883623384
 30
0.0
 11
2438.0587254778361
 21
6061.0254883623384
 31
0.0
 70
     0
 13
3041.5587254778361
 23
5785.3745172878771
 33
0.0
 14
1834.5587254778361
 24
4254.4966865157512
 34
0.0
1001
ACAD
1000
DSTYLE
1002
{
1070
   287
1070
     3
1070
   287
1070
     3
1070
    40
1040
40.0
1070
   143
1040
0.039
1070
   172
1070
     1
1070
   271
1070
     0
1070
   279
1070
     0
1070
   288
1070
     1
1002
}
  0
DIMENSION
  5
7C57
  8
3
  2
*D15
 10
1141.5587254778361
 20
6242.0670467010159
 30
0.0
 11
2556.5587254778361
 21
6342.0670467010168
 31
0.0
 70
     0
 13
3971.5587254778361
 23
5643.4966865157512
 33
0.0
 14
1141.5587254778361
 24
3262.4966865157512
 34
0.0
1001
ACAD
1000
DSTYLE
1002
{
1070
   287
1070
     3
1070
   287
1070
     3
1070
    40
1040
40.0
1070
   143
1040
0.039
1070
   172
1070
     1
1070
   271
1070
     0
1070
   279
1070
     0
1070
   288
1070
     1
1002
}
  0
LINE
  5
7C59
  8
1
 10
7106.2544956771344
 20
3262.4966865157512
 30
0.0
 11
7106.2544956771344
 21
3112.4966865157521
 31
0.0
  0
LINE
  5
7C5A
  8
1
 10
5706.2544956771353
 20
3262.4966865157512
 30
0.0
 11
5706.2544956771353
 21
3112.4966865157512
 31
0.0
  0
LINE
  5
7C5B
  8
1
 10
3971.5587254778361
 20
7540.2262574106871
 30
0.0
 11
3971.5587254778361
 21
8700.2262574106862
 31
0.0
  0
LINE
  5
7C5C
  8
1
 10
1834.5587254778361
 20
7590.2262574106871
 30
0.0
 11
1834.5587254778361
 21
8650.2262574106844
 31
0.0
  0
LINE
  5
7C5D
  8
1
 10
5967.2544956771353
 20
4193.4966865157512
 30
0.0
 11
7027.2544956771344
 21
4193.4966865157512
 31
0.0
  0
LINE
  5
7C5E
  8
1
 10
7027.2544956771344
 20
5643.4966865157512
 30
0.0
 11
5967.2544956771353
 21
4193.4966865157512
 31
0.0
  0
LINE
  5
7C5F
  8
1
 10
5967.2544956771353
 20
5643.4966865157512
 30
0.0
 11
7027.2544956771344
 21
4193.4966865157512
 31
0.0
  0
LINE
  5
7C60
  8
1
 10
3591.5587254778361
 20
7370.5262574106846
 30
0.0
 11
1221.5587254778361
 21
7370.5262574106846
 31
0.0
  0
LINE
  5
7C61
  8
1
 10
3591.5587254778361
 20
7170.5262574106846
 30
0.0
 11
1221.5587254778361
 21
7170.5262574106846
 31
0.0
  0
LINE
  5
7C62
  8
1
 10
3441.5587254778361
 20
7298.4262574106851
 30
0.0
 11
2641.5587254778361
 21
7298.4262574106851
 31
0.0
  0
LINE
  5
7C63
  8
1
 10
3441.5587254778361
 20
7220.5262574106864
 30
0.0
 11
2641.5587254778361
 21
7220.5262574106864
 31
0.0
  0
LINE
  5
7C64
  8
1
 10
1221.5587254778361
 20
7170.5262574106846
 30
0.0
 11
1221.5587254778361
 21
7370.5262574106846
 31
0.0
  0
LINE
  5
7C65
  8
1
 10
1335.5587254778361
 20
7220.5262574106864
 30
0.0
 11
1335.5587254778361
 21
7298.4262574106851
 31
0.0
  0
LINE
  5
7C66
  8
2
 10
1441.5587254778361
 20
8064.7094298116172
 30
0.0
 11
1441.5587254778361
 21
7153.2011761810127
 31
0.0
  0
LINE
  5
7C67
  8
1
 10
1399.0587254778361
 20
7313.5262574106846
 30
0.0
 11
1399.0587254778361
 21
7428.5262574106837
 31
0.0
  0
LINE
  5
7C68
  8
1
 10
1484.0587254778361
 20
7313.5262574106864
 30
0.0
 11
1484.0587254778361
 21
7428.5262574106846
 31
0.0
  0
LINE
  5
7C69
  8
1
 10
1501.5587254778361
 20
7313.5262574106846
 30
0.0
 11
1381.5587254778361
 21
7313.5262574106846
 31
0.0
  0
LINE
  5
7C6A
  8
1
 10
1381.5587254778361
 20
7298.4262574106851
 30
0.0
 11
1381.5587254778361
 21
7313.5262574106846
 31
0.0
  0
LINE
  5
7C6B
  8
1
 10
1501.5587254778361
 20
7298.4262574106851
 30
0.0
 11
1501.5587254778361
 21
7313.5262574106846
 31
0.0
  0
LINE
  5
7C6C
  8
1
 10
2641.5587254778361
 20
7220.5262574106864
 30
0.0
 11
2641.5587254778361
 21
7298.4262574106851
 31
0.0
  0
LINE
  5
7C6D
  8
1
 10
3441.5587254778361
 20
7220.5262574106864
 30
0.0
 11
3441.5587254778361
 21
7298.4262574106851
 31
0.0
  0
LINE
  5
7C6E
  8
1
 10
1547.5587254778361
 20
7220.5262574106864
 30
0.0
 11
1547.5587254778361
 21
7298.4262574106851
 31
0.0
  0
LINE
  5
7C6F
  8
1
 10
3121.5587254778361
 20
7320.5262574106846
 30
0.0
 11
2961.5587254778361
 21
7320.5262574106846
 31
0.0
  0
LINE
  5
7C70
  8
1
 10
2999.0587254778361
 20
7320.5262574106846
 30
0.0
 11
2999.058725477837
 21
7590.2262574106871
 31
0.0
  0
LINE
  5
7C71
  8
1
 10
2961.5587254778361
 20
7298.4262574106851
 30
0.0
 11
2961.5587254778361
 21
7320.5262574106846
 31
0.0
  0
LINE
  5
7C72
  8
1
 10
3084.0587254778361
 20
7320.5262574106846
 30
0.0
 11
3084.0587254778361
 21
7590.2262574106871
 31
0.0
  0
LINE
  5
7C73
  8
1
 10
3121.5587254778361
 20
7298.4262574106851
 30
0.0
 11
3121.5587254778361
 21
7320.5262574106846
 31
0.0
  0
LINE
  5
7C74
  8
1
 10
3591.5587254778361
 20
7170.5262574106846
 30
0.0
 11
3591.5587254778361
 21
7370.5262574106846
 31
0.0
  0
LINE
  5
7C75
  8
1
 10
1624.0587254778361
 20
7990.0262574106864
 30
0.0
 11
1259.0587254778361
 21
7990.0262574106864
 31
0.0
  0
LINE
  5
7C76
  8
1
 10
1624.0587254778361
 20
7428.5262574106846
 30
0.0
 11
1259.0587254778361
 21
7428.5262574106846
 31
0.0
  0
LINE
  5
7C77
  8
1
 10
1624.0587254778361
 20
7990.0262574106864
 30
0.0
 11
1624.0587254778361
 21
7428.5262574106846
 31
0.0
  0
LINE
  5
7C78
  8
1
 10
1259.0587254778361
 20
7990.0262574106864
 30
0.0
 11
1259.0587254778361
 21
7428.5262574106846
 31
0.0
  0
LINE
  5
7C79
  8
1
 10
1547.5587254778361
 20
7298.4262574106851
 30
0.0
 11
1335.5587254778361
 21
7298.4262574106851
 31
0.0
  0
LINE
  5
7C7A
  8
1
 10
1547.5587254778361
 20
7220.5262574106864
 30
0.0
 11
1335.5587254778361
 21
7220.5262574106864
 31
0.0
  0
DIMENSION
  5
7C7B
  8
3
  2
*D16
 10
7498.465452535168
 20
3452.4966865157498
 30
0.0
 11
7398.4654525351689
 21
4152.4966865157521
 31
0.0
 70
     0
 13
7131.2544956771353
 23
4852.4966865157521
 33
0.0
 14
7131.2544956771353
 24
3452.4966865157512
 34
0.0
 50
90.0
1001
ACAD
1000
DSTYLE
1002
{
1070
   287
1070
     3
1070
   287
1070
     3
1070
     3
1000
φ<>
1070
    40
1040
40.0
1070
   143
1040
0.039
1070
   172
1070
     1
1070
   271
1070
     0
1070
   279
1070
     0
1070
   288
1070
     1
1002
}
  0
LINE
  5
7E9E
  8
4
 10
7400.0
 20
2000.0
 30
0.0
 11
7400.0
 21
1200.0
 31
0.0
  0
LINE
  5
7E9F
  8
4
 10
4600.0
 20
2000.0
 30
0.0
 11
4600.0
 21
1200.0
 31
0.0
  0
LINE
  5
7EA0
  8
4
 10
2600.0
 20
2000.0
 30
0.0
 11
2600.0
 21
1200.0
 31
0.0
  0
LINE
  5
7EA3
  8
4
 10
2600.0
 20
1200.0
 30
0.0
 11
7400.0
 21
1200.0
 31
0.0
  0
LINE
  5
7EA4
  8
4
 10
2600.0
 20
1600.0
 30
0.0
 11
7400.0
 21
1600.0
 31
0.0
  0
TEXT
  5
7EA5
  8
4
 10
2754.0083233876071
 20
1726.1721034664511
 30
0.0
 40
200.0
  1
機器名称
  0
TEXT
  5
7EA6
  8
4
 10
2745.0324240991899
 20
1286.5806269280431
 30
0.0
 40
200.0
  1
機器型番
  0
TEXT
  5
7EA7
  8
4
 10
4710.7149819506594
 20
1690.287075830274
 30
0.0
 40
200.0
  1
ミツヤ多翼送風機
  0
TEXT
  5
7EA8
  8
4
 10
4746.6179823419234
 20
1268.638337119773
 30
0.0
 40
200.0
  1
MFE#9-4
  0
TEXT
  5
7EAA
  8
4
 10
3196.7081267979661
 20
9533.7153653300629
 30
0.0
 40
215.99999999999989
  1
床置ベット
  0
TEXT
  5
7EAB
  8
4
 10
1264.6703733177851
 20
10135.52390479719
 30
0.0
 40
288.0
  1
ベルト駆動式片吸込両持排煙ファン
  0
LINE
  5
7EAC
  8
4
 10
1000.0
 20
9877.6350170592195
 30
0.0
 11
7400.0
 21
9877.6350170592195
 31
0.0
  0
LINE
  5
7EAD
  8
4
 10
1000.0
 20
10677.63501705921
 30
0.0
 11
7400.0
 21
10677.63501705921
 31
0.0
  0
LINE
  5
7EAE
  8
4
 10
2600.0
 20
2000.0
 30
0.0
 11
7400.0
 21
2000.0
 31
0.0
  0
LINE
  5
7EAF
  8
4
 10
1000.0
 20
10677.63501705921
 30
0.0
 11
1000.0
 21
9877.6350170592195
 31
0.0
  0
TEXT
  5
7EB0
  8
4
 10
1453.272797827158
 20
9529.2779101853739
 30
0.0
 40
215.99999999999989
  1
右回転右横向
  0
TEXT
  5
7EB1
  8
4
 10
5875.8782369971586
 20
10824.24432598123
 30
0.0
 40
224.0
  1
No.
  0
TEXT
  5
7EB2
  8
4
 10
5245.1842504000524
 20
9533.7153653300629
 30
0.0
 40
215.99999999999989
  1
縮尺：1/40
  0
LINE
  5
7EB3
  8
4
 10
7400.0
 20
10677.63501705921
 30
0.0
 11
7400.0
 21
9877.6350170592195
 31
0.0
  0
LINE
  5
7EB4
  8
4
 10
8400.0
 20
11800.0
 30
0.0
 11
8400.0
 21
11800.0
 31
0.0
  0
LINE
  5
7EB5
  8
4
 10
5762.4696894394583
 20
10725.054332501601
 30
0.0
 11
5762.4696894394583
 21
11146.609046199001
 31
0.0
  0
LINE
  5
7EB6
  8
4
 10
5762.4696894394583
 20
11146.609046199001
 30
0.0
 11
7400.0
 21
11146.609046199001
 31
0.0
  0
LINE
  5
7EB7
  8
4
 10
7400.0
 20
11146.609046199001
 30
0.0
 11
7400.0
 21
10725.054332501601
 31
0.0
  0
LINE
  5
7EB8
  8
4
 10
7400.0
 20
10725.054332501601
 30
0.0
 11
5762.4696894394583
 21
10725.054332501601
 31
0.0
  0
LINE
  5
7EB9
  8
4
 10
0.0
 20
0.0
 30
0.0
 11
0.0
 21
11800.0
 31
0.0
  0
LINE
  5
7EBA
  8
4
 10
0.0
 20
11800.0
 30
0.0
 11
8400.0
 21
11800.0
 31
0.0
  0
LINE
  5
7EBB
  8
4
 10
8400.0
 20
11800.0
 30
0.0
 11
8400.0
 21
0.0
 31
0.0
  0
LINE
  5
7EBC
  8
4
 10
8400.0
 20
0.0
 30
0.0
 11
0.0
 21
0.0
 31
0.0
  0
DIMENSION
  5
8091
  8
3
  2
*D18
 10
3041.558725477837
 20
2846.521256302025
 30
0.0
 11
2091.5587254778361
 21
2946.521256302025
 31
0.0
 70
     0
 13
1141.5587254778361
 23
3112.4966865157512
 33
0.0
 14
3041.558725477837
 24
3112.4966865157512
 34
0.0
1001
ACAD
1000
DSTYLE
1002
{
1070
   287
1070
     3
1070
   287
1070
     3
1070
    40
1040
40.0
1070
   143
1040
0.039
1070
   172
1070
     1
1070
   271
1070
     0
1070
   279
1070
     0
1002
}
  0
DIMENSION
  5
809E
  8
3
  2
*D19
 10
3891.5587254778361
 20
2846.521256302025
 30
0.0
 11
3466.5587254778361
 21
2946.521256302025
 31
0.0
 70
     0
 13
3041.558725477837
 23
3112.4966865157512
 33
0.0
 14
3891.5587254778361
 24
3112.4966865157512
 34
0.0
1001
ACAD
1000
DSTYLE
1002
{
1070
   287
1070
     3
1070
   287
1070
     3
1070
    40
1040
40.0
1070
   143
1040
0.039
1070
   172
1070
     1
1070
   271
1070
     0
1070
   279
1070
     0
1002
}
  0
DIMENSION
  5
80AB
  8
3
  2
*D20
 10
6497.2544956771344
 20
2846.521256302025
 30
0.0
 11
6101.7544956771344
 21
2946.521256302025
 31
0.0
 70
     0
 13
5706.2544956771353
 23
3112.4966865157512
 33
0.0
 14
6497.2544956771344
 24
3112.4966865157512
 34
0.0
1001
ACAD
1000
DSTYLE
1002
{
1070
   287
1070
     3
1070
   287
1070
     3
1070
    40
1040
40.0
1070
   143
1040
0.039
1070
   172
1070
     1
1070
   271
1070
     0
1070
   279
1070
     0
1002
}
  0
DIMENSION
  5
80B8
  8
3
  2
*D21
 10
7106.2544956771344
 20
2846.521256302025
 30
0.0
 11
6801.7544956771344
 21
2946.521256302025
 31
0.0
 70
     0
 13
6497.2544956771344
 23
3112.4966865157512
 33
0.0
 14
7106.2544956771344
 24
3112.4966865157521
 34
0.0
1001
ACAD
1000
DSTYLE
1002
{
1070
   287
1070
     3
1070
   287
1070
     3
1070
    40
1040
40.0
1070
   143
1040
0.039
1070
   172
1070
     1
1070
   271
1070
     0
1070
   279
1070
     0
1002
}
  0
DIMENSION
  5
80C5
  8
3
  2
*D22
 10
4782.765139419389
 20
3112.4966865157512
 30
0.0
 11
4682.7651394193872
 21
4377.9966865157521
 31
0.0
 70
     0
 13
3991.5587254778361
 23
5643.4966865157512
 33
0.0
 14
3891.5587254778361
 24
3112.4966865157512
 34
0.0
 50
90.0
1001
ACAD
1000
DSTYLE
1002
{
1070
   287
1070
     3
1070
   287
1070
     3
1070
    40
1040
40.0
1070
   143
1040
0.039
1070
   172
1070
     1
1070
   271
1070
     0
1070
   279
1070
     0
1002
}
  0
ENDSEC
  0
EOF
