  0
SECTION
  2
HEADER
  9
$ACADVER
  1
AC1009
  9
$INSBASE
 10
0.0
 20
0.0
 30
0.0
  9
$EXTMIN
 10
0.0
 20
0.0
 30
0.0
  9
$EXTMAX
 10
8400.0
 20
11800.0
 30
0.0
  9
$LIMMIN
 10
0.0
 20
0.0
  9
$LIMMAX
 10
297.0
 20
210.0
  9
$ORTHOMODE
 70
     0
  9
$REGENMODE
 70
     1
  9
$FILLMODE
 70
     0
  9
$QTEXTMODE
 70
     0
  9
$MIRRTEXT
 70
     1
  9
$DRAGMODE
 70
     2
  9
$LTSCALE
 40
100.0
  9
$OSMODE
 70
    37
  9
$ATTMODE
 70
     1
  9
$TEXTSIZE
 40
180.0
  9
$TRACEWID
 40
0.05
  9
$TEXTSTYLE
  7
STANDARD
  9
$CLAYER
  8
3
  9
$CELTYPE
  6
BYLAYER
  9
$CECOLOR
 62
   256
  9
$DIMSCALE
 40
40.0
  9
$DIMASZ
 40
2.0
  9
$DIMEXO
 40
0.5
  9
$DIMDLI
 40
10.0
  9
$DIMRND
 40
0.0
  9
$DIMDLE
 40
0.0
  9
$DIMEXE
 40
1.0
  9
$DIMTP
 40
1.0
  9
$DIMTM
 40
1.0
  9
$DIMTXT
 40
3.0
  9
$DIMCEN
 40
0.0
  9
$DIMTSZ
 40
0.0
  9
$DIMTOL
 70
     0
  9
$DIMLIM
 70
     0
  9
$DIMTIH
 70
     0
  9
$DIMTOH
 70
     0
  9
$DIMSE1
 70
     0
  9
$DIMSE2
 70
     0
  9
$DIMTAD
 70
     1
  9
$DIMZIN
 70
     8
  9
$DIMBLK
  1

  9
$DIMASO
 70
     1
  9
$DIMSHO
 70
     1
  9
$DIMPOST
  1

  9
$DIMAPOST
  1

  9
$DIMALT
 70
     0
  9
$DIMALTD
 70
     2
  9
$DIMALTF
 40
0.039
  9
$DIMLFAC
 40
1.0
  9
$DIMTOFL
 70
     1
  9
$DIMTVP
 40
0.0
  9
$DIMTIX
 70
     0
  9
$DIMSOXD
 70
     0
  9
$DIMSAH
 70
     1
  9
$DIMBLK1
  1
OPEN
  9
$DIMBLK2
  1
OPEN
  9
$DIMSTYLE
  2
IGA
  9
$DIMCLRD
 70
     0
  9
$DIMCLRE
 70
     0
  9
$DIMCLRT
 70
     0
  9
$DIMTFAC
 40
10.0
  9
$DIMGAP
 40
1.0
  9
$LUNITS
 70
     2
  9
$LUPREC
 70
     3
  9
$SKETCHINC
 40
0.1
  9
$FILLETRAD
 40
50.0
  9
$AUNITS
 70
     0
  9
$AUPREC
 70
     0
  9
$MENU
  1
acad
  9
$ELEVATION
 40
0.0
  9
$PELEVATION
 40
0.0
  9
$THICKNESS
 40
0.0
  9
$LIMCHECK
 70
     0
  9
$BLIPMODE
 70
     0
  9
$CHAMFERA
 40
0.5
  9
$CHAMFERB
 40
0.5
  9
$SKPOLY
 70
     0
  9
$TDCREATE
 40
2451408.6666873838
  9
$TDUPDATE
 40
2454953.8454506709
  9
$TDINDWG
 40
0.0194914352
  9
$TDUSRTIMER
 40
0.0194914352
  9
$USRTIMER
 70
     1
  9
$ANGBASE
 50
0.0
  9
$ANGDIR
 70
     0
  9
$PDMODE
 70
     0
  9
$PDSIZE
 40
0.0
  9
$PLINEWID
 40
0.0
  9
$COORDS
 70
     1
  9
$SPLFRAME
 70
     0
  9
$SPLINETYPE
 70
     6
  9
$SPLINESEGS
 70
     8
  9
$ATTDIA
 70
     0
  9
$ATTREQ
 70
     1
  9
$HANDLING
 70
 10241
  9
$HANDSEED
  5
8281
  9
$SURFTAB1
 70
     6
  9
$SURFTAB2
 70
     6
  9
$SURFTYPE
 70
     6
  9
$SURFU
 70
     6
  9
$SURFV
 70
     6
  9
$UCSNAME
  2

  9
$UCSORG
 10
0.0
 20
0.0
 30
0.0
  9
$UCSXDIR
 10
1.0
 20
0.0
 30
0.0
  9
$UCSYDIR
 10
0.0
 20
1.0
 30
0.0
  9
$PUCSNAME
  2

  9
$PUCSORG
 10
0.0
 20
0.0
 30
0.0
  9
$PUCSXDIR
 10
1.0
 20
0.0
 30
0.0
  9
$PUCSYDIR
 10
0.0
 20
1.0
 30
0.0
  9
$USERI1
 70
     0
  9
$USERI2
 70
     0
  9
$USERI3
 70
     0
  9
$USERI4
 70
     0
  9
$USERI5
 70
     0
  9
$USERR1
 40
0.0
  9
$USERR2
 40
0.0
  9
$USERR3
 40
0.0
  9
$USERR4
 40
0.0
  9
$USERR5
 40
0.0
  9
$WORLDVIEW
 70
     1
  9
$SHADEDGE
 70
     3
  9
$SHADEDIF
 70
    70
  9
$TILEMODE
 70
     1
  9
$MAXACTVP
 70
    16
  9
$PLIMCHECK
 70
     0
  9
$PEXTMIN
 10
1.0000000000000000E+020
 20
1.0000000000000000E+020
 30
1.0000000000000000E+020
  9
$PEXTMAX
 10
-1.0000000000000000E+020
 20
-1.0000000000000000E+020
 30
-1.0000000000000000E+020
  9
$PLIMMIN
 10
0.0
 20
0.0
  9
$PLIMMAX
 10
12.0
 20
9.0
  9
$UNITMODE
 70
     0
  9
$VISRETAIN
 70
     0
  9
$PLINEGEN
 70
     0
  9
$PSLTSCALE
 70
     1
  0
ENDSEC
  0
SECTION
  2
TABLES
  0
TABLE
  2
VPORT
 70
     2
  0
VPORT
  2
*ACTIVE
 70
     0
 10
0.0
 20
0.0
 11
1.0
 21
1.0
 12
12055.96529284164
 22
8009.9956321173886
 13
0.0
 23
0.0
 14
10.0
 24
10.0
 15
10.0
 25
10.0
 16
0.0
 26
0.0
 36
1.0
 17
0.0
 27
0.0
 37
0.0
 40
16019.991264234781
 41
1.5051150895140659
 42
50.0
 43
0.0
 44
0.0
 50
0.0
 51
0.0
 71
     0
 72
   100
 73
     1
 74
     0
 75
     0
 76
     0
 77
     0
 78
     0
  0
ENDTAB
  0
TABLE
  2
LTYPE
 70
     2
  0
LTYPE
  2
CONTINUOUS
 70
     0
  3
Solid line
 72
    65
 73
     0
 40
0.0
  0
LTYPE
  2
CENTER
 70
     0
  3
____ _ ____ _ ____ _ ____ _ ____ _ ____ _ ____ 
 72
    65
 73
     4
 40
2.0
 49
1.25
 49
-0.25
 49
0.25
 49
-0.25
  0
ENDTAB
  0
TABLE
  2
LAYER
 70
     6
  0
LAYER
  2
0
 70
     0
 62
     7
  6
CONTINUOUS
  0
LAYER
  2
3
 70
     0
 62
     2
  6
CONTINUOUS
  0
LAYER
  2
2
 70
     0
 62
     3
  6
CENTER
  0
LAYER
  2
1
 70
     0
 62
     4
  6
CONTINUOUS
  0
LAYER
  2
4
 70
     0
 62
     7
  6
CONTINUOUS
  0
LAYER
  2
DEFPOINTS
 70
     0
 62
     7
  6
CONTINUOUS
  0
ENDTAB
  0
TABLE
  2
STYLE
 70
     1
  0
STYLE
  2
STANDARD
 70
     0
 40
0.0
 41
1.0
 50
0.0
 71
     0
 42
180.0
  3
simplex.shx
  4
extfont.shx
  0
ENDTAB
  0
TABLE
  2
VIEW
 70
     0
  0
ENDTAB
  0
TABLE
  2
UCS
 70
     0
  0
ENDTAB
  0
TABLE
  2
APPID
 70
     1
  0
APPID
  2
ACAD
 70
     0
  0
ENDTAB
  0
TABLE
  2
DIMSTYLE
 70
     1
  0
DIMSTYLE
  2
IGA
 70
     0
  3

  4

  5

  6
OPEN
  7
OPEN
 40
2.0
 41
2.0
 42
0.5
 43
10.0
 44
1.0
 45
0.0
 46
0.0
 47
1.0
 48
1.0
140
3.0
141
0.0
142
0.0
143
0.03937
144
1.0
145
0.0
146
10.0
147
1.0
 71
     0
 72
     0
 73
     0
 74
     0
 75
     0
 76
     0
 77
     1
 78
     8
170
     0
171
     2
172
     0
173
     1
174
     0
175
     0
176
     0
177
     0
178
     0
  0
ENDTAB
  0
ENDSEC
  0
SECTION
  2
BLOCKS
  0
BLOCK
  8
0
  2
$MODEL_SPACE
 70
     0
 10
0.0
 20
0.0
 30
0.0
  3
$MODEL_SPACE
  1

  0
ENDBLK
  5
1B
  8
0
  0
BLOCK
 67
     1
  8
0
  2
$PAPER_SPACE
 70
     0
 10
0.0
 20
0.0
 30
0.0
  3
$PAPER_SPACE
  1

  0
ENDBLK
  5
18
 67
     1
  8
0
  0
BLOCK
  8
0
  2
_OPEN
 70
     0
 10
0.0
 20
0.0
 30
0.0
  3
_OPEN
  1

  0
LINE
  5
79FD
  8
0
  6
BYBLOCK
 62
     0
 10
-1.0
 20
0.1666666666666666
 30
0.0
 11
0.0
 21
0.0
 31
0.0
  0
LINE
  5
79FE
  8
0
  6
BYBLOCK
 62
     0
 10
0.0
 20
0.0
 30
0.0
 11
-1.0
 21
-0.1666666666666666
 31
0.0
  0
LINE
  5
79FF
  8
0
  6
BYBLOCK
 62
     0
 10
0.0
 20
0.0
 30
0.0
 11
-1.0
 21
0.0
 31
0.0
  0
ENDBLK
  5
7A01
  8
0
  0
BLOCK
  8
0
  2
YA_N
 70
     0
 10
0.0
 20
0.0
 30
0.0
  3
YA_N
  1

  0
ENDBLK
  5
7A0C
  8
0
  0
BLOCK
  8
0
  2
*D2
 70
     1
 10
0.0
 20
0.0
 30
0.0
  3
*D2
  1

  0
LINE
  5
81B5
  8
3
 62
     0
 10
3683.9526259412878
 20
5260.0005522589972
 30
0.0
 11
3683.9526259412878
 21
5547.6466977726686
 31
0.0
  0
LINE
  5
81B6
  8
3
 62
     0
 10
2233.9526259412878
 20
5260.0005522589972
 30
0.0
 11
2233.9526259412878
 21
5547.6466977726686
 31
0.0
  0
LINE
  5
81B7
  8
3
 62
     0
 10
3603.9526259412892
 20
5507.6466977726686
 30
0.0
 11
2313.9526259412878
 21
5507.6466977726686
 31
0.0
  0
INSERT
  5
81B8
  8
3
 62
     0
  2
_OPEN
 10
3683.9526259412878
 20
5507.6466977726686
 30
0.0
 41
80.0
 42
80.0
 43
80.0
  0
INSERT
  5
81B9
  8
3
 62
     0
  2
_OPEN
 10
2233.9526259412878
 20
5507.6466977726686
 30
0.0
 41
80.0
 42
80.0
 43
80.0
 50
180.0
  0
TEXT
  8
3
  40
120
  5
826C
  62
0
  72
0
  71
0
 10
2718.95
 20
5395.25
 30
0.000000
  1
1450
  0
POINT
  5
81BB
  8
DEFPOINTS
 62
     0
 10
3683.9526259412878
 20
5240.0005522589963
 30
0.0
  0
POINT
  5
81BC
  8
DEFPOINTS
 62
     0
 10
2233.9526259412878
 20
5240.0005522589963
 30
0.0
  0
POINT
  5
81BD
  8
DEFPOINTS
 62
     0
 10
2233.9526259412878
 20
5507.6466977726686
 30
0.0
  0
ENDBLK
  5
7FB5
  8
0
  0
BLOCK
  8
0
  2
*D3
 70
     1
 10
0.0
 20
0.0
 30
0.0
  3
*D3
  1

  0
LINE
  5
81BE
  8
3
 62
     0
 10
3683.9526259412878
 20
5260.0005522589972
 30
0.0
 11
3683.9526259412878
 21
5797.9992614811936
 31
0.0
  0
LINE
  5
81BF
  8
3
 62
     0
 10
2192.9526259412892
 20
5347.9953101100809
 30
0.0
 11
2192.9526259412892
 21
5797.9992614811936
 31
0.0
  0
LINE
  5
81C0
  8
3
 62
     0
 10
3603.9526259412892
 20
5757.9992614811936
 30
0.0
 11
2272.9526259412892
 21
5757.9992614811936
 31
0.0
  0
INSERT
  5
81C1
  8
3
 62
     0
  2
_OPEN
 10
3683.9526259412878
 20
5757.9992614811936
 30
0.0
 41
80.0
 42
80.0
 43
80.0
  0
INSERT
  5
81C2
  8
3
 62
     0
  2
_OPEN
 10
2192.9526259412892
 20
5757.9992614811936
 30
0.0
 41
80.0
 42
80.0
 43
80.0
 50
180.0
  0
TEXT
  8
3
  40
120
  5
826D
  62
0
  72
0
  71
0
 10
2698.45
 20
5645.60
 30
0.000000
  1
1491
  0
POINT
  5
81C4
  8
DEFPOINTS
 62
     0
 10
3683.9526259412878
 20
5240.0005522589963
 30
0.0
  0
POINT
  5
81C5
  8
DEFPOINTS
 62
     0
 10
2192.9526259412892
 20
5327.9953101100809
 30
0.0
  0
POINT
  5
81C6
  8
DEFPOINTS
 62
     0
 10
2192.9526259412892
 20
5757.9992614811936
 30
0.0
  0
ENDBLK
  5
7FAA
  8
0
  0
BLOCK
  8
0
  2
*D4
 70
     1
 10
0.0
 20
0.0
 30
0.0
  3
*D4
  1

  0
LINE
  5
81C7
  8
3
 62
     0
 10
2192.9526259412892
 20
5347.9953101100809
 30
0.0
 11
2192.9526259412892
 21
5797.9992614811936
 31
0.0
  0
LINE
  5
81C8
  8
3
 62
     0
 10
1189.952625941288
 20
4228.0005522589963
 30
0.0
 11
1189.952625941288
 21
5797.9992614811936
 31
0.0
  0
LINE
  5
81C9
  8
3
 62
     0
 10
2112.9526259412878
 20
5757.9992614811936
 30
0.0
 11
1269.952625941288
 21
5757.9992614811936
 31
0.0
  0
INSERT
  5
81CA
  8
3
 62
     0
  2
_OPEN
 10
2192.9526259412892
 20
5757.9992614811936
 30
0.0
 41
80.0
 42
80.0
 43
80.0
  0
INSERT
  5
81CB
  8
3
 62
     0
  2
_OPEN
 10
1189.952625941288
 20
5757.9992614811936
 30
0.0
 41
80.0
 42
80.0
 43
80.0
 50
180.0
  0
TEXT
  8
3
  40
120
  5
826E
  62
0
  72
0
  71
0
 10
1451.45
 20
5645.60
 30
0.000000
  1
1003
  0
POINT
  5
81CD
  8
DEFPOINTS
 62
     0
 10
2192.9526259412892
 20
5327.9953101100809
 30
0.0
  0
POINT
  5
81CE
  8
DEFPOINTS
 62
     0
 10
1189.952625941288
 20
4208.0005522589963
 30
0.0
  0
POINT
  5
81CF
  8
DEFPOINTS
 62
     0
 10
1189.952625941288
 20
5757.9992614811936
 30
0.0
  0
ENDBLK
  5
7F9F
  8
0
  0
BLOCK
  8
0
  2
*D5
 70
     1
 10
0.0
 20
0.0
 30
0.0
  3
*D5
  1

  0
LINE
  5
81D0
  8
3
 62
     0
 10
3757.9526259412878
 20
5240.0005522589963
 30
0.0
 11
4573.5753103171119
 21
5240.0005522589963
 31
0.0
  0
LINE
  5
81D1
  8
3
 62
     0
 10
3889.6298065353581
 20
4310.0005522589972
 30
0.0
 11
4573.5753103171119
 21
4310.0005522589972
 31
0.0
  0
LINE
  5
81D2
  8
3
 62
     0
 10
4533.5753103171119
 20
5160.0005522589963
 30
0.0
 11
4533.5753103171119
 21
4390.0005522589963
 31
0.0
  0
INSERT
  5
81D3
  8
3
 62
     0
  2
_OPEN
 10
4533.5753103171119
 20
5240.0005522589963
 30
0.0
 41
80.0
 42
80.0
 43
80.0
 50
90.0
  0
INSERT
  5
81D4
  8
3
 62
     0
  2
_OPEN
 10
4533.5753103171119
 20
4310.0005522589972
 30
0.0
 41
80.0
 42
80.0
 43
80.0
 50
270.0
  0
TEXT
  8
3
  40
120
  5
826F
  62
0
  72
0
  71
0
 10
4193.58
 20
4562.60
 30
0.000000
  1
930
  0
POINT
  5
81D6
  8
DEFPOINTS
 62
     0
 10
3737.9526259412892
 20
5240.0005522589963
 30
0.0
  0
POINT
  5
81D7
  8
DEFPOINTS
 62
     0
 10
3869.629806535359
 20
4310.0005522589972
 30
0.0
  0
POINT
  5
81D8
  8
DEFPOINTS
 62
     0
 10
4533.5753103171119
 20
4310.0005522589972
 30
0.0
  0
ENDBLK
  5
7F94
  8
0
  0
BLOCK
  8
0
  2
*D6
 70
     1
 10
0.0
 20
0.0
 30
0.0
  3
*D6
  1

  0
LINE
  5
81D9
  8
3
 62
     0
 10
3889.6298065353581
 20
4310.0005522589972
 30
0.0
 11
4573.5753103171119
 21
4310.0005522589972
 31
0.0
  0
LINE
  5
81DA
  8
3
 62
     0
 10
4112.9526259412887
 20
3070.0005522589968
 30
0.0
 11
4573.5753103171119
 21
3070.0005522589968
 31
0.0
  0
LINE
  5
81DB
  8
3
 62
     0
 10
4533.5753103171119
 20
4230.0005522589963
 30
0.0
 11
4533.5753103171119
 21
3150.0005522589968
 31
0.0
  0
INSERT
  5
81DC
  8
3
 62
     0
  2
_OPEN
 10
4533.5753103171119
 20
4310.0005522589972
 30
0.0
 41
80.0
 42
80.0
 43
80.0
 50
90.0
  0
INSERT
  5
81DD
  8
3
 62
     0
  2
_OPEN
 10
4533.5753103171119
 20
3070.0005522589968
 30
0.0
 41
80.0
 42
80.0
 43
80.0
 50
270.0
  0
TEXT
  8
3
  40
120
  5
8270
  62
0
  72
0
  71
0
 10
4193.58
 20
3477.60
 30
0.000000
  1
1240
  0
POINT
  5
81DF
  8
DEFPOINTS
 62
     0
 10
3869.629806535359
 20
4310.0005522589972
 30
0.0
  0
POINT
  5
81E0
  8
DEFPOINTS
 62
     0
 10
4092.9526259412892
 20
3070.0005522589968
 30
0.0
  0
POINT
  5
81E1
  8
DEFPOINTS
 62
     0
 10
4533.5753103171119
 20
3070.0005522589968
 30
0.0
  0
ENDBLK
  5
7F89
  8
0
  0
BLOCK
  8
0
  2
*D7
 70
     1
 10
0.0
 20
0.0
 30
0.0
  3
*D7
  1

  0
LINE
  5
81E2
  8
3
 62
     0
 10
1342.952625941288
 20
8508.3358899613886
 30
0.0
 11
1342.952625941288
 21
8898.3824453201632
 31
0.0
  0
LINE
  5
81E3
  8
3
 62
     0
 10
3042.9526259412892
 20
8508.3358899613886
 30
0.0
 11
3042.9526259412892
 21
8898.3824453201632
 31
0.0
  0
LINE
  5
81E4
  8
3
 62
     0
 10
1422.952625941288
 20
8858.3824453201632
 30
0.0
 11
2962.9526259412892
 21
8858.3824453201632
 31
0.0
  0
INSERT
  5
81E5
  8
3
 62
     0
  2
_OPEN
 10
1342.952625941288
 20
8858.3824453201632
 30
0.0
 41
80.0
 42
80.0
 43
80.0
 50
180.0
  0
INSERT
  5
81E6
  8
3
 62
     0
  2
_OPEN
 10
3042.9526259412892
 20
8858.3824453201632
 30
0.0
 41
80.0
 42
80.0
 43
80.0
  0
TEXT
  8
3
  40
120
  5
8271
  62
0
  72
0
  71
0
 10
1952.95
 20
8745.98
 30
0.000000
  1
1700
  0
POINT
  5
81E8
  8
DEFPOINTS
 62
     0
 10
1342.952625941288
 20
8488.3358899613886
 30
0.0
  0
POINT
  5
81E9
  8
DEFPOINTS
 62
     0
 10
3042.9526259412892
 20
8488.3358899613886
 30
0.0
  0
POINT
  5
81EA
  8
DEFPOINTS
 62
     0
 10
3042.9526259412892
 20
8858.3824453201632
 30
0.0
  0
ENDBLK
  5
7F17
  8
0
  0
BLOCK
  8
0
  2
*D8
 70
     1
 10
0.0
 20
0.0
 30
0.0
  3
*D8
  1

  0
LINE
  5
81EB
  8
3
 62
     0
 10
3042.9526259412892
 20
8508.3358899613886
 30
0.0
 11
3042.9526259412892
 21
8898.3824453201632
 31
0.0
  0
LINE
  5
81EC
  8
3
 62
     0
 10
4092.9526259412892
 20
8208.3358899613886
 30
0.0
 11
4092.9526259412892
 21
8898.3824453201632
 31
0.0
  0
LINE
  5
81ED
  8
3
 62
     0
 10
3122.9526259412892
 20
8858.3824453201632
 30
0.0
 11
4012.9526259412892
 21
8858.3824453201632
 31
0.0
  0
INSERT
  5
81EE
  8
3
 62
     0
  2
_OPEN
 10
3042.9526259412892
 20
8858.3824453201632
 30
0.0
 41
80.0
 42
80.0
 43
80.0
 50
180.0
  0
INSERT
  5
81EF
  8
3
 62
     0
  2
_OPEN
 10
4092.9526259412892
 20
8858.3824453201632
 30
0.0
 41
80.0
 42
80.0
 43
80.0
  0
TEXT
  8
3
  40
120
  5
8272
  62
0
  72
0
  71
0
 10
3327.95
 20
8745.98
 30
0.000000
  1
1050
  0
POINT
  5
81F1
  8
DEFPOINTS
 62
     0
 10
3042.9526259412892
 20
8488.3358899613886
 30
0.0
  0
POINT
  5
81F2
  8
DEFPOINTS
 62
     0
 10
4092.9526259412892
 20
8188.3358899613877
 30
0.0
  0
POINT
  5
81F3
  8
DEFPOINTS
 62
     0
 10
4092.9526259412892
 20
8858.3824453201632
 30
0.0
  0
ENDBLK
  5
7F0C
  8
0
  0
BLOCK
  8
0
  2
*D9
 70
     1
 10
0.0
 20
0.0
 30
0.0
  3
*D9
  1

  0
LINE
  5
81F4
  8
3
 62
     0
 10
4112.9526259412878
 20
8188.3358899613877
 30
0.0
 11
4613.826402271312
 21
8188.3358899613877
 31
0.0
  0
LINE
  5
81F5
  8
3
 62
     0
 10
4112.9526259412878
 20
7088.3358899613877
 30
0.0
 11
4613.826402271312
 21
7088.3358899613877
 31
0.0
  0
LINE
  5
81F6
  8
3
 62
     0
 10
4573.8264022713111
 20
8108.3358899613877
 30
0.0
 11
4573.8264022713111
 21
7168.3358899613886
 31
0.0
  0
INSERT
  5
81F7
  8
3
 62
     0
  2
_OPEN
 10
4573.8264022713111
 20
8188.3358899613877
 30
0.0
 41
80.0
 42
80.0
 43
80.0
 50
90.0
  0
INSERT
  5
81F8
  8
3
 62
     0
  2
_OPEN
 10
4573.8264022713111
 20
7088.3358899613877
 30
0.0
 41
80.0
 42
80.0
 43
80.0
 50
270.0
  0
TEXT
  8
3
  40
120
  5
8273
  62
0
  72
0
  71
0
 10
4233.83
 20
7425.94
 30
0.000000
  1
1100
  0
POINT
  5
81FA
  8
DEFPOINTS
 62
     0
 10
4092.9526259412892
 20
8188.3358899613877
 30
0.0
  0
POINT
  5
81FB
  8
DEFPOINTS
 62
     0
 10
4092.9526259412892
 20
7088.3358899613877
 30
0.0
  0
POINT
  5
81FC
  8
DEFPOINTS
 62
     0
 10
4573.8264022713111
 20
7088.3358899613877
 30
0.0
  0
ENDBLK
  5
7F01
  8
0
  0
BLOCK
  8
0
  2
*D10
 70
     1
 10
0.0
 20
0.0
 30
0.0
  3
*D10
  1

  0
LINE
  5
81FD
  8
3
 62
     0
 10
1322.952625941288
 20
8488.3358899613886
 30
0.0
 11
876.69066568538665
 21
8488.3358899613886
 31
0.0
  0
LINE
  5
81FE
  8
3
 62
     0
 10
1322.952625941288
 20
7088.3358899613877
 30
0.0
 11
876.69066568538619
 21
7088.3358899613877
 31
0.0
  0
LINE
  5
81FF
  8
3
 62
     0
 10
916.69066568538642
 20
8408.3358899613886
 30
0.0
 11
916.69066568538619
 21
7168.3358899613886
 31
0.0
  0
INSERT
  5
8200
  8
3
 62
     0
  2
_OPEN
 10
916.69066568538665
 20
8488.3358899613886
 30
0.0
 41
80.0
 42
80.0
 43
80.0
 50
90.0
  0
INSERT
  5
8201
  8
3
 62
     0
  2
_OPEN
 10
916.69066568538619
 20
7088.3358899613877
 30
0.0
 41
80.0
 42
80.0
 43
80.0
 50
270.0
  0
TEXT
  8
3
  40
120
  5
8274
  62
0
  72
0
  71
0
 10
576.691
 20
7575.94
 30
0.000000
  1
1400
  0
POINT
  5
8203
  8
DEFPOINTS
 62
     0
 10
1342.952625941288
 20
8488.3358899613886
 30
0.0
  0
POINT
  5
8204
  8
DEFPOINTS
 62
     0
 10
1342.952625941288
 20
7088.3358899613877
 30
0.0
  0
POINT
  5
8205
  8
DEFPOINTS
 62
     0
 10
916.69066568538619
 20
7088.3358899613877
 30
0.0
  0
ENDBLK
  5
7EF6
  8
0
  0
BLOCK
  8
0
  2
*D11
 70
     1
 10
0.0
 20
0.0
 30
0.0
  3
*D11
  1

  0
LINE
  5
8206
  8
3
 62
     0
 10
1342.952625941288
 20
7068.3358899613886
 30
0.0
 11
1342.952625941288
 21
6564.0319145822878
 31
0.0
  0
LINE
  5
8207
  8
3
 62
     0
 10
4092.9526259412892
 20
7068.3358899613886
 30
0.0
 11
4092.9526259412892
 21
6564.0319145822878
 31
0.0
  0
LINE
  5
8208
  8
3
 62
     0
 10
1422.952625941288
 20
6604.0319145822887
 30
0.0
 11
4012.9526259412892
 21
6604.0319145822887
 31
0.0
  0
INSERT
  5
8209
  8
3
 62
     0
  2
_OPEN
 10
1342.952625941288
 20
6604.0319145822887
 30
0.0
 41
80.0
 42
80.0
 43
80.0
 50
180.0
  0
INSERT
  5
820A
  8
3
 62
     0
  2
_OPEN
 10
4092.9526259412892
 20
6604.0319145822887
 30
0.0
 41
80.0
 42
80.0
 43
80.0
  0
TEXT
  8
3
  40
120
  5
8275
  62
0
  72
0
  71
0
 10
2477.95
 20
6491.63
 30
0.000000
  1
2750
  0
POINT
  5
820C
  8
DEFPOINTS
 62
     0
 10
1342.952625941288
 20
7088.3358899613877
 30
0.0
  0
POINT
  5
820D
  8
DEFPOINTS
 62
     0
 10
4092.9526259412892
 20
7088.3358899613877
 30
0.0
  0
POINT
  5
820E
  8
DEFPOINTS
 62
     0
 10
4092.9526259412892
 20
6604.0319145822887
 30
0.0
  0
ENDBLK
  5
7EEB
  8
0
  0
BLOCK
  8
0
  2
*D12
 70
     1
 10
0.0
 20
0.0
 30
0.0
  3
*D12
  1

  0
LINE
  5
820F
  8
3
 62
     0
 10
5625.1270636808367
 20
5260.0005522589972
 30
0.0
 11
5625.1270636808367
 21
5503.6261761524538
 31
0.0
  0
LINE
  5
8210
  8
3
 62
     0
 10
6685.1270636808367
 20
5260.0005522589972
 30
0.0
 11
6685.1270636808367
 21
5503.6261761524538
 31
0.0
  0
LINE
  5
8211
  8
3
 62
     0
 10
5705.1270636808367
 20
5463.6261761524547
 30
0.0
 11
6605.1270636808367
 21
5463.6261761524547
 31
0.0
  0
INSERT
  5
8212
  8
3
 62
     0
  2
_OPEN
 10
5625.1270636808367
 20
5463.6261761524547
 30
0.0
 41
80.0
 42
80.0
 43
80.0
 50
180.0
  0
INSERT
  5
8213
  8
3
 62
     0
  2
_OPEN
 10
6685.1270636808367
 20
5463.6261761524547
 30
0.0
 41
80.0
 42
80.0
 43
80.0
  0
TEXT
  8
3
  40
120
  5
8276
  62
0
  72
0
  71
0
 10
5915.13
 20
5351.23
 30
0.000000
  1
1060
  0
POINT
  5
8215
  8
DEFPOINTS
 62
     0
 10
5625.1270636808367
 20
5240.0005522589963
 30
0.0
  0
POINT
  5
8216
  8
DEFPOINTS
 62
     0
 10
6685.1270636808367
 20
5240.0005522589963
 30
0.0
  0
POINT
  5
8217
  8
DEFPOINTS
 62
     0
 10
6685.1270636808367
 20
5463.6261761524547
 30
0.0
  0
ENDBLK
  5
7EE0
  8
0
  0
BLOCK
  8
0
  2
*D13
 70
     1
 10
0.0
 20
0.0
 30
0.0
  3
*D13
  1

  0
LINE
  5
8218
  8
3
 62
     0
 10
6789.1270636808367
 20
5080.0005522589963
 30
0.0
 11
6789.1270636808367
 21
5840.5282296154583
 31
0.0
  0
LINE
  5
8219
  8
3
 62
     0
 10
6155.1270636808358
 20
5705.2855932924676
 30
0.0
 11
6155.1270636808358
 21
5840.5282296154583
 31
0.0
  0
LINE
  5
821A
  8
3
 62
     0
 10
6709.1270636808367
 20
5800.5282296154583
 30
0.0
 11
6235.1270636808358
 21
5800.5282296154583
 31
0.0
  0
INSERT
  5
821B
  8
3
 62
     0
  2
_OPEN
 10
6789.1270636808367
 20
5800.5282296154583
 30
0.0
 41
80.0
 42
80.0
 43
80.0
  0
INSERT
  5
821C
  8
3
 62
     0
  2
_OPEN
 10
6155.1270636808358
 20
5800.5282296154583
 30
0.0
 41
80.0
 42
80.0
 43
80.0
 50
180.0
  0
TEXT
  8
3
  40
120
  5
8277
  62
0
  72
0
  71
0
 10
6271.98
 20
5688.13
 30
0.000000
  1
634
  0
POINT
  5
821E
  8
DEFPOINTS
 62
     0
 10
6789.1270636808367
 20
5060.0005522589972
 30
0.0
  0
POINT
  5
821F
  8
DEFPOINTS
 62
     0
 10
6155.1270636808358
 20
5685.2855932924667
 30
0.0
  0
POINT
  5
8220
  8
DEFPOINTS
 62
     0
 10
6155.1270636808358
 20
5800.5282296154583
 30
0.0
  0
ENDBLK
  5
7FC0
  8
0
  0
BLOCK
  8
0
  2
*D14
 70
     1
 10
0.0
 20
0.0
 30
0.0
  3
*D14
  1

  0
LINE
  5
8221
  8
3
 62
     0
 10
6155.1270636808358
 20
5705.2855932924676
 30
0.0
 11
6155.1270636808358
 21
5840.5282296154583
 31
0.0
  0
LINE
  5
8222
  8
3
 62
     0
 10
5205.427063680836
 20
4880.0005522589963
 30
0.0
 11
5205.427063680836
 21
5840.5282296154583
 31
0.0
  0
LINE
  5
8223
  8
3
 62
     0
 10
6075.1270636808367
 20
5800.5282296154583
 30
0.0
 11
5285.427063680836
 21
5800.5282296154583
 31
0.0
  0
INSERT
  5
8224
  8
3
 62
     0
  2
_OPEN
 10
6155.1270636808358
 20
5800.5282296154583
 30
0.0
 41
80.0
 42
80.0
 43
80.0
  0
INSERT
  5
8225
  8
3
 62
     0
  2
_OPEN
 10
5205.427063680836
 20
5800.5282296154583
 30
0.0
 41
80.0
 42
80.0
 43
80.0
 50
180.0
  0
TEXT
  8
3
  40
120
  5
8278
  62
0
  72
0
  71
0
 10
5440.28
 20
5788.13
 30
0.000000
  1
MAX
  0
TEXT
  8
3
  40
120
  5
8279
  62
0
  72
0
  71
0
 10
5440.28
 20
5632.13
 30
0.000000
  1
1030
  0
POINT
  5
8227
  8
DEFPOINTS
 62
     0
 10
6155.1270636808358
 20
5685.2855932924667
 30
0.0
  0
POINT
  5
8228
  8
DEFPOINTS
 62
     0
 10
5205.427063680836
 20
4860.0005522589972
 30
0.0
  0
POINT
  5
8229
  8
DEFPOINTS
 62
     0
 10
5205.427063680836
 20
5800.5282296154583
 30
0.0
  0
ENDBLK
  5
8060
  8
0
  0
BLOCK
  8
0
  2
*D15
 70
     1
 10
0.0
 20
0.0
 30
0.0
  3
*D15
  1

  0
LINE
  5
822A
  8
3
 62
     0
 10
6809.1270636808367
 20
5010.0005522589972
 30
0.0
 11
7261.717690860748
 21
5010.0005522589972
 31
0.0
  0
LINE
  5
822B
  8
3
 62
     0
 10
6809.1270636808367
 20
3610.0005522589968
 30
0.0
 11
7261.717690860748
 21
3610.0005522589968
 31
0.0
  0
LINE
  5
822C
  8
3
 62
     0
 10
7221.7176908607471
 20
4930.0005522589963
 30
0.0
 11
7221.7176908607471
 21
3690.0005522589959
 31
0.0
  0
INSERT
  5
822D
  8
3
 62
     0
  2
_OPEN
 10
7221.7176908607471
 20
5010.0005522589972
 30
0.0
 41
80.0
 42
80.0
 43
80.0
 50
90.0
  0
INSERT
  5
822E
  8
3
 62
     0
  2
_OPEN
 10
7221.7176908607471
 20
3610.0005522589968
 30
0.0
 41
80.0
 42
80.0
 43
80.0
 50
270.0
  0
TEXT
  8
3
  40
120
  5
827A
  62
0
  72
0
  71
0
 10
6881.72
 20
4097.60
 30
0.000000
  1
φ1400
  0
POINT
  5
8230
  8
DEFPOINTS
 62
     0
 10
6789.1270636808367
 20
5010.0005522589972
 30
0.0
  0
POINT
  5
8231
  8
DEFPOINTS
 62
     0
 10
6789.1270636808367
 20
3610.0005522589968
 30
0.0
  0
POINT
  5
8232
  8
DEFPOINTS
 62
     0
 10
7221.7176908607471
 20
3610.0005522589968
 30
0.0
  0
ENDBLK
  5
804E
  8
0
  0
BLOCK
  8
0
  2
*D16
 70
     1
 10
0.0
 20
0.0
 30
0.0
  3
*D16
  1

  0
LINE
  5
8233
  8
3
 62
     0
 10
1189.952625941288
 20
4244.5005522589972
 30
0.0
 11
1189.952625941288
 21
6047.283739942699
 31
0.0
  0
LINE
  5
8234
  8
3
 62
     0
 10
4092.9526259412892
 20
3240.0005522589968
 30
0.0
 11
4092.9526259412892
 21
6047.283739942699
 31
0.0
  0
LINE
  5
8235
  8
3
 62
     0
 10
1269.952625941288
 20
6007.283739942699
 30
0.0
 11
4012.9526259412901
 21
6007.283739942699
 31
0.0
  0
INSERT
  5
8236
  8
3
 62
     0
  2
_OPEN
 10
1189.952625941288
 20
6007.283739942699
 30
0.0
 41
80.0
 42
80.0
 43
80.0
 50
180.0
  0
INSERT
  5
8237
  8
3
 62
     0
  2
_OPEN
 10
4092.9526259412892
 20
6007.283739942699
 30
0.0
 41
80.0
 42
80.0
 43
80.0
  0
TEXT
  8
3
  40
120
  5
827B
  62
0
  72
0
  71
0
 10
2401.45
 20
5894.88
 30
0.000000
  1
2903
  0
POINT
  5
8239
  8
DEFPOINTS
 62
     0
 10
1189.952625941288
 20
4224.5005522589963
 30
0.0
  0
POINT
  5
823A
  8
DEFPOINTS
 62
     0
 10
4092.9526259412892
 20
3220.0005522589959
 30
0.0
  0
POINT
  5
823B
  8
DEFPOINTS
 62
     0
 10
4092.9526259412892
 20
6007.283739942699
 30
0.0
  0
ENDBLK
  5
7EB4
  8
0
  0
BLOCK
  8
0
  2
_DOT
 70
     0
 10
0.0
 20
0.0
 30
0.0
  3
_DOT
  1

  0
POLYLINE
  5
8037
  8
0
  6
BYBLOCK
 62
     0
 66
     1
 10
0.0
 20
0.0
 30
0.0
 70
     1
 40
0.25
 41
0.25
  0
VERTEX
  5
823C
  8
0
  6
BYBLOCK
 62
     0
 10
-0.125
 20
0.0
 30
0.0
 42
1.0
  0
VERTEX
  5
823D
  8
0
  6
BYBLOCK
 62
     0
 10
0.125
 20
0.0
 30
0.0
 42
1.0
  0
SEQEND
  5
823E
  8
0
  6
BYBLOCK
 62
     0
  0
LINE
  5
803B
  8
0
  6
BYBLOCK
 62
     0
 10
-0.25
 20
0.0
 30
0.0
 11
-1.0
 21
0.0
 31
0.0
  0
ENDBLK
  5
8019
  8
0
  0
BLOCK
  8
0
  2
*D18
 70
     1
 10
0.0
 20
0.0
 30
0.0
  3
*D18
  1

  0
LINE
  5
823F
  8
3
 62
     0
 10
1342.9526259412889
 20
3050.0005522589968
 30
0.0
 11
1342.9526259412889
 21
2747.3302197431358
 31
0.0
  0
LINE
  5
8240
  8
3
 62
     0
 10
2192.9526259412892
 20
3050.0005522589968
 30
0.0
 11
2192.9526259412892
 21
2747.3302197431358
 31
0.0
  0
LINE
  5
8241
  8
3
 62
     0
 10
1422.9526259412889
 20
2787.3302197431358
 30
0.0
 11
2112.9526259412878
 21
2787.3302197431358
 31
0.0
  0
INSERT
  5
8242
  8
3
 62
     0
  2
_OPEN
 10
1342.9526259412889
 20
2787.3302197431358
 30
0.0
 41
80.0
 42
80.0
 43
80.0
 50
180.0
  0
INSERT
  5
8243
  8
3
 62
     0
  2
_OPEN
 10
2192.9526259412892
 20
2787.3302197431358
 30
0.0
 41
80.0
 42
80.0
 43
80.0
  0
TEXT
  8
3
  40
120
  5
827C
  62
0
  72
0
  71
0
 10
1527.95
 20
2674.93
 30
0.000000
  1
850
  0
POINT
  5
8245
  8
DEFPOINTS
 62
     0
 10
1342.9526259412889
 20
3070.0005522589968
 30
0.0
  0
POINT
  5
8246
  8
DEFPOINTS
 62
     0
 10
2192.9526259412892
 20
3070.0005522589968
 30
0.0
  0
POINT
  5
8247
  8
DEFPOINTS
 62
     0
 10
2192.9526259412892
 20
2787.3302197431358
 30
0.0
  0
ENDBLK
  5
807D
  8
0
  0
BLOCK
  8
0
  2
*D19
 70
     1
 10
0.0
 20
0.0
 30
0.0
  3
*D19
  1

  0
LINE
  5
8248
  8
3
 62
     0
 10
2192.9526259412892
 20
3050.0005522589968
 30
0.0
 11
2192.9526259412892
 21
2747.3302197431358
 31
0.0
  0
LINE
  5
8249
  8
3
 62
     0
 10
4092.9526259412892
 20
3050.0005522589968
 30
0.0
 11
4092.9526259412892
 21
2747.3302197431358
 31
0.0
  0
LINE
  5
824A
  8
3
 62
     0
 10
2272.9526259412892
 20
2787.3302197431358
 30
0.0
 11
4012.9526259412892
 21
2787.3302197431358
 31
0.0
  0
INSERT
  5
824B
  8
3
 62
     0
  2
_OPEN
 10
2192.9526259412892
 20
2787.3302197431358
 30
0.0
 41
80.0
 42
80.0
 43
80.0
 50
180.0
  0
INSERT
  5
824C
  8
3
 62
     0
  2
_OPEN
 10
4092.9526259412892
 20
2787.3302197431358
 30
0.0
 41
80.0
 42
80.0
 43
80.0
  0
TEXT
  8
3
  40
120
  5
827D
  62
0
  72
0
  71
0
 10
2902.95
 20
2674.93
 30
0.000000
  1
1900
  0
POINT
  5
824E
  8
DEFPOINTS
 62
     0
 10
2192.9526259412892
 20
3070.0005522589968
 30
0.0
  0
POINT
  5
824F
  8
DEFPOINTS
 62
     0
 10
4092.9526259412892
 20
3070.0005522589968
 30
0.0
  0
POINT
  5
8250
  8
DEFPOINTS
 62
     0
 10
4092.9526259412892
 20
2787.3302197431358
 30
0.0
  0
ENDBLK
  5
808A
  8
0
  0
BLOCK
  8
0
  2
*D20
 70
     1
 10
0.0
 20
0.0
 30
0.0
  3
*D20
  1

  0
LINE
  5
8251
  8
3
 62
     0
 10
5364.1270636808367
 20
3050.0005522589968
 30
0.0
 11
5364.1270636808367
 21
2747.3302197431358
 31
0.0
  0
LINE
  5
8252
  8
3
 62
     0
 10
6155.1270636808367
 20
3050.0005522589968
 30
0.0
 11
6155.1270636808367
 21
2747.3302197431358
 31
0.0
  0
LINE
  5
8253
  8
3
 62
     0
 10
5444.1270636808367
 20
2787.3302197431358
 30
0.0
 11
6075.1270636808376
 21
2787.3302197431358
 31
0.0
  0
INSERT
  5
8254
  8
3
 62
     0
  2
_OPEN
 10
5364.1270636808367
 20
2787.3302197431358
 30
0.0
 41
80.0
 42
80.0
 43
80.0
 50
180.0
  0
INSERT
  5
8255
  8
3
 62
     0
  2
_OPEN
 10
6155.1270636808367
 20
2787.3302197431358
 30
0.0
 41
80.0
 42
80.0
 43
80.0
  0
TEXT
  8
3
  40
120
  5
827E
  62
0
  72
0
  71
0
 10
5519.63
 20
2674.93
 30
0.000000
  1
791
  0
POINT
  5
8257
  8
DEFPOINTS
 62
     0
 10
5364.1270636808367
 20
3070.0005522589968
 30
0.0
  0
POINT
  5
8258
  8
DEFPOINTS
 62
     0
 10
6155.1270636808367
 20
3070.0005522589968
 30
0.0
  0
POINT
  5
8259
  8
DEFPOINTS
 62
     0
 10
6155.1270636808367
 20
2787.3302197431358
 30
0.0
  0
ENDBLK
  5
8097
  8
0
  0
BLOCK
  8
0
  2
*D21
 70
     1
 10
0.0
 20
0.0
 30
0.0
  3
*D21
  1

  0
LINE
  5
825A
  8
3
 62
     0
 10
6155.1270636808367
 20
3050.0005522589968
 30
0.0
 11
6155.1270636808367
 21
2747.3302197431358
 31
0.0
  0
LINE
  5
825B
  8
3
 62
     0
 10
6764.1270636808367
 20
3050.0005522589968
 30
0.0
 11
6764.1270636808367
 21
2747.3302197431358
 31
0.0
  0
LINE
  5
825C
  8
3
 62
     0
 10
6235.1270636808376
 20
2787.3302197431358
 30
0.0
 11
6684.1270636808367
 21
2787.3302197431358
 31
0.0
  0
INSERT
  5
825D
  8
3
 62
     0
  2
_OPEN
 10
6155.1270636808367
 20
2787.3302197431358
 30
0.0
 41
80.0
 42
80.0
 43
80.0
 50
180.0
  0
INSERT
  5
825E
  8
3
 62
     0
  2
_OPEN
 10
6764.1270636808367
 20
2787.3302197431358
 30
0.0
 41
80.0
 42
80.0
 43
80.0
  0
TEXT
  8
3
  40
120
  5
827F
  62
0
  72
0
  71
0
 10
6219.63
 20
2674.93
 30
0.000000
  1
609
  0
POINT
  5
8260
  8
DEFPOINTS
 62
     0
 10
6155.1270636808367
 20
3070.0005522589968
 30
0.0
  0
POINT
  5
8261
  8
DEFPOINTS
 62
     0
 10
6764.1270636808367
 20
3070.0005522589968
 30
0.0
  0
POINT
  5
8262
  8
DEFPOINTS
 62
     0
 10
6764.1270636808367
 20
2787.3302197431358
 30
0.0
  0
ENDBLK
  5
80A4
  8
0
  0
BLOCK
  8
0
  2
*D22
 70
     1
 10
0.0
 20
0.0
 30
0.0
  3
*D22
  1

  0
LINE
  5
8263
  8
3
 62
     0
 10
3757.9526259412878
 20
5240.0005522589963
 30
0.0
 11
4841.3846437454049
 21
5240.0005522589963
 31
0.0
  0
LINE
  5
8264
  8
3
 62
     0
 10
4112.9526259412887
 20
3070.0005522589968
 30
0.0
 11
4841.3846437454049
 21
3070.0005522589968
 31
0.0
  0
LINE
  5
8265
  8
3
 62
     0
 10
4801.3846437454049
 20
5160.0005522589963
 30
0.0
 11
4801.3846437454049
 21
3150.0005522589968
 31
0.0
  0
INSERT
  5
8266
  8
3
 62
     0
  2
_OPEN
 10
4801.3846437454049
 20
5240.0005522589963
 30
0.0
 41
80.0
 42
80.0
 43
80.0
 50
90.0
  0
INSERT
  5
8267
  8
3
 62
     0
  2
_OPEN
 10
4801.3846437454049
 20
3070.0005522589968
 30
0.0
 41
80.0
 42
80.0
 43
80.0
 50
270.0
  0
TEXT
  8
3
  40
120
  5
8280
  62
0
  72
0
  71
0
 10
4461.38
 20
3942.60
 30
0.000000
  1
2170
  0
POINT
  5
8269
  8
DEFPOINTS
 62
     0
 10
3737.9526259412892
 20
5240.0005522589963
 30
0.0
  0
POINT
  5
826A
  8
DEFPOINTS
 62
     0
 10
4092.9526259412892
 20
3070.0005522589968
 30
0.0
  0
POINT
  5
826B
  8
DEFPOINTS
 62
     0
 10
4801.3846437454049
 20
3070.0005522589968
 30
0.0
  0
ENDBLK
  5
80B1
  8
0
  0
ENDSEC
  0
SECTION
  2
ENTITIES
  0
INSERT
  5
7BE0
  8
0
  2
YA_N
 10
6.0
 20
5.0
 30
0.0
  0
INSERT
  5
7BE2
  8
0
  2
YA_N
 10
6.0
 20
5.0
 30
0.0
  0
LINE
  5
7BE4
  8
2
 10
2192.9526259412892
 20
5327.9953101100809
 30
0.0
 11
2192.9526259412892
 21
3070.0005522589968
 31
0.0
  0
LINE
  5
7BE5
  8
1
 10
2179.9526259412878
 20
5240.0005522589963
 30
0.0
 11
3737.9526259412892
 21
5240.0005522589963
 31
0.0
  0
LINE
  5
7BE6
  8
1
 10
2233.9526259412878
 20
5240.0005522589963
 30
0.0
 11
2233.9526259412878
 21
5130.904296982374
 31
0.0
  0
ARC
  5
7BE7
  8
1
 10
2294.9526259412878
 20
4412.0005522589963
 30
0.0
 40
1309.0
 50
270.0
 51
355.53086334447892
  0
ARC
  5
7BE8
  8
1
 10
2294.9526259412878
 20
4208.0005522589963
 30
0.0
 40
1105.0
 50
179.14442036456981
 51
270.0
  0
ARC
  5
7BE9
  8
1
 10
2107.4526259412878
 20
4224.5005522589963
 30
0.0
 40
917.5
 50
90.0
 51
174.6529621965137
  0
ARC
  5
7BEA
  8
1
 10
2107.4526259412878
 20
4395.200552258997
 30
0.0
 40
746.49999999999989
 50
80.24372338188337
 51
90.0
  0
LINE
  5
7BEB
  8
1
 10
3683.9526259412878
 20
5240.0005522589963
 30
0.0
 11
3600.0664792389998
 21
4310.0005522589972
 31
0.0
  0
LINE
  5
7BEC
  8
1
 10
1342.9526259412889
 20
3070.0005522589968
 30
0.0
 11
4092.9526259412892
 21
3070.0005522589968
 31
0.0
  0
LINE
  5
7BED
  8
1
 10
1342.9526259412889
 20
3220.0005522589959
 30
0.0
 11
4092.9526259412892
 21
3220.0005522589959
 31
0.0
  0
LINE
  5
7BEE
  8
1
 10
1342.9526259412889
 20
3220.0005522589959
 30
0.0
 11
1342.9526259412889
 21
3070.0005522589968
 31
0.0
  0
LINE
  5
7BEF
  8
1
 10
4092.9526259412892
 20
3220.0005522589959
 30
0.0
 11
4092.9526259412892
 21
3070.0005522589968
 31
0.0
  0
LINE
  5
7BF0
  8
1
 10
2233.9526259412878
 20
5190.0005522589972
 30
0.0
 11
3679.44261805407
 21
5190.0005522589972
 31
0.0
  0
LINE
  5
7BF1
  8
2
 10
5018.3772199987216
 20
4310.0005522589972
 30
0.0
 11
6909.3599397289327
 21
4310.0005522589972
 31
0.0
  0
LINE
  5
7BF2
  8
2
 10
6155.1270636808358
 20
5442.5674219699404
 30
0.0
 11
6155.1270636808367
 21
3070.0005522589968
 31
0.0
  0
LINE
  5
7BF3
  8
1
 10
5364.1270636808367
 20
3220.0005522589959
 30
0.0
 11
6764.1270636808367
 21
3220.0005522589959
 31
0.0
  0
LINE
  5
7BF4
  8
1
 10
5364.1270636808367
 20
3070.0005522589968
 30
0.0
 11
6764.1270636808367
 21
3070.0005522589968
 31
0.0
  0
LINE
  5
7BF5
  8
1
 10
1342.952625941288
 20
7088.3358899613877
 30
0.0
 11
4092.9526259412892
 21
7088.3358899613877
 31
0.0
  0
LINE
  5
7BF6
  8
1
 10
1342.952625941288
 20
8488.3358899613886
 30
0.0
 11
3042.9526259412892
 21
8488.3358899613886
 31
0.0
  0
LINE
  5
7BF7
  8
1
 10
1342.952625941288
 20
8488.3358899613886
 30
0.0
 11
1342.952625941288
 21
8409.3358899613886
 31
0.0
  0
LINE
  5
7BF8
  8
1
 10
3042.9526259412892
 20
8488.3358899613886
 30
0.0
 11
3042.9526259412892
 21
8409.3358899613886
 31
0.0
  0
LINE
  5
7BF9
  8
1
 10
3683.9526259412878
 20
8188.3358899613877
 30
0.0
 11
4092.9526259412892
 21
8188.3358899613877
 31
0.0
  0
LINE
  5
7BFA
  8
1
 10
4092.9526259412892
 20
8188.3358899613877
 30
0.0
 11
4092.9526259412892
 21
7088.3358899613877
 31
0.0
  0
LINE
  5
7BFB
  8
1
 10
5575.1270636808367
 20
5240.0005522589963
 30
0.0
 11
6735.1270636808358
 21
5240.0005522589963
 31
0.0
  0
LINE
  5
7BFC
  8
1
 10
6685.1270636808367
 20
5240.0005522589963
 30
0.0
 11
6685.1270636808367
 21
4319.0005522589972
 31
0.0
  0
LINE
  5
7BFD
  8
1
 10
5625.1270636808367
 20
5240.0005522589963
 30
0.0
 11
5625.1270636808367
 21
4310.0005522589972
 31
0.0
  0
LINE
  5
7BFE
  8
1
 10
5625.1270636808367
 20
5190.0005522589972
 30
0.0
 11
6685.1270636808367
 21
5190.0005522589972
 31
0.0
  0
LINE
  5
7BFF
  8
2
 10
1111.1960990596231
 20
4310.0005522589972
 30
0.0
 11
3869.629806535359
 21
4310.0005522589972
 31
0.0
  0
LINE
  5
7C00
  8
1
 10
3599.2546778193009
 20
4301.0005522589963
 30
0.0
 11
3598.6598441535202
 21
4294.4059555237436
 31
0.0
  0
ARC
  5
7C01
  8
1
 10
2107.4526259412878
 20
4224.5005522589963
 30
0.0
 40
917.5
 50
174.6529621965137
 51
180.0
  0
LINE
  5
7C02
  8
2
 10
3792.9526259412892
 20
3892.9968708815582
 30
0.0
 11
3792.9526259412892
 21
3139.6492256067122
 31
0.0
  0
LINE
  5
7C03
  8
2
 10
3565.9899069009812
 20
3455.0005522589968
 30
0.0
 11
4092.9526259412892
 21
3455.0005522589968
 31
0.0
  0
LINE
  5
7C04
  8
2
 10
5708.1290134224873
 20
3455.0005522589968
 30
0.0
 11
5188.1019824511641
 21
3455.0005522589968
 31
0.0
  0
CIRCLE
  5
7C05
  8
1
 10
2192.9526259412892
 20
4310.0005522589972
 30
0.0
 40
700.0
  0
CIRCLE
  5
7C06
  8
1
 10
2192.9526259412892
 20
4310.0005522589972
 30
0.0
 40
750.0
  0
LINE
  5
7C07
  8
1
 10
6688.3270636808375
 20
5010.0005522589972
 30
0.0
 11
6789.1270636808367
 21
5010.0005522589972
 31
0.0
  0
LINE
  5
7C08
  8
1
 10
6688.3270636808375
 20
3610.0005522589968
 30
0.0
 11
6789.1270636808367
 21
3610.0005522589968
 31
0.0
  0
LINE
  5
7C09
  8
1
 10
6789.1270636808367
 20
5060.0005522589972
 30
0.0
 11
6789.1270636808367
 21
3560.0005522589959
 31
0.0
  0
LINE
  5
7C0A
  8
1
 10
3954.9526259412878
 20
3345.003057029739
 30
0.0
 11
3945.3235720515358
 21
3354.5548217301798
 31
0.0
  0
LINE
  5
7C0B
  8
1
 10
3630.9526259412892
 20
3345.003057029739
 30
0.0
 11
3640.5816798310402
 21
3354.5548217301798
 31
0.0
  0
LINE
  5
7C0C
  8
1
 10
3954.9526259412878
 20
3275.0005522589959
 30
0.0
 11
3954.9526259412878
 21
3345.003057029739
 31
0.0
  0
LINE
  5
7C0D
  8
1
 10
4043.7783180233869
 20
3275.0005522589959
 30
0.0
 11
3876.2909455195372
 21
3275.0005522589959
 31
0.0
  0
ARC
  5
7C0E
  8
1
 10
3792.9526259412892
 20
3455.0005522589968
 30
0.0
 40
182.5
 50
285.78279193357162
 51
254.2172080664283
  0
LINE
  5
7C0F
  8
1
 10
3743.3142237839238
 20
3279.3808522499589
 30
0.0
 11
3842.5910280986532
 21
3279.3808522499589
 31
0.0
  0
LINE
  5
7C10
  8
1
 10
3630.9526259412892
 20
3275.0005522589959
 30
0.0
 11
3630.9526259412892
 21
3345.0030570297399
 31
0.0
  0
LINE
  5
7C11
  8
1
 10
3630.9526259412892
 20
3275.0005522589959
 30
0.0
 11
3690.9526259412878
 21
3275.0005522589959
 31
0.0
  0
CIRCLE
  5
7C12
  8
1
 10
3792.9526259412892
 20
3455.0005522589968
 30
0.0
 40
106.0
  0
LINE
  5
7C13
  8
1
 10
4052.9526259412901
 20
3220.0005522589959
 30
0.0
 11
4043.7783180233869
 21
3275.0005522589959
 31
0.0
  0
LINE
  5
7C14
  8
1
 10
3876.2909455195372
 20
3275.0005522589959
 30
0.0
 11
3876.2909455195372
 21
3265.524207697395
 31
0.0
  0
LINE
  5
7C15
  8
1
 10
3876.2909455195372
 20
3265.524207697395
 30
0.0
 11
3792.9398450537619
 21
3265.524207697395
 31
0.0
  0
LINE
  5
7C16
  8
1
 10
3532.9526259412878
 20
3220.0005522589959
 30
0.0
 11
3542.1269338591919
 21
3275.0005522589959
 31
0.0
  0
LINE
  5
7C17
  8
1
 10
3542.126933859191
 20
3275.0005522589959
 30
0.0
 11
3709.6143063630411
 21
3275.0005522589959
 31
0.0
  0
LINE
  5
7C18
  8
1
 10
3709.6143063630411
 20
3265.524207697395
 30
0.0
 11
3792.965406828816
 21
3265.524207697395
 31
0.0
  0
LINE
  5
7C19
  8
1
 10
3709.6143063630411
 20
3275.0005522589959
 30
0.0
 11
3709.6143063630411
 21
3265.524207697395
 31
0.0
  0
LINE
  5
7C1A
  8
1
 10
5355.427063680836
 20
4390.0005522589963
 30
0.0
 11
5355.427063680836
 21
4230.0005522589963
 31
0.0
  0
LINE
  5
7C1B
  8
1
 10
5255.427063680836
 20
4710.0005522589963
 30
0.0
 11
5255.427063680836
 21
3349.0005522589959
 31
0.0
  0
LINE
  5
7C1C
  8
1
 10
5333.3270636808384
 20
4710.0005522589963
 30
0.0
 11
5333.3270636808356
 21
3349.0005522589959
 31
0.0
  0
LINE
  5
7C1D
  8
1
 10
5333.3270636808384
 20
4390.0005522589963
 30
0.0
 11
5355.427063680836
 21
4390.0005522589963
 31
0.0
  0
LINE
  5
7C1E
  8
1
 10
5333.3270636808384
 20
4230.0005522589963
 30
0.0
 11
5355.427063680836
 21
4230.0005522589963
 31
0.0
  0
LINE
  5
7C1F
  8
1
 10
5255.427063680836
 20
3561.0005522589968
 30
0.0
 11
5333.3270636808356
 21
3561.0005522589968
 31
0.0
  0
LINE
  5
7C20
  8
1
 10
5255.427063680836
 20
3349.0005522589959
 30
0.0
 11
5333.3270636808356
 21
3349.0005522589959
 31
0.0
  0
LINE
  5
7C21
  8
1
 10
5348.427063680836
 20
3515.0005522589968
 30
0.0
 11
5348.427063680836
 21
3395.0005522589968
 31
0.0
  0
LINE
  5
7C22
  8
1
 10
5333.3270636808356
 20
3515.0005522589968
 30
0.0
 11
5348.427063680836
 21
3515.0005522589968
 31
0.0
  0
LINE
  5
7C23
  8
1
 10
5333.3270636808356
 20
3395.0005522589968
 30
0.0
 11
5348.427063680836
 21
3395.0005522589968
 31
0.0
  0
LINE
  5
7C24
  8
1
 10
5205.427063680836
 20
3235.0005522589968
 30
0.0
 11
5405.427063680836
 21
3235.0005522589968
 31
0.0
  0
LINE
  5
7C25
  8
1
 10
5205.427063680836
 20
4860.0005522589972
 30
0.0
 11
5205.427063680836
 21
3235.0005522589968
 31
0.0
  0
LINE
  5
7C26
  8
1
 10
5405.427063680836
 20
4860.0005522589972
 30
0.0
 11
5405.427063680836
 21
3235.0005522589968
 31
0.0
  0
LINE
  5
7C27
  8
1
 10
5355.427063680836
 20
4352.5005522589963
 30
0.0
 11
5625.1270636808367
 21
4352.5005522589963
 31
0.0
  0
LINE
  5
7C28
  8
1
 10
5355.427063680836
 20
4267.5005522589963
 30
0.0
 11
5625.1270636808367
 21
4267.5005522589963
 31
0.0
  0
LINE
  5
7C35
  8
1
 10
5625.1270636808367
 20
4310.0005522589972
 30
0.0
 11
5625.1270636808367
 21
3220.0005522589959
 31
0.0
  0
LINE
  5
7C36
  8
1
 10
6685.1270636808367
 20
4301.0005522589963
 30
0.0
 11
6685.1270636808367
 21
3220.0005522589959
 31
0.0
  0
POINT
  5
7C37
  8
1
 10
6155.1270636808358
 20
5685.2855932924667
 30
0.0
  0
INSERT
  5
7C38
  8
0
  6
BYBLOCK
 62
     2
  2
YA_N
 10
5372.4018783245183
 20
-226.14356067562309
 30
0.0
 41
90.0
 42
90.0
 43
90.0
 50
210.0117675348119
  0
CIRCLE
  5
7C39
  8
1
 10
2192.9526259412892
 20
4310.0005522589972
 30
0.0
 40
400.0
  0
ARC
  5
7C3A
  8
1
 10
2192.9526259412892
 20
4310.0005522589972
 30
0.0
 40
550.0
 50
51.400236102065762
 51
252.3618980564442
  0
ARC
  5
7C3B
  8
1
 10
3792.9526259412892
 20
3455.0005522589968
 30
0.0
 40
220.0
 50
252.3618980564442
 51
51.400236102065762
  0
LINE
  5
7C3C
  8
1
 10
2536.0846328771531
 20
4739.8382260571016
 30
0.0
 11
3930.2054287156338
 21
3626.9356217782388
 31
0.0
  0
LINE
  5
7C3D
  8
1
 10
2436.1554921434358
 20
4627.5731673741248
 30
0.0
 11
3857.4013854848581
 21
3539.1572952645051
 31
0.0
  0
LINE
  5
7C3E
  8
1
 10
3758.8059151515281
 20
3354.6511519506721
 30
0.0
 11
2064.0971135270961
 21
3931.3235699634311
 31
0.0
  0
LINE
  5
7C3F
  8
1
 10
2026.300591050609
 20
3785.856393399245
 30
0.0
 11
3726.2918119850169
 21
3245.3428887150972
 31
0.0
  0
LINE
  5
7C40
  8
1
 10
5255.427063680836
 20
4710.0005522589963
 30
0.0
 11
5333.3270636808356
 21
4710.0005522589963
 31
0.0
  0
LINE
  5
7C41
  8
1
 10
5255.427063680836
 20
3910.0005522589959
 30
0.0
 11
5333.3270636808356
 21
3910.0005522589959
 31
0.0
  0
LINE
  5
7C42
  8
1
 10
5205.427063680836
 20
4860.0005522589972
 30
0.0
 11
5405.427063680836
 21
4860.0005522589972
 31
0.0
  0
LINE
  5
7C43
  8
1
 10
5348.427063680836
 20
3497.5005522589959
 30
0.0
 11
5625.1270636808367
 21
3497.5005522589959
 31
0.0
  0
LINE
  5
7C44
  8
1
 10
5348.427063680836
 20
3412.5005522589959
 30
0.0
 11
5625.1270636808367
 21
3412.5005522589959
 31
0.0
  0
DIMENSION
  5
7C45
  8
3
  2
*D2
 10
2233.9526259412878
 20
5507.6466977726686
 30
0.0
 11
2958.9526259412892
 21
5607.6466977726677
 31
0.0
 70
     0
 13
3683.9526259412878
 23
5240.0005522589963
 33
0.0
 14
2233.9526259412878
 24
5240.0005522589963
 34
0.0
1001
ACAD
1000
DSTYLE
1002
{
1070
   287
1070
     3
1070
   287
1070
     3
1070
    40
1040
40.0
1070
   143
1040
0.039
1070
   172
1070
     1
1070
   271
1070
     0
1070
   279
1070
     0
1070
   288
1070
     1
1002
}
  0
DIMENSION
  5
7C46
  8
3
  2
*D3
 10
2192.9526259412892
 20
5757.9992614811936
 30
0.0
 11
2938.4526259412878
 21
5857.9992614811936
 31
0.0
 70
     0
 13
3683.9526259412878
 23
5240.0005522589963
 33
0.0
 14
2192.9526259412892
 24
5327.9953101100809
 34
0.0
1001
ACAD
1000
DSTYLE
1002
{
1070
   287
1070
     3
1070
   287
1070
     3
1070
    40
1040
40.0
1070
   143
1040
0.039
1070
   172
1070
     1
1070
   271
1070
     0
1070
   279
1070
     0
1070
   288
1070
     1
1002
}
  0
DIMENSION
  5
7C47
  8
3
  2
*D4
 10
1189.952625941288
 20
5757.9992614811936
 30
0.0
 11
1691.452625941288
 21
5857.9992614811936
 31
0.0
 70
     0
 13
2192.9526259412892
 23
5327.9953101100809
 33
0.0
 14
1189.952625941288
 24
4208.0005522589963
 34
0.0
1001
ACAD
1000
DSTYLE
1002
{
1070
   287
1070
     3
1070
   287
1070
     3
1070
    40
1040
40.0
1070
   143
1040
0.039
1070
   172
1070
     1
1070
   271
1070
     0
1070
   279
1070
     0
1070
   288
1070
     1
1002
}
  0
DIMENSION
  5
7C48
  8
3
  2
*D5
 10
4533.5753103171119
 20
4310.0005522589972
 30
0.0
 11
4433.5753103171101
 21
4775.0005522589972
 31
0.0
 70
     0
 13
3737.9526259412892
 23
5240.0005522589963
 33
0.0
 14
3869.629806535359
 24
4310.0005522589972
 34
0.0
 50
90.0
1001
ACAD
1000
DSTYLE
1002
{
1070
   287
1070
     3
1070
   287
1070
     3
1070
    40
1040
40.0
1070
   143
1040
0.039
1070
   172
1070
     1
1070
   271
1070
     0
1070
   279
1070
     0
1070
   288
1070
     1
1002
}
  0
DIMENSION
  5
7C49
  8
3
  2
*D6
 10
4533.5753103171119
 20
3070.0005522589968
 30
0.0
 11
4433.5753103171101
 21
3690.0005522589968
 31
0.0
 70
     0
 13
3869.629806535359
 23
4310.0005522589972
 33
0.0
 14
4092.9526259412892
 24
3070.0005522589968
 34
0.0
 50
90.0
1001
ACAD
1000
DSTYLE
1002
{
1070
   287
1070
     3
1070
   287
1070
     3
1070
    40
1040
40.0
1070
   143
1040
0.039
1070
   172
1070
     1
1070
   271
1070
     0
1070
   279
1070
     0
1070
   288
1070
     1
1002
}
  0
DIMENSION
  5
7C53
  8
3
  2
*D7
 10
3042.9526259412892
 20
8858.3824453201632
 30
0.0
 11
2192.9526259412892
 21
8958.3824453201632
 31
0.0
 70
     0
 13
1342.952625941288
 23
8488.3358899613886
 33
0.0
 14
3042.9526259412892
 24
8488.3358899613886
 34
0.0
1001
ACAD
1000
DSTYLE
1002
{
1070
   287
1070
     3
1070
   287
1070
     3
1070
    40
1040
40.0
1070
   143
1040
0.039
1070
   172
1070
     1
1070
   271
1070
     0
1070
   279
1070
     0
1070
   288
1070
     1
1002
}
  0
DIMENSION
  5
7C54
  8
3
  2
*D8
 10
4092.9526259412892
 20
8858.3824453201632
 30
0.0
 11
3567.9526259412892
 21
8958.3824453201632
 31
0.0
 70
     0
 13
3042.9526259412892
 23
8488.3358899613886
 33
0.0
 14
4092.9526259412892
 24
8188.3358899613877
 34
0.0
1001
ACAD
1000
DSTYLE
1002
{
1070
   287
1070
     3
1070
   287
1070
     3
1070
    40
1040
40.0
1070
   143
1040
0.039
1070
   172
1070
     1
1070
   271
1070
     0
1070
   279
1070
     0
1070
   288
1070
     1
1002
}
  0
DIMENSION
  5
7C55
  8
3
  2
*D9
 10
4573.8264022713111
 20
7088.3358899613877
 30
0.0
 11
4473.8264022713111
 21
7638.3358899613886
 31
0.0
 70
     0
 13
4092.9526259412892
 23
8188.3358899613877
 33
0.0
 14
4092.9526259412892
 24
7088.3358899613877
 34
0.0
 50
90.0
1001
ACAD
1000
DSTYLE
1002
{
1070
   287
1070
     3
1070
   287
1070
     3
1070
    40
1040
40.0
1070
   143
1040
0.039
1070
   172
1070
     1
1070
   271
1070
     0
1070
   279
1070
     0
1070
   288
1070
     1
1002
}
  0
DIMENSION
  5
7C56
  8
3
  2
*D10
 10
916.69066568538619
 20
7088.3358899613877
 30
0.0
 11
816.69066568538506
 21
7788.3358899613877
 31
0.0
 70
     0
 13
1342.952625941288
 23
8488.3358899613886
 33
0.0
 14
1342.952625941288
 24
7088.3358899613877
 34
0.0
 50
90.0
1001
ACAD
1000
DSTYLE
1002
{
1070
   287
1070
     3
1070
   287
1070
     3
1070
    40
1040
40.0
1070
   143
1040
0.039
1070
   172
1070
     1
1070
   271
1070
     0
1070
   279
1070
     0
1070
   288
1070
     1
1002
}
  0
DIMENSION
  5
7C57
  8
3
  2
*D11
 10
4092.9526259412892
 20
6604.0319145822887
 30
0.0
 11
2717.9526259412878
 21
6604.0319145822887
 31
0.0
 70
   128
 13
1342.952625941288
 23
7088.3358899613877
 33
0.0
 14
4092.9526259412892
 24
7088.3358899613877
 34
0.0
1001
ACAD
1000
DSTYLE
1002
{
1070
   287
1070
     3
1070
   287
1070
     3
1070
    40
1040
40.0
1070
   143
1040
0.039
1070
   172
1070
     1
1070
   271
1070
     0
1070
   279
1070
     0
1070
   288
1070
     1
1002
}
  0
DIMENSION
  5
7C58
  8
3
  2
*D12
 10
6685.1270636808367
 20
5463.6261761524547
 30
0.0
 11
6155.1270636808358
 21
5563.6261761524547
 31
0.0
 70
     0
 13
5625.1270636808367
 23
5240.0005522589963
 33
0.0
 14
6685.1270636808367
 24
5240.0005522589963
 34
0.0
1001
ACAD
1000
DSTYLE
1002
{
1070
   287
1070
     3
1070
   287
1070
     3
1070
    40
1040
40.0
1070
   143
1040
0.039
1070
   172
1070
     1
1070
   271
1070
     0
1070
   279
1070
     0
1070
   288
1070
     1
1002
}
  0
DIMENSION
  5
7C59
  8
3
  2
*D13
 10
6155.1270636808358
 20
5800.5282296154583
 30
0.0
 11
6511.9842065379798
 21
5800.5282296154583
 31
0.0
 70
   128
 13
6789.1270636808367
 23
5060.0005522589972
 33
0.0
 14
6155.1270636808358
 24
5685.2855932924667
 34
0.0
1001
ACAD
1000
DSTYLE
1002
{
1070
   287
1070
     3
1070
   287
1070
     3
1070
    40
1040
40.0
1070
   143
1040
0.039
1070
   172
1070
     1
1070
   271
1070
     0
1070
   279
1070
     0
1070
   288
1070
     1
1002
}
  0
DIMENSION
  5
7C5A
  8
3
  2
*D14
 10
5205.427063680836
 20
5800.5282296154583
 30
0.0
 11
5680.2770636808364
 21
6000.5282296154583
 31
0.0
 70
     0
  1
MAX\P1030
 13
6155.1270636808358
 23
5685.2855932924667
 33
0.0
 14
5205.427063680836
 24
4860.0005522589972
 34
0.0
1001
ACAD
1000
DSTYLE
1002
{
1070
   287
1070
     3
1070
   287
1070
     3
1070
    40
1040
40.0
1070
   143
1040
0.039
1070
   172
1070
     1
1070
   271
1070
     0
1070
   279
1070
     0
1070
   288
1070
     1
1002
}
  0
DIMENSION
  5
7C5B
  8
3
  2
*D15
 10
7221.7176908607471
 20
3610.0005522589968
 30
0.0
 11
7121.7176908607471
 21
4310.0005522589981
 31
0.0
 70
     0
 13
6789.1270636808367
 23
5010.0005522589972
 33
0.0
 14
6789.1270636808367
 24
3610.0005522589968
 34
0.0
 50
90.0
1001
ACAD
1000
DSTYLE
1002
{
1070
   287
1070
     3
1070
   287
1070
     3
1070
     3
1000
φ<>
1070
    40
1040
40.0
1070
   143
1040
0.039
1070
   172
1070
     1
1070
   271
1070
     0
1070
   279
1070
     0
1070
   288
1070
     1
1002
}
  0
LINE
  5
7C5C
  8
2
 10
2192.9526259412892
 20
6946.5513177861776
 30
0.0
 11
2192.9526259412892
 21
8583.0328760148677
 31
0.0
  0
LINE
  5
7C5D
  8
1
 10
1189.952625941288
 20
8409.3358899613886
 30
0.0
 11
3683.9526259412901
 21
8409.3358899613886
 31
0.0
  0
LINE
  5
7C5E
  8
1
 10
1189.952625941288
 20
7349.3358899613877
 30
0.0
 11
3683.9526259412901
 21
7349.3358899613877
 31
0.0
  0
LINE
  5
7C5F
  8
1
 10
3683.9526259412878
 20
7349.3358899613877
 30
0.0
 11
3683.9526259412901
 21
8409.3358899613886
 31
0.0
  0
LINE
  5
7C60
  8
1
 10
2233.9526259412878
 20
7349.3358899613877
 30
0.0
 11
2233.9526259412878
 21
8409.3358899613886
 31
0.0
  0
LINE
  5
7C61
  8
1
 10
1189.952625941288
 20
7349.3358899613877
 30
0.0
 11
1189.952625941288
 21
8409.3358899613886
 31
0.0
  0
LINE
  5
7C62
  8
1
 10
1342.952625941288
 20
7349.3358899613877
 30
0.0
 11
1342.952625941288
 21
7088.3358899613877
 31
0.0
  0
LINE
  5
7C63
  8
1
 10
3683.9526259412901
 20
8409.3358899613886
 30
0.0
 11
2233.9526259412878
 21
7349.3358899613877
 31
0.0
  0
LINE
  5
7C64
  8
1
 10
2233.9526259412878
 20
8409.3358899613886
 30
0.0
 11
3683.9526259412878
 21
7349.3358899613877
 31
0.0
  0
DIMENSION
  5
7C65
  8
3
  2
*D16
 10
4092.9526259412892
 20
6007.283739942699
 30
0.0
 11
2641.4526259412892
 21
6107.283739942698
 31
0.0
 70
     0
 13
1189.952625941288
 23
4224.5005522589963
 33
0.0
 14
4092.9526259412892
 24
3220.0005522589959
 34
0.0
1001
ACAD
1000
DSTYLE
1002
{
1070
   287
1070
     3
1070
   287
1070
     3
1070
    40
1040
40.0
1070
   143
1040
0.039
1070
   172
1070
     1
1070
   271
1070
     0
1070
   279
1070
     0
1070
   288
1070
     1
1002
}
  0
LINE
  5
7C66
  8
1
 10
6764.1270636808367
 20
3220.0005522589959
 30
0.0
 11
6764.1270636808367
 21
3070.0005522589968
 31
0.0
  0
LINE
  5
7C67
  8
1
 10
5364.1270636808367
 20
3220.0005522589959
 30
0.0
 11
5364.1270636808367
 21
3070.0005522589968
 31
0.0
  0
LINE
  5
7C68
  8
1
 10
1642.9526259412889
 20
7129.6358899613879
 30
0.0
 11
4012.9526259412892
 21
7129.6358899613879
 31
0.0
  0
LINE
  5
7C69
  8
1
 10
1642.9526259412889
 20
6929.6358899613879
 30
0.0
 11
4012.9526259412892
 21
6929.6358899613879
 31
0.0
  0
LINE
  5
7C6A
  8
1
 10
1792.952625941288
 20
7057.5358899613866
 30
0.0
 11
2592.9526259412878
 21
7057.5358899613866
 31
0.0
  0
LINE
  5
7C6B
  8
1
 10
1792.952625941288
 20
6979.6358899613879
 30
0.0
 11
2592.9526259412878
 21
6979.6358899613879
 31
0.0
  0
LINE
  5
7C6C
  8
1
 10
3835.4526259412878
 20
7072.6358899613888
 30
0.0
 11
3835.4526259412878
 21
7187.6358899613879
 31
0.0
  0
LINE
  5
7C6D
  8
1
 10
3750.4526259412892
 20
7072.6358899613888
 30
0.0
 11
3750.4526259412892
 21
7187.6358899613879
 31
0.0
  0
LINE
  5
7C6E
  8
2
 10
3792.9526259412892
 20
7775.8877524140898
 30
0.0
 11
3792.9526259412892
 21
6912.310808731716
 31
0.0
  0
LINE
  5
7C6F
  8
1
 10
4012.9526259412892
 20
6929.6358899613879
 30
0.0
 11
4012.9526259412892
 21
7129.6358899613879
 31
0.0
  0
LINE
  5
7C70
  8
1
 10
3898.9526259412892
 20
6979.6358899613879
 30
0.0
 11
3898.9526259412892
 21
7057.5358899613866
 31
0.0
  0
LINE
  5
7C71
  8
1
 10
3686.9526259412878
 20
6979.6358899613879
 30
0.0
 11
3686.9526259412878
 21
7057.5358899613866
 31
0.0
  0
LINE
  5
7C72
  8
1
 10
3732.9526259412892
 20
7072.6358899613888
 30
0.0
 11
3852.9526259412892
 21
7072.6358899613888
 31
0.0
  0
LINE
  5
7C73
  8
1
 10
3852.9526259412892
 20
7057.5358899613866
 30
0.0
 11
3852.9526259412892
 21
7072.6358899613888
 31
0.0
  0
LINE
  5
7C74
  8
1
 10
3732.9526259412892
 20
7057.5358899613866
 30
0.0
 11
3732.9526259412892
 21
7072.6358899613888
 31
0.0
  0
LINE
  5
7C75
  8
1
 10
2235.4526259412892
 20
7079.635889961387
 30
0.0
 11
2235.4526259412892
 21
7349.3358899613877
 31
0.0
  0
LINE
  5
7C76
  8
1
 10
2150.4526259412892
 20
7079.635889961387
 30
0.0
 11
2150.4526259412892
 21
7349.3358899613877
 31
0.0
  0
LINE
  5
7C77
  8
1
 10
2592.9526259412878
 20
6979.6358899613879
 30
0.0
 11
2592.9526259412878
 21
7057.5358899613866
 31
0.0
  0
LINE
  5
7C78
  8
1
 10
2112.9526259412878
 20
7079.635889961387
 30
0.0
 11
2272.9526259412892
 21
7079.635889961387
 31
0.0
  0
LINE
  5
7C79
  8
1
 10
2272.9526259412892
 20
7057.5358899613866
 30
0.0
 11
2272.9526259412892
 21
7079.635889961387
 31
0.0
  0
LINE
  5
7C7A
  8
1
 10
2112.9526259412878
 20
7057.5358899613866
 30
0.0
 11
2112.9526259412878
 21
7079.635889961387
 31
0.0
  0
LINE
  5
7C7B
  8
1
 10
1642.9526259412889
 20
6929.6358899613879
 30
0.0
 11
1642.9526259412889
 21
7129.6358899613879
 31
0.0
  0
LINE
  5
7C7C
  8
1
 10
1792.952625941288
 20
6979.6358899613879
 30
0.0
 11
1792.952625941288
 21
7057.5358899613866
 31
0.0
  0
LINE
  5
7C7D
  8
2
 10
1060.3857562303449
 20
7879.3358899613886
 30
0.0
 11
3680.536879868032
 21
7879.3358899613886
 31
0.0
  0
LINE
  5
7C7E
  8
1
 10
3686.9526259412878
 20
7057.5358899613866
 30
0.0
 11
3898.9526259412892
 21
7057.5358899613866
 31
0.0
  0
LINE
  5
7C7F
  8
1
 10
3686.9526259412878
 20
6979.6358899613879
 30
0.0
 11
3898.9526259412892
 21
6979.6358899613879
 31
0.0
  0
LINE
  5
7C80
  8
1
 10
3610.4526259412878
 20
7749.1358899613897
 30
0.0
 11
3975.4526259412892
 21
7749.1358899613879
 31
0.0
  0
LINE
  5
7C81
  8
1
 10
3610.4526259412878
 20
7187.6358899613906
 30
0.0
 11
3975.4526259412892
 21
7187.6358899613879
 31
0.0
  0
LINE
  5
7C82
  8
1
 10
3975.4526259412892
 20
7749.1358899613879
 30
0.0
 11
3975.4526259412892
 21
7187.6358899613879
 31
0.0
  0
LINE
  5
7C83
  8
1
 10
3610.4526259412878
 20
7749.1358899613879
 30
0.0
 11
3610.4526259412878
 21
7187.6358899613906
 31
0.0
  0
LINE
  5
7FD9
  8
4
 10
7400.0
 20
2000.0
 30
0.0
 11
7400.0
 21
1200.0
 31
0.0
  0
LINE
  5
7FDA
  8
4
 10
4600.0
 20
2000.0
 30
0.0
 11
4600.0
 21
1200.0
 31
0.0
  0
LINE
  5
7FDB
  8
4
 10
2600.0
 20
2000.0
 30
0.0
 11
2600.0
 21
1200.0
 31
0.0
  0
LINE
  5
7FDE
  8
4
 10
2600.0
 20
1200.0
 30
0.0
 11
7400.0
 21
1200.0
 31
0.0
  0
LINE
  5
7FDF
  8
4
 10
2600.0
 20
1600.0
 30
0.0
 11
7400.0
 21
1600.0
 31
0.0
  0
TEXT
  5
7FE0
  8
4
 10
2754.0083233876071
 20
1726.1721034664511
 30
0.0
 40
200.0
  1
機器名称
  0
TEXT
  5
7FE1
  8
4
 10
2745.0324240991899
 20
1286.5806269280431
 30
0.0
 40
200.0
  1
機器型番
  0
TEXT
  5
7FE2
  8
4
 10
4710.7149819506594
 20
1690.287075830274
 30
0.0
 40
200.0
  1
ミツヤ多翼送風機
  0
TEXT
  5
7FE3
  8
4
 10
4746.6179823419234
 20
1268.638337119773
 30
0.0
 40
200.0
  1
MFE#9-4
  0
TEXT
  5
7FE5
  8
4
 10
3196.708094985122
 20
9533.7153653300629
 30
0.0
 40
215.99999999999989
  1
床置ベット
  0
TEXT
  5
7FE6
  8
4
 10
1264.6703733177851
 20
10135.52390479719
 30
0.0
 40
288.0
  1
ベルト駆動式片吸込両持排煙ファン
  0
LINE
  5
7FE7
  8
4
 10
1000.0
 20
9877.6350170592195
 30
0.0
 11
7400.0
 21
9877.6350170592195
 31
0.0
  0
LINE
  5
7FE8
  8
4
 10
1000.0
 20
10677.63501705921
 30
0.0
 11
7400.0
 21
10677.63501705921
 31
0.0
  0
LINE
  5
7FE9
  8
4
 10
2600.0
 20
2000.0
 30
0.0
 11
7400.0
 21
2000.0
 31
0.0
  0
LINE
  5
7FEA
  8
4
 10
1000.0
 20
10677.63501705921
 30
0.0
 11
1000.0
 21
9877.6350170592195
 31
0.0
  0
TEXT
  5
7FEB
  8
4
 10
1453.272766014313
 20
9529.2779101853739
 30
0.0
 40
215.99999999999989
  1
左回転上向
  0
TEXT
  5
7FEC
  8
4
 10
5875.8782369971586
 20
10824.24432598123
 30
0.0
 40
224.0
  1
No.
  0
TEXT
  5
7FED
  8
4
 10
5245.1842504000524
 20
9533.7153653300629
 30
0.0
 40
215.99999999999989
  1
縮尺：1/40
  0
LINE
  5
7FEE
  8
4
 10
7400.0
 20
10677.63501705921
 30
0.0
 11
7400.0
 21
9877.6350170592195
 31
0.0
  0
LINE
  5
7FEF
  8
4
 10
8400.0
 20
11800.0
 30
0.0
 11
8400.0
 21
11800.0
 31
0.0
  0
LINE
  5
7FF0
  8
4
 10
5762.4696894394583
 20
10725.054332501601
 30
0.0
 11
5762.4696894394583
 21
11146.609046199001
 31
0.0
  0
LINE
  5
7FF1
  8
4
 10
5762.4696894394583
 20
11146.609046199001
 30
0.0
 11
7400.0
 21
11146.609046199001
 31
0.0
  0
LINE
  5
7FF2
  8
4
 10
7400.0
 20
11146.609046199001
 30
0.0
 11
7400.0
 21
10725.054332501601
 31
0.0
  0
LINE
  5
7FF3
  8
4
 10
7400.0
 20
10725.054332501601
 30
0.0
 11
5762.4696894394583
 21
10725.054332501601
 31
0.0
  0
LINE
  5
7FF4
  8
4
 10
0.0
 20
0.0
 30
0.0
 11
0.0
 21
11800.0
 31
0.0
  0
LINE
  5
7FF5
  8
4
 10
0.0
 20
11800.0
 30
0.0
 11
8400.0
 21
11800.0
 31
0.0
  0
LINE
  5
7FF6
  8
4
 10
8400.0
 20
11800.0
 30
0.0
 11
8400.0
 21
0.0
 31
0.0
  0
LINE
  5
7FF7
  8
4
 10
8400.0
 20
0.0
 30
0.0
 11
0.0
 21
0.0
 31
0.0
  0
DIMENSION
  5
807E
  8
3
  2
*D18
 10
2192.9526259412892
 20
2787.3302197431358
 30
0.0
 11
1767.9526259412889
 21
2887.3302197431358
 31
0.0
 70
     0
 13
1342.9526259412889
 23
3070.0005522589968
 33
0.0
 14
2192.9526259412892
 24
3070.0005522589968
 34
0.0
1001
ACAD
1000
DSTYLE
1002
{
1070
   287
1070
     3
1070
   287
1070
     3
1070
    40
1040
40.0
1070
   143
1040
0.039
1070
   172
1070
     1
1070
   271
1070
     0
1070
   279
1070
     0
1002
}
  0
DIMENSION
  5
808B
  8
3
  2
*D19
 10
4092.9526259412892
 20
2787.3302197431358
 30
0.0
 11
3142.9526259412892
 21
2887.3302197431358
 31
0.0
 70
     0
 13
2192.9526259412892
 23
3070.0005522589968
 33
0.0
 14
4092.9526259412892
 24
3070.0005522589968
 34
0.0
1001
ACAD
1000
DSTYLE
1002
{
1070
   287
1070
     3
1070
   287
1070
     3
1070
    40
1040
40.0
1070
   143
1040
0.039
1070
   172
1070
     1
1070
   271
1070
     0
1070
   279
1070
     0
1002
}
  0
DIMENSION
  5
8098
  8
3
  2
*D20
 10
6155.1270636808367
 20
2787.3302197431358
 30
0.0
 11
5759.6270636808367
 21
2887.3302197431358
 31
0.0
 70
     0
 13
5364.1270636808367
 23
3070.0005522589968
 33
0.0
 14
6155.1270636808367
 24
3070.0005522589968
 34
0.0
1001
ACAD
1000
DSTYLE
1002
{
1070
   287
1070
     3
1070
   287
1070
     3
1070
    40
1040
40.0
1070
   143
1040
0.039
1070
   172
1070
     1
1070
   271
1070
     0
1070
   279
1070
     0
1002
}
  0
DIMENSION
  5
80A5
  8
3
  2
*D21
 10
6764.1270636808367
 20
2787.3302197431358
 30
0.0
 11
6459.6270636808367
 21
2887.3302197431358
 31
0.0
 70
     0
 13
6155.1270636808367
 23
3070.0005522589968
 33
0.0
 14
6764.1270636808367
 24
3070.0005522589968
 34
0.0
1001
ACAD
1000
DSTYLE
1002
{
1070
   287
1070
     3
1070
   287
1070
     3
1070
    40
1040
40.0
1070
   143
1040
0.039
1070
   172
1070
     1
1070
   271
1070
     0
1070
   279
1070
     0
1002
}
  0
DIMENSION
  5
80B2
  8
3
  2
*D22
 10
4801.3846437454049
 20
3070.0005522589968
 30
0.0
 11
4701.384643745404
 21
4155.0005522589972
 31
0.0
 70
     0
 13
3737.9526259412892
 23
5240.0005522589963
 33
0.0
 14
4092.9526259412892
 24
3070.0005522589968
 34
0.0
 50
90.0
1001
ACAD
1000
DSTYLE
1002
{
1070
   287
1070
     3
1070
   287
1070
     3
1070
    40
1040
40.0
1070
   143
1040
0.039
1070
   172
1070
     1
1070
   271
1070
     0
1070
   279
1070
     0
1002
}
  0
ENDSEC
  0
EOF
