  0
SECTION
  2
HEADER
  9
$ACADVER
  1
AC1009
  9
$INSBASE
 10
0.0
 20
0.0
 30
0.0
  9
$EXTMIN
 10
1000.0
 20
1200.0
 30
0.0
  9
$EXTMAX
 10
7400.0
 20
11146.609046
 30
0.0
  9
$LIMMIN
 10
0.0
 20
0.0
  9
$LIMMAX
 10
297.0
 20
210.0
  9
$ORTHOMODE
 70
     0
  9
$REGENMODE
 70
     1
  9
$FILLMODE
 70
     0
  9
$QTEXTMODE
 70
     0
  9
$MIRRTEXT
 70
     1
  9
$DRAGMODE
 70
     2
  9
$LTSCALE
 40
100.0
  9
$OSMODE
 70
    37
  9
$ATTMODE
 70
     1
  9
$TEXTSIZE
 40
180.0
  9
$TRACEWID
 40
0.05
  9
$TEXTSTYLE
  7
STANDARD
  9
$CLAYER
  8
3
  9
$CELTYPE
  6
BYLAYER
  9
$CECOLOR
 62
   256
  9
$DIMSCALE
 40
40.0
  9
$DIMASZ
 40
2.0
  9
$DIMEXO
 40
0.5
  9
$DIMDLI
 40
10.0
  9
$DIMRND
 40
0.0
  9
$DIMDLE
 40
0.0
  9
$DIMEXE
 40
1.0
  9
$DIMTP
 40
1.0
  9
$DIMTM
 40
1.0
  9
$DIMTXT
 40
3.0
  9
$DIMCEN
 40
0.0
  9
$DIMTSZ
 40
0.0
  9
$DIMTOL
 70
     0
  9
$DIMLIM
 70
     0
  9
$DIMTIH
 70
     0
  9
$DIMTOH
 70
     0
  9
$DIMSE1
 70
     0
  9
$DIMSE2
 70
     0
  9
$DIMTAD
 70
     1
  9
$DIMZIN
 70
     8
  9
$DIMBLK
  1

  9
$DIMASO
 70
     1
  9
$DIMSHO
 70
     1
  9
$DIMPOST
  1

  9
$DIMAPOST
  1

  9
$DIMALT
 70
     0
  9
$DIMALTD
 70
     2
  9
$DIMALTF
 40
0.039
  9
$DIMLFAC
 40
1.0
  9
$DIMTOFL
 70
     1
  9
$DIMTVP
 40
0.0
  9
$DIMTIX
 70
     0
  9
$DIMSOXD
 70
     0
  9
$DIMSAH
 70
     1
  9
$DIMBLK1
  1
OPEN
  9
$DIMBLK2
  1
OPEN
  9
$DIMSTYLE
  2
IGA
  9
$DIMCLRD
 70
     0
  9
$DIMCLRE
 70
     0
  9
$DIMCLRT
 70
     0
  9
$DIMTFAC
 40
10.0
  9
$DIMGAP
 40
1.0
  9
$LUNITS
 70
     2
  9
$LUPREC
 70
     3
  9
$SKETCHINC
 40
0.1
  9
$FILLETRAD
 40
50.0
  9
$AUNITS
 70
     0
  9
$AUPREC
 70
     0
  9
$MENU
  1
acad
  9
$ELEVATION
 40
0.0
  9
$PELEVATION
 40
0.0
  9
$THICKNESS
 40
0.0
  9
$LIMCHECK
 70
     0
  9
$BLIPMODE
 70
     0
  9
$CHAMFERA
 40
0.5
  9
$CHAMFERB
 40
0.5
  9
$SKPOLY
 70
     0
  9
$TDCREATE
 40
2450757.5887262728
  9
$TDUPDATE
 40
2454953.8453320372
  9
$TDINDWG
 40
0.0097603472
  9
$TDUSRTIMER
 40
0.0097603472
  9
$USRTIMER
 70
     1
  9
$ANGBASE
 50
0.0
  9
$ANGDIR
 70
     0
  9
$PDMODE
 70
     0
  9
$PDSIZE
 40
0.0
  9
$PLINEWID
 40
0.0
  9
$COORDS
 70
     1
  9
$SPLFRAME
 70
     0
  9
$SPLINETYPE
 70
     6
  9
$SPLINESEGS
 70
     8
  9
$ATTDIA
 70
     0
  9
$ATTREQ
 70
     1
  9
$HANDLING
 70
 10241
  9
$HANDSEED
  5
81FA
  9
$SURFTAB1
 70
     6
  9
$SURFTAB2
 70
     6
  9
$SURFTYPE
 70
     6
  9
$SURFU
 70
     6
  9
$SURFV
 70
     6
  9
$UCSNAME
  2

  9
$UCSORG
 10
0.0
 20
0.0
 30
0.0
  9
$UCSXDIR
 10
1.0
 20
0.0
 30
0.0
  9
$UCSYDIR
 10
0.0
 20
1.0
 30
0.0
  9
$PUCSNAME
  2

  9
$PUCSORG
 10
0.0
 20
0.0
 30
0.0
  9
$PUCSXDIR
 10
1.0
 20
0.0
 30
0.0
  9
$PUCSYDIR
 10
0.0
 20
1.0
 30
0.0
  9
$USERI1
 70
     0
  9
$USERI2
 70
     0
  9
$USERI3
 70
     0
  9
$USERI4
 70
     0
  9
$USERI5
 70
     0
  9
$USERR1
 40
0.0
  9
$USERR2
 40
0.0
  9
$USERR3
 40
0.0
  9
$USERR4
 40
0.0
  9
$USERR5
 40
0.0
  9
$WORLDVIEW
 70
     1
  9
$SHADEDGE
 70
     3
  9
$SHADEDIF
 70
    70
  9
$TILEMODE
 70
     1
  9
$MAXACTVP
 70
    16
  9
$PLIMCHECK
 70
     0
  9
$PEXTMIN
 10
1.0000000000000000E+020
 20
1.0000000000000000E+020
 30
1.0000000000000000E+020
  9
$PEXTMAX
 10
-1.0000000000000000E+020
 20
-1.0000000000000000E+020
 30
-1.0000000000000000E+020
  9
$PLIMMIN
 10
0.0
 20
0.0
  9
$PLIMMAX
 10
12.0
 20
9.0
  9
$UNITMODE
 70
     0
  9
$VISRETAIN
 70
     0
  9
$PLINEGEN
 70
     0
  9
$PSLTSCALE
 70
     1
  0
ENDSEC
  0
SECTION
  2
TABLES
  0
TABLE
  2
VPORT
 70
     2
  0
VPORT
  2
*ACTIVE
 70
     0
 10
0.0
 20
0.0
 11
1.0
 21
1.0
 12
11792.04493458401
 22
7784.2034574362706
 13
0.0
 23
0.0
 14
10.0
 24
10.0
 15
10.0
 25
10.0
 16
0.0
 26
0.0
 36
1.0
 17
0.0
 27
0.0
 37
0.0
 40
15441.72356389076
 41
1.5051150895140659
 42
50.0
 43
0.0
 44
0.0
 50
0.0
 51
0.0
 71
     0
 72
   100
 73
     1
 74
     0
 75
     0
 76
     0
 77
     0
 78
     0
  0
ENDTAB
  0
TABLE
  2
LTYPE
 70
     2
  0
LTYPE
  2
CONTINUOUS
 70
     0
  3
Solid line
 72
    65
 73
     0
 40
0.0
  0
LTYPE
  2
CENTER
 70
     0
  3
____ _ ____ _ ____ _ ____ _ ____ _ ____ _ ____ 
 72
    65
 73
     4
 40
2.0
 49
1.25
 49
-0.25
 49
0.25
 49
-0.25
  0
ENDTAB
  0
TABLE
  2
LAYER
 70
     6
  0
LAYER
  2
0
 70
     0
 62
     7
  6
CONTINUOUS
  0
LAYER
  2
3
 70
     0
 62
     2
  6
CONTINUOUS
  0
LAYER
  2
2
 70
     0
 62
     3
  6
CENTER
  0
LAYER
  2
1
 70
     0
 62
     4
  6
CONTINUOUS
  0
LAYER
  2
4
 70
     0
 62
     7
  6
CONTINUOUS
  0
LAYER
  2
DEFPOINTS
 70
     0
 62
     7
  6
CONTINUOUS
  0
ENDTAB
  0
TABLE
  2
STYLE
 70
     1
  0
STYLE
  2
STANDARD
 70
     0
 40
0.0
 41
1.0
 50
0.0
 71
     0
 42
180.0
  3
simplex.shx
  4
extfont.shx
  0
ENDTAB
  0
TABLE
  2
VIEW
 70
     0
  0
ENDTAB
  0
TABLE
  2
UCS
 70
     0
  0
ENDTAB
  0
TABLE
  2
APPID
 70
     1
  0
APPID
  2
ACAD
 70
     0
  0
ENDTAB
  0
TABLE
  2
DIMSTYLE
 70
     1
  0
DIMSTYLE
  2
IGA
 70
     0
  3

  4

  5

  6
OPEN
  7
OPEN
 40
2.0
 41
2.0
 42
0.5
 43
10.0
 44
1.0
 45
0.0
 46
0.0
 47
1.0
 48
1.0
140
3.0
141
0.0
142
0.0
143
0.03937
144
1.0
145
0.0
146
10.0
147
1.0
 71
     0
 72
     0
 73
     0
 74
     0
 75
     0
 76
     0
 77
     1
 78
     8
170
     0
171
     2
172
     0
173
     1
174
     0
175
     0
176
     0
177
     0
178
     0
  0
ENDTAB
  0
ENDSEC
  0
SECTION
  2
BLOCKS
  0
BLOCK
  8
0
  2
$MODEL_SPACE
 70
     0
 10
0.0
 20
0.0
 30
0.0
  3
$MODEL_SPACE
  1

  0
ENDBLK
  5
1B
  8
0
  0
BLOCK
 67
     1
  8
0
  2
$PAPER_SPACE
 70
     0
 10
0.0
 20
0.0
 30
0.0
  3
$PAPER_SPACE
  1

  0
ENDBLK
  5
18
 67
     1
  8
0
  0
BLOCK
  8
0
  2
_OPEN
 70
     0
 10
0.0
 20
0.0
 30
0.0
  3
_OPEN
  1

  0
LINE
  5
7BAC
  8
0
  6
BYBLOCK
 62
     0
 10
-1.0
 20
0.166667
 30
0.0
 11
0.0
 21
0.0
 31
0.0
  0
LINE
  5
7BAD
  8
0
  6
BYBLOCK
 62
     0
 10
0.0
 20
0.0
 30
0.0
 11
-1.0
 21
-0.166667
 31
0.0
  0
LINE
  5
7BAE
  8
0
  6
BYBLOCK
 62
     0
 10
0.0
 20
0.0
 30
0.0
 11
-1.0
 21
0.0
 31
0.0
  0
ENDBLK
  5
7BAF
  8
0
  0
BLOCK
  8
0
  2
*D1
 70
     1
 10
0.0
 20
0.0
 30
0.0
  3
*D1
  1

  0
LINE
  5
8139
  8
3
  6
CONTINUOUS
 62
     0
 10
2241.3683919999999
 20
4425.1097409999993
 30
0.0
 11
1996.591332
 21
4425.1097409999993
 31
0.0
  0
LINE
  5
813A
  8
3
  6
CONTINUOUS
 62
     0
 10
2241.3683919999999
 20
3145.1097410000002
 30
0.0
 11
1996.591332
 21
3145.1097410000002
 31
0.0
  0
LINE
  5
813B
  8
3
  6
CONTINUOUS
 62
     0
 10
2036.591332
 20
4345.1097410000002
 30
0.0
 11
2036.591332
 21
3225.1097410000002
 31
0.0
  0
INSERT
  5
813C
  8
3
  6
CONTINUOUS
 62
     0
  2
_OPEN
 10
2036.591332
 20
4425.1097409999993
 30
0.0
 41
80.0
 42
80.0
 43
80.0
 50
90.0
  0
INSERT
  5
813D
  8
3
  6
CONTINUOUS
 62
     0
  2
_OPEN
 10
2036.591332
 20
3145.1097410000002
 30
0.0
 41
80.0
 42
80.0
 43
80.0
 50
270.0
  0
TEXT
  8
3
  40
120
  5
81E6
  62
0
  72
0
  71
0
 10
1696.59
 20
3510.62
 30
0.000000
  1
1280
  0
POINT
  5
813F
  8
DEFPOINTS
  6
CONTINUOUS
 62
     0
 10
2261.3683919999999
 20
4425.1097409999993
 30
0.0
  0
POINT
  5
8140
  8
DEFPOINTS
  6
CONTINUOUS
 62
     0
 10
2261.3683919999999
 20
3145.1097410000002
 30
0.0
  0
POINT
  5
8141
  8
DEFPOINTS
  6
CONTINUOUS
 62
     0
 10
2036.591332
 20
3145.1097410000002
 30
0.0
  0
ENDBLK
  5
7BBC
  8
0
  0
BLOCK
  8
0
  2
*D2
 70
     1
 10
0.0
 20
0.0
 30
0.0
  3
*D2
  1

  0
LINE
  5
8142
  8
3
  6
CONTINUOUS
 62
     0
 10
2109.2257869999999
 20
4479.1097409999993
 30
0.0
 11
1729.209177
 21
4479.1097410000011
 31
0.0
  0
LINE
  5
8143
  8
3
  6
CONTINUOUS
 62
     0
 10
2241.3683919999999
 20
3145.1097410000002
 30
0.0
 11
1729.209177
 21
3145.1097410000002
 31
0.0
  0
LINE
  5
8144
  8
3
  6
CONTINUOUS
 62
     0
 10
1769.209177
 20
4399.1097410000002
 30
0.0
 11
1769.209177
 21
3225.1097410000002
 31
0.0
  0
INSERT
  5
8145
  8
3
  6
CONTINUOUS
 62
     0
  2
_OPEN
 10
1769.209177
 20
4479.1097410000011
 30
0.0
 41
80.0
 42
80.0
 43
80.0
 50
90.0
  0
INSERT
  5
8146
  8
3
  6
CONTINUOUS
 62
     0
  2
_OPEN
 10
1769.209177
 20
3145.1097410000002
 30
0.0
 41
80.0
 42
80.0
 43
80.0
 50
270.0
  0
TEXT
  8
3
  40
120
  5
81E7
  62
0
  72
0
  71
0
 10
1429.21
 20
3519.24
 30
0.000000
  1
1334
  0
POINT
  5
8148
  8
DEFPOINTS
  6
CONTINUOUS
 62
     0
 10
2129.2257869999999
 20
4479.1097409999993
 30
0.0
  0
POINT
  5
8149
  8
DEFPOINTS
  6
CONTINUOUS
 62
     0
 10
2261.3683919999999
 20
3145.1097410000002
 30
0.0
  0
POINT
  5
814A
  8
DEFPOINTS
  6
CONTINUOUS
 62
     0
 10
1769.209177
 20
3145.1097410000002
 30
0.0
  0
ENDBLK
  5
7BC9
  8
0
  0
BLOCK
  8
0
  2
*D3
 70
     1
 10
0.0
 20
0.0
 30
0.0
  3
*D3
  1

  0
LINE
  5
814B
  8
3
  6
CONTINUOUS
 62
     0
 10
3093.2158920000002
 20
5376.3653979999999
 30
0.0
 11
1444.576563000001
 21
5376.3653979999999
 31
0.0
  0
LINE
  5
814C
  8
3
  6
CONTINUOUS
 62
     0
 10
2109.2257869999999
 20
4479.1097409999993
 30
0.0
 11
1444.5765630000001
 21
4479.1097410000011
 31
0.0
  0
LINE
  5
814D
  8
3
  6
CONTINUOUS
 62
     0
 10
1484.5765630000001
 20
5296.3653980000008
 30
0.0
 11
1484.5765630000001
 21
4559.1097410000002
 31
0.0
  0
INSERT
  5
814E
  8
3
  6
CONTINUOUS
 62
     0
  2
_OPEN
 10
1484.5765630000001
 20
5376.3653979999999
 30
0.0
 41
80.0
 42
80.0
 43
80.0
 50
90.0
  0
INSERT
  5
814F
  8
3
  6
CONTINUOUS
 62
     0
  2
_OPEN
 10
1484.5765630000001
 20
4479.1097410000011
 30
0.0
 41
80.0
 42
80.0
 43
80.0
 50
270.0
  0
TEXT
  8
3
  40
120
  5
81E8
  62
0
  72
0
  71
0
 10
1144.58
 20
4717.43
 30
0.000000
  1
897
  0
POINT
  5
8151
  8
DEFPOINTS
  6
CONTINUOUS
 62
     0
 10
3113.2158920000002
 20
5376.3653979999999
 30
0.0
  0
POINT
  5
8152
  8
DEFPOINTS
  6
CONTINUOUS
 62
     0
 10
2129.2257869999999
 20
4479.1097409999993
 30
0.0
  0
POINT
  5
8153
  8
DEFPOINTS
  6
CONTINUOUS
 62
     0
 10
1484.5765630000001
 20
4479.1097410000011
 30
0.0
  0
ENDBLK
  5
7BD6
  8
0
  0
BLOCK
  8
0
  2
*D4
 70
     1
 10
0.0
 20
0.0
 30
0.0
  3
*D4
  1

  0
LINE
  5
8154
  8
3
  6
CONTINUOUS
 62
     0
 10
2316.3683919999999
 20
2929.1097410000002
 30
0.0
 11
1444.5765630000001
 21
2929.1097410000002
 31
0.0
  0
LINE
  5
8155
  8
3
  6
CONTINUOUS
 62
     0
 10
1484.5765630000001
 20
4399.1097410000002
 30
0.0
 11
1484.5765630000001
 21
3009.1097410000002
 31
0.0
  0
INSERT
  5
8156
  8
3
  6
CONTINUOUS
 62
     0
  2
_OPEN
 10
1484.5765630000001
 20
4479.1097410000011
 30
0.0
 41
80.0
 42
80.0
 43
80.0
 50
90.0
  0
INSERT
  5
8157
  8
3
  6
CONTINUOUS
 62
     0
  2
_OPEN
 10
1484.5765630000001
 20
2929.1097410000002
 30
0.0
 41
80.0
 42
80.0
 43
80.0
 50
270.0
  0
TEXT
  8
3
  40
120
  5
81E9
  62
0
  72
0
  71
0
 10
1144.58
 20
3491.71
 30
0.000000
  1
1550
  0
POINT
  5
8159
  8
DEFPOINTS
  6
CONTINUOUS
 62
     0
 10
2129.2257869999999
 20
4479.1097409999993
 30
0.0
  0
POINT
  5
815A
  8
DEFPOINTS
  6
CONTINUOUS
 62
     0
 10
2336.3683919999999
 20
2929.1097410000002
 30
0.0
  0
POINT
  5
815B
  8
DEFPOINTS
  6
CONTINUOUS
 62
     0
 10
1484.5765630000001
 20
2929.1097410000002
 30
0.0
  0
ENDBLK
  5
7D40
  8
0
  0
BLOCK
  8
0
  2
*D5
 70
     1
 10
0.0
 20
0.0
 30
0.0
  3
*D5
  1

  0
LINE
  5
815C
  8
3
  6
CONTINUOUS
 62
     0
 10
2336.3683919999999
 20
2719.1097410000002
 30
0.0
 11
2336.3683919999999
 21
2372.2756129999989
 31
0.0
  0
LINE
  5
815D
  8
3
  6
CONTINUOUS
 62
     0
 10
3086.3683919999999
 20
2580.2337210000001
 30
0.0
 11
3086.3683919999999
 21
2372.2756129999989
 31
0.0
  0
LINE
  5
815E
  8
3
  6
CONTINUOUS
 62
     0
 10
2416.3683919999999
 20
2412.2756129999998
 30
0.0
 11
3006.3683919999999
 21
2412.2756129999998
 31
0.0
  0
INSERT
  5
815F
  8
3
  6
CONTINUOUS
 62
     0
  2
_OPEN
 10
2336.3683919999999
 20
2412.2756129999998
 30
0.0
 41
80.0
 42
80.0
 43
80.0
 50
180.0
  0
INSERT
  5
8160
  8
3
  6
CONTINUOUS
 62
     0
  2
_OPEN
 10
3086.3683919999999
 20
2412.2756129999998
 30
0.0
 41
80.0
 42
80.0
 43
80.0
  0
TEXT
  8
3
  40
120
  5
81EA
  62
0
  72
0
  71
0
 10
2477.12
 20
2299.88
 30
0.000000
  1
750
  0
POINT
  5
8162
  8
DEFPOINTS
  6
CONTINUOUS
 62
     0
 10
2336.3683919999999
 20
2739.1097410000002
 30
0.0
  0
POINT
  5
8163
  8
DEFPOINTS
  6
CONTINUOUS
 62
     0
 10
3086.3683919999999
 20
2600.2337210000001
 30
0.0
  0
POINT
  5
8164
  8
DEFPOINTS
  6
CONTINUOUS
 62
     0
 10
3086.3683919999999
 20
2412.2756129999998
 30
0.0
  0
ENDBLK
  5
7C0C
  8
0
  0
BLOCK
  8
0
  2
*D6
 70
     1
 10
0.0
 20
0.0
 30
0.0
  3
*D6
  1

  0
LINE
  5
8165
  8
3
  6
CONTINUOUS
 62
     0
 10
4886.3683920000012
 20
2719.1097410000002
 30
0.0
 11
4886.3683920000012
 21
2372.2756129999989
 31
0.0
  0
LINE
  5
8166
  8
3
  6
CONTINUOUS
 62
     0
 10
3166.3683919999999
 20
2412.2756129999998
 30
0.0
 11
4806.3683920000003
 21
2412.2756129999998
 31
0.0
  0
INSERT
  5
8167
  8
3
  6
CONTINUOUS
 62
     0
  2
_OPEN
 10
3086.3683919999999
 20
2412.2756129999998
 30
0.0
 41
80.0
 42
80.0
 43
80.0
 50
180.0
  0
INSERT
  5
8168
  8
3
  6
CONTINUOUS
 62
     0
  2
_OPEN
 10
4886.3683920000012
 20
2412.2756129999998
 30
0.0
 41
80.0
 42
80.0
 43
80.0
  0
TEXT
  8
3
  40
120
  5
81EB
  62
0
  72
0
  71
0
 10
3746.37
 20
2299.88
 30
0.000000
  1
1800
  0
POINT
  5
816A
  8
DEFPOINTS
  6
CONTINUOUS
 62
     0
 10
3086.3683919999999
 20
2600.2337210000001
 30
0.0
  0
POINT
  5
816B
  8
DEFPOINTS
  6
CONTINUOUS
 62
     0
 10
4886.3683920000012
 20
2739.1097410000002
 30
0.0
  0
POINT
  5
816C
  8
DEFPOINTS
  6
CONTINUOUS
 62
     0
 10
4886.3683920000012
 20
2412.2756129999998
 30
0.0
  0
ENDBLK
  5
7D25
  8
0
  0
BLOCK
  8
0
  2
*D7
 70
     1
 10
0.0
 20
0.0
 30
0.0
  3
*D7
  1

  0
LINE
  5
816D
  8
3
  6
CONTINUOUS
 62
     0
 10
2261.3683919999999
 20
4495.1097409999993
 30
0.0
 11
2261.3683919999999
 21
5693.9138789999997
 31
0.0
  0
LINE
  5
816E
  8
3
  6
CONTINUOUS
 62
     0
 10
3086.3683919999999
 20
5478.4607189999997
 30
0.0
 11
3086.3683919999999
 21
5693.9138789999997
 31
0.0
  0
LINE
  5
816F
  8
3
  6
CONTINUOUS
 62
     0
 10
2341.3683919999999
 20
5653.9138789999997
 30
0.0
 11
3006.3683919999999
 21
5653.9138789999997
 31
0.0
  0
INSERT
  5
8170
  8
3
  6
CONTINUOUS
 62
     0
  2
_OPEN
 10
2261.3683919999999
 20
5653.9138789999997
 30
0.0
 41
80.0
 42
80.0
 43
80.0
 50
180.0
  0
INSERT
  5
8171
  8
3
  6
CONTINUOUS
 62
     0
  2
_OPEN
 10
3086.3683919999999
 20
5653.9138789999997
 30
0.0
 41
80.0
 42
80.0
 43
80.0
  0
TEXT
  8
3
  40
120
  5
81EC
  62
0
  72
0
  71
0
 10
2390.87
 20
5541.51
 30
0.000000
  1
825
  0
POINT
  5
8173
  8
DEFPOINTS
  6
CONTINUOUS
 62
     0
 10
2261.3683919999999
 20
4475.1097409999993
 30
0.0
  0
POINT
  5
8174
  8
DEFPOINTS
  6
CONTINUOUS
 62
     0
 10
3086.3683919999999
 20
5458.4607189999997
 30
0.0
  0
POINT
  5
8175
  8
DEFPOINTS
  6
CONTINUOUS
 62
     0
 10
3086.3683919999999
 20
5653.9138789999997
 30
0.0
  0
ENDBLK
  5
7C25
  8
0
  0
BLOCK
  8
0
  2
*D8
 70
     1
 10
0.0
 20
0.0
 30
0.0
  3
*D8
  1

  0
LINE
  5
8176
  8
3
  6
CONTINUOUS
 62
     0
 10
5906.9046669999998
 20
5328.1097409999993
 30
0.0
 11
5906.9046669999998
 21
5538.7529450000002
 31
0.0
  0
LINE
  5
8177
  8
3
  6
CONTINUOUS
 62
     0
 10
6856.9046670000007
 20
5328.1097409999993
 30
0.0
 11
6856.9046670000007
 21
5538.7529450000002
 31
0.0
  0
LINE
  5
8178
  8
3
  6
CONTINUOUS
 62
     0
 10
5986.9046669999998
 20
5498.7529450000002
 30
0.0
 11
6776.9046669999998
 21
5498.7529450000002
 31
0.0
  0
INSERT
  5
8179
  8
3
  6
CONTINUOUS
 62
     0
  2
_OPEN
 10
5906.9046669999998
 20
5498.7529450000002
 30
0.0
 41
80.0
 42
80.0
 43
80.0
 50
180.0
  0
INSERT
  5
817A
  8
3
  6
CONTINUOUS
 62
     0
  2
_OPEN
 10
6856.9046670000007
 20
5498.7529450000002
 30
0.0
 41
80.0
 42
80.0
 43
80.0
  0
TEXT
  8
3
  40
120
  5
81ED
  62
0
  72
0
  71
0
 10
6141.45
 20
5386.35
 30
0.000000
  1
950
  0
POINT
  5
817C
  8
DEFPOINTS
  6
CONTINUOUS
 62
     0
 10
5906.9046669999998
 20
5308.1097409999993
 30
0.0
  0
POINT
  5
817D
  8
DEFPOINTS
  6
CONTINUOUS
 62
     0
 10
6856.9046670000007
 20
5308.1097409999993
 30
0.0
  0
POINT
  5
817E
  8
DEFPOINTS
  6
CONTINUOUS
 62
     0
 10
6856.9046670000007
 20
5498.7529450000002
 30
0.0
  0
ENDBLK
  5
7C4E
  8
0
  0
BLOCK
  8
0
  2
*D9
 70
     1
 10
0.0
 20
0.0
 30
0.0
  3
*D9
  1

  0
LINE
  5
817F
  8
3
  6
CONTINUOUS
 62
     0
 10
6979.9046669999989
 20
5104.1097409999993
 30
0.0
 11
7275.3462590000008
 21
5104.1097409999993
 31
0.0
  0
LINE
  5
8180
  8
3
  6
CONTINUOUS
 62
     0
 10
6979.9046669999989
 20
3854.1097410000002
 30
0.0
 11
7275.3462590000008
 21
3854.1097409999988
 31
0.0
  0
LINE
  5
8181
  8
3
  6
CONTINUOUS
 62
     0
 10
7235.3462589999999
 20
5024.1097410000002
 30
0.0
 11
7235.3462589999999
 21
3934.1097409999988
 31
0.0
  0
INSERT
  5
8182
  8
3
  6
CONTINUOUS
 62
     0
  2
_OPEN
 10
7235.3462589999999
 20
5104.1097409999993
 30
0.0
 41
80.0
 42
80.0
 43
80.0
 50
90.0
  0
INSERT
  5
8183
  8
3
  6
CONTINUOUS
 62
     0
  2
_OPEN
 10
7235.3462589999999
 20
3854.1097409999988
 30
0.0
 41
80.0
 42
80.0
 43
80.0
 50
270.0
  0
TEXT
  8
3
  40
120
  5
81EE
  62
0
  72
0
  71
0
 10
6895.35
 20
4277.81
 30
0.000000
  1
φ1250
  0
POINT
  5
8185
  8
DEFPOINTS
  6
CONTINUOUS
 62
     0
 10
6959.9046669999989
 20
5104.1097409999993
 30
0.0
  0
POINT
  5
8186
  8
DEFPOINTS
  6
CONTINUOUS
 62
     0
 10
6959.9046669999989
 20
3854.1097410000002
 30
0.0
  0
POINT
  5
8187
  8
DEFPOINTS
  6
CONTINUOUS
 62
     0
 10
7235.3462589999999
 20
3854.1097409999988
 30
0.0
  0
ENDBLK
  5
7D73
  8
0
  0
BLOCK
  8
0
  2
*D10
 70
     1
 10
0.0
 20
0.0
 30
0.0
  3
*D10
  1

  0
LINE
  5
8188
  8
3
  6
CONTINUOUS
 62
     0
 10
6959.9046669999989
 20
5174.1097409999993
 30
0.0
 11
6959.9046669999989
 21
5814.5946210000011
 31
0.0
  0
LINE
  5
8189
  8
3
  6
CONTINUOUS
 62
     0
 10
6381.9046669999998
 20
5730.1558709999999
 30
0.0
 11
6381.9046669999998
 21
5814.5946210000011
 31
0.0
  0
LINE
  5
818A
  8
3
  6
CONTINUOUS
 62
     0
 10
7039.9046669999998
 20
5774.5946210000002
 30
0.0
 11
7119.9046669999998
 21
5774.5946210000002
 31
0.0
  0
LINE
  5
818B
  8
3
  6
CONTINUOUS
 62
     0
 10
6301.9046669999998
 20
5774.5946210000002
 30
0.0
 11
6221.9046669999998
 21
5774.5946210000002
 31
0.0
  0
LINE
  5
818C
  8
3
  6
CONTINUOUS
 62
     0
 10
6959.9046669999989
 20
5774.5946210000002
 30
0.0
 11
6381.9046669999998
 21
5774.5946210000002
 31
0.0
  0
INSERT
  5
818D
  8
3
  6
CONTINUOUS
 62
     0
  2
_OPEN
 10
6959.9046669999989
 20
5774.5946210000002
 30
0.0
 41
80.0
 42
80.0
 43
80.0
 50
180.0
  0
INSERT
  5
818E
  8
3
  6
CONTINUOUS
 62
     0
  2
_OPEN
 10
6381.9046669999998
 20
5774.5946210000002
 30
0.0
 41
80.0
 42
80.0
 43
80.0
  0
TEXT
  8
3
  40
120
  5
81EF
  62
0
  72
0
  71
0
 10
6416.19
 20
5662.19
 30
0.000000
  1
578
  0
POINT
  5
8190
  8
DEFPOINTS
  6
CONTINUOUS
 62
     0
 10
6959.9046669999989
 20
5154.1097409999993
 30
0.0
  0
POINT
  5
8191
  8
DEFPOINTS
  6
CONTINUOUS
 62
     0
 10
6381.9046669999998
 20
5710.1558709999999
 30
0.0
  0
POINT
  5
8192
  8
DEFPOINTS
  6
CONTINUOUS
 62
     0
 10
6381.9046669999998
 20
5774.5946210000002
 30
0.0
  0
ENDBLK
  5
7CA3
  8
0
  0
BLOCK
  8
0
  2
*D11
 70
     1
 10
0.0
 20
0.0
 30
0.0
  3
*D11
  1

  0
LINE
  5
8193
  8
3
  6
CONTINUOUS
 62
     0
 10
5541.9046669999998
 20
4877.1097409999993
 30
0.0
 11
5541.9046669999998
 21
5814.5946210000011
 31
0.0
  0
LINE
  5
8194
  8
3
  6
CONTINUOUS
 62
     0
 10
6301.9046669999998
 20
5774.5946210000002
 30
0.0
 11
5621.9046669999989
 21
5774.5946210000002
 31
0.0
  0
INSERT
  5
8195
  8
3
  6
CONTINUOUS
 62
     0
  2
_OPEN
 10
6381.9046669999998
 20
5774.5946210000002
 30
0.0
 41
80.0
 42
80.0
 43
80.0
  0
INSERT
  5
8196
  8
3
  6
CONTINUOUS
 62
     0
  2
_OPEN
 10
5541.9046669999998
 20
5774.5946210000002
 30
0.0
 41
80.0
 42
80.0
 43
80.0
 50
180.0
  0
TEXT
  8
3
  40
120
  5
81F0
  62
0
  72
0
  71
0
 10
5721.90
 20
5762.19
 30
0.000000
  1
MAX
  0
TEXT
  8
3
  40
120
  5
81F1
  62
0
  72
0
  71
0
 10
5721.90
 20
5606.19
 30
0.000000
  1
890
  0
POINT
  5
8198
  8
DEFPOINTS
  6
CONTINUOUS
 62
     0
 10
6381.9046669999998
 20
5710.1558709999999
 30
0.0
  0
POINT
  5
8199
  8
DEFPOINTS
  6
CONTINUOUS
 62
     0
 10
5541.9046669999998
 20
4857.1097409999993
 30
0.0
  0
POINT
  5
819A
  8
DEFPOINTS
  6
CONTINUOUS
 62
     0
 10
5541.9046669999998
 20
5774.5946210000002
 30
0.0
  0
ENDBLK
  5
7D68
  8
0
  0
BLOCK
  8
0
  2
*D12
 70
     1
 10
0.0
 20
0.0
 30
0.0
  3
*D12
  1

  0
LINE
  5
819B
  8
3
  6
CONTINUOUS
 62
     0
 10
5654.9046669999998
 20
2719.1097410000002
 30
0.0
 11
5654.9046669999998
 21
2372.2756129999989
 31
0.0
  0
LINE
  5
819C
  8
3
  6
CONTINUOUS
 62
     0
 10
6381.9046669999998
 20
2528.089074
 30
0.0
 11
6381.9046669999998
 21
2372.2756129999989
 31
0.0
  0
LINE
  5
819D
  8
3
  6
CONTINUOUS
 62
     0
 10
5734.9046669999998
 20
2412.2756129999998
 30
0.0
 11
6301.9046669999998
 21
2412.2756129999998
 31
0.0
  0
INSERT
  5
819E
  8
3
  6
CONTINUOUS
 62
     0
  2
_OPEN
 10
5654.9046669999998
 20
2412.2756129999998
 30
0.0
 41
80.0
 42
80.0
 43
80.0
 50
180.0
  0
INSERT
  5
819F
  8
3
  6
CONTINUOUS
 62
     0
  2
_OPEN
 10
6381.9046669999998
 20
2412.2756129999998
 30
0.0
 41
80.0
 42
80.0
 43
80.0
  0
TEXT
  8
3
  40
120
  5
81F2
  62
0
  72
0
  71
0
 10
5779.19
 20
2299.88
 30
0.000000
  1
727
  0
POINT
  5
81A1
  8
DEFPOINTS
  6
CONTINUOUS
 62
     0
 10
5654.9046669999998
 20
2739.1097410000002
 30
0.0
  0
POINT
  5
81A2
  8
DEFPOINTS
  6
CONTINUOUS
 62
     0
 10
6381.9046669999998
 20
2548.0890739999991
 30
0.0
  0
POINT
  5
81A3
  8
DEFPOINTS
  6
CONTINUOUS
 62
     0
 10
6381.9046669999998
 20
2412.2756129999998
 30
0.0
  0
ENDBLK
  5
7C81
  8
0
  0
BLOCK
  8
0
  2
*D13
 70
     1
 10
0.0
 20
0.0
 30
0.0
  3
*D13
  1

  0
LINE
  5
81A4
  8
3
  6
CONTINUOUS
 62
     0
 10
6934.9046669999989
 20
2719.1097410000002
 30
0.0
 11
6934.9046669999989
 21
2372.2756129999989
 31
0.0
  0
LINE
  5
81A5
  8
3
  6
CONTINUOUS
 62
     0
 10
6461.9046669999998
 20
2412.2756129999998
 30
0.0
 11
6854.9046669999989
 21
2412.2756129999998
 31
0.0
  0
INSERT
  5
81A6
  8
3
  6
CONTINUOUS
 62
     0
  2
_OPEN
 10
6381.9046669999998
 20
2412.2756129999998
 30
0.0
 41
80.0
 42
80.0
 43
80.0
 50
180.0
  0
INSERT
  5
81A7
  8
3
  6
CONTINUOUS
 62
     0
  2
_OPEN
 10
6934.9046669999989
 20
2412.2756129999998
 30
0.0
 41
80.0
 42
80.0
 43
80.0
  0
TEXT
  8
3
  40
120
  5
81F3
  62
0
  72
0
  71
0
 10
6418.40
 20
2299.88
 30
0.000000
  1
553
  0
POINT
  5
81A9
  8
DEFPOINTS
  6
CONTINUOUS
 62
     0
 10
6381.9046669999998
 20
2548.0890739999991
 30
0.0
  0
POINT
  5
81AA
  8
DEFPOINTS
  6
CONTINUOUS
 62
     0
 10
6934.9046669999989
 20
2739.1097410000002
 30
0.0
  0
POINT
  5
81AB
  8
DEFPOINTS
  6
CONTINUOUS
 62
     0
 10
6934.9046669999989
 20
2412.2756129999998
 30
0.0
  0
ENDBLK
  5
7C8D
  8
0
  0
BLOCK
  8
0
  2
*D14
 70
     1
 10
0.0
 20
0.0
 30
0.0
  3
*D14
  1

  0
LINE
  5
81AC
  8
3
  6
CONTINUOUS
 62
     0
 10
2336.3683919999999
 20
7440.2862040000018
 30
0.0
 11
2336.3683919999999
 21
6950.7109940000009
 31
0.0
  0
LINE
  5
81AD
  8
3
  6
CONTINUOUS
 62
     0
 10
4886.3683920000012
 20
7440.2862040000018
 30
0.0
 11
4886.3683920000012
 21
6950.7109940000009
 31
0.0
  0
LINE
  5
81AE
  8
3
  6
CONTINUOUS
 62
     0
 10
2416.3683919999999
 20
6990.710994
 30
0.0
 11
4806.3683920000003
 21
6990.710994
 31
0.0
  0
INSERT
  5
81AF
  8
3
  6
CONTINUOUS
 62
     0
  2
_OPEN
 10
2336.3683919999999
 20
6990.710994
 30
0.0
 41
80.0
 42
80.0
 43
80.0
 50
180.0
  0
INSERT
  5
81B0
  8
3
  6
CONTINUOUS
 62
     0
  2
_OPEN
 10
4886.3683920000012
 20
6990.710994
 30
0.0
 41
80.0
 42
80.0
 43
80.0
  0
TEXT
  8
3
  40
120
  5
81F4
  62
0
  72
0
  71
0
 10
3313.77
 20
6878.31
 30
0.000000
  1
2550
  0
POINT
  5
81B2
  8
DEFPOINTS
  6
CONTINUOUS
 62
     0
 10
2336.3683919999999
 20
7460.286204
 30
0.0
  0
POINT
  5
81B3
  8
DEFPOINTS
  6
CONTINUOUS
 62
     0
 10
4886.3683920000012
 20
7460.286204
 30
0.0
  0
POINT
  5
81B4
  8
DEFPOINTS
  6
CONTINUOUS
 62
     0
 10
4886.3683920000012
 20
6990.710994
 30
0.0
  0
ENDBLK
  5
7D1B
  8
0
  0
BLOCK
  8
0
  2
*D15
 70
     1
 10
0.0
 20
0.0
 30
0.0
  3
*D15
  1

  0
LINE
  5
81B5
  8
3
  6
CONTINUOUS
 62
     0
 10
4906.3683920000003
 20
8740.286204
 30
0.0
 11
5280.8138620000009
 21
8740.286204
 31
0.0
  0
LINE
  5
81B6
  8
3
  6
CONTINUOUS
 62
     0
 10
4906.3683920000003
 20
7460.286204
 30
0.0
 11
5280.8138620000009
 21
7460.286204
 31
0.0
  0
LINE
  5
81B7
  8
3
  6
CONTINUOUS
 62
     0
 10
5240.8138620000009
 20
8660.286204
 30
0.0
 11
5240.8138620000009
 21
7540.2862040000009
 31
0.0
  0
INSERT
  5
81B8
  8
3
  6
CONTINUOUS
 62
     0
  2
_OPEN
 10
5240.8138620000009
 20
8740.286204
 30
0.0
 41
80.0
 42
80.0
 43
80.0
 50
90.0
  0
INSERT
  5
81B9
  8
3
  6
CONTINUOUS
 62
     0
  2
_OPEN
 10
5240.8138620000009
 20
7460.286204
 30
0.0
 41
80.0
 42
80.0
 43
80.0
 50
270.0
  0
TEXT
  8
3
  40
120
  5
81F5
  62
0
  72
0
  71
0
 10
4900.81
 20
7804.10
 30
0.000000
  1
1280
  0
POINT
  5
81BB
  8
DEFPOINTS
  6
CONTINUOUS
 62
     0
 10
4886.3683920000012
 20
8740.286204
 30
0.0
  0
POINT
  5
81BC
  8
DEFPOINTS
  6
CONTINUOUS
 62
     0
 10
4886.3683920000012
 20
7460.286204
 30
0.0
  0
POINT
  5
81BD
  8
DEFPOINTS
  6
CONTINUOUS
 62
     0
 10
5240.8138620000009
 20
7460.286204
 30
0.0
  0
ENDBLK
  5
7CBC
  8
0
  0
BLOCK
  8
0
  2
*D16
 70
     1
 10
0.0
 20
0.0
 30
0.0
  3
*D16
  1

  0
LINE
  5
81BE
  8
3
  6
CONTINUOUS
 62
     0
 10
4165.3683920000003
 20
4499.1097409999993
 30
0.0
 11
4165.3683920000003
 21
5693.9138789999997
 31
0.0
  0
LINE
  5
81BF
  8
3
  6
CONTINUOUS
 62
     0
 10
3166.3683919999999
 20
5653.9138789999997
 30
0.0
 11
4085.3683919999999
 21
5653.9138789999997
 31
0.0
  0
INSERT
  5
81C0
  8
3
  6
CONTINUOUS
 62
     0
  2
_OPEN
 10
3086.3683919999999
 20
5653.9138789999997
 30
0.0
 41
80.0
 42
80.0
 43
80.0
 50
180.0
  0
INSERT
  5
81C1
  8
3
  6
CONTINUOUS
 62
     0
  2
_OPEN
 10
4165.3683920000003
 20
5653.9138789999997
 30
0.0
 41
80.0
 42
80.0
 43
80.0
  0
TEXT
  8
3
  40
120
  5
81F6
  62
0
  72
0
  71
0
 10
3385.87
 20
5541.51
 30
0.000000
  1
1079
  0
POINT
  5
81C3
  8
DEFPOINTS
  6
CONTINUOUS
 62
     0
 10
3086.3683919999999
 20
5458.4607189999997
 30
0.0
  0
POINT
  5
81C4
  8
DEFPOINTS
  6
CONTINUOUS
 62
     0
 10
4165.3683920000003
 20
4479.1097409999993
 30
0.0
  0
POINT
  5
81C5
  8
DEFPOINTS
  6
CONTINUOUS
 62
     0
 10
4165.3683920000003
 20
5653.9138789999997
 30
0.0
  0
ENDBLK
  5
7D51
  8
0
  0
BLOCK
  8
0
  2
*D17
 70
     1
 10
0.0
 20
0.0
 30
0.0
  3
*D17
  1

  0
LINE
  5
81C6
  8
3
 62
     0
 10
2261.3683919999999
 20
4495.1097409999993
 30
0.0
 11
2261.3683919999999
 21
5945.526146245873
 31
0.0
  0
LINE
  5
81C7
  8
3
 62
     0
 10
4886.3683920000012
 20
3099.1097410000002
 30
0.0
 11
4886.3683920000012
 21
5945.526146245873
 31
0.0
  0
LINE
  5
81C8
  8
3
 62
     0
 10
2341.3683919999999
 20
5905.526146245873
 30
0.0
 11
4806.3683920000003
 21
5905.526146245873
 31
0.0
  0
INSERT
  5
81C9
  8
3
 62
     0
  2
_OPEN
 10
2261.3683919999999
 20
5905.526146245873
 30
0.0
 41
80.0
 42
80.0
 43
80.0
 50
180.0
  0
INSERT
  5
81CA
  8
3
 62
     0
  2
_OPEN
 10
4886.3683920000012
 20
5905.526146245873
 30
0.0
 41
80.0
 42
80.0
 43
80.0
  0
TEXT
  8
3
  40
120
  5
81F7
  62
0
  72
0
  71
0
 10
3334.34
 20
5793.13
 30
0.000000
  1
2625
  0
POINT
  5
81CC
  8
DEFPOINTS
 62
     0
 10
2261.3683919999999
 20
4475.1097409999993
 30
0.0
  0
POINT
  5
81CD
  8
DEFPOINTS
 62
     0
 10
4886.3683920000012
 20
3079.1097410000002
 30
0.0
  0
POINT
  5
81CE
  8
DEFPOINTS
 62
     0
 10
4886.3683920000012
 20
5905.526146245873
 30
0.0
  0
ENDBLK
  5
7D5D
  8
0
  0
BLOCK
  8
0
  2
*D18
 70
     1
 10
0.0
 20
0.0
 30
0.0
  3
*D18
  1

  0
LINE
  5
81CF
  8
3
 62
     0
 10
2316.3683919999999
 20
2929.1097410000002
 30
0.0
 11
1444.5765630000001
 21
2929.1097410000002
 31
0.0
  0
LINE
  5
81D0
  8
3
 62
     0
 10
2316.3683919999999
 20
2814.1097410000002
 30
0.0
 11
1444.5765630000001
 21
2814.1097410000002
 31
0.0
  0
LINE
  5
81D1
  8
3
 62
     0
 10
1484.5765630000001
 20
2929.1097410000002
 30
0.0
 11
1484.5765630000001
 21
2814.1097410000002
 31
0.0
  0
LINE
  5
81D2
  8
3
 62
     0
 10
1484.5765630000001
 20
2871.6097410000002
 30
0.0
 11
1293.1479915714281
 21
2929.0383124285722
 31
0.0
  0
LINE
  5
81D3
  8
3
 62
     0
 10
1293.1479915714281
 20
2929.0383124285722
 30
0.0
 11
1293.1479915714281
 21
3426.1811695714291
 31
0.0
  0
TEXT
  8
3
  40
120
  5
81F8
  62
0
  72
0
  71
0
 10
921.719
 20
2965.21
 30
0.000000
  1
(115)
  0
POINT
  5
81D5
  8
DEFPOINTS
 62
     0
 10
2336.3683919999999
 20
2929.1097410000002
 30
0.0
  0
POINT
  5
81D6
  8
DEFPOINTS
 62
     0
 10
2336.3683919999999
 20
2814.1097410000002
 30
0.0
  0
POINT
  5
81D7
  8
DEFPOINTS
 62
     0
 10
1484.5765630000001
 20
2814.1097410000002
 30
0.0
  0
ENDBLK
  5
7E95
  8
0
  0
BLOCK
  8
0
  2
*D19
 70
     1
 10
0.0
 20
0.0
 30
0.0
  3
*D19
  1

  0
LINE
  5
81D8
  8
3
 62
     0
 10
2316.3683919999999
 20
2814.1097410000002
 30
0.0
 11
1444.5765630000001
 21
2814.1097410000002
 31
0.0
  0
LINE
  5
81D9
  8
3
 62
     0
 10
2316.3683919999999
 20
2739.1097410000002
 30
0.0
 11
1444.5765630000001
 21
2739.1097410000002
 31
0.0
  0
LINE
  5
81DA
  8
3
 62
     0
 10
1484.5765630000001
 20
2814.1097410000002
 30
0.0
 11
1484.5765630000001
 21
2894.1097410000002
 31
0.0
  0
LINE
  5
81DB
  8
3
 62
     0
 10
1484.5765630000001
 20
2659.1097410000002
 30
0.0
 11
1484.5765630000001
 21
2579.1097410000002
 31
0.0
  0
TEXT
  8
3
  40
120
  5
81F9
  62
0
  72
0
  71
0
 10
1162.24
 20
2329.76
 30
0.000000
  1
75
  0
LINE
  5
81DD
  8
3
 62
     0
 10
1484.5765630000001
 20
2814.1097410000002
 30
0.0
 11
1484.5765630000001
 21
2739.1097410000002
 31
0.0
  0
INSERT
  5
81DE
  8
3
 62
     0
  2
_DOTSMALL
 10
1484.5765630000001
 20
2814.1097410000002
 30
0.0
 41
80.0
 42
80.0
 43
80.0
 50
270.0
  0
INSERT
  5
81DF
  8
3
 62
     0
  2
_OPEN30
 10
1484.5765630000001
 20
2739.1097410000002
 30
0.0
 41
80.0
 42
80.0
 43
80.0
 50
90.0
  0
POINT
  5
81E0
  8
DEFPOINTS
 62
     0
 10
2336.3683919999999
 20
2814.1097410000002
 30
0.0
  0
POINT
  5
81E1
  8
DEFPOINTS
 62
     0
 10
2336.3683919999999
 20
2739.1097410000002
 30
0.0
  0
POINT
  5
81E2
  8
DEFPOINTS
 62
     0
 10
1484.5765630000001
 20
2739.1097410000002
 30
0.0
  0
ENDBLK
  5
7EA7
  8
0
  0
BLOCK
  8
0
  2
_DOTSMALL
 70
     0
 10
0.0
 20
0.0
 30
0.0
  3
_DOTSMALL
  1

  0
POLYLINE
  5
7EBF
  8
3
 62
     0
 66
     1
 10
0.0
 20
0.0
 30
0.0
 70
     1
 40
0.5
 41
0.5
  0
VERTEX
  5
81E3
  8
3
 62
     0
 10
-0.0625
 20
0.0
 30
0.0
 42
1.0
  0
VERTEX
  5
81E4
  8
3
 62
     0
 10
0.0625
 20
0.0
 30
0.0
 42
1.0
  0
SEQEND
  5
81E5
  8
3
 62
     0
  0
ENDBLK
  5
7EC1
  8
0
  0
BLOCK
  8
0
  2
_NONE
 70
     0
 10
0.0
 20
0.0
 30
0.0
  3
_NONE
  1

  0
ENDBLK
  5
7EE0
  8
0
  0
BLOCK
  8
0
  2
_OPEN30
 70
     0
 10
0.0
 20
0.0
 30
0.0
  3
_OPEN30
  1

  0
LINE
  5
7F05
  8
3
 62
     0
 10
-1.0
 20
0.26794919
 30
0.0
 11
0.0
 21
0.0
 31
0.0
  0
LINE
  5
7F06
  8
3
 62
     0
 10
0.0
 20
0.0
 30
0.0
 11
-1.0
 21
-0.26794919
 31
0.0
  0
LINE
  5
7F07
  8
3
 62
     0
 10
0.0
 20
0.0
 30
0.0
 11
-1.0
 21
0.0
 31
0.0
  0
ENDBLK
  5
7F09
  8
0
  0
ENDSEC
  0
SECTION
  2
ENTITIES
  0
CIRCLE
  5
7AC4
  8
1
  6
CONTINUOUS
 10
3086.3683919999999
 20
4479.1097409999993
 30
0.0
 40
675.0
  0
CIRCLE
  5
7AC5
  8
1
  6
CONTINUOUS
 10
3086.3683919999999
 20
4479.1097409999993
 30
0.0
 40
625.0
  0
LINE
  5
7AC6
  8
1
  6
CONTINUOUS
 10
2336.3683919999999
 20
3079.1097410000002
 30
0.0
 11
4886.3683920000012
 21
3079.1097410000002
 31
0.0
  0
LINE
  5
7AC7
  8
1
  6
CONTINUOUS
 10
2336.3683919999999
 20
2929.1097410000002
 30
0.0
 11
4886.3683920000012
 21
2929.1097410000002
 31
0.0
  0
POLYLINE
  5
7AC8
  8
1
  6
CONTINUOUS
 66
     1
 10
0.0
 20
0.0
 30
0.0
  0
VERTEX
  5
8132
  8
1
  6
CONTINUOUS
 10
2261.3683919999999
 20
3145.1097410000002
 30
0.0
  0
VERTEX
  5
8133
  8
1
  6
CONTINUOUS
 10
3086.3683919999999
 20
3218.1097410000002
 30
0.0
 42
0.4
  0
VERTEX
  5
8134
  8
1
  6
CONTINUOUS
 10
4168.8683920000003
 20
4388.1097410000002
 30
0.0
 42
0.4
  0
VERTEX
  5
8135
  8
1
  6
CONTINUOUS
 10
3095.0683920000001
 20
5376.2097409999997
 30
0.0
 42
0.4
  0
VERTEX
  5
8136
  8
1
  6
CONTINUOUS
 10
2340.3683919999999
 20
4556.1097409999993
 30
0.0
  0
VERTEX
  5
8137
  8
1
  6
CONTINUOUS
 10
2353.3683919999999
 20
4425.1097409999993
 30
0.0
 42
0.4
  0
SEQEND
  5
8138
  8
1
  6
CONTINUOUS
  0
LINE
  5
7AD0
  8
1
  6
CONTINUOUS
 10
2336.3683919999999
 20
2814.1097410000002
 30
0.0
 11
4886.3683920000012
 21
2814.1097410000002
 31
0.0
  0
LINE
  5
7AD1
  8
1
  6
CONTINUOUS
 10
2336.3683919999999
 20
2739.1097410000002
 30
0.0
 11
4886.3683920000012
 21
2739.1097410000002
 31
0.0
  0
LINE
  5
7AD2
  8
1
  6
CONTINUOUS
 10
2311.3683919999999
 20
4425.1097409999993
 30
0.0
 11
2311.3683919999999
 21
3145.1097410000002
 31
0.0
  0
LINE
  5
7AD3
  8
1
  6
CONTINUOUS
 10
2261.3683919999999
 20
4475.1097409999993
 30
0.0
 11
2261.3683919999999
 21
3089.1097410000002
 31
0.0
  0
LINE
  5
7AD4
  8
1
  6
CONTINUOUS
 10
2336.3683919999999
 20
3079.1097410000002
 30
0.0
 11
2336.3683919999999
 21
2929.1097410000002
 31
0.0
  0
LINE
  5
7AD5
  8
1
  6
CONTINUOUS
 10
2336.3683919999999
 20
2814.1097410000002
 30
0.0
 11
2336.3683919999999
 21
2739.1097410000002
 31
0.0
  0
LINE
  5
7AD6
  8
1
  6
CONTINUOUS
 10
2353.3683919999999
 20
4425.1097409999993
 30
0.0
 11
2261.3683919999999
 21
4425.1097409999993
 31
0.0
  0
LINE
  5
7AD7
  8
1
  6
CONTINUOUS
 10
4542.3683920000003
 20
3402.6097410000002
 30
0.0
 11
3274.1683919999991
 21
4684.1097409999993
 31
0.0
  0
LINE
  5
7AD8
  8
1
  6
CONTINUOUS
 10
4609.9683919999989
 20
3476.3097409999991
 30
0.0
 11
3341.668392
 21
4757.9097409999986
 31
0.0
  0
LINE
  5
7AD9
  8
1
  6
CONTINUOUS
 10
4397.768391999999
 20
3212.309741
 30
0.0
 11
2939.0683920000001
 21
4243.309741
 31
0.0
  0
LINE
  5
7ADA
  8
1
  6
CONTINUOUS
 10
4344.8683920000003
 20
3127.5097409999998
 30
0.0
 11
2886.168392
 21
4158.5097409999989
 31
0.0
  0
CIRCLE
  5
7ADC
  8
1
  6
CONTINUOUS
 10
3086.3683919999999
 20
4479.1097409999993
 30
0.0
 40
278.0
  0
ARC
  5
7ADD
  8
1
  6
CONTINUOUS
 10
3086.3683919999999
 20
4479.1097409999993
 30
0.0
 40
378.0
 50
47.5
 51
238.0
  0
LINE
  5
7ADF
  8
2
  6
CENTER
 10
4581.3683920000003
 20
3314.1097410000002
 30
0.0
 11
4341.3683920000003
 21
3314.1097410000002
 31
0.0
  0
CIRCLE
  5
7AE0
  8
1
  6
CONTINUOUS
 10
4461.3683920000003
 20
3314.1097410000002
 30
0.0
 40
120.0
  0
LINE
  5
7AE1
  8
1
  6
CONTINUOUS
 10
4236.3683920000012
 20
3134.1097410000002
 30
0.0
 11
4686.3683920000012
 21
3134.1097410000002
 31
0.0
  0
ARC
  5
7AE2
  8
1
  6
CONTINUOUS
 10
4461.3683920000003
 20
3314.1097410000002
 30
0.0
 40
199.0
 50
320.10000000000002
 51
219.90000000000001
  0
ARC
  5
7AE3
  8
1
  6
CONTINUOUS
 10
4461.3683920000003
 20
3314.1097410000002
 30
0.0
 40
220.0
 50
238.0
 51
47.5
  0
LINE
  5
7AE4
  8
1
  6
CONTINUOUS
 10
4236.3683920000012
 20
3079.1097410000002
 30
0.0
 11
4236.3683920000012
 21
3134.1097410000002
 31
0.0
  0
LINE
  5
7AE5
  8
1
  6
CONTINUOUS
 10
4299.3683920000003
 20
3134.1097410000002
 30
0.0
 11
4299.3683920000003
 21
3176.6097410000002
 31
0.0
  0
LINE
  5
7AE6
  8
1
  6
CONTINUOUS
 10
4299.3683920000003
 20
3176.6097410000002
 30
0.0
 11
4308.6683919999996
 21
3186.5097409999998
 31
0.0
  0
LINE
  5
7AE7
  8
2
  6
CENTER
 10
4461.3683920000003
 20
3194.1097410000002
 30
0.0
 11
4461.3683920000003
 21
3434.1097409999988
 31
0.0
  0
LINE
  5
7AE8
  8
1
  6
CONTINUOUS
 10
4623.3683920000003
 20
3134.1097410000002
 30
0.0
 11
4623.3683920000003
 21
3176.6097410000002
 31
0.0
  0
LINE
  5
7AE9
  8
1
  6
CONTINUOUS
 10
4623.3683920000003
 20
3134.1097410000002
 30
0.0
 11
4563.3683920000003
 21
3134.1097410000002
 31
0.0
  0
LINE
  5
7AEA
  8
1
  6
CONTINUOUS
 10
4623.3683920000003
 20
3176.6097410000002
 30
0.0
 11
4614.0683920000001
 21
3186.5097409999998
 31
0.0
  0
LINE
  5
7AEB
  8
1
  6
CONTINUOUS
 10
4686.3683920000012
 20
3079.1097410000002
 30
0.0
 11
4686.3683920000012
 21
3134.1097410000002
 31
0.0
  0
LINE
  5
7AEC
  8
1
  6
CONTINUOUS
 10
4886.3683920000012
 20
3079.1097410000002
 30
0.0
 11
4886.3683920000012
 21
2929.1097410000002
 31
0.0
  0
LINE
  5
7AED
  8
1
  6
CONTINUOUS
 10
4886.3683920000012
 20
2814.1097410000002
 30
0.0
 11
4886.3683920000012
 21
2739.1097410000002
 31
0.0
  0
LINE
  5
7AEE
  8
1
  6
CONTINUOUS
 10
2411.3683919999999
 20
8765.286204
 30
0.0
 11
3761.3683919999999
 21
8765.286204
 31
0.0
  0
LINE
  5
7AEF
  8
1
  6
CONTINUOUS
 10
2261.3683919999999
 20
7712.2862040000009
 30
0.0
 11
4168.8683920000003
 21
7712.2862040000009
 31
0.0
  0
LINE
  5
7AF0
  8
1
  6
CONTINUOUS
 10
2261.3683919999999
 20
8662.286204
 30
0.0
 11
4168.8683920000003
 21
8662.286204
 31
0.0
  0
LINE
  5
7AF1
  8
1
  6
CONTINUOUS
 10
2808.3683919999999
 20
7460.286204
 30
0.0
 11
2336.3683919999999
 21
7460.286204
 31
0.0
  0
LINE
  5
7AF2
  8
1
  6
CONTINUOUS
 10
2261.3683919999999
 20
7662.2862040000009
 30
0.0
 11
2261.3683919999999
 21
8712.2862039999982
 31
0.0
  0
LINE
  5
7AF3
  8
1
  6
CONTINUOUS
 10
2311.3683919999999
 20
7712.2862040000009
 30
0.0
 11
2311.3683919999999
 21
8662.286204
 31
0.0
  0
LINE
  5
7AF4
  8
1
  6
CONTINUOUS
 10
2336.3683919999999
 20
7460.286204
 30
0.0
 11
2336.3683919999999
 21
7712.2862040000009
 31
0.0
  0
LINE
  5
7AF5
  8
1
  6
CONTINUOUS
 10
2461.3683919999999
 20
8662.286204
 30
0.0
 11
2461.3683919999999
 21
8765.286204
 31
0.0
  0
LINE
  5
7AF6
  8
1
  6
CONTINUOUS
 10
2336.3683919999999
 20
8740.286204
 30
0.0
 11
2461.3683919999999
 21
8740.286204
 31
0.0
  0
LINE
  5
7AF7
  8
1
  6
CONTINUOUS
 10
2336.3683919999999
 20
8662.286204
 30
0.0
 11
2336.3683919999999
 21
8740.286204
 31
0.0
  0
LINE
  5
7AF8
  8
1
  6
CONTINUOUS
 10
2708.3683919999999
 20
7587.2862040000009
 30
0.0
 11
4781.3683920000003
 21
7587.2862040000009
 31
0.0
  0
LINE
  5
7AF9
  8
1
  6
CONTINUOUS
 10
2708.3683919999999
 20
7347.2862040000009
 30
0.0
 11
4781.3683920000003
 21
7347.2862040000009
 31
0.0
  0
LINE
  5
7AFA
  8
1
  6
CONTINUOUS
 10
4341.3683920000003
 20
7460.286204
 30
0.0
 11
3364.3683919999999
 21
7460.286204
 31
0.0
  0
LINE
  5
7AFB
  8
1
  6
CONTINUOUS
 10
3711.3683919999999
 20
8740.286204
 30
0.0
 11
4886.3683920000012
 21
8740.286204
 31
0.0
  0
LINE
  5
7AFC
  8
1
  6
CONTINUOUS
 10
3364.3683919999999
 20
7417.2862040000009
 30
0.0
 11
2808.3683919999999
 21
7417.2862040000009
 31
0.0
  0
LINE
  5
7AFD
  8
1
  6
CONTINUOUS
 10
3364.3683919999999
 20
7517.2862040000009
 30
0.0
 11
2808.3683919999999
 21
7517.2862040000009
 31
0.0
  0
LINE
  5
7AFE
  8
1
  6
CONTINUOUS
 10
3058.8683919999999
 20
7517.2862040000009
 30
0.0
 11
3058.8683919999999
 21
7712.2862040000009
 31
0.0
  0
LINE
  5
7AFF
  8
1
  6
CONTINUOUS
 10
3113.8683919999999
 20
7517.2862040000009
 30
0.0
 11
3113.8683919999999
 21
7712.2862040000009
 31
0.0
  0
LINE
  5
7B00
  8
1
  6
CONTINUOUS
 10
2708.3683919999999
 20
7347.2862040000009
 30
0.0
 11
2708.3683919999999
 21
7587.2862040000009
 31
0.0
  0
LINE
  5
7B01
  8
1
  6
CONTINUOUS
 10
2808.3683919999999
 20
7417.2862040000009
 30
0.0
 11
2808.3683919999999
 21
7517.2862040000009
 31
0.0
  0
LINE
  5
7B02
  8
1
  6
CONTINUOUS
 10
3364.3683919999999
 20
7417.2862040000009
 30
0.0
 11
3364.3683919999999
 21
7517.2862040000009
 31
0.0
  0
LINE
  5
7B03
  8
1
  6
CONTINUOUS
 10
3711.3683919999999
 20
8662.286204
 30
0.0
 11
3711.3683919999999
 21
8765.286204
 31
0.0
  0
LINE
  5
7B04
  8
1
  6
CONTINUOUS
 10
4168.8683920000003
 20
7712.2862040000009
 30
0.0
 11
4168.8683920000003
 21
8662.286204
 31
0.0
  0
LINE
  5
7B05
  8
1
  6
CONTINUOUS
 10
4886.3683920000012
 20
8740.286204
 30
0.0
 11
4886.3683920000012
 21
7460.286204
 31
0.0
  0
LINE
  5
7B06
  8
1
  6
CONTINUOUS
 10
4581.3683920000003
 20
7417.2862040000009
 30
0.0
 11
4341.3683920000003
 21
7417.2862040000009
 31
0.0
  0
LINE
  5
7B07
  8
1
  6
CONTINUOUS
 10
4581.3683920000003
 20
7517.2862040000009
 30
0.0
 11
4341.3683920000003
 21
7517.2862040000009
 31
0.0
  0
LINE
  5
7B08
  8
1
  6
CONTINUOUS
 10
4660.4683919999998
 20
7631.786204
 30
0.0
 11
4262.2683919999999
 21
7631.786204
 31
0.0
  0
LINE
  5
7B09
  8
1
  6
CONTINUOUS
 10
4660.4683919999998
 20
8231.2862039999982
 30
0.0
 11
4262.2683919999999
 21
8231.2862039999982
 31
0.0
  0
LINE
  5
7B0A
  8
1
  6
CONTINUOUS
 10
4341.3683920000003
 20
7417.2862040000009
 30
0.0
 11
4341.3683920000003
 21
7517.2862040000009
 31
0.0
  0
LINE
  5
7B0B
  8
1
  6
CONTINUOUS
 10
4262.2683919999999
 20
7631.786204
 30
0.0
 11
4262.2683919999999
 21
8231.2862039999982
 31
0.0
  0
LINE
  5
7B0C
  8
1
  6
CONTINUOUS
 10
4488.8683920000003
 20
7517.2862040000009
 30
0.0
 11
4488.8683920000003
 21
7631.786204
 31
0.0
  0
LINE
  5
7B0D
  8
1
  6
CONTINUOUS
 10
4433.8683919999994
 20
7517.2862040000009
 30
0.0
 11
4433.8683919999994
 21
7631.786204
 31
0.0
  0
LINE
  5
7B0E
  8
1
  6
CONTINUOUS
 10
4886.3683920000012
 20
7460.286204
 30
0.0
 11
4581.3683920000003
 21
7460.286204
 31
0.0
  0
LINE
  5
7B0F
  8
1
  6
CONTINUOUS
 10
4581.3683920000003
 20
7417.2862040000009
 30
0.0
 11
4581.3683920000003
 21
7517.2862040000009
 31
0.0
  0
LINE
  5
7B10
  8
1
  6
CONTINUOUS
 10
4781.3683920000003
 20
7347.2862040000009
 30
0.0
 11
4781.3683920000003
 21
7587.2862040000009
 31
0.0
  0
LINE
  5
7B11
  8
1
  6
CONTINUOUS
 10
4660.4683919999998
 20
7631.786204
 30
0.0
 11
4660.4683919999998
 21
8231.2862039999982
 31
0.0
  0
LINE
  5
7B12
  8
1
  6
CONTINUOUS
 10
6934.9046669999989
 20
2739.1097410000002
 30
0.0
 11
5654.9046669999998
 21
2739.1097410000002
 31
0.0
  0
LINE
  5
7B13
  8
1
  6
CONTINUOUS
 10
6934.9046669999989
 20
2814.1097410000002
 30
0.0
 11
5654.9046669999998
 21
2814.1097410000002
 31
0.0
  0
LINE
  5
7B14
  8
1
  6
CONTINUOUS
 10
5906.9046669999998
 20
4425.1097409999993
 30
0.0
 11
6856.9046670000007
 21
4425.1097409999993
 31
0.0
  0
LINE
  5
7B15
  8
1
  6
CONTINUOUS
 10
6934.9046669999989
 20
2929.1097410000002
 30
0.0
 11
5654.9046669999998
 21
2929.1097410000002
 31
0.0
  0
LINE
  5
7B16
  8
1
  6
CONTINUOUS
 10
5906.9046669999998
 20
5308.1097409999993
 30
0.0
 11
6856.9046670000007
 21
5308.1097409999993
 31
0.0
  0
LINE
  5
7B17
  8
1
  6
CONTINUOUS
 10
5906.9046669999998
 20
3145.1097410000002
 30
0.0
 11
6856.9046670000007
 21
3145.1097410000002
 31
0.0
  0
LINE
  5
7B18
  8
1
  6
CONTINUOUS
 10
5906.9046669999998
 20
3145.1097410000002
 30
0.0
 11
6856.9046670000007
 21
4425.1097409999993
 31
0.0
  0
LINE
  5
7B19
  8
1
  6
CONTINUOUS
 10
5906.9046669999998
 20
4425.1097409999993
 30
0.0
 11
6856.9046670000007
 21
3145.1097410000002
 31
0.0
  0
LINE
  5
7B47
  8
1
  6
CONTINUOUS
 10
5906.9046669999998
 20
3145.1097410000002
 30
0.0
 11
5906.9046669999998
 21
5308.1097409999993
 31
0.0
  0
LINE
  5
7B48
  8
1
  6
CONTINUOUS
 10
5541.9046669999998
 20
3214.1097410000002
 30
0.0
 11
5541.9046669999998
 21
4857.1097409999993
 31
0.0
  0
LINE
  5
7B49
  8
1
  6
CONTINUOUS
 10
5781.9046669999998
 20
3214.1097410000002
 30
0.0
 11
5781.9046669999998
 21
4857.1097409999993
 31
0.0
  0
LINE
  5
7B4A
  8
1
  6
CONTINUOUS
 10
5611.9046669999998
 20
4201.1097409999984
 30
0.0
 11
5611.9046669999998
 21
4757.1097409999993
 31
0.0
  0
LINE
  5
7B4B
  8
1
  6
CONTINUOUS
 10
5711.9046669999989
 20
4201.1097409999984
 30
0.0
 11
5711.9046669999989
 21
4757.1097409999993
 31
0.0
  0
LINE
  5
7B4C
  8
1
  6
CONTINUOUS
 10
5711.9046669999989
 20
3314.1097410000002
 30
0.0
 11
5711.9046669999989
 21
3554.1097409999988
 31
0.0
  0
LINE
  5
7B4D
  8
1
  6
CONTINUOUS
 10
5611.9046669999998
 20
3314.1097410000002
 30
0.0
 11
5611.9046669999998
 21
3554.1097409999988
 31
0.0
  0
LINE
  5
7B4E
  8
1
  6
CONTINUOUS
 10
6934.9046670000007
 20
3079.1097410000002
 30
0.0
 11
5654.9046669999998
 21
3079.1097410000002
 31
0.0
  0
LINE
  5
7B4F
  8
1
  6
CONTINUOUS
 10
5611.9046669999998
 20
3314.1097410000002
 30
0.0
 11
5711.9046669999989
 21
3314.1097410000002
 31
0.0
  0
LINE
  5
7B50
  8
1
  6
CONTINUOUS
 10
5541.9046669999998
 20
3214.1097410000002
 30
0.0
 11
5781.9046669999998
 21
3214.1097410000002
 31
0.0
  0
LINE
  5
7B51
  8
1
  6
CONTINUOUS
 10
5654.9046669999998
 20
2739.1097410000002
 30
0.0
 11
5654.9046669999998
 21
2814.1097410000002
 31
0.0
  0
LINE
  5
7B52
  8
1
  6
CONTINUOUS
 10
5654.9046669999998
 20
2929.1097410000002
 30
0.0
 11
5654.9046669999998
 21
3079.1097410000002
 31
0.0
  0
LINE
  5
7B53
  8
1
  6
CONTINUOUS
 10
5711.9046669999989
 20
3406.6097410000002
 30
0.0
 11
5906.9046669999998
 21
3406.6097410000002
 31
0.0
  0
LINE
  5
7B54
  8
1
  6
CONTINUOUS
 10
5611.9046669999998
 20
3554.1097409999988
 30
0.0
 11
5711.9046669999989
 21
3554.1097409999988
 31
0.0
  0
LINE
  5
7B55
  8
1
  6
CONTINUOUS
 10
5611.9046669999998
 20
4201.1097409999984
 30
0.0
 11
5711.9046669999989
 21
4201.1097409999984
 31
0.0
  0
LINE
  5
7B56
  8
1
  6
CONTINUOUS
 10
5711.9046669999989
 20
3461.6097410000002
 30
0.0
 11
5906.9046669999998
 21
3461.6097410000002
 31
0.0
  0
LINE
  5
7B57
  8
1
  6
CONTINUOUS
 10
5611.9046669999998
 20
4757.1097409999993
 30
0.0
 11
5711.9046669999989
 21
4757.1097409999993
 31
0.0
  0
LINE
  5
7B58
  8
1
  6
CONTINUOUS
 10
5541.9046669999998
 20
4857.1097409999993
 30
0.0
 11
5781.9046669999998
 21
4857.1097409999993
 31
0.0
  0
LINE
  5
7B59
  8
1
  6
CONTINUOUS
 10
5711.9046669999989
 20
4506.6097409999993
 30
0.0
 11
5906.9046669999998
 21
4506.6097409999993
 31
0.0
  0
LINE
  5
7B5A
  8
1
  6
CONTINUOUS
 10
5711.9046669999989
 20
4451.6097409999993
 30
0.0
 11
5906.9046669999998
 21
4451.6097409999993
 31
0.0
  0
LINE
  5
7B7F
  8
1
  6
CONTINUOUS
 10
6856.9046670000007
 20
3145.1097410000002
 30
0.0
 11
6856.9046670000007
 21
5308.1097409999993
 31
0.0
  0
LINE
  5
7B80
  8
1
  6
CONTINUOUS
 10
6959.9046669999989
 20
3804.1097409999988
 30
0.0
 11
6959.9046669999989
 21
5154.1097409999993
 31
0.0
  0
LINE
  5
7B81
  8
1
  6
CONTINUOUS
 10
6934.9046669999989
 20
3079.1097410000002
 30
0.0
 11
6856.9046670000007
 21
3079.1097410000002
 31
0.0
  0
LINE
  5
7B82
  8
1
  6
CONTINUOUS
 10
6934.9046669999989
 20
2739.1097410000002
 30
0.0
 11
6934.9046669999989
 21
2814.1097410000002
 31
0.0
  0
LINE
  5
7B83
  8
1
  6
CONTINUOUS
 10
6934.9046669999989
 20
2929.1097410000002
 30
0.0
 11
6934.9046669999989
 21
3079.1097410000002
 31
0.0
  0
LINE
  5
7B84
  8
1
  6
CONTINUOUS
 10
6856.9046670000007
 20
3854.1097410000002
 30
0.0
 11
6959.9046669999989
 21
3854.1097410000002
 31
0.0
  0
LINE
  5
7B85
  8
1
  6
CONTINUOUS
 10
6856.9046670000007
 20
5104.1097409999993
 30
0.0
 11
6959.9046669999989
 21
5104.1097409999993
 31
0.0
  0
LINE
  5
7B86
  8
2
  6
CENTER
 10
6381.9046669999998
 20
5517.2416939999994
 30
0.0
 11
6381.9046669999998
 21
2548.0890739999991
 31
0.0
  0
LINE
  5
7B87
  8
2
  6
CENTER
 10
4989.1711610000002
 20
8187.2862040000009
 30
0.0
 11
2076.1779569999999
 21
8187.2862040000009
 31
0.0
  0
LINE
  5
7B88
  8
2
  6
CENTER
 10
3086.3683919999999
 20
5458.4607189999997
 30
0.0
 11
3086.3683919999999
 21
2600.2337210000001
 31
0.0
  0
LINE
  5
7B89
  8
2
  6
CENTER
 10
4422.3069619999987
 20
4479.1097409999993
 30
0.0
 11
2129.2257869999999
 21
4479.1097409999993
 31
0.0
  0
LINE
  5
7B8A
  8
2
  6
CENTER
 10
7019.7155230000008
 20
4479.1097409999993
 30
0.0
 11
5329.1590530000012
 21
4479.1097409999993
 31
0.0
  0
LINE
  5
7B8B
  8
4
  6
CONTINUOUS
 10
7400.0
 20
2000.0
 30
0.0
 11
7400.0
 21
1200.0
 31
0.0
  0
LINE
  5
7B8C
  8
4
  6
CONTINUOUS
 10
4600.0
 20
2000.0
 30
0.0
 11
4600.0
 21
1200.0
 31
0.0
  0
LINE
  5
7B8D
  8
4
  6
CONTINUOUS
 10
2600.0
 20
2000.0
 30
0.0
 11
2600.0
 21
1200.0
 31
0.0
  0
LINE
  5
7B90
  8
4
  6
CONTINUOUS
 10
2600.0
 20
1200.0
 30
0.0
 11
7400.0
 21
1200.0
 31
0.0
  0
LINE
  5
7B91
  8
4
  6
CONTINUOUS
 10
2600.0
 20
1600.0
 30
0.0
 11
7400.0
 21
1600.0
 31
0.0
  0
TEXT
  5
7B92
  8
4
  6
CONTINUOUS
 10
2754.008323
 20
1726.1721030000001
 30
0.0
 40
200.0
  1
機器名称
  0
TEXT
  5
7B93
  8
4
  6
CONTINUOUS
 10
2745.032424
 20
1286.580627
 30
0.0
 40
200.0
  1
機器型番
  0
TEXT
  5
7B94
  8
4
  6
CONTINUOUS
 10
4710.7149820000004
 20
1690.2870760000001
 30
0.0
 40
200.0
  1
ミツヤ多翼送風機
  0
TEXT
  5
7B95
  8
4
  6
CONTINUOUS
 10
4746.6179819999998
 20
1268.6383370000001
 30
0.0
 40
200.0
  1
MFE#8-4
  0
TEXT
  5
7B97
  8
4
  6
CONTINUOUS
 10
3004.4633399999998
 20
9533.715365
 30
0.0
 40
216.0
  1
床置防振ベット
  0
TEXT
  5
7B98
  8
4
  6
CONTINUOUS
 10
1264.6703729999999
 20
10135.523905
 30
0.0
 40
288.0
  1
ベルト駆動式片吸込両持排煙ファン
  0
LINE
  5
7B99
  8
4
  6
CONTINUOUS
 10
1000.0
 20
9877.6350170000005
 30
0.0
 11
7400.0
 21
9877.6350170000005
 31
0.0
  0
LINE
  5
7B9A
  8
4
  6
CONTINUOUS
 10
1000.0
 20
10677.635017000001
 30
0.0
 11
7400.0
 21
10677.635017000001
 31
0.0
  0
LINE
  5
7B9B
  8
4
  6
CONTINUOUS
 10
2600.0
 20
2000.0
 30
0.0
 11
7400.0
 21
2000.0
 31
0.0
  0
LINE
  5
7B9C
  8
4
  6
CONTINUOUS
 10
1000.0
 20
10677.635017000001
 30
0.0
 11
1000.0
 21
9877.6350170000005
 31
0.0
  0
TEXT
  5
7B9D
  8
4
  6
CONTINUOUS
 10
1261.0280110000001
 20
9529.2779099999989
 30
0.0
 40
216.0
  1
右回転左横向
  0
TEXT
  5
7B9E
  8
4
  6
CONTINUOUS
 10
5875.8782369999999
 20
10824.244326
 30
0.0
 40
224.0
  1
No.
  0
TEXT
  5
7B9F
  8
4
  6
CONTINUOUS
 10
5245.1842500000012
 20
9533.715365
 30
0.0
 40
216.0
  1
縮尺：1/40
  0
LINE
  5
7BA0
  8
4
  6
CONTINUOUS
 10
7400.0
 20
10677.635017000001
 30
0.0
 11
7400.0
 21
9877.6350170000005
 31
0.0
  0
LINE
  5
7BA2
  8
4
  6
CONTINUOUS
 10
5762.4696889999996
 20
10725.054333
 30
0.0
 11
5762.4696889999996
 21
11146.609046
 31
0.0
  0
LINE
  5
7BA3
  8
4
  6
CONTINUOUS
 10
5762.4696889999996
 20
11146.609046
 30
0.0
 11
7400.0
 21
11146.609046
 31
0.0
  0
LINE
  5
7BA4
  8
4
  6
CONTINUOUS
 10
7400.0
 20
11146.609046
 30
0.0
 11
7400.0
 21
10725.054333
 31
0.0
  0
LINE
  5
7BA5
  8
4
  6
CONTINUOUS
 10
7400.0
 20
10725.054333
 30
0.0
 11
5762.4696889999996
 21
10725.054333
 31
0.0
  0
DIMENSION
  5
7BBD
  8
3
  6
CONTINUOUS
  2
*D1
 10
2036.591332
 20
3145.1097410000002
 30
0.0
 11
2036.5913319999991
 21
3723.0222330000001
 31
0.0
 70
   128
 13
2261.3683919999999
 23
4425.1097409999993
 33
0.0
 14
2261.3683919999999
 24
3145.1097410000002
 34
0.0
 50
90.0
1001
ACAD
1000
DSTYLE
1002
{
1070
   287
1070
     3
1070
   287
1070
     3
1070
   287
1070
     3
1070
    40
1040
40.0
1070
   143
1040
0.039
1070
   172
1070
     1
1070
   271
1070
     0
1070
   279
1070
     0
1070
   288
1070
     1
1002
}
  0
DIMENSION
  5
7BCA
  8
3
  6
CONTINUOUS
  2
*D2
 10
1769.209177
 20
3145.1097410000002
 30
0.0
 11
1769.209177
 21
3731.6422600000001
 31
0.0
 70
   128
 13
2129.2257869999999
 23
4479.1097409999993
 33
0.0
 14
2261.3683919999999
 24
3145.1097410000002
 34
0.0
 50
90.0
1001
ACAD
1000
DSTYLE
1002
{
1070
   287
1070
     3
1070
   287
1070
     3
1070
   287
1070
     3
1070
    40
1040
40.0
1070
   143
1040
0.039
1070
   172
1070
     1
1070
   271
1070
     0
1070
   279
1070
     0
1070
   288
1070
     1
1002
}
  0
DIMENSION
  5
7BD7
  8
3
  6
CONTINUOUS
  2
*D3
 10
1484.5765630000001
 20
4479.1097410000011
 30
0.0
 11
1484.5765630000001
 21
4929.8295119999993
 31
0.0
 70
   128
 13
3113.2158920000002
 23
5376.3653979999999
 33
0.0
 14
2129.2257869999999
 24
4479.1097409999993
 34
0.0
 50
90.0
1001
ACAD
1000
DSTYLE
1002
{
1070
   287
1070
     3
1070
   287
1070
     3
1070
   287
1070
     3
1070
    40
1040
40.0
1070
   143
1040
0.039
1070
   172
1070
     1
1070
   271
1070
     0
1070
   279
1070
     0
1070
   288
1070
     1
1002
}
  0
DIMENSION
  5
7BE3
  8
3
  6
CONTINUOUS
  2
*D4
 10
1484.5765630000001
 20
2929.1097410000002
 30
0.0
 11
1384.5765629999989
 21
3704.1097410000002
 31
0.0
 70
     0
 13
2129.2257869999999
 23
4479.1097409999993
 33
0.0
 14
2336.3683919999999
 24
2929.1097410000002
 34
0.0
 50
90.0
1001
ACAD
1000
DSTYLE
1002
{
1070
   287
1070
     4
1070
   287
1070
     4
1070
   287
1070
     4
1070
    40
1040
40.0
1070
    75
1070
     1
1070
   143
1040
0.039
1070
   172
1070
     1
1070
   271
1070
     0
1070
   279
1070
     1
1070
   288
1070
     1
1002
}
  0
DIMENSION
  5
7C0D
  8
3
  6
CONTINUOUS
  2
*D5
 10
3086.3683919999999
 20
2412.2756129999998
 30
0.0
 11
2717.124006
 21
2412.2756129999998
 31
0.0
 70
   128
 13
2336.3683919999999
 23
2739.1097410000002
 33
0.0
 14
3086.3683919999999
 24
2600.2337210000001
 34
0.0
1001
ACAD
1000
DSTYLE
1002
{
1070
   287
1070
     3
1070
   287
1070
     3
1070
   287
1070
     3
1070
    40
1040
40.0
1070
   143
1040
0.039
1070
   172
1070
     1
1070
   271
1070
     0
1070
   279
1070
     0
1070
   288
1070
     1
1002
}
  0
DIMENSION
  5
7C19
  8
3
  6
CONTINUOUS
  2
*D6
 10
4886.3683920000012
 20
2412.2756129999998
 30
0.0
 11
3986.3683920000012
 21
2512.2756129999989
 31
0.0
 70
     0
 13
3086.3683919999999
 23
2600.2337210000001
 33
0.0
 14
4886.3683920000012
 24
2739.1097410000002
 34
0.0
1001
ACAD
1000
DSTYLE
1002
{
1070
   287
1070
     4
1070
   287
1070
     4
1070
   287
1070
     4
1070
    40
1040
40.0
1070
    75
1070
     1
1070
   143
1040
0.039
1070
   172
1070
     1
1070
   271
1070
     0
1070
   279
1070
     1
1070
   288
1070
     1
1002
}
  0
DIMENSION
  5
7C26
  8
3
  6
CONTINUOUS
  2
*D7
 10
3086.3683919999999
 20
5653.9138789999997
 30
0.0
 11
2630.8717109999998
 21
5653.9138789999997
 31
0.0
 70
   128
 13
2261.3683919999999
 23
4475.1097409999993
 33
0.0
 14
3086.3683919999999
 24
5458.4607189999997
 34
0.0
1001
ACAD
1000
DSTYLE
1002
{
1070
   287
1070
     3
1070
   287
1070
     3
1070
   287
1070
     3
1070
    40
1040
40.0
1070
   143
1040
0.039
1070
   172
1070
     1
1070
   271
1070
     0
1070
   279
1070
     0
1070
   288
1070
     1
1002
}
  0
DIMENSION
  5
7C4F
  8
3
  6
CONTINUOUS
  2
*D8
 10
6856.9046670000007
 20
5498.7529450000002
 30
0.0
 11
6381.4484170000014
 21
5498.7529450000002
 31
0.0
 70
   128
 13
5906.9046669999998
 23
5308.1097409999993
 33
0.0
 14
6856.9046670000007
 24
5308.1097409999993
 34
0.0
1001
ACAD
1000
DSTYLE
1002
{
1070
   287
1070
     3
1070
   287
1070
     3
1070
   287
1070
     3
1070
    40
1040
40.0
1070
   143
1040
0.039
1070
   172
1070
     1
1070
   271
1070
     0
1070
   279
1070
     0
1070
   288
1070
     1
1002
}
  0
DIMENSION
  5
7C5C
  8
3
  6
CONTINUOUS
  2
*D9
 10
7235.3462589999999
 20
3854.1097409999988
 30
0.0
 11
7235.3462589999999
 21
4490.2068469999986
 31
0.0
 70
   128
 13
6959.9046669999989
 23
5104.1097409999993
 33
0.0
 14
6959.9046669999989
 24
3854.1097410000002
 34
0.0
 50
90.0
1001
ACAD
1000
DSTYLE
1002
{
1070
   287
1070
     3
1070
   287
1070
     3
1070
   287
1070
     3
1070
     3
1000
φ<>
1070
    40
1040
40.0
1070
   143
1040
0.039
1070
   172
1070
     1
1070
   271
1070
     0
1070
   279
1070
     0
1070
   288
1070
     1
1002
}
  0
DIMENSION
  5
7C69
  8
3
  6
CONTINUOUS
  2
*D10
 10
6381.9046669999998
 20
5774.5946210000002
 30
0.0
 11
6656.1903810000003
 21
5774.5946210000002
 31
0.0
 70
   128
 13
6959.9046669999989
 23
5154.1097409999993
 33
0.0
 14
6381.9046669999998
 24
5710.1558709999999
 34
0.0
1001
ACAD
1000
DSTYLE
1002
{
1070
   287
1070
     3
1070
   287
1070
     3
1070
   287
1070
     3
1070
    40
1040
40.0
1070
   143
1040
0.039
1070
   172
1070
     1
1070
   271
1070
     0
1070
   279
1070
     0
1070
   288
1070
     1
1002
}
  0
DIMENSION
  5
7C75
  8
3
  6
CONTINUOUS
  2
*D11
 10
5541.9046669999998
 20
5774.5946210000002
 30
0.0
 11
5961.9046669999989
 21
5974.5946210000002
 31
0.0
 70
     0
  1
MAX\P890
 13
6381.9046669999998
 23
5710.1558709999999
 33
0.0
 14
5541.9046669999998
 24
4857.1097409999993
 34
0.0
1001
ACAD
1000
DSTYLE
1002
{
1070
   287
1070
     4
1070
   287
1070
     4
1070
   287
1070
     4
1070
    40
1040
40.0
1070
    75
1070
     1
1070
   143
1040
0.039
1070
   172
1070
     1
1070
   271
1070
     0
1070
   279
1070
     1
1070
   288
1070
     1
1002
}
  0
DIMENSION
  5
7C82
  8
3
  6
CONTINUOUS
  2
*D12
 10
6381.9046669999998
 20
2412.2756129999998
 30
0.0
 11
6019.1887370000004
 21
2412.2756129999998
 31
0.0
 70
   128
 13
5654.9046669999998
 23
2739.1097410000002
 33
0.0
 14
6381.9046669999998
 24
2548.0890739999991
 34
0.0
1001
ACAD
1000
DSTYLE
1002
{
1070
   287
1070
     3
1070
   287
1070
     3
1070
   287
1070
     3
1070
    40
1040
40.0
1070
   143
1040
0.039
1070
   172
1070
     1
1070
   271
1070
     0
1070
   279
1070
     0
1070
   288
1070
     1
1002
}
  0
DIMENSION
  5
7C8E
  8
3
  6
CONTINUOUS
  2
*D13
 10
6934.9046669999989
 20
2412.2756129999998
 30
0.0
 11
6658.4046669999989
 21
2512.2756129999989
 31
0.0
 70
     0
 13
6381.9046669999998
 23
2548.0890739999991
 33
0.0
 14
6934.9046669999989
 24
2739.1097410000002
 34
0.0
1001
ACAD
1000
DSTYLE
1002
{
1070
   287
1070
     4
1070
   287
1070
     4
1070
   287
1070
     4
1070
    40
1040
40.0
1070
    75
1070
     1
1070
   143
1040
0.039
1070
   172
1070
     1
1070
   271
1070
     0
1070
   279
1070
     1
1070
   288
1070
     1
1002
}
  0
DIMENSION
  5
7CB0
  8
3
  6
CONTINUOUS
  2
*D14
 10
4886.3683920000012
 20
6990.710994
 30
0.0
 11
3553.7713899999999
 21
6990.710994
 31
0.0
 70
   128
 13
2336.3683919999999
 23
7460.286204
 33
0.0
 14
4886.3683920000012
 24
7460.286204
 34
0.0
1001
ACAD
1000
DSTYLE
1002
{
1070
   287
1070
     3
1070
   287
1070
     3
1070
   287
1070
     3
1070
    40
1040
40.0
1070
   143
1040
0.039
1070
   172
1070
     1
1070
   271
1070
     0
1070
   279
1070
     0
1070
   288
1070
     1
1002
}
  0
DIMENSION
  5
7CBD
  8
3
  6
CONTINUOUS
  2
*D15
 10
5240.8138620000009
 20
7460.286204
 30
0.0
 11
5240.813862
 21
8016.4971739999992
 31
0.0
 70
   128
 13
4886.3683920000012
 23
8740.286204
 33
0.0
 14
4886.3683920000012
 24
7460.286204
 34
0.0
 50
90.0
1001
ACAD
1000
DSTYLE
1002
{
1070
   287
1070
     3
1070
   287
1070
     3
1070
   287
1070
     3
1070
    40
1040
40.0
1070
   143
1040
0.039
1070
   172
1070
     1
1070
   271
1070
     0
1070
   279
1070
     0
1070
   288
1070
     1
1002
}
  0
LINE
  5
7CBE
  8
2
  6
CENTER
 10
3086.3683919999999
 20
8895.7425029999995
 30
0.0
 11
3086.3683919999999
 21
7155.86193
 31
0.0
  0
DIMENSION
  5
7CF9
  8
3
  6
CONTINUOUS
  2
*D16
 10
4165.3683920000003
 20
5653.9138789999997
 30
0.0
 11
3625.8683919999999
 21
5753.9138789999988
 31
0.0
 70
     0
 13
3086.3683919999999
 23
5458.4607189999997
 33
0.0
 14
4165.3683920000003
 24
4479.1097409999993
 34
0.0
1001
ACAD
1000
DSTYLE
1002
{
1070
   287
1070
     4
1070
   287
1070
     4
1070
   287
1070
     4
1070
    40
1040
40.0
1070
    75
1070
     1
1070
   143
1040
0.039
1070
   172
1070
     1
1070
   271
1070
     0
1070
   279
1070
     1
1070
   288
1070
     1
1002
}
  0
DIMENSION
  5
7D5E
  8
3
  2
*D17
 10
4886.3683920000012
 20
5905.526146245873
 30
0.0
 11
3574.3440753081882
 21
5905.526146245873
 31
0.0
 70
   128
 13
2261.3683919999999
 23
4475.1097409999993
 33
0.0
 14
4886.3683920000012
 24
3079.1097410000002
 34
0.0
1001
ACAD
1000
DSTYLE
1002
{
1070
   287
1070
     3
1070
   287
1070
     3
1070
   287
1070
     3
1070
    40
1040
40.0
1070
   143
1040
0.039
1070
   172
1070
     1
1070
   271
1070
     0
1070
   279
1070
     0
1070
   288
1070
     1
1002
}
  0
DIMENSION
  5
7E84
  8
3
  2
*D18
 10
1484.5765630000001
 20
2814.1097410000002
 30
0.0
 11
1161.7194201428561
 21
2969.0383124285722
 31
0.0
 70
     0
  1
(<>)
 13
2336.3683919999999
 23
2929.1097410000002
 33
0.0
 14
2336.3683919999999
 24
2814.1097410000002
 34
0.0
 50
90.0
1001
ACAD
1000
DSTYLE
1002
{
1070
   287
1070
     4
1070
   287
1070
     4
1070
   287
1070
     4
1070
     7
1000
NONE
1070
     6
1000
NONE
1070
    40
1040
40.0
1070
   143
1040
0.039
1070
   172
1070
     1
1070
   271
1070
     0
1070
   279
1070
     1
1070
   288
1070
     1
1002
}
  0
DIMENSION
  5
7E96
  8
3
  2
*D19
 10
1484.5765630000001
 20
2739.1097410000002
 30
0.0
 11
1502.235676263371
 21
2542.1606016025689
 31
0.0
 70
   128
  1
<>
 13
2336.3683919999999
 23
2814.1097410000002
 33
0.0
 14
2336.3683919999999
 24
2739.1097410000002
 34
0.0
 50
90.0
1001
ACAD
1000
DSTYLE
1002
{
1070
   287
1070
     4
1070
   287
1070
     4
1070
   287
1070
     4
1070
     6
1000
DOTSMALL
1070
     7
1000
OPEN30
1070
    40
1040
40.0
1070
   143
1040
0.039
1070
   172
1070
     1
1070
   271
1070
     0
1070
   279
1070
     1
1070
   288
1070
     1
1002
}
  0
ENDSEC
  0
EOF
