  0
SECTION
  2
HEADER
  9
$ACADVER
  1
AC1009
  9
$INSBASE
 10
0.0
 20
0.0
 30
0.0
  9
$EXTMIN
 10
1000.0
 20
1200.0
 30
0.0
  9
$EXTMAX
 10
7400.0
 20
11146.609046
 30
0.0
  9
$LIMMIN
 10
0.0
 20
0.0
  9
$LIMMAX
 10
297.0
 20
210.0
  9
$ORTHOMODE
 70
     0
  9
$REGENMODE
 70
     1
  9
$FILLMODE
 70
     0
  9
$QTEXTMODE
 70
     0
  9
$MIRRTEXT
 70
     1
  9
$DRAGMODE
 70
     2
  9
$LTSCALE
 40
100.0
  9
$OSMODE
 70
    37
  9
$ATTMODE
 70
     1
  9
$TEXTSIZE
 40
180.0
  9
$TRACEWID
 40
0.05
  9
$TEXTSTYLE
  7
STANDARD
  9
$CLAYER
  8
3
  9
$CELTYPE
  6
BYLAYER
  9
$CECOLOR
 62
   256
  9
$DIMSCALE
 40
40.0
  9
$DIMASZ
 40
2.0
  9
$DIMEXO
 40
0.5
  9
$DIMDLI
 40
10.0
  9
$DIMRND
 40
0.0
  9
$DIMDLE
 40
0.0
  9
$DIMEXE
 40
1.0
  9
$DIMTP
 40
1.0
  9
$DIMTM
 40
1.0
  9
$DIMTXT
 40
3.0
  9
$DIMCEN
 40
0.0
  9
$DIMTSZ
 40
0.0
  9
$DIMTOL
 70
     0
  9
$DIMLIM
 70
     0
  9
$DIMTIH
 70
     0
  9
$DIMTOH
 70
     0
  9
$DIMSE1
 70
     0
  9
$DIMSE2
 70
     0
  9
$DIMTAD
 70
     1
  9
$DIMZIN
 70
     8
  9
$DIMBLK
  1

  9
$DIMASO
 70
     1
  9
$DIMSHO
 70
     1
  9
$DIMPOST
  1

  9
$DIMAPOST
  1

  9
$DIMALT
 70
     0
  9
$DIMALTD
 70
     2
  9
$DIMALTF
 40
0.039
  9
$DIMLFAC
 40
1.0
  9
$DIMTOFL
 70
     1
  9
$DIMTVP
 40
0.0
  9
$DIMTIX
 70
     0
  9
$DIMSOXD
 70
     0
  9
$DIMSAH
 70
     1
  9
$DIMBLK1
  1
OPEN
  9
$DIMBLK2
  1
OPEN
  9
$DIMSTYLE
  2
IGA
  9
$DIMCLRD
 70
     0
  9
$DIMCLRE
 70
     0
  9
$DIMCLRT
 70
     0
  9
$DIMTFAC
 40
10.0
  9
$DIMGAP
 40
1.0
  9
$LUNITS
 70
     2
  9
$LUPREC
 70
     3
  9
$SKETCHINC
 40
0.1
  9
$FILLETRAD
 40
50.0
  9
$AUNITS
 70
     0
  9
$AUPREC
 70
     0
  9
$MENU
  1
acad
  9
$ELEVATION
 40
0.0
  9
$PELEVATION
 40
0.0
  9
$THICKNESS
 40
0.0
  9
$LIMCHECK
 70
     0
  9
$BLIPMODE
 70
     0
  9
$CHAMFERA
 40
0.5
  9
$CHAMFERB
 40
0.5
  9
$SKPOLY
 70
     0
  9
$TDCREATE
 40
2450757.557706018
  9
$TDUPDATE
 40
2454953.84520309
  9
$TDINDWG
 40
0.0229696528
  9
$TDUSRTIMER
 40
0.0229696528
  9
$USRTIMER
 70
     1
  9
$ANGBASE
 50
0.0
  9
$ANGDIR
 70
     0
  9
$PDMODE
 70
     0
  9
$PDSIZE
 40
0.0
  9
$PLINEWID
 40
0.0
  9
$COORDS
 70
     1
  9
$SPLFRAME
 70
     0
  9
$SPLINETYPE
 70
     6
  9
$SPLINESEGS
 70
     8
  9
$ATTDIA
 70
     0
  9
$ATTREQ
 70
     1
  9
$HANDLING
 70
 10241
  9
$HANDSEED
  5
7F34
  9
$SURFTAB1
 70
     6
  9
$SURFTAB2
 70
     6
  9
$SURFTYPE
 70
     6
  9
$SURFU
 70
     6
  9
$SURFV
 70
     6
  9
$UCSNAME
  2

  9
$UCSORG
 10
0.0
 20
0.0
 30
0.0
  9
$UCSXDIR
 10
1.0
 20
0.0
 30
0.0
  9
$UCSYDIR
 10
0.0
 20
1.0
 30
0.0
  9
$PUCSNAME
  2

  9
$PUCSORG
 10
0.0
 20
0.0
 30
0.0
  9
$PUCSXDIR
 10
1.0
 20
0.0
 30
0.0
  9
$PUCSYDIR
 10
0.0
 20
1.0
 30
0.0
  9
$USERI1
 70
     0
  9
$USERI2
 70
     0
  9
$USERI3
 70
     0
  9
$USERI4
 70
     0
  9
$USERI5
 70
     0
  9
$USERR1
 40
0.0
  9
$USERR2
 40
0.0
  9
$USERR3
 40
0.0
  9
$USERR4
 40
0.0
  9
$USERR5
 40
0.0
  9
$WORLDVIEW
 70
     1
  9
$SHADEDGE
 70
     3
  9
$SHADEDIF
 70
    70
  9
$TILEMODE
 70
     1
  9
$MAXACTVP
 70
    16
  9
$PLIMCHECK
 70
     0
  9
$PEXTMIN
 10
1.0000000000000000E+020
 20
1.0000000000000000E+020
 30
1.0000000000000000E+020
  9
$PEXTMAX
 10
-1.0000000000000000E+020
 20
-1.0000000000000000E+020
 30
-1.0000000000000000E+020
  9
$PLIMMIN
 10
0.0
 20
0.0
  9
$PLIMMAX
 10
12.0
 20
9.0
  9
$UNITMODE
 70
     0
  9
$VISRETAIN
 70
     0
  9
$PLINEGEN
 70
     0
  9
$PSLTSCALE
 70
     1
  0
ENDSEC
  0
SECTION
  2
TABLES
  0
TABLE
  2
VPORT
 70
     2
  0
VPORT
  2
*ACTIVE
 70
     0
 10
0.0
 20
0.0
 11
1.0
 21
1.0
 12
9637.3192545069433
 22
5871.2700344941286
 13
0.0
 23
0.0
 14
10.0
 24
10.0
 15
10.0
 25
10.0
 16
0.0
 26
0.0
 36
1.0
 17
0.0
 27
0.0
 37
0.0
 40
14046.829360524451
 41
1.5051150895140659
 42
50.0
 43
0.0
 44
0.0
 50
0.0
 51
0.0
 71
     0
 72
   100
 73
     1
 74
     0
 75
     0
 76
     0
 77
     0
 78
     0
  0
ENDTAB
  0
TABLE
  2
LTYPE
 70
     2
  0
LTYPE
  2
CONTINUOUS
 70
     0
  3
Solid line
 72
    65
 73
     0
 40
0.0
  0
LTYPE
  2
CENTER
 70
     0
  3
____ _ ____ _ ____ _ ____ _ ____ _ ____ _ ____ 
 72
    65
 73
     4
 40
2.0
 49
1.25
 49
-0.25
 49
0.25
 49
-0.25
  0
ENDTAB
  0
TABLE
  2
LAYER
 70
     6
  0
LAYER
  2
0
 70
     0
 62
     7
  6
CONTINUOUS
  0
LAYER
  2
3
 70
     0
 62
     2
  6
CONTINUOUS
  0
LAYER
  2
2
 70
     0
 62
     3
  6
CENTER
  0
LAYER
  2
1
 70
     0
 62
     4
  6
CONTINUOUS
  0
LAYER
  2
4
 70
     0
 62
     7
  6
CONTINUOUS
  0
LAYER
  2
DEFPOINTS
 70
     0
 62
     7
  6
CONTINUOUS
  0
ENDTAB
  0
TABLE
  2
STYLE
 70
     1
  0
STYLE
  2
STANDARD
 70
     0
 40
0.0
 41
1.0
 50
0.0
 71
     0
 42
180.0
  3
simplex.shx
  4
extfont.shx
  0
ENDTAB
  0
TABLE
  2
VIEW
 70
     0
  0
ENDTAB
  0
TABLE
  2
UCS
 70
     0
  0
ENDTAB
  0
TABLE
  2
APPID
 70
     1
  0
APPID
  2
ACAD
 70
     0
  0
ENDTAB
  0
TABLE
  2
DIMSTYLE
 70
     1
  0
DIMSTYLE
  2
IGA
 70
     0
  3

  4

  5

  6
OPEN
  7
OPEN
 40
2.0
 41
2.0
 42
0.5
 43
10.0
 44
1.0
 45
0.0
 46
0.0
 47
1.0
 48
1.0
140
3.0
141
0.0
142
0.0
143
0.03937
144
1.0
145
0.0
146
10.0
147
1.0
 71
     0
 72
     0
 73
     0
 74
     0
 75
     0
 76
     0
 77
     1
 78
     8
170
     0
171
     2
172
     0
173
     1
174
     0
175
     0
176
     0
177
     0
178
     0
  0
ENDTAB
  0
ENDSEC
  0
SECTION
  2
BLOCKS
  0
BLOCK
  8
0
  2
$MODEL_SPACE
 70
     0
 10
0.0
 20
0.0
 30
0.0
  3
$MODEL_SPACE
  1

  0
ENDBLK
  5
1B
  8
0
  0
BLOCK
 67
     1
  8
0
  2
$PAPER_SPACE
 70
     0
 10
0.0
 20
0.0
 30
0.0
  3
$PAPER_SPACE
  1

  0
ENDBLK
  5
18
 67
     1
  8
0
  0
BLOCK
  8
0
  2
_OPEN
 70
     0
 10
0.0
 20
0.0
 30
0.0
  3
_OPEN
  1

  0
LINE
  5
7B0B
  8
0
  6
BYBLOCK
 62
     0
 10
-1.0
 20
0.166667
 30
0.0
 11
0.0
 21
0.0
 31
0.0
  0
LINE
  5
7B0C
  8
0
  6
BYBLOCK
 62
     0
 10
0.0
 20
0.0
 30
0.0
 11
-1.0
 21
-0.166667
 31
0.0
  0
LINE
  5
7B0D
  8
0
  6
BYBLOCK
 62
     0
 10
0.0
 20
0.0
 30
0.0
 11
-1.0
 21
0.0
 31
0.0
  0
ENDBLK
  5
7B0E
  8
0
  0
BLOCK
  8
0
  2
*D1
 70
     1
 10
0.0
 20
0.0
 30
0.0
  3
*D1
  1

  0
LINE
  5
7E7D
  8
3
  6
CONTINUOUS
 62
     0
 10
3737.333952
 20
5226.5911350000006
 30
0.0
 11
4033.9561380000009
 21
5226.5911350000006
 31
0.0
  0
LINE
  5
7E7E
  8
3
  6
CONTINUOUS
 62
     0
 10
3737.333952
 20
3946.5911350000001
 30
0.0
 11
4033.9561380000009
 21
3946.5911350000001
 31
0.0
  0
LINE
  5
7E7F
  8
3
  6
CONTINUOUS
 62
     0
 10
3993.9561380000009
 20
5146.5911350000006
 30
0.0
 11
3993.9561380000009
 21
4026.5911350000001
 31
0.0
  0
INSERT
  5
7E80
  8
3
  6
CONTINUOUS
 62
     0
  2
_OPEN
 10
3993.9561380000009
 20
5226.5911350000006
 30
0.0
 41
80.0
 42
80.0
 43
80.0
 50
90.0
  0
INSERT
  5
7E81
  8
3
  6
CONTINUOUS
 62
     0
  2
_OPEN
 10
3993.9561380000009
 20
3946.5911350000001
 30
0.0
 41
80.0
 42
80.0
 43
80.0
 50
270.0
  0
TEXT
  8
3
  40
120
  5
7F21
  62
0
  72
0
  71
0
 10
3653.96
 20
4343.89
 30
0.000000
  1
1280
  0
POINT
  5
7E83
  8
DEFPOINTS
  6
CONTINUOUS
 62
     0
 10
3717.333952
 20
5226.5911350000006
 30
0.0
  0
POINT
  5
7E84
  8
DEFPOINTS
  6
CONTINUOUS
 62
     0
 10
3717.333952
 20
3946.5911350000001
 30
0.0
  0
POINT
  5
7E85
  8
DEFPOINTS
  6
CONTINUOUS
 62
     0
 10
3993.9561380000009
 20
3946.5911350000001
 30
0.0
  0
ENDBLK
  5
7B1B
  8
0
  0
BLOCK
  8
0
  2
*D2
 70
     1
 10
0.0
 20
0.0
 30
0.0
  3
*D2
  1

  0
LINE
  5
7E86
  8
3
  6
CONTINUOUS
 62
     0
 10
3737.333952
 20
5226.5911350000006
 30
0.0
 11
4286.5521730000009
 21
5226.5911350000006
 31
0.0
  0
LINE
  5
7E87
  8
3
  6
CONTINUOUS
 62
     0
 10
3889.7523890000002
 20
3892.5911349999992
 30
0.0
 11
4286.5521730000009
 21
3892.5911349999992
 31
0.0
  0
LINE
  5
7E88
  8
3
  6
CONTINUOUS
 62
     0
 10
4246.5521730000009
 20
5146.5911350000006
 30
0.0
 11
4246.5521730000009
 21
3972.5911350000001
 31
0.0
  0
INSERT
  5
7E89
  8
3
  6
CONTINUOUS
 62
     0
  2
_OPEN
 10
4246.5521730000009
 20
5226.5911350000006
 30
0.0
 41
80.0
 42
80.0
 43
80.0
 50
90.0
  0
INSERT
  5
7E8A
  8
3
  6
CONTINUOUS
 62
     0
  2
_OPEN
 10
4246.5521730000009
 20
3892.5911349999992
 30
0.0
 41
80.0
 42
80.0
 43
80.0
 50
270.0
  0
TEXT
  8
3
  40
120
  5
7F22
  62
0
  72
0
  71
0
 10
3906.55
 20
4351.10
 30
0.000000
  1
1334
  0
POINT
  5
7E8C
  8
DEFPOINTS
  6
CONTINUOUS
 62
     0
 10
3717.333952
 20
5226.5911350000006
 30
0.0
  0
POINT
  5
7E8D
  8
DEFPOINTS
  6
CONTINUOUS
 62
     0
 10
3869.7523890000002
 20
3892.5911349999992
 30
0.0
  0
POINT
  5
7E8E
  8
DEFPOINTS
  6
CONTINUOUS
 62
     0
 10
4246.5521730000009
 20
3892.5911349999992
 30
0.0
  0
ENDBLK
  5
7B28
  8
0
  0
BLOCK
  8
0
  2
*D3
 70
     1
 10
0.0
 20
0.0
 30
0.0
  3
*D3
  1

  0
LINE
  5
7E8F
  8
3
  6
CONTINUOUS
 62
     0
 10
3662.333952
 20
2967.5911350000001
 30
0.0
 11
4286.552173
 21
2967.5911350000001
 31
0.0
  0
LINE
  5
7E90
  8
3
  6
CONTINUOUS
 62
     0
 10
4246.552173
 20
3812.5911350000001
 30
0.0
 11
4246.552173
 21
3047.5911350000001
 31
0.0
  0
INSERT
  5
7E91
  8
3
  6
CONTINUOUS
 62
     0
  2
_OPEN
 10
4246.552173
 20
3892.5911349999992
 30
0.0
 41
80.0
 42
80.0
 43
80.0
 50
90.0
  0
INSERT
  5
7E92
  8
3
  6
CONTINUOUS
 62
     0
  2
_OPEN
 10
4246.552173
 20
2967.5911350000001
 30
0.0
 41
80.0
 42
80.0
 43
80.0
 50
270.0
  0
TEXT
  8
3
  40
120
  5
7F23
  62
0
  72
0
  71
0
 10
3906.55
 20
3217.69
 30
0.000000
  1
925
  0
POINT
  5
7E94
  8
DEFPOINTS
  6
CONTINUOUS
 62
     0
 10
3869.7523890000002
 20
3892.5911349999992
 30
0.0
  0
POINT
  5
7E95
  8
DEFPOINTS
  6
CONTINUOUS
 62
     0
 10
3642.333952
 20
2967.5911350000001
 30
0.0
  0
POINT
  5
7E96
  8
DEFPOINTS
  6
CONTINUOUS
 62
     0
 10
4246.552173
 20
2967.5911350000001
 30
0.0
  0
ENDBLK
  5
7B5D
  8
0
  0
BLOCK
  8
0
  2
*D4
 70
     1
 10
0.0
 20
0.0
 30
0.0
  3
*D4
  1

  0
LINE
  5
7E97
  8
3
  6
CONTINUOUS
 62
     0
 10
3737.333952
 20
5282.5911349999997
 30
0.0
 11
4656.2170736012649
 21
5282.5911349999997
 31
0.0
  0
LINE
  5
7E98
  8
3
  6
CONTINUOUS
 62
     0
 10
3662.333952
 20
2777.5911350000001
 30
0.0
 11
4656.2170736012649
 21
2777.5911350000001
 31
0.0
  0
LINE
  5
7E99
  8
3
  6
CONTINUOUS
 62
     0
 10
4616.2170736012649
 20
5202.5911350000006
 30
0.0
 11
4616.2170736012649
 21
2857.5911350000001
 31
0.0
  0
INSERT
  5
7E9A
  8
3
  6
CONTINUOUS
 62
     0
  2
_OPEN
 10
4616.2170736012649
 20
5282.5911349999997
 30
0.0
 41
80.0
 42
80.0
 43
80.0
 50
90.0
  0
INSERT
  5
7E9B
  8
3
  6
CONTINUOUS
 62
     0
  2
_OPEN
 10
4616.2170736012649
 20
2777.5911350000001
 30
0.0
 41
80.0
 42
80.0
 43
80.0
 50
270.0
  0
TEXT
  8
3
  40
120
  5
7F24
  62
0
  72
0
  71
0
 10
4276.22
 20
3839.00
 30
0.000000
  1
2505
  0
POINT
  5
7E9D
  8
DEFPOINTS
  6
CONTINUOUS
 62
     0
 10
3717.333952
 20
5282.5911349999997
 30
0.0
  0
POINT
  5
7E9E
  8
DEFPOINTS
  6
CONTINUOUS
 62
     0
 10
3642.333952
 20
2777.5911350000001
 30
0.0
  0
POINT
  5
7E9F
  8
DEFPOINTS
  6
CONTINUOUS
 62
     0
 10
4616.2170736012649
 20
2777.5911350000001
 30
0.0
  0
ENDBLK
  5
7D40
  8
0
  0
BLOCK
  8
0
  2
*D5
 70
     1
 10
0.0
 20
0.0
 30
0.0
  3
*D5
  1

  0
LINE
  5
7EA0
  8
3
  6
CONTINUOUS
 62
     0
 10
1092.333951999999
 20
2757.5911350000001
 30
0.0
 11
1092.333951999999
 21
2444.0077240000001
 31
0.0
  0
LINE
  5
7EA1
  8
3
  6
CONTINUOUS
 62
     0
 10
2892.333951999999
 20
2628.5836279999999
 30
0.0
 11
2892.333951999999
 21
2444.0077240000001
 31
0.0
  0
LINE
  5
7EA2
  8
3
  6
CONTINUOUS
 62
     0
 10
1172.333952
 20
2484.0077240000001
 30
0.0
 11
2812.333952
 21
2484.0077240000001
 31
0.0
  0
INSERT
  5
7EA3
  8
3
  6
CONTINUOUS
 62
     0
  2
_OPEN
 10
1092.333951999999
 20
2484.0077240000001
 30
0.0
 41
80.0
 42
80.0
 43
80.0
 50
180.0
  0
INSERT
  5
7EA4
  8
3
  6
CONTINUOUS
 62
     0
  2
_OPEN
 10
2892.333951999999
 20
2484.0077240000001
 30
0.0
 41
80.0
 42
80.0
 43
80.0
  0
TEXT
  8
3
  40
120
  5
7F25
  62
0
  72
0
  71
0
 10
1812.58
 20
2371.61
 30
0.000000
  1
1800
  0
POINT
  5
7EA6
  8
DEFPOINTS
  6
CONTINUOUS
 62
     0
 10
1092.333951999999
 20
2777.5911350000001
 30
0.0
  0
POINT
  5
7EA7
  8
DEFPOINTS
  6
CONTINUOUS
 62
     0
 10
2892.333951999999
 20
2648.5836279999999
 30
0.0
  0
POINT
  5
7EA8
  8
DEFPOINTS
  6
CONTINUOUS
 62
     0
 10
2892.333951999999
 20
2484.0077240000001
 30
0.0
  0
ENDBLK
  5
7C91
  8
0
  0
BLOCK
  8
0
  2
*D6
 70
     1
 10
0.0
 20
0.0
 30
0.0
  3
*D6
  1

  0
LINE
  5
7EA9
  8
3
  6
CONTINUOUS
 62
     0
 10
3642.333952
 20
2757.5911350000001
 30
0.0
 11
3642.333952
 21
2444.0077240000001
 31
0.0
  0
LINE
  5
7EAA
  8
3
  6
CONTINUOUS
 62
     0
 10
2972.333951999999
 20
2484.0077240000001
 30
0.0
 11
3562.333952
 21
2484.0077240000001
 31
0.0
  0
INSERT
  5
7EAB
  8
3
  6
CONTINUOUS
 62
     0
  2
_OPEN
 10
2892.333951999999
 20
2484.0077240000001
 30
0.0
 41
80.0
 42
80.0
 43
80.0
 50
180.0
  0
INSERT
  5
7EAC
  8
3
  6
CONTINUOUS
 62
     0
  2
_OPEN
 10
3642.333952
 20
2484.0077240000001
 30
0.0
 41
80.0
 42
80.0
 43
80.0
  0
TEXT
  8
3
  40
120
  5
7F26
  62
0
  72
0
  71
0
 10
3027.33
 20
2371.61
 30
0.000000
  1
750
  0
POINT
  5
7EAE
  8
DEFPOINTS
  6
CONTINUOUS
 62
     0
 10
2892.333951999999
 20
2648.5836279999999
 30
0.0
  0
POINT
  5
7EAF
  8
DEFPOINTS
  6
CONTINUOUS
 62
     0
 10
3642.333952
 20
2777.5911350000001
 30
0.0
  0
POINT
  5
7EB0
  8
DEFPOINTS
  6
CONTINUOUS
 62
     0
 10
3642.333952
 20
2484.0077240000001
 30
0.0
  0
ENDBLK
  5
7B93
  8
0
  0
BLOCK
  8
0
  2
*D7
 70
     1
 10
0.0
 20
0.0
 30
0.0
  3
*D7
  1

  0
LINE
  5
7EB1
  8
3
  6
CONTINUOUS
 62
     0
 10
3717.333952
 20
5302.5911350000006
 30
0.0
 11
3717.333952
 21
5519.5117929999988
 31
0.0
  0
LINE
  5
7EB2
  8
3
  6
CONTINUOUS
 62
     0
 10
2892.333951999999
 20
5398.1031949999997
 30
0.0
 11
2892.333951999999
 21
5519.5117929999988
 31
0.0
  0
LINE
  5
7EB3
  8
3
  6
CONTINUOUS
 62
     0
 10
3637.333952
 20
5479.5117929999997
 30
0.0
 11
2972.333951999999
 21
5479.5117929999997
 31
0.0
  0
INSERT
  5
7EB4
  8
3
  6
CONTINUOUS
 62
     0
  2
_OPEN
 10
3717.333952
 20
5479.5117929999997
 30
0.0
 41
80.0
 42
80.0
 43
80.0
  0
INSERT
  5
7EB5
  8
3
  6
CONTINUOUS
 62
     0
  2
_OPEN
 10
2892.333951999999
 20
5479.5117929999997
 30
0.0
 41
80.0
 42
80.0
 43
80.0
 50
180.0
  0
TEXT
  8
3
  40
120
  5
7F27
  62
0
  72
0
  71
0
 10
3082.77
 20
5367.11
 30
0.000000
  1
825
  0
POINT
  5
7EB7
  8
DEFPOINTS
  6
CONTINUOUS
 62
     0
 10
3717.333952
 20
5282.5911349999997
 30
0.0
  0
POINT
  5
7EB8
  8
DEFPOINTS
  6
CONTINUOUS
 62
     0
 10
2892.333951999999
 20
5378.1031950000006
 30
0.0
  0
POINT
  5
7EB9
  8
DEFPOINTS
  6
CONTINUOUS
 62
     0
 10
2892.333951999999
 20
5479.5117929999997
 30
0.0
  0
ENDBLK
  5
7BA0
  8
0
  0
BLOCK
  8
0
  2
*D8
 70
     1
 10
0.0
 20
0.0
 30
0.0
  3
*D8
  1

  0
LINE
  5
7EBA
  8
3
  6
CONTINUOUS
 62
     0
 10
5532.7090939999998
 20
5246.5911349999997
 30
0.0
 11
5532.7090939999998
 21
5425.7467130000014
 31
0.0
  0
LINE
  5
7EBB
  8
3
  6
CONTINUOUS
 62
     0
 10
6482.7090939999998
 20
5246.5911349999997
 30
0.0
 11
6482.7090939999998
 21
5425.7467130000014
 31
0.0
  0
LINE
  5
7EBC
  8
3
  6
CONTINUOUS
 62
     0
 10
5612.7090939999998
 20
5385.7467130000005
 30
0.0
 11
6402.7090939999989
 21
5385.7467130000005
 31
0.0
  0
INSERT
  5
7EBD
  8
3
  6
CONTINUOUS
 62
     0
  2
_OPEN
 10
5532.7090939999998
 20
5385.7467130000005
 30
0.0
 41
80.0
 42
80.0
 43
80.0
 50
180.0
  0
INSERT
  5
7EBE
  8
3
  6
CONTINUOUS
 62
     0
  2
_OPEN
 10
6482.7090939999998
 20
5385.7467130000005
 30
0.0
 41
80.0
 42
80.0
 43
80.0
  0
TEXT
  8
3
  40
120
  5
7F28
  62
0
  72
0
  71
0
 10
5764.74
 20
5273.35
 30
0.000000
  1
950
  0
POINT
  5
7EC0
  8
DEFPOINTS
  6
CONTINUOUS
 62
     0
 10
5532.7090939999998
 20
5226.5911350000006
 30
0.0
  0
POINT
  5
7EC1
  8
DEFPOINTS
  6
CONTINUOUS
 62
     0
 10
6482.7090939999998
 20
5226.5911350000006
 30
0.0
  0
POINT
  5
7EC2
  8
DEFPOINTS
  6
CONTINUOUS
 62
     0
 10
6482.7090939999998
 20
5385.7467130000005
 30
0.0
  0
ENDBLK
  5
7BB9
  8
0
  0
BLOCK
  8
0
  2
*D9
 70
     1
 10
0.0
 20
0.0
 30
0.0
  3
*D9
  1

  0
LINE
  5
7EC3
  8
3
  6
CONTINUOUS
 62
     0
 10
6605.7090939999989
 20
4517.5911349999997
 30
0.0
 11
6917.9957260000001
 21
4517.5911349999997
 31
0.0
  0
LINE
  5
7EC4
  8
3
  6
CONTINUOUS
 62
     0
 10
6605.7090939999989
 20
3267.5911349999992
 30
0.0
 11
6917.9957260000001
 21
3267.5911349999992
 31
0.0
  0
LINE
  5
7EC5
  8
3
  6
CONTINUOUS
 62
     0
 10
6877.995726000001
 20
4437.5911349999997
 30
0.0
 11
6877.995726000001
 21
3347.5911350000001
 31
0.0
  0
INSERT
  5
7EC6
  8
3
  6
CONTINUOUS
 62
     0
  2
_OPEN
 10
6877.995726000001
 20
4517.5911349999997
 30
0.0
 41
80.0
 42
80.0
 43
80.0
 50
90.0
  0
INSERT
  5
7EC7
  8
3
  6
CONTINUOUS
 62
     0
  2
_OPEN
 10
6877.995726000001
 20
3267.5911349999992
 30
0.0
 41
80.0
 42
80.0
 43
80.0
 50
270.0
  0
TEXT
  8
3
  40
120
  5
7F29
  62
0
  72
0
  71
0
 10
6538.00
 20
3687.53
 30
0.000000
  1
φ1250
  0
POINT
  5
7EC9
  8
DEFPOINTS
  6
CONTINUOUS
 62
     0
 10
6585.7090940000007
 20
4517.5911349999997
 30
0.0
  0
POINT
  5
7ECA
  8
DEFPOINTS
  6
CONTINUOUS
 62
     0
 10
6585.7090940000007
 20
3267.5911349999992
 30
0.0
  0
POINT
  5
7ECB
  8
DEFPOINTS
  6
CONTINUOUS
 62
     0
 10
6877.995726000001
 20
3267.5911349999992
 30
0.0
  0
ENDBLK
  5
7CA2
  8
0
  0
BLOCK
  8
0
  2
*D10
 70
     1
 10
0.0
 20
0.0
 30
0.0
  3
*D10
  1

  0
LINE
  5
7ECC
  8
3
  6
CONTINUOUS
 62
     0
 10
6585.7090940000007
 20
4587.5911350000006
 30
0.0
 11
6585.7090940000007
 21
5685.4038020000007
 31
0.0
  0
LINE
  5
7ECD
  8
3
  6
CONTINUOUS
 62
     0
 10
6007.7090939999989
 20
5590.9595730000001
 30
0.0
 11
6007.7090939999989
 21
5685.4038020000007
 31
0.0
  0
LINE
  5
7ECE
  8
3
  6
CONTINUOUS
 62
     0
 10
6665.7090939999998
 20
5645.4038019999998
 30
0.0
 11
6745.7090939999998
 21
5645.4038019999998
 31
0.0
  0
LINE
  5
7ECF
  8
3
  6
CONTINUOUS
 62
     0
 10
5927.7090939999998
 20
5645.4038019999998
 30
0.0
 11
5847.7090939999989
 21
5645.4038019999998
 31
0.0
  0
LINE
  5
7ED0
  8
3
  6
CONTINUOUS
 62
     0
 10
6585.7090940000007
 20
5645.4038019999998
 30
0.0
 11
6007.7090939999989
 21
5645.4038019999998
 31
0.0
  0
INSERT
  5
7ED1
  8
3
  6
CONTINUOUS
 62
     0
  2
_OPEN
 10
6585.7090940000007
 20
5645.4038019999998
 30
0.0
 41
80.0
 42
80.0
 43
80.0
 50
180.0
  0
INSERT
  5
7ED2
  8
3
  6
CONTINUOUS
 62
     0
  2
_OPEN
 10
6007.7090939999989
 20
5645.4038019999998
 30
0.0
 41
80.0
 42
80.0
 43
80.0
  0
TEXT
  8
3
  40
120
  5
7F2A
  62
0
  72
0
  71
0
 10
6041.99
 20
5533.00
 30
0.000000
  1
578
  0
POINT
  5
7ED4
  8
DEFPOINTS
  6
CONTINUOUS
 62
     0
 10
6585.7090940000007
 20
4567.5911349999997
 30
0.0
  0
POINT
  5
7ED5
  8
DEFPOINTS
  6
CONTINUOUS
 62
     0
 10
6007.7090939999989
 20
5570.9595730000001
 30
0.0
  0
POINT
  5
7ED6
  8
DEFPOINTS
  6
CONTINUOUS
 62
     0
 10
6007.7090939999989
 20
5645.4038019999998
 30
0.0
  0
ENDBLK
  5
7C0E
  8
0
  0
BLOCK
  8
0
  2
*D11
 70
     1
 10
0.0
 20
0.0
 30
0.0
  3
*D11
  1

  0
LINE
  5
7ED7
  8
3
  6
CONTINUOUS
 62
     0
 10
5167.7090939999998
 20
4290.5911349999997
 30
0.0
 11
5167.7090939999998
 21
5685.4038020000007
 31
0.0
  0
LINE
  5
7ED8
  8
3
  6
CONTINUOUS
 62
     0
 10
5927.7090939999998
 20
5645.4038019999998
 30
0.0
 11
5247.7090939999998
 21
5645.4038019999998
 31
0.0
  0
INSERT
  5
7ED9
  8
3
  6
CONTINUOUS
 62
     0
  2
_OPEN
 10
6007.7090939999989
 20
5645.4038019999998
 30
0.0
 41
80.0
 42
80.0
 43
80.0
  0
INSERT
  5
7EDA
  8
3
  6
CONTINUOUS
 62
     0
  2
_OPEN
 10
5167.7090939999998
 20
5645.4038019999998
 30
0.0
 41
80.0
 42
80.0
 43
80.0
 50
180.0
  0
TEXT
  8
3
  40
120
  5
7F2B
  62
0
  72
0
  71
0
 10
5347.71
 20
5633.00
 30
0.000000
  1
MAX
  0
TEXT
  8
3
  40
120
  5
7F2C
  62
0
  72
0
  71
0
 10
5347.71
 20
5477.00
 30
0.000000
  1
890
  0
POINT
  5
7EDC
  8
DEFPOINTS
  6
CONTINUOUS
 62
     0
 10
6007.7090939999989
 20
5570.9595730000001
 30
0.0
  0
POINT
  5
7EDD
  8
DEFPOINTS
  6
CONTINUOUS
 62
     0
 10
5167.7090939999998
 20
4270.5911349999997
 30
0.0
  0
POINT
  5
7EDE
  8
DEFPOINTS
  6
CONTINUOUS
 62
     0
 10
5167.7090939999998
 20
5645.4038019999998
 30
0.0
  0
ENDBLK
  5
7CB9
  8
0
  0
BLOCK
  8
0
  2
*D12
 70
     1
 10
0.0
 20
0.0
 30
0.0
  3
*D12
  1

  0
LINE
  5
7EDF
  8
3
  6
CONTINUOUS
 62
     0
 10
5280.7090939999998
 20
2757.5911350000001
 30
0.0
 11
5280.7090939999998
 21
2472.8585170000001
 31
0.0
  0
LINE
  5
7EE0
  8
3
  6
CONTINUOUS
 62
     0
 10
6007.7090939999989
 20
2569.2228030000001
 30
0.0
 11
6007.7090939999989
 21
2472.8585170000001
 31
0.0
  0
LINE
  5
7EE1
  8
3
  6
CONTINUOUS
 62
     0
 10
5360.7090939999998
 20
2512.8585170000001
 30
0.0
 11
5927.7090939999998
 21
2512.8585170000001
 31
0.0
  0
INSERT
  5
7EE2
  8
3
  6
CONTINUOUS
 62
     0
  2
_OPEN
 10
5280.7090939999998
 20
2512.8585170000001
 30
0.0
 41
80.0
 42
80.0
 43
80.0
 50
180.0
  0
INSERT
  5
7EE3
  8
3
  6
CONTINUOUS
 62
     0
  2
_OPEN
 10
6007.7090939999989
 20
2512.8585170000001
 30
0.0
 41
80.0
 42
80.0
 43
80.0
  0
TEXT
  8
3
  40
120
  5
7F2D
  62
0
  72
0
  71
0
 10
5411.10
 20
2400.46
 30
0.000000
  1
727
  0
POINT
  5
7EE5
  8
DEFPOINTS
  6
CONTINUOUS
 62
     0
 10
5280.7090939999998
 20
2777.5911350000001
 30
0.0
  0
POINT
  5
7EE6
  8
DEFPOINTS
  6
CONTINUOUS
 62
     0
 10
6007.7090939999989
 20
2589.2228030000001
 30
0.0
  0
POINT
  5
7EE7
  8
DEFPOINTS
  6
CONTINUOUS
 62
     0
 10
6007.7090939999989
 20
2512.8585170000001
 30
0.0
  0
ENDBLK
  5
7BEC
  8
0
  0
BLOCK
  8
0
  2
*D13
 70
     1
 10
0.0
 20
0.0
 30
0.0
  3
*D13
  1

  0
LINE
  5
7EE8
  8
3
  6
CONTINUOUS
 62
     0
 10
6560.7090939999998
 20
2757.5911350000001
 30
0.0
 11
6560.7090939999998
 21
2472.8585170000001
 31
0.0
  0
LINE
  5
7EE9
  8
3
  6
CONTINUOUS
 62
     0
 10
6087.7090939999998
 20
2512.8585170000001
 30
0.0
 11
6480.7090939999989
 21
2512.8585170000001
 31
0.0
  0
INSERT
  5
7EEA
  8
3
  6
CONTINUOUS
 62
     0
  2
_OPEN
 10
6007.7090939999989
 20
2512.8585170000001
 30
0.0
 41
80.0
 42
80.0
 43
80.0
 50
180.0
  0
INSERT
  5
7EEB
  8
3
  6
CONTINUOUS
 62
     0
  2
_OPEN
 10
6560.7090939999998
 20
2512.8585170000001
 30
0.0
 41
80.0
 42
80.0
 43
80.0
  0
TEXT
  8
3
  40
120
  5
7F2E
  62
0
  72
0
  71
0
 10
6044.21
 20
2400.46
 30
0.000000
  1
553
  0
POINT
  5
7EED
  8
DEFPOINTS
  6
CONTINUOUS
 62
     0
 10
6007.7090939999989
 20
2589.2228030000001
 30
0.0
  0
POINT
  5
7EEE
  8
DEFPOINTS
  6
CONTINUOUS
 62
     0
 10
6560.7090939999998
 20
2777.5911350000001
 30
0.0
  0
POINT
  5
7EEF
  8
DEFPOINTS
  6
CONTINUOUS
 62
     0
 10
6560.7090939999998
 20
2512.8585170000001
 30
0.0
  0
ENDBLK
  5
7BF8
  8
0
  0
BLOCK
  8
0
  2
*D14
 70
     1
 10
0.0
 20
0.0
 30
0.0
  3
*D14
  1

  0
LINE
  5
7EF0
  8
3
  6
CONTINUOUS
 62
     0
 10
1092.333951999999
 20
6944.1898075237186
 30
0.0
 11
1092.333951999999
 21
6496.2912375237202
 31
0.0
  0
LINE
  5
7EF1
  8
3
  6
CONTINUOUS
 62
     0
 10
3642.333952
 20
6944.1898075237186
 30
0.0
 11
3642.333952
 21
6496.2912375237202
 31
0.0
  0
LINE
  5
7EF2
  8
3
  6
CONTINUOUS
 62
     0
 10
1172.333952
 20
6536.2912375237202
 30
0.0
 11
3562.333952
 21
6536.2912375237202
 31
0.0
  0
INSERT
  5
7EF3
  8
3
  6
CONTINUOUS
 62
     0
  2
_OPEN
 10
1092.333951999999
 20
6536.2912375237202
 30
0.0
 41
80.0
 42
80.0
 43
80.0
 50
180.0
  0
INSERT
  5
7EF4
  8
3
  6
CONTINUOUS
 62
     0
  2
_OPEN
 10
3642.333952
 20
6536.2912375237202
 30
0.0
 41
80.0
 42
80.0
 43
80.0
  0
TEXT
  8
3
  40
120
  5
7F2F
  62
0
  72
0
  71
0
 10
2086.82
 20
6423.89
 30
0.000000
  1
2550
  0
POINT
  5
7EF6
  8
DEFPOINTS
  6
CONTINUOUS
 62
     0
 10
1092.333951999999
 20
6964.1898075237204
 30
0.0
  0
POINT
  5
7EF7
  8
DEFPOINTS
  6
CONTINUOUS
 62
     0
 10
3642.333952
 20
6964.1898075237204
 30
0.0
  0
POINT
  5
7EF8
  8
DEFPOINTS
  6
CONTINUOUS
 62
     0
 10
3642.333952
 20
6536.2912375237202
 30
0.0
  0
ENDBLK
  5
7C86
  8
0
  0
BLOCK
  8
0
  2
*D15
 70
     1
 10
0.0
 20
0.0
 30
0.0
  3
*D15
  1

  0
LINE
  5
7EF9
  8
3
  6
CONTINUOUS
 62
     0
 10
3662.333952
 20
8244.1898075237186
 30
0.0
 11
4055.6072500000009
 21
8244.1898075237186
 31
0.0
  0
LINE
  5
7EFA
  8
3
  6
CONTINUOUS
 62
     0
 10
3662.333952
 20
6964.1898075237204
 30
0.0
 11
4055.6072500000009
 21
6964.1898075237204
 31
0.0
  0
LINE
  5
7EFB
  8
3
  6
CONTINUOUS
 62
     0
 10
4015.6072500000009
 20
8164.1898075237168
 30
0.0
 11
4015.6072500000009
 21
7044.1898075237186
 31
0.0
  0
INSERT
  5
7EFC
  8
3
  6
CONTINUOUS
 62
     0
  2
_OPEN
 10
4015.6072500000009
 20
8244.1898075237186
 30
0.0
 41
80.0
 42
80.0
 43
80.0
 50
90.0
  0
INSERT
  5
7EFD
  8
3
  6
CONTINUOUS
 62
     0
  2
_OPEN
 10
4015.6072500000009
 20
6964.1898075237204
 30
0.0
 41
80.0
 42
80.0
 43
80.0
 50
270.0
  0
TEXT
  8
3
  40
120
  5
7F30
  62
0
  72
0
  71
0
 10
3675.61
 20
7391.37
 30
0.000000
  1
1280
  0
POINT
  5
7EFF
  8
DEFPOINTS
  6
CONTINUOUS
 62
     0
 10
3642.333952
 20
8244.1898075237186
 30
0.0
  0
POINT
  5
7F00
  8
DEFPOINTS
  6
CONTINUOUS
 62
     0
 10
3642.333952
 20
6964.1898075237204
 30
0.0
  0
POINT
  5
7F01
  8
DEFPOINTS
  6
CONTINUOUS
 62
     0
 10
4015.6072500000009
 20
6964.1898075237204
 30
0.0
  0
ENDBLK
  5
7C34
  8
0
  0
BLOCK
  8
0
  2
*D16
 70
     1
 10
0.0
 20
0.0
 30
0.0
  3
*D16
  1

  0
LINE
  5
7F02
  8
3
  6
CONTINUOUS
 62
     0
 10
1813.333951999999
 20
3912.5911350000001
 30
0.0
 11
1813.333951999999
 21
5519.5117929999988
 31
0.0
  0
LINE
  5
7F03
  8
3
  6
CONTINUOUS
 62
     0
 10
2812.333952
 20
5479.5117929999997
 30
0.0
 11
1893.333952
 21
5479.5117929999997
 31
0.0
  0
INSERT
  5
7F04
  8
3
  6
CONTINUOUS
 62
     0
  2
_OPEN
 10
2892.333951999999
 20
5479.5117929999997
 30
0.0
 41
80.0
 42
80.0
 43
80.0
  0
INSERT
  5
7F05
  8
3
  6
CONTINUOUS
 62
     0
  2
_OPEN
 10
1813.333951999999
 20
5479.5117929999997
 30
0.0
 41
80.0
 42
80.0
 43
80.0
 50
180.0
  0
TEXT
  8
3
  40
120
  5
7F31
  62
0
  72
0
  71
0
 10
2112.83
 20
5367.11
 30
0.000000
  1
1079
  0
POINT
  5
7F07
  8
DEFPOINTS
  6
CONTINUOUS
 62
     0
 10
2892.333951999999
 20
5378.1031950000006
 30
0.0
  0
POINT
  5
7F08
  8
DEFPOINTS
  6
CONTINUOUS
 62
     0
 10
1813.333951999999
 20
3892.5911349999992
 30
0.0
  0
POINT
  5
7F09
  8
DEFPOINTS
  6
CONTINUOUS
 62
     0
 10
1813.333951999999
 20
5479.5117929999997
 30
0.0
  0
ENDBLK
  5
7CC4
  8
0
  0
BLOCK
  8
0
  2
*D17
 70
     1
 10
0.0
 20
0.0
 30
0.0
  3
*D17
  1

  0
LINE
  5
7F0A
  8
3
 62
     0
 10
1092.333951999999
 20
3137.5911350000001
 30
0.0
 11
1092.333952
 21
5764.7716246851533
 31
0.0
  0
LINE
  5
7F0B
  8
3
 62
     0
 10
3717.333952
 20
5302.5911350000006
 30
0.0
 11
3717.333952
 21
5764.7716246851533
 31
0.0
  0
LINE
  5
7F0C
  8
3
 62
     0
 10
1172.333952
 20
5724.7716246851523
 30
0.0
 11
3637.333952
 21
5724.7716246851523
 31
0.0
  0
INSERT
  5
7F0D
  8
3
 62
     0
  2
_OPEN
 10
1092.333952
 20
5724.7716246851523
 30
0.0
 41
80.0
 42
80.0
 43
80.0
 50
180.0
  0
INSERT
  5
7F0E
  8
3
 62
     0
  2
_OPEN
 10
3717.333952
 20
5724.7716246851523
 30
0.0
 41
80.0
 42
80.0
 43
80.0
  0
TEXT
  8
3
  40
120
  5
7F32
  62
0
  72
0
  71
0
 10
2161.33
 20
5612.37
 30
0.000000
  1
2625
  0
POINT
  5
7F10
  8
DEFPOINTS
 62
     0
 10
1092.333951999999
 20
3117.5911350000001
 30
0.0
  0
POINT
  5
7F11
  8
DEFPOINTS
 62
     0
 10
3717.333952
 20
5282.5911349999997
 30
0.0
  0
POINT
  5
7F12
  8
DEFPOINTS
 62
     0
 10
3717.333952
 20
5724.7716246851523
 30
0.0
  0
ENDBLK
  5
7CD0
  8
0
  0
BLOCK
  8
0
  2
*D18
 70
     1
 10
0.0
 20
0.0
 30
0.0
  3
*D18
  1

  0
LINE
  5
7D6A
  8
0
  6
BYBLOCK
 62
     0
 10
3662.333952
 20
2852.5911350000001
 30
0.0
 11
4286.552173
 21
2852.5911350000001
 31
0.0
  0
LINE
  5
7D6B
  8
0
  6
BYBLOCK
 62
     0
 10
4246.552173
 20
3047.5911350000001
 30
0.0
 11
4246.552173
 21
3127.5911350000001
 31
0.0
  0
LINE
  5
7D6C
  8
0
  6
BYBLOCK
 62
     0
 10
4246.552173
 20
2772.5911350000001
 30
0.0
 11
4246.552173
 21
2692.5911350000001
 31
0.0
  0
TEXT
  5
7D6D
  8
3
 62
     0
 10
4477.9807444285707
 20
2810.3531343229279
 30
0.0
 40
120.0
  1
(115)
 50
90.0
  0
LINE
  5
7D6E
  8
0
  6
BYBLOCK
 62
     0
 10
4246.552173
 20
2967.5911350000001
 30
0.0
 11
4246.552173
 21
2852.5911350000001
 31
0.0
  0
INSERT
  5
7D6F
  8
0
  6
BYBLOCK
 62
     0
  2
_OPEN
 10
4246.552173
 20
2967.5911350000001
 30
0.0
 41
80.0
 42
80.0
 43
80.0
 50
270.0
  0
INSERT
  5
7D70
  8
0
  6
BYBLOCK
 62
     0
  2
_DOT
 10
4246.552173
 20
2852.5911350000001
 30
0.0
 41
80.0
 42
80.0
 43
80.0
 50
90.0
  0
POINT
  5
7D71
  8
DEFPOINTS
  6
BYBLOCK
 62
     0
 10
3642.333952
 20
2967.5911350000001
 30
0.0
  0
POINT
  5
7D72
  8
DEFPOINTS
  6
BYBLOCK
 62
     0
 10
3642.333952
 20
2852.5911350000001
 30
0.0
  0
POINT
  5
7D73
  8
DEFPOINTS
  6
BYBLOCK
 62
     0
 10
4246.552173
 20
2852.5911350000001
 30
0.0
  0
ENDBLK
  5
7D74
  8
0
  0
BLOCK
  8
0
  2
*D19
 70
     1
 10
0.0
 20
0.0
 30
0.0
  3
*D19
  1

  0
LINE
  5
7F13
  8
3
 62
     0
 10
3662.333952
 20
2852.5911350000001
 30
0.0
 11
4286.552173
 21
2852.5911350000001
 31
0.0
  0
LINE
  5
7F14
  8
3
 62
     0
 10
3662.333952
 20
2777.5911350000001
 30
0.0
 11
4286.552173
 21
2777.5911350000001
 31
0.0
  0
LINE
  5
7F15
  8
3
 62
     0
 10
4246.552173
 20
2932.5911350000001
 30
0.0
 11
4246.552173
 21
3012.5911350000001
 31
0.0
  0
LINE
  5
7F16
  8
3
 62
     0
 10
4246.552173
 20
2697.5911350000001
 30
0.0
 11
4246.552173
 21
2343.305420714285
 31
0.0
  0
LINE
  5
7F17
  8
3
 62
     0
 10
4246.552173
 20
2852.5911350000001
 30
0.0
 11
4246.552173
 21
2777.5911350000001
 31
0.0
  0
INSERT
  5
7F18
  8
3
 62
     0
  2
_DOT
 10
4246.552173
 20
2852.5911350000001
 30
0.0
 41
80.0
 42
80.0
 43
80.0
 50
270.0
  0
INSERT
  5
7F19
  8
3
 62
     0
  2
_OPEN
 10
4246.552173
 20
2777.5911350000001
 30
0.0
 41
80.0
 42
80.0
 43
80.0
 50
90.0
  0
TEXT
  8
3
  40
120
  5
7F33
  62
0
  72
0
  71
0
 10
3906.55
 20
2268.05
 30
0.000000
  1
75
  0
POINT
  5
7F1B
  8
DEFPOINTS
 62
     0
 10
3642.333952
 20
2852.5911350000001
 30
0.0
  0
POINT
  5
7F1C
  8
DEFPOINTS
 62
     0
 10
3642.333952
 20
2777.5911350000001
 30
0.0
  0
POINT
  5
7F1D
  8
DEFPOINTS
 62
     0
 10
4246.552173
 20
2777.5911350000001
 30
0.0
  0
ENDBLK
  5
7D81
  8
0
  0
BLOCK
  8
0
  2
_DOT
 70
     0
 10
0.0
 20
0.0
 30
0.0
  3
_DOT
  1

  0
POLYLINE
  5
7D63
  8
0
  6
BYBLOCK
 62
     0
 66
     1
 10
0.0
 20
0.0
 30
0.0
 70
     1
 40
0.5
 41
0.5
  0
VERTEX
  5
7F1E
  8
0
  6
BYBLOCK
 62
     0
 10
-0.25
 20
0.0
 30
0.0
 42
1.0
  0
VERTEX
  5
7F1F
  8
0
  6
BYBLOCK
 62
     0
 10
0.25
 20
0.0
 30
0.0
 42
1.0
  0
SEQEND
  5
7F20
  8
0
  6
BYBLOCK
 62
     0
  0
LINE
  5
7D67
  8
0
  6
BYBLOCK
 62
     0
 10
-0.5
 20
0.0
 30
0.0
 11
-1.0
 21
0.0
 31
0.0
  0
ENDBLK
  5
7D68
  8
0
  0
ENDSEC
  0
SECTION
  2
ENTITIES
  0
LINE
  5
7A74
  8
1
  6
CONTINUOUS
 10
3642.333952
 20
2852.5911350000001
 30
0.0
 11
1092.333951999999
 21
2852.5911350000001
 31
0.0
  0
LINE
  5
7A75
  8
1
  6
CONTINUOUS
 10
3642.333952
 20
2777.5911350000001
 30
0.0
 11
1092.333951999999
 21
2777.5911350000001
 31
0.0
  0
LINE
  5
7A76
  8
1
  6
CONTINUOUS
 10
2992.1339520000001
 20
3527.9911350000002
 30
0.0
 11
1575.4339520000001
 21
3140.3911349999998
 31
0.0
  0
LINE
  5
7A77
  8
1
  6
CONTINUOUS
 10
2965.733952
 20
3624.4911350000002
 30
0.0
 11
1549.033952
 21
3236.8911349999998
 31
0.0
  0
LINE
  5
7A78
  8
1
  6
CONTINUOUS
 10
2717.333952
 20
4227.5911349999997
 30
0.0
 11
1415.433951999999
 21
3547.5911350000001
 31
0.0
  0
LINE
  5
7A79
  8
1
  6
CONTINUOUS
 10
2763.6339520000001
 20
4138.9911350000002
 30
0.0
 11
1461.733952
 21
3458.9911350000002
 31
0.0
  0
LINE
  5
7A7A
  8
1
  6
CONTINUOUS
 10
3642.333952
 20
3117.5911350000001
 30
0.0
 11
1092.333951999999
 21
3117.5911350000001
 31
0.0
  0
LINE
  5
7A7B
  8
1
  6
CONTINUOUS
 10
3642.333952
 20
2967.5911350000001
 30
0.0
 11
1092.333951999999
 21
2967.5911350000001
 31
0.0
  0
POLYLINE
  5
7A7C
  8
1
  6
CONTINUOUS
 66
     1
 10
0.0
 20
0.0
 30
0.0
  0
VERTEX
  5
7E76
  8
1
  6
CONTINUOUS
 10
3717.333952
 20
5226.5911350000006
 30
0.0
  0
VERTEX
  5
7E77
  8
1
  6
CONTINUOUS
 10
2892.333951999999
 20
5153.5911349999997
 30
0.0
 42
0.4
  0
VERTEX
  5
7E78
  8
1
  6
CONTINUOUS
 10
1809.833951999999
 20
3983.5911350000001
 30
0.0
 42
0.4
  0
VERTEX
  5
7E79
  8
1
  6
CONTINUOUS
 10
2883.6339520000001
 20
2995.4911350000002
 30
0.0
 42
0.4
  0
VERTEX
  5
7E7A
  8
1
  6
CONTINUOUS
 10
3638.333952
 20
3815.5911350000001
 30
0.0
  0
VERTEX
  5
7E7B
  8
1
  6
CONTINUOUS
 10
3625.333952
 20
3946.5911350000001
 30
0.0
 42
0.4
  0
SEQEND
  5
7E7C
  8
1
  6
CONTINUOUS
  0
LINE
  5
7A84
  8
1
  6
CONTINUOUS
 10
1092.333951999999
 20
2852.5911350000001
 30
0.0
 11
1092.333951999999
 21
2777.5911350000001
 31
0.0
  0
LINE
  5
7A85
  8
1
  6
CONTINUOUS
 10
1092.333951999999
 20
3117.5911350000001
 30
0.0
 11
1092.333951999999
 21
2967.5911350000001
 31
0.0
  0
ARC
  5
7A86
  8
1
  6
CONTINUOUS
 10
1517.333951999999
 20
3352.5911350000001
 30
0.0
 40
220.0
 50
117.59999999999989
 51
285.30000000000001
  0
LINE
  5
7A87
  8
2
  6
CONTINUOUS
 10
1517.333951999999
 20
3232.5911349999992
 30
0.0
 11
1517.333951999999
 21
3472.5911350000001
 31
0.0
  0
CIRCLE
  5
7A88
  8
1
  6
CONTINUOUS
 10
1517.333951999999
 20
3352.5911350000001
 30
0.0
 40
120.0
  0
ARC
  5
7A89
  8
1
  6
CONTINUOUS
 10
1517.333951999999
 20
3352.5911350000001
 30
0.0
 40
199.0
 50
320.10000000000002
 51
219.90000000000001
  0
LINE
  5
7A8A
  8
2
  6
CONTINUOUS
 10
1397.333952
 20
3352.5911350000001
 30
0.0
 11
1637.333951999999
 21
3352.5911350000001
 31
0.0
  0
LINE
  5
7A8B
  8
1
  6
CONTINUOUS
 10
1742.333952
 20
3172.5911350000001
 30
0.0
 11
1292.333951999999
 21
3172.5911350000001
 31
0.0
  0
LINE
  5
7A8C
  8
1
  6
CONTINUOUS
 10
1292.333951999999
 20
3117.5911350000001
 30
0.0
 11
1292.333951999999
 21
3172.5911350000001
 31
0.0
  0
LINE
  5
7A8D
  8
1
  6
CONTINUOUS
 10
1355.333952
 20
3172.5911350000001
 30
0.0
 11
1355.333952
 21
3215.0911350000001
 31
0.0
  0
LINE
  5
7A8E
  8
1
  6
CONTINUOUS
 10
1355.333952
 20
3172.5911350000001
 30
0.0
 11
1415.333952
 21
3172.5911350000001
 31
0.0
  0
LINE
  5
7A8F
  8
1
  6
CONTINUOUS
 10
1355.333952
 20
3215.0911350000001
 30
0.0
 11
1364.6339519999999
 21
3224.9911350000002
 31
0.0
  0
LINE
  5
7A90
  8
1
  6
CONTINUOUS
 10
1742.333952
 20
3117.5911350000001
 30
0.0
 11
1742.333952
 21
3172.5911350000001
 31
0.0
  0
LINE
  5
7A91
  8
1
  6
CONTINUOUS
 10
1679.333952
 20
3172.5911350000001
 30
0.0
 11
1679.333952
 21
3215.0911350000001
 31
0.0
  0
LINE
  5
7A92
  8
1
  6
CONTINUOUS
 10
1679.333952
 20
3215.0911350000001
 30
0.0
 11
1670.0339519999991
 21
3224.9911350000002
 31
0.0
  0
ARC
  5
7A93
  8
1
  6
CONTINUOUS
 10
2892.333951999999
 20
3892.5911349999992
 30
0.0
 40
378.0
 50
285.30000000000001
 51
117.59999999999989
  0
LINE
  5
7A94
  8
2
  6
CENTER
 10
1589.792365
 20
3892.5911349999992
 30
0.0
 11
3869.7523890000002
 21
3892.5911349999992
 31
0.0
  0
CIRCLE
  5
7A95
  8
1
  6
CONTINUOUS
 10
2892.333951999999
 20
3892.5911349999992
 30
0.0
 40
278.0
  0
CIRCLE
  5
7A96
  8
1
  6
CONTINUOUS
 10
2892.333951999999
 20
3892.5911349999992
 30
0.0
 40
675.0
  0
CIRCLE
  5
7A97
  8
1
  6
CONTINUOUS
 10
2892.333951999999
 20
3892.5911349999992
 30
0.0
 40
625.0
  0
LINE
  5
7A98
  8
2
  6
CENTER
 10
2892.333951999999
 20
2648.5836279999999
 30
0.0
 11
2892.333951999999
 21
5378.1031950000006
 31
0.0
  0
LINE
  5
7A99
  8
1
  6
CONTINUOUS
 10
3667.333952
 20
3946.5911350000001
 30
0.0
 11
3667.333952
 21
5226.5911350000006
 31
0.0
  0
LINE
  5
7A9A
  8
1
  6
CONTINUOUS
 10
3717.333952
 20
3896.5911349999992
 30
0.0
 11
3717.333952
 21
5282.5911349999997
 31
0.0
  0
LINE
  5
7A9B
  8
1
  6
CONTINUOUS
 10
3625.333952
 20
3946.5911350000001
 30
0.0
 11
3717.333952
 21
3946.5911350000001
 31
0.0
  0
LINE
  5
7A9C
  8
1
  6
CONTINUOUS
 10
3642.333952
 20
2852.5911350000001
 30
0.0
 11
3642.333952
 21
2777.5911350000001
 31
0.0
  0
LINE
  5
7A9D
  8
1
  6
CONTINUOUS
 10
3642.333952
 20
3117.5911350000001
 30
0.0
 11
3642.333952
 21
2967.5911350000001
 31
0.0
  0
LINE
  5
7A9E
  8
1
  6
CONTINUOUS
 10
2267.333951999999
 20
8244.1898075237186
 30
0.0
 11
1092.333951999999
 21
8244.1898075237186
 31
0.0
  0
LINE
  5
7A9F
  8
1
  6
CONTINUOUS
 10
1637.333951999999
 20
6964.1898075237204
 30
0.0
 11
2614.333952
 21
6964.1898075237204
 31
0.0
  0
LINE
  5
7AA0
  8
1
  6
CONTINUOUS
 10
3270.333952
 20
7091.1898075237204
 30
0.0
 11
1197.333951999999
 21
7091.1898075237204
 31
0.0
  0
LINE
  5
7AA1
  8
1
  6
CONTINUOUS
 10
3270.333952
 20
6851.1898075237214
 30
0.0
 11
1197.333951999999
 21
6851.1898075237214
 31
0.0
  0
LINE
  5
7AA2
  8
1
  6
CONTINUOUS
 10
3717.333952
 20
7216.1898075237204
 30
0.0
 11
1809.833951999999
 21
7216.1898075237204
 31
0.0
  0
LINE
  5
7AA3
  8
1
  6
CONTINUOUS
 10
3717.333952
 20
8166.1898075237204
 30
0.0
 11
1809.833951999999
 21
8166.1898075237204
 31
0.0
  0
LINE
  5
7AA4
  8
1
  6
CONTINUOUS
 10
1809.833951999999
 20
7216.1898075237204
 30
0.0
 11
1809.833951999999
 21
8166.1898075237204
 31
0.0
  0
LINE
  5
7AA5
  8
1
  6
CONTINUOUS
 10
1092.333951999999
 20
8244.1898075237186
 30
0.0
 11
1092.333951999999
 21
6964.1898075237204
 31
0.0
  0
LINE
  5
7AA6
  8
1
  6
CONTINUOUS
 10
1092.333951999999
 20
6964.1898075237204
 30
0.0
 11
1397.333952
 21
6964.1898075237204
 31
0.0
  0
LINE
  5
7AA7
  8
1
  6
CONTINUOUS
 10
1197.333951999999
 20
6851.1898075237214
 30
0.0
 11
1197.333951999999
 21
7091.1898075237204
 31
0.0
  0
LINE
  5
7AA8
  8
1
  6
CONTINUOUS
 10
1489.833952
 20
7021.1898075237204
 30
0.0
 11
1489.833952
 21
7135.6898075237204
 31
0.0
  0
LINE
  5
7AA9
  8
1
  6
CONTINUOUS
 10
1544.833952
 20
7021.1898075237204
 30
0.0
 11
1544.833952
 21
7135.6898075237204
 31
0.0
  0
LINE
  5
7AAA
  8
1
  6
CONTINUOUS
 10
1397.333952
 20
6921.1898075237204
 30
0.0
 11
1637.333951999999
 21
6921.1898075237204
 31
0.0
  0
LINE
  5
7AAB
  8
1
  6
CONTINUOUS
 10
1397.333952
 20
7021.1898075237204
 30
0.0
 11
1637.333951999999
 21
7021.1898075237204
 31
0.0
  0
LINE
  5
7AAC
  8
1
  6
CONTINUOUS
 10
1397.333952
 20
6921.1898075237204
 30
0.0
 11
1397.333952
 21
7021.1898075237204
 31
0.0
  0
LINE
  5
7AAD
  8
1
  6
CONTINUOUS
 10
1637.333951999999
 20
6921.1898075237204
 30
0.0
 11
1637.333951999999
 21
7021.1898075237204
 31
0.0
  0
LINE
  5
7AAE
  8
1
  6
CONTINUOUS
 10
1318.233952
 20
7135.6898075237204
 30
0.0
 11
1716.4339520000001
 21
7135.6898075237204
 31
0.0
  0
LINE
  5
7AAF
  8
1
  6
CONTINUOUS
 10
1318.233952
 20
7735.1898075237204
 30
0.0
 11
1716.4339520000001
 21
7735.1898075237204
 31
0.0
  0
LINE
  5
7AB0
  8
1
  6
CONTINUOUS
 10
1318.233952
 20
7135.6898075237204
 30
0.0
 11
1318.233952
 21
7735.1898075237204
 31
0.0
  0
LINE
  5
7AB1
  8
1
  6
CONTINUOUS
 10
1716.4339520000001
 20
7135.6898075237204
 30
0.0
 11
1716.4339520000001
 21
7735.1898075237204
 31
0.0
  0
LINE
  5
7AB2
  8
1
  6
CONTINUOUS
 10
2614.333952
 20
6921.1898075237204
 30
0.0
 11
3170.333952
 21
6921.1898075237204
 31
0.0
  0
LINE
  5
7AB3
  8
1
  6
CONTINUOUS
 10
2614.333952
 20
7021.1898075237204
 30
0.0
 11
3170.333952
 21
7021.1898075237204
 31
0.0
  0
LINE
  5
7AB4
  8
1
  6
CONTINUOUS
 10
3567.333952
 20
8269.1898075237186
 30
0.0
 11
2217.333952
 21
8269.1898075237186
 31
0.0
  0
LINE
  5
7AB5
  8
1
  6
CONTINUOUS
 10
2919.833952
 20
7021.1898075237204
 30
0.0
 11
2919.833952
 21
7216.1898075237204
 31
0.0
  0
LINE
  5
7AB6
  8
1
  6
CONTINUOUS
 10
2864.833952
 20
7021.1898075237204
 30
0.0
 11
2864.833952
 21
7216.1898075237204
 31
0.0
  0
LINE
  5
7AB7
  8
1
  6
CONTINUOUS
 10
2614.333952
 20
6921.1898075237204
 30
0.0
 11
2614.333952
 21
7021.1898075237204
 31
0.0
  0
LINE
  5
7AB8
  8
1
  6
CONTINUOUS
 10
2267.333951999999
 20
8166.1898075237204
 30
0.0
 11
2267.333951999999
 21
8269.1898075237186
 31
0.0
  0
LINE
  5
7AB9
  8
1
  6
CONTINUOUS
 10
3717.333952
 20
7166.1898075237204
 30
0.0
 11
3717.333952
 21
8216.1898075237186
 31
0.0
  0
LINE
  5
7ABA
  8
1
  6
CONTINUOUS
 10
3667.333952
 20
7216.1898075237204
 30
0.0
 11
3667.333952
 21
8166.1898075237204
 31
0.0
  0
LINE
  5
7ABB
  8
1
  6
CONTINUOUS
 10
3642.333952
 20
6964.1898075237204
 30
0.0
 11
3642.333952
 21
7216.1898075237204
 31
0.0
  0
LINE
  5
7ABC
  8
1
  6
CONTINUOUS
 10
3170.333952
 20
6964.1898075237204
 30
0.0
 11
3642.333952
 21
6964.1898075237204
 31
0.0
  0
LINE
  5
7ABD
  8
1
  6
CONTINUOUS
 10
3270.333952
 20
6851.1898075237214
 30
0.0
 11
3270.333952
 21
7091.1898075237204
 31
0.0
  0
LINE
  5
7ABE
  8
1
  6
CONTINUOUS
 10
3170.333952
 20
6921.1898075237204
 30
0.0
 11
3170.333952
 21
7021.1898075237204
 31
0.0
  0
LINE
  5
7ABF
  8
1
  6
CONTINUOUS
 10
3642.333952
 20
8166.1898075237204
 30
0.0
 11
3642.333952
 21
8244.1898075237186
 31
0.0
  0
LINE
  5
7AC0
  8
1
  6
CONTINUOUS
 10
3517.333952
 20
8166.1898075237204
 30
0.0
 11
3517.333952
 21
8269.1898075237186
 31
0.0
  0
LINE
  5
7AC1
  8
1
  6
CONTINUOUS
 10
3642.333952
 20
8244.1898075237186
 30
0.0
 11
3517.333952
 21
8244.1898075237186
 31
0.0
  0
LINE
  5
7AC3
  8
1
  6
CONTINUOUS
 10
6560.7090939999998
 20
2852.5911350000001
 30
0.0
 11
5280.7090939999998
 21
2852.5911350000001
 31
0.0
  0
LINE
  5
7AC4
  8
1
  6
CONTINUOUS
 10
6560.7090939999998
 20
2777.5911350000001
 30
0.0
 11
5280.7090939999998
 21
2777.5911350000001
 31
0.0
  0
LINE
  5
7AC5
  8
1
  6
CONTINUOUS
 10
5532.7090939999998
 20
5226.5911350000006
 30
0.0
 11
6482.7090939999998
 21
3946.5911350000001
 31
0.0
  0
LINE
  5
7AC6
  8
1
  6
CONTINUOUS
 10
5532.7090939999998
 20
3946.5911350000001
 30
0.0
 11
6482.7090939999998
 21
5226.5911350000006
 31
0.0
  0
LINE
  5
7AC7
  8
1
  6
CONTINUOUS
 10
5532.7090939999998
 20
3946.5911350000001
 30
0.0
 11
6482.7090939999998
 21
3946.5911350000001
 31
0.0
  0
LINE
  5
7AC8
  8
1
  6
CONTINUOUS
 10
5532.7091360000004
 20
5226.5911350000006
 30
0.0
 11
6482.7091360000004
 21
5226.5911350000006
 31
0.0
  0
LINE
  5
7AC9
  8
1
  6
CONTINUOUS
 10
6560.7090939999998
 20
3117.5911350000001
 30
0.0
 11
5280.7090939999998
 21
3117.5911350000001
 31
0.0
  0
LINE
  5
7ACA
  8
1
  6
CONTINUOUS
 10
6560.7090939999998
 20
2967.5911350000001
 30
0.0
 11
5280.7090939999998
 21
2967.5911350000001
 31
0.0
  0
LINE
  5
7ACB
  8
1
  6
CONTINUOUS
 10
5407.7090939999998
 20
3132.5911350000001
 30
0.0
 11
5407.7090939999998
 21
4270.5911349999997
 31
0.0
  0
LINE
  5
7ACC
  8
1
  6
CONTINUOUS
 10
5167.7090939999998
 20
3132.5911350000001
 30
0.0
 11
5167.7090939999998
 21
4270.5911349999997
 31
0.0
  0
LINE
  5
7ACD
  8
1
  6
CONTINUOUS
 10
5532.7090939999998
 20
3117.5911350000001
 30
0.0
 11
5532.7090939999998
 21
5226.5911350000006
 31
0.0
  0
LINE
  5
7ACE
  8
1
  6
CONTINUOUS
 10
5337.7090939999998
 20
3380.0911350000001
 30
0.0
 11
5532.7090939999998
 21
3380.0911350000001
 31
0.0
  0
LINE
  5
7ACF
  8
1
  6
CONTINUOUS
 10
5337.7090939999998
 20
3325.0911350000001
 30
0.0
 11
5532.7090939999998
 21
3325.0911350000001
 31
0.0
  0
LINE
  5
7AD0
  8
1
  6
CONTINUOUS
 10
5337.7090939999998
 20
3865.0911350000001
 30
0.0
 11
5532.7090939999998
 21
3865.0911350000001
 31
0.0
  0
LINE
  5
7AD1
  8
1
  6
CONTINUOUS
 10
5337.7090939999998
 20
3920.0911350000001
 30
0.0
 11
5532.7090939999998
 21
3920.0911350000001
 31
0.0
  0
LINE
  5
7AD2
  8
1
  6
CONTINUOUS
 10
5237.7090939999998
 20
3232.5911349999992
 30
0.0
 11
5237.7090939999998
 21
3472.5911350000001
 31
0.0
  0
LINE
  5
7AD3
  8
1
  6
CONTINUOUS
 10
5337.7090939999998
 20
3232.5911349999992
 30
0.0
 11
5337.7090939999998
 21
3472.5911350000001
 31
0.0
  0
LINE
  5
7AD6
  8
1
  6
CONTINUOUS
 10
5280.7090939999998
 20
2777.5911350000001
 30
0.0
 11
5280.7090939999998
 21
2852.5911350000001
 31
0.0
  0
LINE
  5
7AD7
  8
1
  6
CONTINUOUS
 10
5167.7090939999998
 20
3132.5911350000001
 30
0.0
 11
5407.7090939999998
 21
3132.5911350000001
 31
0.0
  0
LINE
  5
7AD8
  8
1
  6
CONTINUOUS
 10
5237.7090939999998
 20
3232.5911349999992
 30
0.0
 11
5337.7090939999998
 21
3232.5911349999992
 31
0.0
  0
LINE
  5
7AD9
  8
1
  6
CONTINUOUS
 10
5280.7090939999998
 20
2967.5911350000001
 30
0.0
 11
5280.7090939999998
 21
3117.5911350000001
 31
0.0
  0
LINE
  5
7ADA
  8
1
  6
CONTINUOUS
 10
5337.7090939999998
 20
3614.5911349999992
 30
0.0
 11
5337.7090939999998
 21
4170.5911350000006
 31
0.0
  0
LINE
  5
7ADB
  8
1
  6
CONTINUOUS
 10
5237.7090939999998
 20
3614.5911349999992
 30
0.0
 11
5237.7090939999998
 21
4170.5911350000006
 31
0.0
  0
LINE
  5
7ADC
  8
1
  6
CONTINUOUS
 10
5237.7090939999998
 20
3614.5911349999992
 30
0.0
 11
5337.7090939999998
 21
3614.5911349999992
 31
0.0
  0
LINE
  5
7ADD
  8
1
  6
CONTINUOUS
 10
5237.7090939999998
 20
4170.5911350000006
 30
0.0
 11
5337.7090939999998
 21
4170.5911350000006
 31
0.0
  0
LINE
  5
7ADE
  8
1
  6
CONTINUOUS
 10
5237.7090939999998
 20
3472.5911350000001
 30
0.0
 11
5337.7090939999998
 21
3472.5911350000001
 31
0.0
  0
LINE
  5
7ADF
  8
1
  6
CONTINUOUS
 10
5167.7090939999998
 20
4270.5911349999997
 30
0.0
 11
5407.7090939999998
 21
4270.5911349999997
 31
0.0
  0
LINE
  5
7AE0
  8
1
  6
CONTINUOUS
 10
6585.7090940000007
 20
3217.5911350000001
 30
0.0
 11
6585.7090940000007
 21
4567.5911349999997
 31
0.0
  0
LINE
  5
7AE1
  8
1
  6
CONTINUOUS
 10
6482.7090939999998
 20
3117.5911350000001
 30
0.0
 11
6482.7090939999998
 21
5226.5911350000006
 31
0.0
  0
LINE
  5
7AE2
  8
1
  6
CONTINUOUS
 10
6560.7090939999998
 20
2777.5911350000001
 30
0.0
 11
6560.7090939999998
 21
2852.5911350000001
 31
0.0
  0
LINE
  5
7AE3
  8
1
  6
CONTINUOUS
 10
6482.7090939999998
 20
3267.5911349999992
 30
0.0
 11
6585.7090940000007
 21
3267.5911349999992
 31
0.0
  0
LINE
  5
7AE4
  8
1
  6
CONTINUOUS
 10
6560.7090939999998
 20
2967.5911350000001
 30
0.0
 11
6560.7090939999998
 21
3117.5911350000001
 31
0.0
  0
LINE
  5
7AE5
  8
1
  6
CONTINUOUS
 10
6482.7090939999998
 20
4517.5911349999997
 30
0.0
 11
6585.7090940000007
 21
4517.5911349999997
 31
0.0
  0
LINE
  5
7AE6
  8
2
  6
CENTER
 10
1084.392124
 20
7691.1898075237204
 30
0.0
 11
3763.011215
 21
7691.1898075237204
 31
0.0
  0
LINE
  5
7AE7
  8
2
  6
CENTER
 10
6007.7090939999989
 20
5400.1154859999997
 30
0.0
 11
6007.7090939999989
 21
2589.2228030000001
 31
0.0
  0
LINE
  5
7AE8
  8
2
  6
CENTER
 10
2892.333951999999
 20
6731.1408245237199
 30
0.0
 11
2892.333951999999
 21
8471.1558375237219
 31
0.0
  0
LINE
  5
7AE9
  8
2
  6
CENTER
 10
5040.0540810000002
 20
3892.5911349999992
 30
0.0
 11
6661.4848080000002
 21
3892.5911349999992
 31
0.0
  0
LINE
  5
7AEA
  8
4
  6
CONTINUOUS
 10
7400.0
 20
2000.0
 30
0.0
 11
7400.0
 21
1200.0
 31
0.0
  0
LINE
  5
7AEB
  8
4
  6
CONTINUOUS
 10
4600.0
 20
2000.0
 30
0.0
 11
4600.0
 21
1200.0
 31
0.0
  0
LINE
  5
7AEC
  8
4
  6
CONTINUOUS
 10
2600.0
 20
2000.0
 30
0.0
 11
2600.0
 21
1200.0
 31
0.0
  0
LINE
  5
7AEF
  8
4
  6
CONTINUOUS
 10
2600.0
 20
1200.0
 30
0.0
 11
7400.0
 21
1200.0
 31
0.0
  0
LINE
  5
7AF0
  8
4
  6
CONTINUOUS
 10
2600.0
 20
1600.0
 30
0.0
 11
7400.0
 21
1600.0
 31
0.0
  0
TEXT
  5
7AF1
  8
4
  6
CONTINUOUS
 10
2754.008323
 20
1726.1721030000001
 30
0.0
 40
200.0
  1
機器名称
  0
TEXT
  5
7AF2
  8
4
  6
CONTINUOUS
 10
2745.032424
 20
1286.580627
 30
0.0
 40
200.0
  1
機器型番
  0
TEXT
  5
7AF3
  8
4
  6
CONTINUOUS
 10
4710.7149820000004
 20
1690.2870760000001
 30
0.0
 40
200.0
  1
ミツヤ多翼送風機
  0
TEXT
  5
7AF4
  8
4
  6
CONTINUOUS
 10
4746.6179819999998
 20
1268.6383370000001
 30
0.0
 40
200.0
  1
MFE#8-4
  0
TEXT
  5
7AF6
  8
4
  6
CONTINUOUS
 10
3158.1332900000002
 20
9533.715365
 30
0.0
 40
216.0
  1
床置防振ベット
  0
TEXT
  5
7AF7
  8
4
  6
CONTINUOUS
 10
1264.6703729999999
 20
10135.523905
 30
0.0
 40
288.0
  1
ベルト駆動式片吸込両持排煙ファン
  0
LINE
  5
7AF8
  8
4
  6
CONTINUOUS
 10
1000.0
 20
9877.6350170000005
 30
0.0
 11
7400.0
 21
9877.6350170000005
 31
0.0
  0
LINE
  5
7AF9
  8
4
  6
CONTINUOUS
 10
1000.0
 20
10677.635017000001
 30
0.0
 11
7400.0
 21
10677.635017000001
 31
0.0
  0
LINE
  5
7AFA
  8
4
  6
CONTINUOUS
 10
2600.0
 20
2000.0
 30
0.0
 11
7400.0
 21
2000.0
 31
0.0
  0
LINE
  5
7AFB
  8
4
  6
CONTINUOUS
 10
1000.0
 20
10677.635017000001
 30
0.0
 11
1000.0
 21
9877.6350170000005
 31
0.0
  0
TEXT
  5
7AFC
  8
4
  6
CONTINUOUS
 10
1414.6979609999989
 20
9529.2779099999989
 30
0.0
 40
216.0
  1
右回転右横向
  0
TEXT
  5
7AFD
  8
4
  6
CONTINUOUS
 10
5875.8782369999999
 20
10824.244326
 30
0.0
 40
224.0
  1
No.
  0
TEXT
  5
7AFE
  8
4
  6
CONTINUOUS
 10
5245.1842500000012
 20
9533.715365
 30
0.0
 40
216.0
  1
縮尺：1/40
  0
LINE
  5
7AFF
  8
4
  6
CONTINUOUS
 10
7400.0
 20
10677.635017000001
 30
0.0
 11
7400.0
 21
9877.6350170000005
 31
0.0
  0
LINE
  5
7B01
  8
4
  6
CONTINUOUS
 10
5762.4696889999996
 20
10725.054333
 30
0.0
 11
5762.4696889999996
 21
11146.609046
 31
0.0
  0
LINE
  5
7B02
  8
4
  6
CONTINUOUS
 10
5762.4696889999996
 20
11146.609046
 30
0.0
 11
7400.0
 21
11146.609046
 31
0.0
  0
LINE
  5
7B03
  8
4
  6
CONTINUOUS
 10
7400.0
 20
11146.609046
 30
0.0
 11
7400.0
 21
10725.054333
 31
0.0
  0
LINE
  5
7B04
  8
4
  6
CONTINUOUS
 10
7400.0
 20
10725.054333
 30
0.0
 11
5762.4696889999996
 21
10725.054333
 31
0.0
  0
DIMENSION
  5
7B1C
  8
3
  6
CONTINUOUS
  2
*D1
 10
3993.9561380000009
 20
3946.5911350000001
 30
0.0
 11
3993.9561380000009
 21
4556.2866089999998
 31
0.0
 70
   128
 13
3717.333952
 23
5226.5911350000006
 33
0.0
 14
3717.333952
 24
3946.5911350000001
 34
0.0
 50
90.0
1001
ACAD
1000
DSTYLE
1002
{
1070
   287
1070
     3
1070
   287
1070
     3
1070
    40
1040
40.0
1070
   143
1040
0.039
1070
   172
1070
     1
1070
   271
1070
     0
1070
   279
1070
     0
1070
   288
1070
     1
1002
}
  0
DIMENSION
  5
7B29
  8
3
  6
CONTINUOUS
  2
*D2
 10
4246.5521730000009
 20
3892.5911349999992
 30
0.0
 11
4246.552173
 21
4563.4993069999991
 31
0.0
 70
   128
 13
3717.333952
 23
5226.5911350000006
 33
0.0
 14
3869.7523890000002
 24
3892.5911349999992
 34
0.0
 50
90.0
1001
ACAD
1000
DSTYLE
1002
{
1070
   287
1070
     3
1070
   287
1070
     3
1070
    40
1040
40.0
1070
   143
1040
0.039
1070
   172
1070
     1
1070
   271
1070
     0
1070
   279
1070
     0
1070
   288
1070
     1
1002
}
  0
DIMENSION
  5
7B5E
  8
3
  6
CONTINUOUS
  2
*D3
 10
4246.552173
 20
2967.5911350000001
 30
0.0
 11
4146.5521729999991
 21
3430.0911350000001
 31
0.0
 70
     0
 13
3869.7523890000002
 23
3892.5911349999992
 33
0.0
 14
3642.333952
 24
2967.5911350000001
 34
0.0
 50
90.0
1001
ACAD
1000
DSTYLE
1002
{
1070
   287
1070
     4
1070
   287
1070
     4
1070
    40
1040
40.0
1070
    75
1070
     1
1070
   143
1040
0.039
1070
   172
1070
     1
1070
   271
1070
     0
1070
   279
1070
     1
1070
   288
1070
     1
1002
}
  0
DIMENSION
  5
7B7B
  8
3
  6
CONTINUOUS
  2
*D4
 10
4616.2170736012649
 20
2777.5911350000001
 30
0.0
 11
4616.217073601264
 21
4051.3978539999998
 31
0.0
 70
   128
 13
3717.333952
 23
5282.5911349999997
 33
0.0
 14
3642.333952
 24
2777.5911350000001
 34
0.0
 50
90.0
1001
ACAD
1000
DSTYLE
1002
{
1070
   287
1070
     3
1070
   287
1070
     3
1070
    40
1040
40.0
1070
   143
1040
0.039
1070
   172
1070
     1
1070
   271
1070
     0
1070
   279
1070
     0
1070
   288
1070
     1
1002
}
  0
DIMENSION
  5
7B88
  8
3
  6
CONTINUOUS
  2
*D5
 10
2892.333951999999
 20
2484.0077240000001
 30
0.0
 11
2052.5751119999991
 21
2484.0077240000001
 31
0.0
 70
   128
 13
1092.333951999999
 23
2777.5911350000001
 33
0.0
 14
2892.333951999999
 24
2648.5836279999999
 34
0.0
1001
ACAD
1000
DSTYLE
1002
{
1070
   287
1070
     3
1070
   287
1070
     3
1070
    40
1040
40.0
1070
   143
1040
0.039
1070
   172
1070
     1
1070
   271
1070
     0
1070
   279
1070
     0
1070
   288
1070
     1
1002
}
  0
DIMENSION
  5
7B94
  8
3
  6
CONTINUOUS
  2
*D6
 10
3642.333952
 20
2484.0077240000001
 30
0.0
 11
3267.333951999999
 21
2584.0077240000001
 31
0.0
 70
     0
 13
2892.333951999999
 23
2648.5836279999999
 33
0.0
 14
3642.333952
 24
2777.5911350000001
 34
0.0
1001
ACAD
1000
DSTYLE
1002
{
1070
   287
1070
     4
1070
   287
1070
     4
1070
    40
1040
40.0
1070
    75
1070
     1
1070
   143
1040
0.039
1070
   172
1070
     1
1070
   271
1070
     0
1070
   279
1070
     1
1070
   288
1070
     1
1002
}
  0
DIMENSION
  5
7BA1
  8
3
  6
CONTINUOUS
  2
*D7
 10
2892.333951999999
 20
5479.5117929999997
 30
0.0
 11
3322.7723559999999
 21
5479.5117929999997
 31
0.0
 70
   128
 13
3717.333952
 23
5282.5911349999997
 33
0.0
 14
2892.333951999999
 24
5378.1031950000006
 34
0.0
1001
ACAD
1000
DSTYLE
1002
{
1070
   287
1070
     3
1070
   287
1070
     3
1070
    40
1040
40.0
1070
   143
1040
0.039
1070
   172
1070
     1
1070
   271
1070
     0
1070
   279
1070
     0
1070
   288
1070
     1
1002
}
  0
DIMENSION
  5
7BBA
  8
3
  6
CONTINUOUS
  2
*D8
 10
6482.7090939999998
 20
5385.7467130000005
 30
0.0
 11
6004.7351159999989
 21
5385.7467130000005
 31
0.0
 70
   128
 13
5532.7090939999998
 23
5226.5911350000006
 33
0.0
 14
6482.7090939999998
 24
5226.5911350000006
 34
0.0
1001
ACAD
1000
DSTYLE
1002
{
1070
   287
1070
     3
1070
   287
1070
     3
1070
    40
1040
40.0
1070
   143
1040
0.039
1070
   172
1070
     1
1070
   271
1070
     0
1070
   279
1070
     0
1070
   288
1070
     1
1002
}
  0
DIMENSION
  5
7BC7
  8
3
  6
CONTINUOUS
  2
*D9
 10
6877.995726000001
 20
3267.5911349999992
 30
0.0
 11
6877.9957260000001
 21
3899.9312129999998
 31
0.0
 70
   128
 13
6585.7090940000007
 23
4517.5911349999997
 33
0.0
 14
6585.7090940000007
 24
3267.5911349999992
 34
0.0
 50
90.0
1001
ACAD
1000
DSTYLE
1002
{
1070
   287
1070
     3
1070
   287
1070
     3
1070
     3
1000
φ<>
1070
    40
1040
40.0
1070
   143
1040
0.039
1070
   172
1070
     1
1070
   271
1070
     0
1070
   279
1070
     0
1070
   288
1070
     1
1002
}
  0
DIMENSION
  5
7BD4
  8
3
  6
CONTINUOUS
  2
*D10
 10
6007.7090939999989
 20
5645.4038019999998
 30
0.0
 11
6281.9948080000004
 21
5645.4038019999998
 31
0.0
 70
   128
 13
6585.7090940000007
 23
4567.5911349999997
 33
0.0
 14
6007.7090939999989
 24
5570.9595730000001
 34
0.0
1001
ACAD
1000
DSTYLE
1002
{
1070
   287
1070
     3
1070
   287
1070
     3
1070
    40
1040
40.0
1070
   143
1040
0.039
1070
   172
1070
     1
1070
   271
1070
     0
1070
   279
1070
     0
1070
   288
1070
     1
1002
}
  0
DIMENSION
  5
7BE0
  8
3
  6
CONTINUOUS
  2
*D11
 10
5167.7090939999998
 20
5645.4038019999998
 30
0.0
 11
5587.7090939999998
 21
5845.4038019999998
 31
0.0
 70
     0
  1
MAX\P890
 13
6007.7090939999989
 23
5570.9595730000001
 33
0.0
 14
5167.7090939999998
 24
4270.5911349999997
 34
0.0
1001
ACAD
1000
DSTYLE
1002
{
1070
   287
1070
     4
1070
   287
1070
     4
1070
    40
1040
40.0
1070
    75
1070
     1
1070
   143
1040
0.039
1070
   172
1070
     1
1070
   271
1070
     0
1070
   279
1070
     1
1070
   288
1070
     1
1002
}
  0
DIMENSION
  5
7BED
  8
3
  6
CONTINUOUS
  2
*D12
 10
6007.7090939999989
 20
2512.8585170000001
 30
0.0
 11
5651.1006240000006
 21
2512.8585170000001
 31
0.0
 70
   128
 13
5280.7090939999998
 23
2777.5911350000001
 33
0.0
 14
6007.7090939999989
 24
2589.2228030000001
 34
0.0
1001
ACAD
1000
DSTYLE
1002
{
1070
   287
1070
     3
1070
   287
1070
     3
1070
    40
1040
40.0
1070
   143
1040
0.039
1070
   172
1070
     1
1070
   271
1070
     0
1070
   279
1070
     0
1070
   288
1070
     1
1002
}
  0
DIMENSION
  5
7BF9
  8
3
  6
CONTINUOUS
  2
*D13
 10
6560.7090939999998
 20
2512.8585170000001
 30
0.0
 11
6284.2090939999998
 21
2612.8585170000001
 31
0.0
 70
     0
 13
6007.7090939999989
 23
2589.2228030000001
 33
0.0
 14
6560.7090939999998
 24
2777.5911350000001
 34
0.0
1001
ACAD
1000
DSTYLE
1002
{
1070
   287
1070
     4
1070
   287
1070
     4
1070
    40
1040
40.0
1070
    75
1070
     1
1070
   143
1040
0.039
1070
   172
1070
     1
1070
   271
1070
     0
1070
   279
1070
     1
1070
   288
1070
     1
1002
}
  0
DIMENSION
  5
7C28
  8
3
  6
CONTINUOUS
  2
*D14
 10
3642.333952
 20
6536.2912375237202
 30
0.0
 11
2326.8222609999989
 21
6536.2912375237202
 31
0.0
 70
   128
 13
1092.333951999999
 23
6964.1898075237204
 33
0.0
 14
3642.333952
 24
6964.1898075237204
 34
0.0
1001
ACAD
1000
DSTYLE
1002
{
1070
   287
1070
     3
1070
   287
1070
     3
1070
    40
1040
40.0
1070
   143
1040
0.039
1070
   172
1070
     1
1070
   271
1070
     0
1070
   279
1070
     0
1070
   288
1070
     1
1002
}
  0
DIMENSION
  5
7C35
  8
3
  6
CONTINUOUS
  2
*D15
 10
4015.6072500000009
 20
6964.1898075237204
 30
0.0
 11
4015.60725
 21
7603.770335523719
 31
0.0
 70
   128
 13
3642.333952
 23
8244.1898075237186
 33
0.0
 14
3642.333952
 24
6964.1898075237204
 34
0.0
 50
90.0
1001
ACAD
1000
DSTYLE
1002
{
1070
   287
1070
     3
1070
   287
1070
     3
1070
    40
1040
40.0
1070
   143
1040
0.039
1070
   172
1070
     1
1070
   271
1070
     0
1070
   279
1070
     0
1070
   288
1070
     1
1002
}
  0
DIMENSION
  5
7C6B
  8
3
  6
CONTINUOUS
  2
*D16
 10
1813.333951999999
 20
5479.5117929999997
 30
0.0
 11
2352.833952
 21
5579.5117929999988
 31
0.0
 70
     0
 13
2892.333951999999
 23
5378.1031950000006
 33
0.0
 14
1813.333951999999
 24
3892.5911349999992
 34
0.0
1001
ACAD
1000
DSTYLE
1002
{
1070
   287
1070
     4
1070
   287
1070
     4
1070
    40
1040
40.0
1070
    75
1070
     1
1070
   143
1040
0.039
1070
   172
1070
     1
1070
   271
1070
     0
1070
   279
1070
     1
1070
   288
1070
     1
1002
}
  0
DIMENSION
  5
7CD1
  8
3
  2
*D17
 10
3717.333952
 20
5724.7716246851523
 30
0.0
 11
2401.3331761208101
 21
5724.7716246851523
 31
0.0
 70
   128
 13
1092.333951999999
 23
3117.5911350000001
 33
0.0
 14
3717.333952
 24
5282.5911349999997
 34
0.0
1001
ACAD
1000
DSTYLE
1002
{
1070
   287
1070
     3
1070
   287
1070
     3
1070
    40
1040
40.0
1070
   143
1040
0.039
1070
   172
1070
     1
1070
   271
1070
     0
1070
   279
1070
     0
1070
   288
1070
     1
1002
}
  0
DIMENSION
  5
7CF5
  8
3
  2
*D18
 10
4246.552173
 20
2852.5911350000001
 30
0.0
 11
4437.9807444285707
 21
3018.9245628943572
 31
0.0
 70
   128
  1
(<>)
 13
3642.333952
 23
2967.5911350000001
 33
0.0
 14
3642.333952
 24
2852.5911350000001
 34
0.0
 50
90.0
1001
ACAD
1000
DSTYLE
1002
{
1070
   288
1070
     1
1070
   172
1070
     1
1070
    75
1070
     1
1070
    40
1040
40.0
1070
   271
1070
     0
1070
     7
1000
_DOT
1070
   143
1040
0.039
1002
}
  0
DIMENSION
  5
7D05
  8
3
  2
*D19
 10
4246.552173
 20
2777.5911350000001
 30
0.0
 11
4146.5521729999991
 21
2480.4482778571428
 31
0.0
 70
     0
 13
3642.333952
 23
2852.5911350000001
 33
0.0
 14
3642.333952
 24
2777.5911350000001
 34
0.0
 50
90.0
1001
ACAD
1000
DSTYLE
1002
{
1070
   287
1070
     3
1070
   287
1070
     3
1070
    40
1040
40.0
1070
   143
1040
0.039
1070
   172
1070
     1
1070
   271
1070
     0
1070
   279
1070
     0
1070
   288
1070
     1
1070
     6
1000
DOT
1002
}
  0
ENDSEC
  0
EOF
