  0
SECTION
  2
HEADER
  9
$ACADVER
  1
AC1009
  9
$INSBASE
 10
0.0
 20
0.0
 30
0.0
  9
$EXTMIN
 10
1000.0
 20
1200.0
 30
0.0
  9
$EXTMAX
 10
7400.0
 20
11146.609046
 30
0.0
  9
$LIMMIN
 10
0.0
 20
0.0
  9
$LIMMAX
 10
297.0
 20
210.0
  9
$ORTHOMODE
 70
     0
  9
$REGENMODE
 70
     1
  9
$FILLMODE
 70
     0
  9
$QTEXTMODE
 70
     0
  9
$MIRRTEXT
 70
     1
  9
$DRAGMODE
 70
     2
  9
$LTSCALE
 40
100.0
  9
$OSMODE
 70
    37
  9
$ATTMODE
 70
     1
  9
$TEXTSIZE
 40
180.0
  9
$TRACEWID
 40
0.05
  9
$TEXTSTYLE
  7
STANDARD
  9
$CLAYER
  8
3
  9
$CELTYPE
  6
BYLAYER
  9
$CECOLOR
 62
   256
  9
$DIMSCALE
 40
40.0
  9
$DIMASZ
 40
2.0
  9
$DIMEXO
 40
0.5
  9
$DIMDLI
 40
10.0
  9
$DIMRND
 40
0.0
  9
$DIMDLE
 40
0.0
  9
$DIMEXE
 40
1.0
  9
$DIMTP
 40
1.0
  9
$DIMTM
 40
1.0
  9
$DIMTXT
 40
3.0
  9
$DIMCEN
 40
0.0
  9
$DIMTSZ
 40
0.0
  9
$DIMTOL
 70
     0
  9
$DIMLIM
 70
     0
  9
$DIMTIH
 70
     0
  9
$DIMTOH
 70
     0
  9
$DIMSE1
 70
     0
  9
$DIMSE2
 70
     0
  9
$DIMTAD
 70
     1
  9
$DIMZIN
 70
     8
  9
$DIMBLK
  1

  9
$DIMASO
 70
     1
  9
$DIMSHO
 70
     1
  9
$DIMPOST
  1

  9
$DIMAPOST
  1

  9
$DIMALT
 70
     0
  9
$DIMALTD
 70
     2
  9
$DIMALTF
 40
0.039
  9
$DIMLFAC
 40
1.0
  9
$DIMTOFL
 70
     1
  9
$DIMTVP
 40
0.0
  9
$DIMTIX
 70
     0
  9
$DIMSOXD
 70
     0
  9
$DIMSAH
 70
     1
  9
$DIMBLK1
  1
OPEN
  9
$DIMBLK2
  1
OPEN
  9
$DIMSTYLE
  2
IGA
  9
$DIMCLRD
 70
     0
  9
$DIMCLRE
 70
     0
  9
$DIMCLRT
 70
     0
  9
$DIMTFAC
 40
10.0
  9
$DIMGAP
 40
1.0
  9
$LUNITS
 70
     2
  9
$LUPREC
 70
     3
  9
$SKETCHINC
 40
0.1
  9
$FILLETRAD
 40
50.0
  9
$AUNITS
 70
     0
  9
$AUPREC
 70
     0
  9
$MENU
  1
acad
  9
$ELEVATION
 40
0.0
  9
$PELEVATION
 40
0.0
  9
$THICKNESS
 40
0.0
  9
$LIMCHECK
 70
     0
  9
$BLIPMODE
 70
     0
  9
$CHAMFERA
 40
0.5
  9
$CHAMFERB
 40
0.5
  9
$SKPOLY
 70
     0
  9
$TDCREATE
 40
2450757.5887262728
  9
$TDUPDATE
 40
2454953.8449611231
  9
$TDINDWG
 40
0.0054250694
  9
$TDUSRTIMER
 40
0.0054250694
  9
$USRTIMER
 70
     1
  9
$ANGBASE
 50
0.0
  9
$ANGDIR
 70
     0
  9
$PDMODE
 70
     0
  9
$PDSIZE
 40
0.0
  9
$PLINEWID
 40
0.0
  9
$COORDS
 70
     1
  9
$SPLFRAME
 70
     0
  9
$SPLINETYPE
 70
     6
  9
$SPLINESEGS
 70
     8
  9
$ATTDIA
 70
     0
  9
$ATTREQ
 70
     1
  9
$HANDLING
 70
 10241
  9
$HANDSEED
  5
7F37
  9
$SURFTAB1
 70
     6
  9
$SURFTAB2
 70
     6
  9
$SURFTYPE
 70
     6
  9
$SURFU
 70
     6
  9
$SURFV
 70
     6
  9
$UCSNAME
  2

  9
$UCSORG
 10
0.0
 20
0.0
 30
0.0
  9
$UCSXDIR
 10
1.0
 20
0.0
 30
0.0
  9
$UCSYDIR
 10
0.0
 20
1.0
 30
0.0
  9
$PUCSNAME
  2

  9
$PUCSORG
 10
0.0
 20
0.0
 30
0.0
  9
$PUCSXDIR
 10
1.0
 20
0.0
 30
0.0
  9
$PUCSYDIR
 10
0.0
 20
1.0
 30
0.0
  9
$USERI1
 70
     0
  9
$USERI2
 70
     0
  9
$USERI3
 70
     0
  9
$USERI4
 70
     0
  9
$USERI5
 70
     0
  9
$USERR1
 40
0.0
  9
$USERR2
 40
0.0
  9
$USERR3
 40
0.0
  9
$USERR4
 40
0.0
  9
$USERR5
 40
0.0
  9
$WORLDVIEW
 70
     1
  9
$SHADEDGE
 70
     3
  9
$SHADEDIF
 70
    70
  9
$TILEMODE
 70
     1
  9
$MAXACTVP
 70
    16
  9
$PLIMCHECK
 70
     0
  9
$PEXTMIN
 10
1.0000000000000000E+020
 20
1.0000000000000000E+020
 30
1.0000000000000000E+020
  9
$PEXTMAX
 10
-1.0000000000000000E+020
 20
-1.0000000000000000E+020
 30
-1.0000000000000000E+020
  9
$PLIMMIN
 10
0.0
 20
0.0
  9
$PLIMMAX
 10
12.0
 20
9.0
  9
$UNITMODE
 70
     0
  9
$VISRETAIN
 70
     0
  9
$PLINEGEN
 70
     0
  9
$PSLTSCALE
 70
     1
  0
ENDSEC
  0
SECTION
  2
TABLES
  0
TABLE
  2
VPORT
 70
     2
  0
VPORT
  2
*ACTIVE
 70
     0
 10
0.0
 20
0.0
 11
1.0
 21
1.0
 12
11091.881584460391
 22
6980.6311402227693
 13
0.0
 23
0.0
 14
10.0
 24
10.0
 15
10.0
 25
10.0
 16
0.0
 26
0.0
 36
1.0
 17
0.0
 27
0.0
 37
0.0
 40
14578.418086324111
 41
1.5051150895140659
 42
50.0
 43
0.0
 44
0.0
 50
0.0
 51
0.0
 71
     0
 72
   100
 73
     1
 74
     0
 75
     0
 76
     0
 77
     0
 78
     0
  0
ENDTAB
  0
TABLE
  2
LTYPE
 70
     2
  0
LTYPE
  2
CONTINUOUS
 70
     0
  3
Solid line
 72
    65
 73
     0
 40
0.0
  0
LTYPE
  2
CENTER
 70
     0
  3
____ _ ____ _ ____ _ ____ _ ____ _ ____ _ ____ 
 72
    65
 73
     4
 40
2.0
 49
1.25
 49
-0.25
 49
0.25
 49
-0.25
  0
ENDTAB
  0
TABLE
  2
LAYER
 70
     6
  0
LAYER
  2
0
 70
     0
 62
     7
  6
CONTINUOUS
  0
LAYER
  2
3
 70
     0
 62
     2
  6
CONTINUOUS
  0
LAYER
  2
2
 70
     0
 62
     3
  6
CENTER
  0
LAYER
  2
1
 70
     0
 62
     4
  6
CONTINUOUS
  0
LAYER
  2
4
 70
     0
 62
     7
  6
CONTINUOUS
  0
LAYER
  2
DEFPOINTS
 70
     0
 62
     7
  6
CONTINUOUS
  0
ENDTAB
  0
TABLE
  2
STYLE
 70
     1
  0
STYLE
  2
STANDARD
 70
     0
 40
0.0
 41
1.0
 50
0.0
 71
     0
 42
180.0
  3
simplex.shx
  4
extfont.shx
  0
ENDTAB
  0
TABLE
  2
VIEW
 70
     0
  0
ENDTAB
  0
TABLE
  2
UCS
 70
     0
  0
ENDTAB
  0
TABLE
  2
APPID
 70
     1
  0
APPID
  2
ACAD
 70
     0
  0
ENDTAB
  0
TABLE
  2
DIMSTYLE
 70
     1
  0
DIMSTYLE
  2
IGA
 70
     0
  3

  4

  5

  6
OPEN
  7
OPEN
 40
2.0
 41
2.0
 42
0.5
 43
10.0
 44
1.0
 45
0.0
 46
0.0
 47
1.0
 48
1.0
140
3.0
141
0.0
142
0.0
143
0.03937
144
1.0
145
0.0
146
10.0
147
1.0
 71
     0
 72
     0
 73
     0
 74
     0
 75
     0
 76
     0
 77
     1
 78
     8
170
     0
171
     2
172
     0
173
     1
174
     0
175
     0
176
     0
177
     0
178
     0
  0
ENDTAB
  0
ENDSEC
  0
SECTION
  2
BLOCKS
  0
BLOCK
  8
0
  2
$MODEL_SPACE
 70
     0
 10
0.0
 20
0.0
 30
0.0
  3
$MODEL_SPACE
  1

  0
ENDBLK
  5
1B
  8
0
  0
BLOCK
 67
     1
  8
0
  2
$PAPER_SPACE
 70
     0
 10
0.0
 20
0.0
 30
0.0
  3
$PAPER_SPACE
  1

  0
ENDBLK
  5
18
 67
     1
  8
0
  0
BLOCK
  8
0
  2
_OPEN
 70
     0
 10
0.0
 20
0.0
 30
0.0
  3
_OPEN
  1

  0
LINE
  5
7BAC
  8
0
  6
BYBLOCK
 62
     0
 10
-1.0
 20
0.166667
 30
0.0
 11
0.0
 21
0.0
 31
0.0
  0
LINE
  5
7BAD
  8
0
  6
BYBLOCK
 62
     0
 10
0.0
 20
0.0
 30
0.0
 11
-1.0
 21
-0.166667
 31
0.0
  0
LINE
  5
7BAE
  8
0
  6
BYBLOCK
 62
     0
 10
0.0
 20
0.0
 30
0.0
 11
-1.0
 21
0.0
 31
0.0
  0
ENDBLK
  5
7BAF
  8
0
  0
BLOCK
  8
0
  2
*D1
 70
     1
 10
0.0
 20
0.0
 30
0.0
  3
*D1
  1

  0
LINE
  5
7E79
  8
3
  6
CONTINUOUS
 62
     0
 10
2241.3683919999999
 20
4425.1097409999993
 30
0.0
 11
1996.591332
 21
4425.1097409999993
 31
0.0
  0
LINE
  5
7E7A
  8
3
  6
CONTINUOUS
 62
     0
 10
2241.3683919999999
 20
3145.1097410000002
 30
0.0
 11
1996.591332
 21
3145.1097410000002
 31
0.0
  0
LINE
  5
7E7B
  8
3
  6
CONTINUOUS
 62
     0
 10
2036.591332
 20
4345.1097410000002
 30
0.0
 11
2036.591332
 21
3225.1097410000002
 31
0.0
  0
INSERT
  5
7E7C
  8
3
  6
CONTINUOUS
 62
     0
  2
_OPEN
 10
2036.591332
 20
4425.1097409999993
 30
0.0
 41
80.0
 42
80.0
 43
80.0
 50
90.0
  0
INSERT
  5
7E7D
  8
3
  6
CONTINUOUS
 62
     0
  2
_OPEN
 10
2036.591332
 20
3145.1097410000002
 30
0.0
 41
80.0
 42
80.0
 43
80.0
 50
270.0
  0
TEXT
  8
3
  40
120
  5
7F23
  62
0
  72
0
  71
0
 10
1696.59
 20
3510.62
 30
0.000000
  1
1280
  0
POINT
  5
7E7F
  8
DEFPOINTS
  6
CONTINUOUS
 62
     0
 10
2261.3683919999999
 20
4425.1097409999993
 30
0.0
  0
POINT
  5
7E80
  8
DEFPOINTS
  6
CONTINUOUS
 62
     0
 10
2261.3683919999999
 20
3145.1097410000002
 30
0.0
  0
POINT
  5
7E81
  8
DEFPOINTS
  6
CONTINUOUS
 62
     0
 10
2036.591332
 20
3145.1097410000002
 30
0.0
  0
ENDBLK
  5
7BBC
  8
0
  0
BLOCK
  8
0
  2
*D2
 70
     1
 10
0.0
 20
0.0
 30
0.0
  3
*D2
  1

  0
LINE
  5
7E82
  8
3
  6
CONTINUOUS
 62
     0
 10
2109.2257869999999
 20
4479.1097409999993
 30
0.0
 11
1729.209177
 21
4479.1097410000011
 31
0.0
  0
LINE
  5
7E83
  8
3
  6
CONTINUOUS
 62
     0
 10
2241.3683919999999
 20
3145.1097410000002
 30
0.0
 11
1729.209177
 21
3145.1097410000002
 31
0.0
  0
LINE
  5
7E84
  8
3
  6
CONTINUOUS
 62
     0
 10
1769.209177
 20
4399.1097410000002
 30
0.0
 11
1769.209177
 21
3225.1097410000002
 31
0.0
  0
INSERT
  5
7E85
  8
3
  6
CONTINUOUS
 62
     0
  2
_OPEN
 10
1769.209177
 20
4479.1097410000011
 30
0.0
 41
80.0
 42
80.0
 43
80.0
 50
90.0
  0
INSERT
  5
7E86
  8
3
  6
CONTINUOUS
 62
     0
  2
_OPEN
 10
1769.209177
 20
3145.1097410000002
 30
0.0
 41
80.0
 42
80.0
 43
80.0
 50
270.0
  0
TEXT
  8
3
  40
120
  5
7F24
  62
0
  72
0
  71
0
 10
1429.21
 20
3519.24
 30
0.000000
  1
1334
  0
POINT
  5
7E88
  8
DEFPOINTS
  6
CONTINUOUS
 62
     0
 10
2129.2257869999999
 20
4479.1097409999993
 30
0.0
  0
POINT
  5
7E89
  8
DEFPOINTS
  6
CONTINUOUS
 62
     0
 10
2261.3683919999999
 20
3145.1097410000002
 30
0.0
  0
POINT
  5
7E8A
  8
DEFPOINTS
  6
CONTINUOUS
 62
     0
 10
1769.209177
 20
3145.1097410000002
 30
0.0
  0
ENDBLK
  5
7BC9
  8
0
  0
BLOCK
  8
0
  2
*D3
 70
     1
 10
0.0
 20
0.0
 30
0.0
  3
*D3
  1

  0
LINE
  5
7E8B
  8
3
  6
CONTINUOUS
 62
     0
 10
3093.2158920000002
 20
5376.3653979999999
 30
0.0
 11
1444.576563000001
 21
5376.3653979999999
 31
0.0
  0
LINE
  5
7E8C
  8
3
  6
CONTINUOUS
 62
     0
 10
2109.2257869999999
 20
4479.1097409999993
 30
0.0
 11
1444.5765630000001
 21
4479.1097410000011
 31
0.0
  0
LINE
  5
7E8D
  8
3
  6
CONTINUOUS
 62
     0
 10
1484.5765630000001
 20
5296.3653980000008
 30
0.0
 11
1484.5765630000001
 21
4559.1097410000002
 31
0.0
  0
INSERT
  5
7E8E
  8
3
  6
CONTINUOUS
 62
     0
  2
_OPEN
 10
1484.5765630000001
 20
5376.3653979999999
 30
0.0
 41
80.0
 42
80.0
 43
80.0
 50
90.0
  0
INSERT
  5
7E8F
  8
3
  6
CONTINUOUS
 62
     0
  2
_OPEN
 10
1484.5765630000001
 20
4479.1097410000011
 30
0.0
 41
80.0
 42
80.0
 43
80.0
 50
270.0
  0
TEXT
  8
3
  40
120
  5
7F25
  62
0
  72
0
  71
0
 10
1144.58
 20
4717.43
 30
0.000000
  1
897
  0
POINT
  5
7E91
  8
DEFPOINTS
  6
CONTINUOUS
 62
     0
 10
3113.2158920000002
 20
5376.3653979999999
 30
0.0
  0
POINT
  5
7E92
  8
DEFPOINTS
  6
CONTINUOUS
 62
     0
 10
2129.2257869999999
 20
4479.1097409999993
 30
0.0
  0
POINT
  5
7E93
  8
DEFPOINTS
  6
CONTINUOUS
 62
     0
 10
1484.5765630000001
 20
4479.1097410000011
 30
0.0
  0
ENDBLK
  5
7BD6
  8
0
  0
BLOCK
  8
0
  2
*D4
 70
     1
 10
0.0
 20
0.0
 30
0.0
  3
*D4
  1

  0
LINE
  5
7E94
  8
3
  6
CONTINUOUS
 62
     0
 10
2316.3683919999999
 20
2929.1097410000002
 30
0.0
 11
1444.5765630000001
 21
2929.1097410000002
 31
0.0
  0
LINE
  5
7E95
  8
3
  6
CONTINUOUS
 62
     0
 10
1484.5765630000001
 20
4399.1097410000002
 30
0.0
 11
1484.5765630000001
 21
3009.1097410000002
 31
0.0
  0
INSERT
  5
7E96
  8
3
  6
CONTINUOUS
 62
     0
  2
_OPEN
 10
1484.5765630000001
 20
4479.1097410000011
 30
0.0
 41
80.0
 42
80.0
 43
80.0
 50
90.0
  0
INSERT
  5
7E97
  8
3
  6
CONTINUOUS
 62
     0
  2
_OPEN
 10
1484.5765630000001
 20
2929.1097410000002
 30
0.0
 41
80.0
 42
80.0
 43
80.0
 50
270.0
  0
TEXT
  8
3
  40
120
  5
7F26
  62
0
  72
0
  71
0
 10
1144.58
 20
3491.71
 30
0.000000
  1
1550
  0
POINT
  5
7E99
  8
DEFPOINTS
  6
CONTINUOUS
 62
     0
 10
2129.2257869999999
 20
4479.1097409999993
 30
0.0
  0
POINT
  5
7E9A
  8
DEFPOINTS
  6
CONTINUOUS
 62
     0
 10
2336.3683919999999
 20
2929.1097410000002
 30
0.0
  0
POINT
  5
7E9B
  8
DEFPOINTS
  6
CONTINUOUS
 62
     0
 10
1484.5765630000001
 20
2929.1097410000002
 30
0.0
  0
ENDBLK
  5
7D40
  8
0
  0
BLOCK
  8
0
  2
*D5
 70
     1
 10
0.0
 20
0.0
 30
0.0
  3
*D5
  1

  0
LINE
  5
7E9C
  8
3
  6
CONTINUOUS
 62
     0
 10
2316.3683919999999
 20
2929.1097410000002
 30
0.0
 11
1443.4803790000001
 21
2929.1097410000002
 31
0.0
  0
LINE
  5
7E9D
  8
3
  6
CONTINUOUS
 62
     0
 10
2316.3683919999999
 20
2835.1097410000002
 30
0.0
 11
1443.4803790000001
 21
2835.1097410000002
 31
0.0
  0
LINE
  5
7E9E
  8
3
  6
CONTINUOUS
 62
     0
 10
1483.4803790000001
 20
3009.1097410000002
 30
0.0
 11
1483.4803790000001
 21
3089.1097410000002
 31
0.0
  0
LINE
  5
7E9F
  8
3
  6
CONTINUOUS
 62
     0
 10
1483.4803790000001
 20
2755.1097410000002
 30
0.0
 11
1483.4803790000001
 21
2395.1097410000002
 31
0.0
  0
LINE
  5
7EA0
  8
3
  6
CONTINUOUS
 62
     0
 10
1483.4803790000001
 20
2929.1097410000002
 30
0.0
 11
1483.4803790000001
 21
2835.1097410000002
 31
0.0
  0
INSERT
  5
7EA1
  8
3
  6
CONTINUOUS
 62
     0
  2
_OPEN
 10
1483.4803790000001
 20
2929.1097410000002
 30
0.0
 41
80.0
 42
80.0
 43
80.0
 50
270.0
  0
INSERT
  5
7EA2
  8
3
  6
CONTINUOUS
 62
     0
  2
_OPEN
 10
1483.4803790000001
 20
2835.1097410000002
 30
0.0
 41
80.0
 42
80.0
 43
80.0
 50
90.0
  0
TEXT
  8
3
  40
120
  5
7F27
  62
0
  72
0
  71
0
 10
1143.48
 20
2322.71
 30
0.000000
  1
94
  0
POINT
  5
7EA4
  8
DEFPOINTS
  6
CONTINUOUS
 62
     0
 10
2336.3683919999999
 20
2929.1097410000002
 30
0.0
  0
POINT
  5
7EA5
  8
DEFPOINTS
  6
CONTINUOUS
 62
     0
 10
2336.3683919999999
 20
2835.1097410000002
 30
0.0
  0
POINT
  5
7EA6
  8
DEFPOINTS
  6
CONTINUOUS
 62
     0
 10
1483.4803790000001
 20
2835.1097410000002
 30
0.0
  0
ENDBLK
  5
7D10
  8
0
  0
BLOCK
  8
0
  2
*D6
 70
     1
 10
0.0
 20
0.0
 30
0.0
  3
*D6
  1

  0
LINE
  5
7EA7
  8
3
  6
CONTINUOUS
 62
     0
 10
3093.2158920000002
 20
5376.3653979999999
 30
0.0
 11
1200.9532090000009
 21
5376.3653979999999
 31
0.0
  0
LINE
  5
7EA8
  8
3
  6
CONTINUOUS
 62
     0
 10
2316.3683919999999
 20
2835.1097410000002
 30
0.0
 11
1200.953209
 21
2835.1097410000002
 31
0.0
  0
LINE
  5
7EA9
  8
3
  6
CONTINUOUS
 62
     0
 10
1240.9532090000009
 20
5296.3653980000008
 30
0.0
 11
1240.953209
 21
2915.1097410000002
 31
0.0
  0
INSERT
  5
7EAA
  8
3
  6
CONTINUOUS
 62
     0
  2
_OPEN
 10
1240.9532090000009
 20
5376.3653979999999
 30
0.0
 41
80.0
 42
80.0
 43
80.0
 50
90.0
  0
INSERT
  5
7EAB
  8
3
  6
CONTINUOUS
 62
     0
  2
_OPEN
 10
1240.953209
 20
2835.1097410000002
 30
0.0
 41
80.0
 42
80.0
 43
80.0
 50
270.0
  0
TEXT
  8
3
  40
120
  5
7F28
  62
0
  72
0
  71
0
 10
900.953
 20
3872.66
 30
0.000000
  1
2541
  0
POINT
  5
7EAD
  8
DEFPOINTS
  6
CONTINUOUS
 62
     0
 10
3113.2158920000002
 20
5376.3653979999999
 30
0.0
  0
POINT
  5
7EAE
  8
DEFPOINTS
  6
CONTINUOUS
 62
     0
 10
2336.3683919999999
 20
2835.1097410000002
 30
0.0
  0
POINT
  5
7EAF
  8
DEFPOINTS
  6
CONTINUOUS
 62
     0
 10
1240.953209
 20
2835.1097410000002
 30
0.0
  0
ENDBLK
  5
7D36
  8
0
  0
BLOCK
  8
0
  2
*D7
 70
     1
 10
0.0
 20
0.0
 30
0.0
  3
*D7
  1

  0
LINE
  5
7EB0
  8
3
  6
CONTINUOUS
 62
     0
 10
2336.3683919999999
 20
2815.1097410000002
 30
0.0
 11
2336.3683919999999
 21
2468.2756129999989
 31
0.0
  0
LINE
  5
7EB1
  8
3
  6
CONTINUOUS
 62
     0
 10
3086.3683919999999
 20
2580.2337210000001
 30
0.0
 11
3086.3683919999999
 21
2468.2756129999989
 31
0.0
  0
LINE
  5
7EB2
  8
3
  6
CONTINUOUS
 62
     0
 10
2416.3683919999999
 20
2508.2756129999998
 30
0.0
 11
3006.3683919999999
 21
2508.2756129999998
 31
0.0
  0
INSERT
  5
7EB3
  8
3
  6
CONTINUOUS
 62
     0
  2
_OPEN
 10
2336.3683919999999
 20
2508.2756129999998
 30
0.0
 41
80.0
 42
80.0
 43
80.0
 50
180.0
  0
INSERT
  5
7EB4
  8
3
  6
CONTINUOUS
 62
     0
  2
_OPEN
 10
3086.3683919999999
 20
2508.2756129999998
 30
0.0
 41
80.0
 42
80.0
 43
80.0
  0
TEXT
  8
3
  40
120
  5
7F29
  62
0
  72
0
  71
0
 10
2477.12
 20
2395.88
 30
0.000000
  1
750
  0
POINT
  5
7EB6
  8
DEFPOINTS
  6
CONTINUOUS
 62
     0
 10
2336.3683919999999
 20
2835.1097410000002
 30
0.0
  0
POINT
  5
7EB7
  8
DEFPOINTS
  6
CONTINUOUS
 62
     0
 10
3086.3683919999999
 20
2600.2337210000001
 30
0.0
  0
POINT
  5
7EB8
  8
DEFPOINTS
  6
CONTINUOUS
 62
     0
 10
3086.3683919999999
 20
2508.2756129999998
 30
0.0
  0
ENDBLK
  5
7C0C
  8
0
  0
BLOCK
  8
0
  2
*D8
 70
     1
 10
0.0
 20
0.0
 30
0.0
  3
*D8
  1

  0
LINE
  5
7EB9
  8
3
  6
CONTINUOUS
 62
     0
 10
4886.3683920000012
 20
2815.1097410000002
 30
0.0
 11
4886.3683920000012
 21
2468.2756129999989
 31
0.0
  0
LINE
  5
7EBA
  8
3
  6
CONTINUOUS
 62
     0
 10
3166.3683919999999
 20
2508.2756129999998
 30
0.0
 11
4806.3683920000003
 21
2508.2756129999998
 31
0.0
  0
INSERT
  5
7EBB
  8
3
  6
CONTINUOUS
 62
     0
  2
_OPEN
 10
3086.3683919999999
 20
2508.2756129999998
 30
0.0
 41
80.0
 42
80.0
 43
80.0
 50
180.0
  0
INSERT
  5
7EBC
  8
3
  6
CONTINUOUS
 62
     0
  2
_OPEN
 10
4886.3683920000012
 20
2508.2756129999998
 30
0.0
 41
80.0
 42
80.0
 43
80.0
  0
TEXT
  8
3
  40
120
  5
7F2A
  62
0
  72
0
  71
0
 10
3746.37
 20
2395.88
 30
0.000000
  1
1800
  0
POINT
  5
7EBE
  8
DEFPOINTS
  6
CONTINUOUS
 62
     0
 10
3086.3683919999999
 20
2600.2337210000001
 30
0.0
  0
POINT
  5
7EBF
  8
DEFPOINTS
  6
CONTINUOUS
 62
     0
 10
4886.3683920000012
 20
2835.1097410000002
 30
0.0
  0
POINT
  5
7EC0
  8
DEFPOINTS
  6
CONTINUOUS
 62
     0
 10
4886.3683920000012
 20
2508.2756129999998
 30
0.0
  0
ENDBLK
  5
7D25
  8
0
  0
BLOCK
  8
0
  2
*D9
 70
     1
 10
0.0
 20
0.0
 30
0.0
  3
*D9
  1

  0
LINE
  5
7EC1
  8
3
  6
CONTINUOUS
 62
     0
 10
2261.3683919999999
 20
4495.1097409999993
 30
0.0
 11
2261.3683919999999
 21
5693.9138789999997
 31
0.0
  0
LINE
  5
7EC2
  8
3
  6
CONTINUOUS
 62
     0
 10
3086.3683919999999
 20
5478.4607189999997
 30
0.0
 11
3086.3683919999999
 21
5693.9138789999997
 31
0.0
  0
LINE
  5
7EC3
  8
3
  6
CONTINUOUS
 62
     0
 10
2341.3683919999999
 20
5653.9138789999997
 30
0.0
 11
3006.3683919999999
 21
5653.9138789999997
 31
0.0
  0
INSERT
  5
7EC4
  8
3
  6
CONTINUOUS
 62
     0
  2
_OPEN
 10
2261.3683919999999
 20
5653.9138789999997
 30
0.0
 41
80.0
 42
80.0
 43
80.0
 50
180.0
  0
INSERT
  5
7EC5
  8
3
  6
CONTINUOUS
 62
     0
  2
_OPEN
 10
3086.3683919999999
 20
5653.9138789999997
 30
0.0
 41
80.0
 42
80.0
 43
80.0
  0
TEXT
  8
3
  40
120
  5
7F2B
  62
0
  72
0
  71
0
 10
2390.87
 20
5541.51
 30
0.000000
  1
825
  0
POINT
  5
7EC7
  8
DEFPOINTS
  6
CONTINUOUS
 62
     0
 10
2261.3683919999999
 20
4475.1097409999993
 30
0.0
  0
POINT
  5
7EC8
  8
DEFPOINTS
  6
CONTINUOUS
 62
     0
 10
3086.3683919999999
 20
5458.4607189999997
 30
0.0
  0
POINT
  5
7EC9
  8
DEFPOINTS
  6
CONTINUOUS
 62
     0
 10
3086.3683919999999
 20
5653.9138789999997
 30
0.0
  0
ENDBLK
  5
7C25
  8
0
  0
BLOCK
  8
0
  2
*D10
 70
     1
 10
0.0
 20
0.0
 30
0.0
  3
*D10
  1

  0
LINE
  5
7ECA
  8
3
  6
CONTINUOUS
 62
     0
 10
5906.9046669999998
 20
5328.1097409999993
 30
0.0
 11
5906.9046669999998
 21
5538.7529450000002
 31
0.0
  0
LINE
  5
7ECB
  8
3
  6
CONTINUOUS
 62
     0
 10
6856.9046670000007
 20
5328.1097409999993
 30
0.0
 11
6856.9046670000007
 21
5538.7529450000002
 31
0.0
  0
LINE
  5
7ECC
  8
3
  6
CONTINUOUS
 62
     0
 10
5986.9046669999998
 20
5498.7529450000002
 30
0.0
 11
6776.9046669999998
 21
5498.7529450000002
 31
0.0
  0
INSERT
  5
7ECD
  8
3
  6
CONTINUOUS
 62
     0
  2
_OPEN
 10
5906.9046669999998
 20
5498.7529450000002
 30
0.0
 41
80.0
 42
80.0
 43
80.0
 50
180.0
  0
INSERT
  5
7ECE
  8
3
  6
CONTINUOUS
 62
     0
  2
_OPEN
 10
6856.9046670000007
 20
5498.7529450000002
 30
0.0
 41
80.0
 42
80.0
 43
80.0
  0
TEXT
  8
3
  40
120
  5
7F2C
  62
0
  72
0
  71
0
 10
6141.45
 20
5386.35
 30
0.000000
  1
950
  0
POINT
  5
7ED0
  8
DEFPOINTS
  6
CONTINUOUS
 62
     0
 10
5906.9046669999998
 20
5308.1097409999993
 30
0.0
  0
POINT
  5
7ED1
  8
DEFPOINTS
  6
CONTINUOUS
 62
     0
 10
6856.9046670000007
 20
5308.1097409999993
 30
0.0
  0
POINT
  5
7ED2
  8
DEFPOINTS
  6
CONTINUOUS
 62
     0
 10
6856.9046670000007
 20
5498.7529450000002
 30
0.0
  0
ENDBLK
  5
7C4E
  8
0
  0
BLOCK
  8
0
  2
*D11
 70
     1
 10
0.0
 20
0.0
 30
0.0
  3
*D11
  1

  0
LINE
  5
7ED3
  8
3
  6
CONTINUOUS
 62
     0
 10
6979.9046669999989
 20
5104.1097409999993
 30
0.0
 11
7275.3462590000008
 21
5104.1097409999993
 31
0.0
  0
LINE
  5
7ED4
  8
3
  6
CONTINUOUS
 62
     0
 10
6979.9046669999989
 20
3854.1097410000002
 30
0.0
 11
7275.3462590000008
 21
3854.1097409999988
 31
0.0
  0
LINE
  5
7ED5
  8
3
  6
CONTINUOUS
 62
     0
 10
7235.3462589999999
 20
5024.1097410000002
 30
0.0
 11
7235.3462589999999
 21
3934.1097409999988
 31
0.0
  0
INSERT
  5
7ED6
  8
3
  6
CONTINUOUS
 62
     0
  2
_OPEN
 10
7235.3462589999999
 20
5104.1097409999993
 30
0.0
 41
80.0
 42
80.0
 43
80.0
 50
90.0
  0
INSERT
  5
7ED7
  8
3
  6
CONTINUOUS
 62
     0
  2
_OPEN
 10
7235.3462589999999
 20
3854.1097409999988
 30
0.0
 41
80.0
 42
80.0
 43
80.0
 50
270.0
  0
TEXT
  8
3
  40
120
  5
7F2D
  62
0
  72
0
  71
0
 10
6895.35
 20
4277.81
 30
0.000000
  1
φ1250
  0
POINT
  5
7ED9
  8
DEFPOINTS
  6
CONTINUOUS
 62
     0
 10
6959.9046669999989
 20
5104.1097409999993
 30
0.0
  0
POINT
  5
7EDA
  8
DEFPOINTS
  6
CONTINUOUS
 62
     0
 10
6959.9046669999989
 20
3854.1097410000002
 30
0.0
  0
POINT
  5
7EDB
  8
DEFPOINTS
  6
CONTINUOUS
 62
     0
 10
7235.3462589999999
 20
3854.1097409999988
 30
0.0
  0
ENDBLK
  5
7D73
  8
0
  0
BLOCK
  8
0
  2
*D12
 70
     1
 10
0.0
 20
0.0
 30
0.0
  3
*D12
  1

  0
LINE
  5
7EDC
  8
3
  6
CONTINUOUS
 62
     0
 10
6959.9046669999989
 20
5174.1097409999993
 30
0.0
 11
6959.9046669999989
 21
5814.5946210000011
 31
0.0
  0
LINE
  5
7EDD
  8
3
  6
CONTINUOUS
 62
     0
 10
6381.9046669999998
 20
5730.1558709999999
 30
0.0
 11
6381.9046669999998
 21
5814.5946210000011
 31
0.0
  0
LINE
  5
7EDE
  8
3
  6
CONTINUOUS
 62
     0
 10
7039.9046669999998
 20
5774.5946210000002
 30
0.0
 11
7119.9046669999998
 21
5774.5946210000002
 31
0.0
  0
LINE
  5
7EDF
  8
3
  6
CONTINUOUS
 62
     0
 10
6301.9046669999998
 20
5774.5946210000002
 30
0.0
 11
6221.9046669999998
 21
5774.5946210000002
 31
0.0
  0
LINE
  5
7EE0
  8
3
  6
CONTINUOUS
 62
     0
 10
6959.9046669999989
 20
5774.5946210000002
 30
0.0
 11
6381.9046669999998
 21
5774.5946210000002
 31
0.0
  0
INSERT
  5
7EE1
  8
3
  6
CONTINUOUS
 62
     0
  2
_OPEN
 10
6959.9046669999989
 20
5774.5946210000002
 30
0.0
 41
80.0
 42
80.0
 43
80.0
 50
180.0
  0
INSERT
  5
7EE2
  8
3
  6
CONTINUOUS
 62
     0
  2
_OPEN
 10
6381.9046669999998
 20
5774.5946210000002
 30
0.0
 41
80.0
 42
80.0
 43
80.0
  0
TEXT
  8
3
  40
120
  5
7F2E
  62
0
  72
0
  71
0
 10
6416.19
 20
5662.19
 30
0.000000
  1
578
  0
POINT
  5
7EE4
  8
DEFPOINTS
  6
CONTINUOUS
 62
     0
 10
6959.9046669999989
 20
5154.1097409999993
 30
0.0
  0
POINT
  5
7EE5
  8
DEFPOINTS
  6
CONTINUOUS
 62
     0
 10
6381.9046669999998
 20
5710.1558709999999
 30
0.0
  0
POINT
  5
7EE6
  8
DEFPOINTS
  6
CONTINUOUS
 62
     0
 10
6381.9046669999998
 20
5774.5946210000002
 30
0.0
  0
ENDBLK
  5
7CA3
  8
0
  0
BLOCK
  8
0
  2
*D13
 70
     1
 10
0.0
 20
0.0
 30
0.0
  3
*D13
  1

  0
LINE
  5
7EE7
  8
3
  6
CONTINUOUS
 62
     0
 10
5541.9046669999998
 20
4877.1097409999993
 30
0.0
 11
5541.9046669999998
 21
5814.5946210000011
 31
0.0
  0
LINE
  5
7EE8
  8
3
  6
CONTINUOUS
 62
     0
 10
6301.9046669999998
 20
5774.5946210000002
 30
0.0
 11
5621.9046669999989
 21
5774.5946210000002
 31
0.0
  0
INSERT
  5
7EE9
  8
3
  6
CONTINUOUS
 62
     0
  2
_OPEN
 10
6381.9046669999998
 20
5774.5946210000002
 30
0.0
 41
80.0
 42
80.0
 43
80.0
  0
INSERT
  5
7EEA
  8
3
  6
CONTINUOUS
 62
     0
  2
_OPEN
 10
5541.9046669999998
 20
5774.5946210000002
 30
0.0
 41
80.0
 42
80.0
 43
80.0
 50
180.0
  0
TEXT
  8
3
  40
120
  5
7F2F
  62
0
  72
0
  71
0
 10
5721.90
 20
5762.19
 30
0.000000
  1
MAX
  0
TEXT
  8
3
  40
120
  5
7F30
  62
0
  72
0
  71
0
 10
5721.90
 20
5606.19
 30
0.000000
  1
890
  0
POINT
  5
7EEC
  8
DEFPOINTS
  6
CONTINUOUS
 62
     0
 10
6381.9046669999998
 20
5710.1558709999999
 30
0.0
  0
POINT
  5
7EED
  8
DEFPOINTS
  6
CONTINUOUS
 62
     0
 10
5541.9046669999998
 20
4857.1097409999993
 30
0.0
  0
POINT
  5
7EEE
  8
DEFPOINTS
  6
CONTINUOUS
 62
     0
 10
5541.9046669999998
 20
5774.5946210000002
 30
0.0
  0
ENDBLK
  5
7D68
  8
0
  0
BLOCK
  8
0
  2
*D14
 70
     1
 10
0.0
 20
0.0
 30
0.0
  3
*D14
  1

  0
LINE
  5
7EEF
  8
3
  6
CONTINUOUS
 62
     0
 10
5654.9046669999998
 20
2815.1097410000002
 30
0.0
 11
5654.9046669999998
 21
2468.2756129999989
 31
0.0
  0
LINE
  5
7EF0
  8
3
  6
CONTINUOUS
 62
     0
 10
6381.9046669999998
 20
2624.089074
 30
0.0
 11
6381.9046669999998
 21
2468.2756129999989
 31
0.0
  0
LINE
  5
7EF1
  8
3
  6
CONTINUOUS
 62
     0
 10
5734.9046669999998
 20
2508.2756129999998
 30
0.0
 11
6301.9046669999998
 21
2508.2756129999998
 31
0.0
  0
INSERT
  5
7EF2
  8
3
  6
CONTINUOUS
 62
     0
  2
_OPEN
 10
5654.9046669999998
 20
2508.2756129999998
 30
0.0
 41
80.0
 42
80.0
 43
80.0
 50
180.0
  0
INSERT
  5
7EF3
  8
3
  6
CONTINUOUS
 62
     0
  2
_OPEN
 10
6381.9046669999998
 20
2508.2756129999998
 30
0.0
 41
80.0
 42
80.0
 43
80.0
  0
TEXT
  8
3
  40
120
  5
7F31
  62
0
  72
0
  71
0
 10
5779.19
 20
2395.88
 30
0.000000
  1
727
  0
POINT
  5
7EF5
  8
DEFPOINTS
  6
CONTINUOUS
 62
     0
 10
5654.9046669999998
 20
2835.1097410000002
 30
0.0
  0
POINT
  5
7EF6
  8
DEFPOINTS
  6
CONTINUOUS
 62
     0
 10
6381.9046669999998
 20
2644.089074
 30
0.0
  0
POINT
  5
7EF7
  8
DEFPOINTS
  6
CONTINUOUS
 62
     0
 10
6381.9046669999998
 20
2508.2756129999998
 30
0.0
  0
ENDBLK
  5
7C81
  8
0
  0
BLOCK
  8
0
  2
*D15
 70
     1
 10
0.0
 20
0.0
 30
0.0
  3
*D15
  1

  0
LINE
  5
7EF8
  8
3
  6
CONTINUOUS
 62
     0
 10
6934.9046669999989
 20
2815.1097410000002
 30
0.0
 11
6934.9046669999989
 21
2468.2756129999989
 31
0.0
  0
LINE
  5
7EF9
  8
3
  6
CONTINUOUS
 62
     0
 10
6461.9046669999998
 20
2508.2756129999998
 30
0.0
 11
6854.9046669999989
 21
2508.2756129999998
 31
0.0
  0
INSERT
  5
7EFA
  8
3
  6
CONTINUOUS
 62
     0
  2
_OPEN
 10
6381.9046669999998
 20
2508.2756129999998
 30
0.0
 41
80.0
 42
80.0
 43
80.0
 50
180.0
  0
INSERT
  5
7EFB
  8
3
  6
CONTINUOUS
 62
     0
  2
_OPEN
 10
6934.9046669999989
 20
2508.2756129999998
 30
0.0
 41
80.0
 42
80.0
 43
80.0
  0
TEXT
  8
3
  40
120
  5
7F32
  62
0
  72
0
  71
0
 10
6418.40
 20
2395.88
 30
0.000000
  1
553
  0
POINT
  5
7EFD
  8
DEFPOINTS
  6
CONTINUOUS
 62
     0
 10
6381.9046669999998
 20
2644.089074
 30
0.0
  0
POINT
  5
7EFE
  8
DEFPOINTS
  6
CONTINUOUS
 62
     0
 10
6934.9046669999989
 20
2835.1097410000002
 30
0.0
  0
POINT
  5
7EFF
  8
DEFPOINTS
  6
CONTINUOUS
 62
     0
 10
6934.9046669999989
 20
2508.2756129999998
 30
0.0
  0
ENDBLK
  5
7C8D
  8
0
  0
BLOCK
  8
0
  2
*D16
 70
     1
 10
0.0
 20
0.0
 30
0.0
  3
*D16
  1

  0
LINE
  5
7F00
  8
3
  6
CONTINUOUS
 62
     0
 10
2336.3683919999999
 20
7440.2862040000018
 30
0.0
 11
2336.3683919999999
 21
6950.7109940000009
 31
0.0
  0
LINE
  5
7F01
  8
3
  6
CONTINUOUS
 62
     0
 10
4886.3683920000012
 20
7440.2862040000018
 30
0.0
 11
4886.3683920000012
 21
6950.7109940000009
 31
0.0
  0
LINE
  5
7F02
  8
3
  6
CONTINUOUS
 62
     0
 10
2416.3683919999999
 20
6990.710994
 30
0.0
 11
4806.3683920000003
 21
6990.710994
 31
0.0
  0
INSERT
  5
7F03
  8
3
  6
CONTINUOUS
 62
     0
  2
_OPEN
 10
2336.3683919999999
 20
6990.710994
 30
0.0
 41
80.0
 42
80.0
 43
80.0
 50
180.0
  0
INSERT
  5
7F04
  8
3
  6
CONTINUOUS
 62
     0
  2
_OPEN
 10
4886.3683920000012
 20
6990.710994
 30
0.0
 41
80.0
 42
80.0
 43
80.0
  0
TEXT
  8
3
  40
120
  5
7F33
  62
0
  72
0
  71
0
 10
3313.77
 20
6878.31
 30
0.000000
  1
2550
  0
POINT
  5
7F06
  8
DEFPOINTS
  6
CONTINUOUS
 62
     0
 10
2336.3683919999999
 20
7460.286204
 30
0.0
  0
POINT
  5
7F07
  8
DEFPOINTS
  6
CONTINUOUS
 62
     0
 10
4886.3683920000012
 20
7460.286204
 30
0.0
  0
POINT
  5
7F08
  8
DEFPOINTS
  6
CONTINUOUS
 62
     0
 10
4886.3683920000012
 20
6990.710994
 30
0.0
  0
ENDBLK
  5
7D1B
  8
0
  0
BLOCK
  8
0
  2
*D17
 70
     1
 10
0.0
 20
0.0
 30
0.0
  3
*D17
  1

  0
LINE
  5
7F09
  8
3
  6
CONTINUOUS
 62
     0
 10
4906.3683920000003
 20
8740.286204
 30
0.0
 11
5280.8138620000009
 21
8740.286204
 31
0.0
  0
LINE
  5
7F0A
  8
3
  6
CONTINUOUS
 62
     0
 10
4906.3683920000003
 20
7460.286204
 30
0.0
 11
5280.8138620000009
 21
7460.286204
 31
0.0
  0
LINE
  5
7F0B
  8
3
  6
CONTINUOUS
 62
     0
 10
5240.8138620000009
 20
8660.286204
 30
0.0
 11
5240.8138620000009
 21
7540.2862040000009
 31
0.0
  0
INSERT
  5
7F0C
  8
3
  6
CONTINUOUS
 62
     0
  2
_OPEN
 10
5240.8138620000009
 20
8740.286204
 30
0.0
 41
80.0
 42
80.0
 43
80.0
 50
90.0
  0
INSERT
  5
7F0D
  8
3
  6
CONTINUOUS
 62
     0
  2
_OPEN
 10
5240.8138620000009
 20
7460.286204
 30
0.0
 41
80.0
 42
80.0
 43
80.0
 50
270.0
  0
TEXT
  8
3
  40
120
  5
7F34
  62
0
  72
0
  71
0
 10
4900.81
 20
7804.10
 30
0.000000
  1
1280
  0
POINT
  5
7F0F
  8
DEFPOINTS
  6
CONTINUOUS
 62
     0
 10
4886.3683920000012
 20
8740.286204
 30
0.0
  0
POINT
  5
7F10
  8
DEFPOINTS
  6
CONTINUOUS
 62
     0
 10
4886.3683920000012
 20
7460.286204
 30
0.0
  0
POINT
  5
7F11
  8
DEFPOINTS
  6
CONTINUOUS
 62
     0
 10
5240.8138620000009
 20
7460.286204
 30
0.0
  0
ENDBLK
  5
7CBC
  8
0
  0
BLOCK
  8
0
  2
*D18
 70
     1
 10
0.0
 20
0.0
 30
0.0
  3
*D18
  1

  0
LINE
  5
7F12
  8
3
  6
CONTINUOUS
 62
     0
 10
4165.3683920000003
 20
4499.1097409999993
 30
0.0
 11
4165.3683920000003
 21
5693.9138789999997
 31
0.0
  0
LINE
  5
7F13
  8
3
  6
CONTINUOUS
 62
     0
 10
3166.3683919999999
 20
5653.9138789999997
 30
0.0
 11
4085.3683919999999
 21
5653.9138789999997
 31
0.0
  0
INSERT
  5
7F14
  8
3
  6
CONTINUOUS
 62
     0
  2
_OPEN
 10
3086.3683919999999
 20
5653.9138789999997
 30
0.0
 41
80.0
 42
80.0
 43
80.0
 50
180.0
  0
INSERT
  5
7F15
  8
3
  6
CONTINUOUS
 62
     0
  2
_OPEN
 10
4165.3683920000003
 20
5653.9138789999997
 30
0.0
 41
80.0
 42
80.0
 43
80.0
  0
TEXT
  8
3
  40
120
  5
7F35
  62
0
  72
0
  71
0
 10
3385.87
 20
5541.51
 30
0.000000
  1
1079
  0
POINT
  5
7F17
  8
DEFPOINTS
  6
CONTINUOUS
 62
     0
 10
3086.3683919999999
 20
5458.4607189999997
 30
0.0
  0
POINT
  5
7F18
  8
DEFPOINTS
  6
CONTINUOUS
 62
     0
 10
4165.3683920000003
 20
4479.1097409999993
 30
0.0
  0
POINT
  5
7F19
  8
DEFPOINTS
  6
CONTINUOUS
 62
     0
 10
4165.3683920000003
 20
5653.9138789999997
 30
0.0
  0
ENDBLK
  5
7D51
  8
0
  0
BLOCK
  8
0
  2
*D19
 70
     1
 10
0.0
 20
0.0
 30
0.0
  3
*D19
  1

  0
LINE
  5
7F1A
  8
3
 62
     0
 10
2261.3683919999999
 20
4495.1097409999993
 30
0.0
 11
2261.3683919999999
 21
5945.526146245873
 31
0.0
  0
LINE
  5
7F1B
  8
3
 62
     0
 10
4886.3683920000012
 20
3099.1097410000002
 30
0.0
 11
4886.3683920000012
 21
5945.526146245873
 31
0.0
  0
LINE
  5
7F1C
  8
3
 62
     0
 10
2341.3683919999999
 20
5905.526146245873
 30
0.0
 11
4806.3683920000003
 21
5905.526146245873
 31
0.0
  0
INSERT
  5
7F1D
  8
3
 62
     0
  2
_OPEN
 10
2261.3683919999999
 20
5905.526146245873
 30
0.0
 41
80.0
 42
80.0
 43
80.0
 50
180.0
  0
INSERT
  5
7F1E
  8
3
 62
     0
  2
_OPEN
 10
4886.3683920000012
 20
5905.526146245873
 30
0.0
 41
80.0
 42
80.0
 43
80.0
  0
TEXT
  8
3
  40
120
  5
7F36
  62
0
  72
0
  71
0
 10
3334.34
 20
5793.13
 30
0.000000
  1
2625
  0
POINT
  5
7F20
  8
DEFPOINTS
 62
     0
 10
2261.3683919999999
 20
4475.1097409999993
 30
0.0
  0
POINT
  5
7F21
  8
DEFPOINTS
 62
     0
 10
4886.3683920000012
 20
3079.1097410000002
 30
0.0
  0
POINT
  5
7F22
  8
DEFPOINTS
 62
     0
 10
4886.3683920000012
 20
5905.526146245873
 30
0.0
  0
ENDBLK
  5
7D5D
  8
0
  0
ENDSEC
  0
SECTION
  2
ENTITIES
  0
CIRCLE
  5
7AC4
  8
1
  6
CONTINUOUS
 10
3086.3683919999999
 20
4479.1097409999993
 30
0.0
 40
675.0
  0
CIRCLE
  5
7AC5
  8
1
  6
CONTINUOUS
 10
3086.3683919999999
 20
4479.1097409999993
 30
0.0
 40
625.0
  0
LINE
  5
7AC6
  8
1
  6
CONTINUOUS
 10
2336.3683919999999
 20
3079.1097410000002
 30
0.0
 11
4886.3683920000012
 21
3079.1097410000002
 31
0.0
  0
LINE
  5
7AC7
  8
1
  6
CONTINUOUS
 10
2336.3683919999999
 20
2929.1097410000002
 30
0.0
 11
4886.3683920000012
 21
2929.1097410000002
 31
0.0
  0
POLYLINE
  5
7AC8
  8
1
  6
CONTINUOUS
 66
     1
 10
0.0
 20
0.0
 30
0.0
  0
VERTEX
  5
7E72
  8
1
  6
CONTINUOUS
 10
2261.3683919999999
 20
3145.1097410000002
 30
0.0
  0
VERTEX
  5
7E73
  8
1
  6
CONTINUOUS
 10
3086.3683919999999
 20
3218.1097410000002
 30
0.0
 42
0.4
  0
VERTEX
  5
7E74
  8
1
  6
CONTINUOUS
 10
4168.8683920000003
 20
4388.1097410000002
 30
0.0
 42
0.4
  0
VERTEX
  5
7E75
  8
1
  6
CONTINUOUS
 10
3095.0683920000001
 20
5376.2097409999997
 30
0.0
 42
0.4
  0
VERTEX
  5
7E76
  8
1
  6
CONTINUOUS
 10
2340.3683919999999
 20
4556.1097409999993
 30
0.0
  0
VERTEX
  5
7E77
  8
1
  6
CONTINUOUS
 10
2353.3683919999999
 20
4425.1097409999993
 30
0.0
 42
0.4
  0
SEQEND
  5
7E78
  8
1
  6
CONTINUOUS
  0
LINE
  5
7AD0
  8
1
  6
CONTINUOUS
 10
2336.3683919999999
 20
2910.1097410000002
 30
0.0
 11
4886.3683920000012
 21
2910.1097410000002
 31
0.0
  0
LINE
  5
7AD1
  8
1
  6
CONTINUOUS
 10
2336.3683919999999
 20
2835.1097410000002
 30
0.0
 11
4886.3683920000012
 21
2835.1097410000002
 31
0.0
  0
LINE
  5
7AD2
  8
1
  6
CONTINUOUS
 10
2311.3683919999999
 20
4425.1097409999993
 30
0.0
 11
2311.3683919999999
 21
3145.1097410000002
 31
0.0
  0
LINE
  5
7AD3
  8
1
  6
CONTINUOUS
 10
2261.3683919999999
 20
4475.1097409999993
 30
0.0
 11
2261.3683919999999
 21
3089.1097410000002
 31
0.0
  0
LINE
  5
7AD4
  8
1
  6
CONTINUOUS
 10
2336.3683919999999
 20
3079.1097410000002
 30
0.0
 11
2336.3683919999999
 21
2929.1097410000002
 31
0.0
  0
LINE
  5
7AD5
  8
1
  6
CONTINUOUS
 10
2336.3683919999999
 20
2910.1097410000002
 30
0.0
 11
2336.3683919999999
 21
2835.1097410000002
 31
0.0
  0
LINE
  5
7AD6
  8
1
  6
CONTINUOUS
 10
2353.3683919999999
 20
4425.1097409999993
 30
0.0
 11
2261.3683919999999
 21
4425.1097409999993
 31
0.0
  0
LINE
  5
7AD7
  8
1
  6
CONTINUOUS
 10
4542.3683920000003
 20
3402.6097410000002
 30
0.0
 11
3274.1683919999991
 21
4684.1097409999993
 31
0.0
  0
LINE
  5
7AD8
  8
1
  6
CONTINUOUS
 10
4609.9683919999989
 20
3476.3097409999991
 30
0.0
 11
3341.668392
 21
4757.9097409999986
 31
0.0
  0
LINE
  5
7AD9
  8
1
  6
CONTINUOUS
 10
4397.768391999999
 20
3212.309741
 30
0.0
 11
2939.0683920000001
 21
4243.309741
 31
0.0
  0
LINE
  5
7ADA
  8
1
  6
CONTINUOUS
 10
4344.8683920000003
 20
3127.5097409999998
 30
0.0
 11
2886.168392
 21
4158.5097409999989
 31
0.0
  0
CIRCLE
  5
7ADC
  8
1
  6
CONTINUOUS
 10
3086.3683919999999
 20
4479.1097409999993
 30
0.0
 40
278.0
  0
ARC
  5
7ADD
  8
1
  6
CONTINUOUS
 10
3086.3683919999999
 20
4479.1097409999993
 30
0.0
 40
378.0
 50
47.5
 51
238.0
  0
LINE
  5
7ADF
  8
2
  6
CENTER
 10
4581.3683920000003
 20
3314.1097410000002
 30
0.0
 11
4341.3683920000003
 21
3314.1097410000002
 31
0.0
  0
CIRCLE
  5
7AE0
  8
1
  6
CONTINUOUS
 10
4461.3683920000003
 20
3314.1097410000002
 30
0.0
 40
120.0
  0
LINE
  5
7AE1
  8
1
  6
CONTINUOUS
 10
4236.3683920000012
 20
3134.1097410000002
 30
0.0
 11
4686.3683920000012
 21
3134.1097410000002
 31
0.0
  0
ARC
  5
7AE2
  8
1
  6
CONTINUOUS
 10
4461.3683920000003
 20
3314.1097410000002
 30
0.0
 40
199.0
 50
320.10000000000002
 51
219.90000000000001
  0
ARC
  5
7AE3
  8
1
  6
CONTINUOUS
 10
4461.3683920000003
 20
3314.1097410000002
 30
0.0
 40
220.0
 50
238.0
 51
47.5
  0
LINE
  5
7AE4
  8
1
  6
CONTINUOUS
 10
4236.3683920000012
 20
3079.1097410000002
 30
0.0
 11
4236.3683920000012
 21
3134.1097410000002
 31
0.0
  0
LINE
  5
7AE5
  8
1
  6
CONTINUOUS
 10
4299.3683920000003
 20
3134.1097410000002
 30
0.0
 11
4299.3683920000003
 21
3176.6097410000002
 31
0.0
  0
LINE
  5
7AE6
  8
1
  6
CONTINUOUS
 10
4299.3683920000003
 20
3176.6097410000002
 30
0.0
 11
4308.6683919999996
 21
3186.5097409999998
 31
0.0
  0
LINE
  5
7AE7
  8
2
  6
CENTER
 10
4461.3683920000003
 20
3194.1097410000002
 30
0.0
 11
4461.3683920000003
 21
3434.1097409999988
 31
0.0
  0
LINE
  5
7AE8
  8
1
  6
CONTINUOUS
 10
4623.3683920000003
 20
3134.1097410000002
 30
0.0
 11
4623.3683920000003
 21
3176.6097410000002
 31
0.0
  0
LINE
  5
7AE9
  8
1
  6
CONTINUOUS
 10
4623.3683920000003
 20
3134.1097410000002
 30
0.0
 11
4563.3683920000003
 21
3134.1097410000002
 31
0.0
  0
LINE
  5
7AEA
  8
1
  6
CONTINUOUS
 10
4623.3683920000003
 20
3176.6097410000002
 30
0.0
 11
4614.0683920000001
 21
3186.5097409999998
 31
0.0
  0
LINE
  5
7AEB
  8
1
  6
CONTINUOUS
 10
4686.3683920000012
 20
3079.1097410000002
 30
0.0
 11
4686.3683920000012
 21
3134.1097410000002
 31
0.0
  0
LINE
  5
7AEC
  8
1
  6
CONTINUOUS
 10
4886.3683920000012
 20
3079.1097410000002
 30
0.0
 11
4886.3683920000012
 21
2929.1097410000002
 31
0.0
  0
LINE
  5
7AED
  8
1
  6
CONTINUOUS
 10
4886.3683920000012
 20
2910.1097410000002
 30
0.0
 11
4886.3683920000012
 21
2835.1097410000002
 31
0.0
  0
LINE
  5
7AEE
  8
1
  6
CONTINUOUS
 10
2411.3683919999999
 20
8765.286204
 30
0.0
 11
3761.3683919999999
 21
8765.286204
 31
0.0
  0
LINE
  5
7AEF
  8
1
  6
CONTINUOUS
 10
2261.3683919999999
 20
7712.2862040000009
 30
0.0
 11
4168.8683920000003
 21
7712.2862040000009
 31
0.0
  0
LINE
  5
7AF0
  8
1
  6
CONTINUOUS
 10
2261.3683919999999
 20
8662.286204
 30
0.0
 11
4168.8683920000003
 21
8662.286204
 31
0.0
  0
LINE
  5
7AF1
  8
1
  6
CONTINUOUS
 10
2808.3683919999999
 20
7460.286204
 30
0.0
 11
2336.3683919999999
 21
7460.286204
 31
0.0
  0
LINE
  5
7AF2
  8
1
  6
CONTINUOUS
 10
2261.3683919999999
 20
7662.2862040000009
 30
0.0
 11
2261.3683919999999
 21
8712.2862039999982
 31
0.0
  0
LINE
  5
7AF3
  8
1
  6
CONTINUOUS
 10
2311.3683919999999
 20
7712.2862040000009
 30
0.0
 11
2311.3683919999999
 21
8662.286204
 31
0.0
  0
LINE
  5
7AF4
  8
1
  6
CONTINUOUS
 10
2336.3683919999999
 20
7460.286204
 30
0.0
 11
2336.3683919999999
 21
7712.2862040000009
 31
0.0
  0
LINE
  5
7AF5
  8
1
  6
CONTINUOUS
 10
2461.3683919999999
 20
8662.286204
 30
0.0
 11
2461.3683919999999
 21
8765.286204
 31
0.0
  0
LINE
  5
7AF6
  8
1
  6
CONTINUOUS
 10
2336.3683919999999
 20
8740.286204
 30
0.0
 11
2461.3683919999999
 21
8740.286204
 31
0.0
  0
LINE
  5
7AF7
  8
1
  6
CONTINUOUS
 10
2336.3683919999999
 20
8662.286204
 30
0.0
 11
2336.3683919999999
 21
8740.286204
 31
0.0
  0
LINE
  5
7AF8
  8
1
  6
CONTINUOUS
 10
2708.3683919999999
 20
7587.2862040000009
 30
0.0
 11
4781.3683920000003
 21
7587.2862040000009
 31
0.0
  0
LINE
  5
7AF9
  8
1
  6
CONTINUOUS
 10
2708.3683919999999
 20
7347.2862040000009
 30
0.0
 11
4781.3683920000003
 21
7347.2862040000009
 31
0.0
  0
LINE
  5
7AFA
  8
1
  6
CONTINUOUS
 10
4341.3683920000003
 20
7460.286204
 30
0.0
 11
3364.3683919999999
 21
7460.286204
 31
0.0
  0
LINE
  5
7AFB
  8
1
  6
CONTINUOUS
 10
3711.3683919999999
 20
8740.286204
 30
0.0
 11
4886.3683920000012
 21
8740.286204
 31
0.0
  0
LINE
  5
7AFC
  8
1
  6
CONTINUOUS
 10
3364.3683919999999
 20
7417.2862040000009
 30
0.0
 11
2808.3683919999999
 21
7417.2862040000009
 31
0.0
  0
LINE
  5
7AFD
  8
1
  6
CONTINUOUS
 10
3364.3683919999999
 20
7517.2862040000009
 30
0.0
 11
2808.3683919999999
 21
7517.2862040000009
 31
0.0
  0
LINE
  5
7AFE
  8
1
  6
CONTINUOUS
 10
3058.8683919999999
 20
7517.2862040000009
 30
0.0
 11
3058.8683919999999
 21
7712.2862040000009
 31
0.0
  0
LINE
  5
7AFF
  8
1
  6
CONTINUOUS
 10
3113.8683919999999
 20
7517.2862040000009
 30
0.0
 11
3113.8683919999999
 21
7712.2862040000009
 31
0.0
  0
LINE
  5
7B00
  8
1
  6
CONTINUOUS
 10
2708.3683919999999
 20
7347.2862040000009
 30
0.0
 11
2708.3683919999999
 21
7587.2862040000009
 31
0.0
  0
LINE
  5
7B01
  8
1
  6
CONTINUOUS
 10
2808.3683919999999
 20
7417.2862040000009
 30
0.0
 11
2808.3683919999999
 21
7517.2862040000009
 31
0.0
  0
LINE
  5
7B02
  8
1
  6
CONTINUOUS
 10
3364.3683919999999
 20
7417.2862040000009
 30
0.0
 11
3364.3683919999999
 21
7517.2862040000009
 31
0.0
  0
LINE
  5
7B03
  8
1
  6
CONTINUOUS
 10
3711.3683919999999
 20
8662.286204
 30
0.0
 11
3711.3683919999999
 21
8765.286204
 31
0.0
  0
LINE
  5
7B04
  8
1
  6
CONTINUOUS
 10
4168.8683920000003
 20
7712.2862040000009
 30
0.0
 11
4168.8683920000003
 21
8662.286204
 31
0.0
  0
LINE
  5
7B05
  8
1
  6
CONTINUOUS
 10
4886.3683920000012
 20
8740.286204
 30
0.0
 11
4886.3683920000012
 21
7460.286204
 31
0.0
  0
LINE
  5
7B06
  8
1
  6
CONTINUOUS
 10
4581.3683920000003
 20
7417.2862040000009
 30
0.0
 11
4341.3683920000003
 21
7417.2862040000009
 31
0.0
  0
LINE
  5
7B07
  8
1
  6
CONTINUOUS
 10
4581.3683920000003
 20
7517.2862040000009
 30
0.0
 11
4341.3683920000003
 21
7517.2862040000009
 31
0.0
  0
LINE
  5
7B08
  8
1
  6
CONTINUOUS
 10
4660.4683919999998
 20
7631.786204
 30
0.0
 11
4262.2683919999999
 21
7631.786204
 31
0.0
  0
LINE
  5
7B09
  8
1
  6
CONTINUOUS
 10
4660.4683919999998
 20
8231.2862039999982
 30
0.0
 11
4262.2683919999999
 21
8231.2862039999982
 31
0.0
  0
LINE
  5
7B0A
  8
1
  6
CONTINUOUS
 10
4341.3683920000003
 20
7417.2862040000009
 30
0.0
 11
4341.3683920000003
 21
7517.2862040000009
 31
0.0
  0
LINE
  5
7B0B
  8
1
  6
CONTINUOUS
 10
4262.2683919999999
 20
7631.786204
 30
0.0
 11
4262.2683919999999
 21
8231.2862039999982
 31
0.0
  0
LINE
  5
7B0C
  8
1
  6
CONTINUOUS
 10
4488.8683920000003
 20
7517.2862040000009
 30
0.0
 11
4488.8683920000003
 21
7631.786204
 31
0.0
  0
LINE
  5
7B0D
  8
1
  6
CONTINUOUS
 10
4433.8683919999994
 20
7517.2862040000009
 30
0.0
 11
4433.8683919999994
 21
7631.786204
 31
0.0
  0
LINE
  5
7B0E
  8
1
  6
CONTINUOUS
 10
4886.3683920000012
 20
7460.286204
 30
0.0
 11
4581.3683920000003
 21
7460.286204
 31
0.0
  0
LINE
  5
7B0F
  8
1
  6
CONTINUOUS
 10
4581.3683920000003
 20
7417.2862040000009
 30
0.0
 11
4581.3683920000003
 21
7517.2862040000009
 31
0.0
  0
LINE
  5
7B10
  8
1
  6
CONTINUOUS
 10
4781.3683920000003
 20
7347.2862040000009
 30
0.0
 11
4781.3683920000003
 21
7587.2862040000009
 31
0.0
  0
LINE
  5
7B11
  8
1
  6
CONTINUOUS
 10
4660.4683919999998
 20
7631.786204
 30
0.0
 11
4660.4683919999998
 21
8231.2862039999982
 31
0.0
  0
LINE
  5
7B12
  8
1
  6
CONTINUOUS
 10
6934.9046669999989
 20
2835.1097410000002
 30
0.0
 11
5654.9046669999998
 21
2835.1097410000002
 31
0.0
  0
LINE
  5
7B13
  8
1
  6
CONTINUOUS
 10
6934.9046669999989
 20
2910.1097410000002
 30
0.0
 11
5654.9046669999998
 21
2910.1097410000002
 31
0.0
  0
LINE
  5
7B14
  8
1
  6
CONTINUOUS
 10
5906.9046669999998
 20
4425.1097409999993
 30
0.0
 11
6856.9046670000007
 21
4425.1097409999993
 31
0.0
  0
LINE
  5
7B15
  8
1
  6
CONTINUOUS
 10
6934.9046669999989
 20
2929.1097410000002
 30
0.0
 11
5654.9046669999998
 21
2929.1097410000002
 31
0.0
  0
LINE
  5
7B16
  8
1
  6
CONTINUOUS
 10
5906.9046669999998
 20
5308.1097409999993
 30
0.0
 11
6856.9046670000007
 21
5308.1097409999993
 31
0.0
  0
LINE
  5
7B17
  8
1
  6
CONTINUOUS
 10
5906.9046669999998
 20
3145.1097410000002
 30
0.0
 11
6856.9046670000007
 21
3145.1097410000002
 31
0.0
  0
LINE
  5
7B18
  8
1
  6
CONTINUOUS
 10
5906.9046669999998
 20
3145.1097410000002
 30
0.0
 11
6856.9046670000007
 21
4425.1097409999993
 31
0.0
  0
LINE
  5
7B19
  8
1
  6
CONTINUOUS
 10
5906.9046669999998
 20
4425.1097409999993
 30
0.0
 11
6856.9046670000007
 21
3145.1097410000002
 31
0.0
  0
LINE
  5
7B47
  8
1
  6
CONTINUOUS
 10
5906.9046669999998
 20
3145.1097410000002
 30
0.0
 11
5906.9046669999998
 21
5308.1097409999993
 31
0.0
  0
LINE
  5
7B48
  8
1
  6
CONTINUOUS
 10
5541.9046669999998
 20
3214.1097410000002
 30
0.0
 11
5541.9046669999998
 21
4857.1097409999993
 31
0.0
  0
LINE
  5
7B49
  8
1
  6
CONTINUOUS
 10
5781.9046669999998
 20
3214.1097410000002
 30
0.0
 11
5781.9046669999998
 21
4857.1097409999993
 31
0.0
  0
LINE
  5
7B4A
  8
1
  6
CONTINUOUS
 10
5611.9046669999998
 20
4201.1097409999984
 30
0.0
 11
5611.9046669999998
 21
4757.1097409999993
 31
0.0
  0
LINE
  5
7B4B
  8
1
  6
CONTINUOUS
 10
5711.9046669999989
 20
4201.1097409999984
 30
0.0
 11
5711.9046669999989
 21
4757.1097409999993
 31
0.0
  0
LINE
  5
7B4C
  8
1
  6
CONTINUOUS
 10
5711.9046669999989
 20
3314.1097410000002
 30
0.0
 11
5711.9046669999989
 21
3554.1097409999988
 31
0.0
  0
LINE
  5
7B4D
  8
1
  6
CONTINUOUS
 10
5611.9046669999998
 20
3314.1097410000002
 30
0.0
 11
5611.9046669999998
 21
3554.1097409999988
 31
0.0
  0
LINE
  5
7B4E
  8
1
  6
CONTINUOUS
 10
6934.9046670000007
 20
3079.1097410000002
 30
0.0
 11
5654.9046669999998
 21
3079.1097410000002
 31
0.0
  0
LINE
  5
7B4F
  8
1
  6
CONTINUOUS
 10
5611.9046669999998
 20
3314.1097410000002
 30
0.0
 11
5711.9046669999989
 21
3314.1097410000002
 31
0.0
  0
LINE
  5
7B50
  8
1
  6
CONTINUOUS
 10
5541.9046669999998
 20
3214.1097410000002
 30
0.0
 11
5781.9046669999998
 21
3214.1097410000002
 31
0.0
  0
LINE
  5
7B51
  8
1
  6
CONTINUOUS
 10
5654.9046669999998
 20
2835.1097410000002
 30
0.0
 11
5654.9046669999998
 21
2910.1097410000002
 31
0.0
  0
LINE
  5
7B52
  8
1
  6
CONTINUOUS
 10
5654.9046669999998
 20
2929.1097410000002
 30
0.0
 11
5654.9046669999998
 21
3079.1097410000002
 31
0.0
  0
LINE
  5
7B53
  8
1
  6
CONTINUOUS
 10
5711.9046669999989
 20
3406.6097410000002
 30
0.0
 11
5906.9046669999998
 21
3406.6097410000002
 31
0.0
  0
LINE
  5
7B54
  8
1
  6
CONTINUOUS
 10
5611.9046669999998
 20
3554.1097409999988
 30
0.0
 11
5711.9046669999989
 21
3554.1097409999988
 31
0.0
  0
LINE
  5
7B55
  8
1
  6
CONTINUOUS
 10
5611.9046669999998
 20
4201.1097409999984
 30
0.0
 11
5711.9046669999989
 21
4201.1097409999984
 31
0.0
  0
LINE
  5
7B56
  8
1
  6
CONTINUOUS
 10
5711.9046669999989
 20
3461.6097410000002
 30
0.0
 11
5906.9046669999998
 21
3461.6097410000002
 31
0.0
  0
LINE
  5
7B57
  8
1
  6
CONTINUOUS
 10
5611.9046669999998
 20
4757.1097409999993
 30
0.0
 11
5711.9046669999989
 21
4757.1097409999993
 31
0.0
  0
LINE
  5
7B58
  8
1
  6
CONTINUOUS
 10
5541.9046669999998
 20
4857.1097409999993
 30
0.0
 11
5781.9046669999998
 21
4857.1097409999993
 31
0.0
  0
LINE
  5
7B59
  8
1
  6
CONTINUOUS
 10
5711.9046669999989
 20
4506.6097409999993
 30
0.0
 11
5906.9046669999998
 21
4506.6097409999993
 31
0.0
  0
LINE
  5
7B5A
  8
1
  6
CONTINUOUS
 10
5711.9046669999989
 20
4451.6097409999993
 30
0.0
 11
5906.9046669999998
 21
4451.6097409999993
 31
0.0
  0
LINE
  5
7B7F
  8
1
  6
CONTINUOUS
 10
6856.9046670000007
 20
3145.1097410000002
 30
0.0
 11
6856.9046670000007
 21
5308.1097409999993
 31
0.0
  0
LINE
  5
7B80
  8
1
  6
CONTINUOUS
 10
6959.9046669999989
 20
3804.1097409999988
 30
0.0
 11
6959.9046669999989
 21
5154.1097409999993
 31
0.0
  0
LINE
  5
7B81
  8
1
  6
CONTINUOUS
 10
6934.9046669999989
 20
3079.1097410000002
 30
0.0
 11
6856.9046670000007
 21
3079.1097410000002
 31
0.0
  0
LINE
  5
7B82
  8
1
  6
CONTINUOUS
 10
6934.9046669999989
 20
2835.1097410000002
 30
0.0
 11
6934.9046669999989
 21
2910.1097410000002
 31
0.0
  0
LINE
  5
7B83
  8
1
  6
CONTINUOUS
 10
6934.9046669999989
 20
2929.1097410000002
 30
0.0
 11
6934.9046669999989
 21
3079.1097410000002
 31
0.0
  0
LINE
  5
7B84
  8
1
  6
CONTINUOUS
 10
6856.9046670000007
 20
3854.1097410000002
 30
0.0
 11
6959.9046669999989
 21
3854.1097410000002
 31
0.0
  0
LINE
  5
7B85
  8
1
  6
CONTINUOUS
 10
6856.9046670000007
 20
5104.1097409999993
 30
0.0
 11
6959.9046669999989
 21
5104.1097409999993
 31
0.0
  0
LINE
  5
7B86
  8
2
  6
CENTER
 10
6381.9046669999998
 20
5517.2416939999994
 30
0.0
 11
6381.9046669999998
 21
2644.089074
 31
0.0
  0
LINE
  5
7B87
  8
2
  6
CENTER
 10
4989.1711610000002
 20
8187.2862040000009
 30
0.0
 11
2076.1779569999999
 21
8187.2862040000009
 31
0.0
  0
LINE
  5
7B88
  8
2
  6
CENTER
 10
3086.3683919999999
 20
5458.4607189999997
 30
0.0
 11
3086.3683919999999
 21
2600.2337210000001
 31
0.0
  0
LINE
  5
7B89
  8
2
  6
CENTER
 10
4422.3069619999987
 20
4479.1097409999993
 30
0.0
 11
2129.2257869999999
 21
4479.1097409999993
 31
0.0
  0
LINE
  5
7B8A
  8
2
  6
CENTER
 10
7019.7155230000008
 20
4479.1097409999993
 30
0.0
 11
5329.1590530000012
 21
4479.1097409999993
 31
0.0
  0
LINE
  5
7B8B
  8
4
  6
CONTINUOUS
 10
7400.0
 20
2000.0
 30
0.0
 11
7400.0
 21
1200.0
 31
0.0
  0
LINE
  5
7B8C
  8
4
  6
CONTINUOUS
 10
4600.0
 20
2000.0
 30
0.0
 11
4600.0
 21
1200.0
 31
0.0
  0
LINE
  5
7B8D
  8
4
  6
CONTINUOUS
 10
2600.0
 20
2000.0
 30
0.0
 11
2600.0
 21
1200.0
 31
0.0
  0
LINE
  5
7B90
  8
4
  6
CONTINUOUS
 10
2600.0
 20
1200.0
 30
0.0
 11
7400.0
 21
1200.0
 31
0.0
  0
LINE
  5
7B91
  8
4
  6
CONTINUOUS
 10
2600.0
 20
1600.0
 30
0.0
 11
7400.0
 21
1600.0
 31
0.0
  0
TEXT
  5
7B92
  8
4
  6
CONTINUOUS
 10
2754.008323
 20
1726.1721030000001
 30
0.0
 40
200.0
  1
機器名称
  0
TEXT
  5
7B93
  8
4
  6
CONTINUOUS
 10
2745.032424
 20
1286.580627
 30
0.0
 40
200.0
  1
機器型番
  0
TEXT
  5
7B94
  8
4
  6
CONTINUOUS
 10
4710.7149820000004
 20
1690.2870760000001
 30
0.0
 40
200.0
  1
ミツヤ多翼送風機
  0
TEXT
  5
7B95
  8
4
  6
CONTINUOUS
 10
4746.6179819999998
 20
1268.6383370000001
 30
0.0
 40
200.0
  1
MFE#8-4
  0
TEXT
  5
7B97
  8
4
  6
CONTINUOUS
 10
3004.4633399999998
 20
9533.715365
 30
0.0
 40
216.0
  1
床置防振ベット
  0
TEXT
  5
7B98
  8
4
  6
CONTINUOUS
 10
1264.6703729999999
 20
10135.523905
 30
0.0
 40
288.0
  1
ベルト駆動式片吸込両持排煙ファン
  0
LINE
  5
7B99
  8
4
  6
CONTINUOUS
 10
1000.0
 20
9877.6350170000005
 30
0.0
 11
7400.0
 21
9877.6350170000005
 31
0.0
  0
LINE
  5
7B9A
  8
4
  6
CONTINUOUS
 10
1000.0
 20
10677.635017000001
 30
0.0
 11
7400.0
 21
10677.635017000001
 31
0.0
  0
LINE
  5
7B9B
  8
4
  6
CONTINUOUS
 10
2600.0
 20
2000.0
 30
0.0
 11
7400.0
 21
2000.0
 31
0.0
  0
LINE
  5
7B9C
  8
4
  6
CONTINUOUS
 10
1000.0
 20
10677.635017000001
 30
0.0
 11
1000.0
 21
9877.6350170000005
 31
0.0
  0
TEXT
  5
7B9D
  8
4
  6
CONTINUOUS
 10
1261.0280110000001
 20
9529.2779099999989
 30
0.0
 40
216.0
  1
右回転左横向
  0
TEXT
  5
7B9E
  8
4
  6
CONTINUOUS
 10
5875.8782369999999
 20
10824.244326
 30
0.0
 40
224.0
  1
No.
  0
TEXT
  5
7B9F
  8
4
  6
CONTINUOUS
 10
5245.1842500000012
 20
9533.715365
 30
0.0
 40
216.0
  1
縮尺：1/40
  0
LINE
  5
7BA0
  8
4
  6
CONTINUOUS
 10
7400.0
 20
10677.635017000001
 30
0.0
 11
7400.0
 21
9877.6350170000005
 31
0.0
  0
LINE
  5
7BA2
  8
4
  6
CONTINUOUS
 10
5762.4696889999996
 20
10725.054333
 30
0.0
 11
5762.4696889999996
 21
11146.609046
 31
0.0
  0
LINE
  5
7BA3
  8
4
  6
CONTINUOUS
 10
5762.4696889999996
 20
11146.609046
 30
0.0
 11
7400.0
 21
11146.609046
 31
0.0
  0
LINE
  5
7BA4
  8
4
  6
CONTINUOUS
 10
7400.0
 20
11146.609046
 30
0.0
 11
7400.0
 21
10725.054333
 31
0.0
  0
LINE
  5
7BA5
  8
4
  6
CONTINUOUS
 10
7400.0
 20
10725.054333
 30
0.0
 11
5762.4696889999996
 21
10725.054333
 31
0.0
  0
DIMENSION
  5
7BBD
  8
3
  6
CONTINUOUS
  2
*D1
 10
2036.591332
 20
3145.1097410000002
 30
0.0
 11
2036.5913319999991
 21
3723.0222330000001
 31
0.0
 70
   128
 13
2261.3683919999999
 23
4425.1097409999993
 33
0.0
 14
2261.3683919999999
 24
3145.1097410000002
 34
0.0
 50
90.0
1001
ACAD
1000
DSTYLE
1002
{
1070
   287
1070
     3
1070
   287
1070
     3
1070
    40
1040
40.0
1070
   143
1040
0.039
1070
   172
1070
     1
1070
   271
1070
     0
1070
   279
1070
     0
1070
   288
1070
     1
1002
}
  0
DIMENSION
  5
7BCA
  8
3
  6
CONTINUOUS
  2
*D2
 10
1769.209177
 20
3145.1097410000002
 30
0.0
 11
1769.209177
 21
3731.6422600000001
 31
0.0
 70
   128
 13
2129.2257869999999
 23
4479.1097409999993
 33
0.0
 14
2261.3683919999999
 24
3145.1097410000002
 34
0.0
 50
90.0
1001
ACAD
1000
DSTYLE
1002
{
1070
   287
1070
     3
1070
   287
1070
     3
1070
    40
1040
40.0
1070
   143
1040
0.039
1070
   172
1070
     1
1070
   271
1070
     0
1070
   279
1070
     0
1070
   288
1070
     1
1002
}
  0
DIMENSION
  5
7BD7
  8
3
  6
CONTINUOUS
  2
*D3
 10
1484.5765630000001
 20
4479.1097410000011
 30
0.0
 11
1484.5765630000001
 21
4929.8295119999993
 31
0.0
 70
   128
 13
3113.2158920000002
 23
5376.3653979999999
 33
0.0
 14
2129.2257869999999
 24
4479.1097409999993
 34
0.0
 50
90.0
1001
ACAD
1000
DSTYLE
1002
{
1070
   287
1070
     3
1070
   287
1070
     3
1070
    40
1040
40.0
1070
   143
1040
0.039
1070
   172
1070
     1
1070
   271
1070
     0
1070
   279
1070
     0
1070
   288
1070
     1
1002
}
  0
DIMENSION
  5
7BE3
  8
3
  6
CONTINUOUS
  2
*D4
 10
1484.5765630000001
 20
2929.1097410000002
 30
0.0
 11
1384.5765629999989
 21
3704.1097410000002
 31
0.0
 70
     0
 13
2129.2257869999999
 23
4479.1097409999993
 33
0.0
 14
2336.3683919999999
 24
2929.1097410000002
 34
0.0
 50
90.0
1001
ACAD
1000
DSTYLE
1002
{
1070
   287
1070
     4
1070
   287
1070
     4
1070
    40
1040
40.0
1070
    75
1070
     1
1070
   143
1040
0.039
1070
   172
1070
     1
1070
   271
1070
     0
1070
   279
1070
     1
1070
   288
1070
     1
1002
}
  0
DIMENSION
  5
7BF3
  8
3
  6
CONTINUOUS
  2
*D5
 10
1483.4803790000001
 20
2835.1097410000002
 30
0.0
 11
1483.4803789999989
 21
2535.1097410000011
 31
0.0
 70
   128
 13
2336.3683919999999
 23
2929.1097410000002
 33
0.0
 14
2336.3683919999999
 24
2835.1097410000002
 34
0.0
 50
90.0
1001
ACAD
1000
DSTYLE
1002
{
1070
   287
1070
     3
1070
   287
1070
     3
1070
    40
1040
40.0
1070
   143
1040
0.039
1070
   172
1070
     1
1070
   271
1070
     0
1070
   279
1070
     0
1070
   288
1070
     1
1002
}
  0
DIMENSION
  5
7C00
  8
3
  6
CONTINUOUS
  2
*D6
 10
1240.953209
 20
2835.1097410000002
 30
0.0
 11
1240.953209
 21
4085.0644029999999
 31
0.0
 70
   128
 13
3113.2158920000002
 23
5376.3653979999999
 33
0.0
 14
2336.3683919999999
 24
2835.1097410000002
 34
0.0
 50
90.0
1001
ACAD
1000
DSTYLE
1002
{
1070
   287
1070
     3
1070
   287
1070
     3
1070
    40
1040
40.0
1070
   143
1040
0.039
1070
   172
1070
     1
1070
   271
1070
     0
1070
   279
1070
     0
1070
   288
1070
     1
1002
}
  0
DIMENSION
  5
7C0D
  8
3
  6
CONTINUOUS
  2
*D7
 10
3086.3683919999999
 20
2508.2756129999998
 30
0.0
 11
2717.124006
 21
2508.2756129999998
 31
0.0
 70
   128
 13
2336.3683919999999
 23
2835.1097410000002
 33
0.0
 14
3086.3683919999999
 24
2600.2337210000001
 34
0.0
1001
ACAD
1000
DSTYLE
1002
{
1070
   287
1070
     3
1070
   287
1070
     3
1070
    40
1040
40.0
1070
   143
1040
0.039
1070
   172
1070
     1
1070
   271
1070
     0
1070
   279
1070
     0
1070
   288
1070
     1
1002
}
  0
DIMENSION
  5
7C19
  8
3
  6
CONTINUOUS
  2
*D8
 10
4886.3683920000012
 20
2508.2756129999998
 30
0.0
 11
3986.3683920000012
 21
2608.2756129999989
 31
0.0
 70
     0
 13
3086.3683919999999
 23
2600.2337210000001
 33
0.0
 14
4886.3683920000012
 24
2835.1097410000002
 34
0.0
1001
ACAD
1000
DSTYLE
1002
{
1070
   287
1070
     4
1070
   287
1070
     4
1070
    40
1040
40.0
1070
    75
1070
     1
1070
   143
1040
0.039
1070
   172
1070
     1
1070
   271
1070
     0
1070
   279
1070
     1
1070
   288
1070
     1
1002
}
  0
DIMENSION
  5
7C26
  8
3
  6
CONTINUOUS
  2
*D9
 10
3086.3683919999999
 20
5653.9138789999997
 30
0.0
 11
2630.8717109999998
 21
5653.9138789999997
 31
0.0
 70
   128
 13
2261.3683919999999
 23
4475.1097409999993
 33
0.0
 14
3086.3683919999999
 24
5458.4607189999997
 34
0.0
1001
ACAD
1000
DSTYLE
1002
{
1070
   287
1070
     3
1070
   287
1070
     3
1070
    40
1040
40.0
1070
   143
1040
0.039
1070
   172
1070
     1
1070
   271
1070
     0
1070
   279
1070
     0
1070
   288
1070
     1
1002
}
  0
DIMENSION
  5
7C4F
  8
3
  6
CONTINUOUS
  2
*D10
 10
6856.9046670000007
 20
5498.7529450000002
 30
0.0
 11
6381.4484170000014
 21
5498.7529450000002
 31
0.0
 70
   128
 13
5906.9046669999998
 23
5308.1097409999993
 33
0.0
 14
6856.9046670000007
 24
5308.1097409999993
 34
0.0
1001
ACAD
1000
DSTYLE
1002
{
1070
   287
1070
     3
1070
   287
1070
     3
1070
    40
1040
40.0
1070
   143
1040
0.039
1070
   172
1070
     1
1070
   271
1070
     0
1070
   279
1070
     0
1070
   288
1070
     1
1002
}
  0
DIMENSION
  5
7C5C
  8
3
  6
CONTINUOUS
  2
*D11
 10
7235.3462589999999
 20
3854.1097409999988
 30
0.0
 11
7235.3462589999999
 21
4490.2068469999986
 31
0.0
 70
   128
 13
6959.9046669999989
 23
5104.1097409999993
 33
0.0
 14
6959.9046669999989
 24
3854.1097410000002
 34
0.0
 50
90.0
1001
ACAD
1000
DSTYLE
1002
{
1070
   287
1070
     3
1070
   287
1070
     3
1070
     3
1000
φ<>
1070
    40
1040
40.0
1070
   143
1040
0.039
1070
   172
1070
     1
1070
   271
1070
     0
1070
   279
1070
     0
1070
   288
1070
     1
1002
}
  0
DIMENSION
  5
7C69
  8
3
  6
CONTINUOUS
  2
*D12
 10
6381.9046669999998
 20
5774.5946210000002
 30
0.0
 11
6656.1903810000003
 21
5774.5946210000002
 31
0.0
 70
   128
 13
6959.9046669999989
 23
5154.1097409999993
 33
0.0
 14
6381.9046669999998
 24
5710.1558709999999
 34
0.0
1001
ACAD
1000
DSTYLE
1002
{
1070
   287
1070
     3
1070
   287
1070
     3
1070
    40
1040
40.0
1070
   143
1040
0.039
1070
   172
1070
     1
1070
   271
1070
     0
1070
   279
1070
     0
1070
   288
1070
     1
1002
}
  0
DIMENSION
  5
7C75
  8
3
  6
CONTINUOUS
  2
*D13
 10
5541.9046669999998
 20
5774.5946210000002
 30
0.0
 11
5961.9046669999989
 21
5974.5946210000002
 31
0.0
 70
     0
  1
MAX\P890
 13
6381.9046669999998
 23
5710.1558709999999
 33
0.0
 14
5541.9046669999998
 24
4857.1097409999993
 34
0.0
1001
ACAD
1000
DSTYLE
1002
{
1070
   287
1070
     4
1070
   287
1070
     4
1070
    40
1040
40.0
1070
    75
1070
     1
1070
   143
1040
0.039
1070
   172
1070
     1
1070
   271
1070
     0
1070
   279
1070
     1
1070
   288
1070
     1
1002
}
  0
DIMENSION
  5
7C82
  8
3
  6
CONTINUOUS
  2
*D14
 10
6381.9046669999998
 20
2508.2756129999998
 30
0.0
 11
6019.1887370000004
 21
2508.2756129999998
 31
0.0
 70
   128
 13
5654.9046669999998
 23
2835.1097410000002
 33
0.0
 14
6381.9046669999998
 24
2644.089074
 34
0.0
1001
ACAD
1000
DSTYLE
1002
{
1070
   287
1070
     3
1070
   287
1070
     3
1070
    40
1040
40.0
1070
   143
1040
0.039
1070
   172
1070
     1
1070
   271
1070
     0
1070
   279
1070
     0
1070
   288
1070
     1
1002
}
  0
DIMENSION
  5
7C8E
  8
3
  6
CONTINUOUS
  2
*D15
 10
6934.9046669999989
 20
2508.2756129999998
 30
0.0
 11
6658.4046669999989
 21
2608.2756129999989
 31
0.0
 70
     0
 13
6381.9046669999998
 23
2644.089074
 33
0.0
 14
6934.9046669999989
 24
2835.1097410000002
 34
0.0
1001
ACAD
1000
DSTYLE
1002
{
1070
   287
1070
     4
1070
   287
1070
     4
1070
    40
1040
40.0
1070
    75
1070
     1
1070
   143
1040
0.039
1070
   172
1070
     1
1070
   271
1070
     0
1070
   279
1070
     1
1070
   288
1070
     1
1002
}
  0
DIMENSION
  5
7CB0
  8
3
  6
CONTINUOUS
  2
*D16
 10
4886.3683920000012
 20
6990.710994
 30
0.0
 11
3553.7713899999999
 21
6990.710994
 31
0.0
 70
   128
 13
2336.3683919999999
 23
7460.286204
 33
0.0
 14
4886.3683920000012
 24
7460.286204
 34
0.0
1001
ACAD
1000
DSTYLE
1002
{
1070
   287
1070
     3
1070
   287
1070
     3
1070
    40
1040
40.0
1070
   143
1040
0.039
1070
   172
1070
     1
1070
   271
1070
     0
1070
   279
1070
     0
1070
   288
1070
     1
1002
}
  0
DIMENSION
  5
7CBD
  8
3
  6
CONTINUOUS
  2
*D17
 10
5240.8138620000009
 20
7460.286204
 30
0.0
 11
5240.813862
 21
8016.4971739999992
 31
0.0
 70
   128
 13
4886.3683920000012
 23
8740.286204
 33
0.0
 14
4886.3683920000012
 24
7460.286204
 34
0.0
 50
90.0
1001
ACAD
1000
DSTYLE
1002
{
1070
   287
1070
     3
1070
   287
1070
     3
1070
    40
1040
40.0
1070
   143
1040
0.039
1070
   172
1070
     1
1070
   271
1070
     0
1070
   279
1070
     0
1070
   288
1070
     1
1002
}
  0
LINE
  5
7CBE
  8
2
  6
CENTER
 10
3086.3683919999999
 20
8895.7425029999995
 30
0.0
 11
3086.3683919999999
 21
7155.86193
 31
0.0
  0
DIMENSION
  5
7CF9
  8
3
  6
CONTINUOUS
  2
*D18
 10
4165.3683920000003
 20
5653.9138789999997
 30
0.0
 11
3625.8683919999999
 21
5753.9138789999988
 31
0.0
 70
     0
 13
3086.3683919999999
 23
5458.4607189999997
 33
0.0
 14
4165.3683920000003
 24
4479.1097409999993
 34
0.0
1001
ACAD
1000
DSTYLE
1002
{
1070
   287
1070
     4
1070
   287
1070
     4
1070
    40
1040
40.0
1070
    75
1070
     1
1070
   143
1040
0.039
1070
   172
1070
     1
1070
   271
1070
     0
1070
   279
1070
     1
1070
   288
1070
     1
1002
}
  0
DIMENSION
  5
7D5E
  8
3
  2
*D19
 10
4886.3683920000012
 20
5905.526146245873
 30
0.0
 11
3574.3440753081882
 21
5905.526146245873
 31
0.0
 70
   128
 13
2261.3683919999999
 23
4475.1097409999993
 33
0.0
 14
4886.3683920000012
 24
3079.1097410000002
 34
0.0
1001
ACAD
1000
DSTYLE
1002
{
1070
   287
1070
     3
1070
   287
1070
     3
1070
    40
1040
40.0
1070
   143
1040
0.039
1070
   172
1070
     1
1070
   271
1070
     0
1070
   279
1070
     0
1070
   288
1070
     1
1002
}
  0
ENDSEC
  0
EOF
