  0
SECTION
  2
HEADER
  9
$ACADVER
  1
AC1009
  9
$INSBASE
 10
0.0
 20
0.0
 30
0.0
  9
$EXTMIN
 10
1000.0
 20
1200.0
 30
0.0
  9
$EXTMAX
 10
7400.0
 20
11146.609046
 30
0.0
  9
$LIMMIN
 10
0.0
 20
0.0
  9
$LIMMAX
 10
297.0
 20
210.0
  9
$ORTHOMODE
 70
     0
  9
$REGENMODE
 70
     1
  9
$FILLMODE
 70
     0
  9
$QTEXTMODE
 70
     0
  9
$MIRRTEXT
 70
     1
  9
$DRAGMODE
 70
     2
  9
$LTSCALE
 40
100.0
  9
$OSMODE
 70
    37
  9
$ATTMODE
 70
     1
  9
$TEXTSIZE
 40
180.0
  9
$TRACEWID
 40
0.05
  9
$TEXTSTYLE
  7
STANDARD
  9
$CLAYER
  8
3
  9
$CELTYPE
  6
BYLAYER
  9
$CECOLOR
 62
   256
  9
$DIMSCALE
 40
40.0
  9
$DIMASZ
 40
2.0
  9
$DIMEXO
 40
0.5
  9
$DIMDLI
 40
10.0
  9
$DIMRND
 40
0.0
  9
$DIMDLE
 40
0.0
  9
$DIMEXE
 40
1.0
  9
$DIMTP
 40
1.0
  9
$DIMTM
 40
1.0
  9
$DIMTXT
 40
3.0
  9
$DIMCEN
 40
0.0
  9
$DIMTSZ
 40
0.0
  9
$DIMTOL
 70
     0
  9
$DIMLIM
 70
     0
  9
$DIMTIH
 70
     0
  9
$DIMTOH
 70
     0
  9
$DIMSE1
 70
     0
  9
$DIMSE2
 70
     0
  9
$DIMTAD
 70
     1
  9
$DIMZIN
 70
     8
  9
$DIMBLK
  1

  9
$DIMASO
 70
     1
  9
$DIMSHO
 70
     1
  9
$DIMPOST
  1

  9
$DIMAPOST
  1

  9
$DIMALT
 70
     0
  9
$DIMALTD
 70
     2
  9
$DIMALTF
 40
0.039
  9
$DIMLFAC
 40
1.0
  9
$DIMTOFL
 70
     1
  9
$DIMTVP
 40
0.0
  9
$DIMTIX
 70
     0
  9
$DIMSOXD
 70
     0
  9
$DIMSAH
 70
     1
  9
$DIMBLK1
  1
OPEN
  9
$DIMBLK2
  1
OPEN
  9
$DIMSTYLE
  2
IGA
  9
$DIMCLRD
 70
     0
  9
$DIMCLRE
 70
     0
  9
$DIMCLRT
 70
     0
  9
$DIMTFAC
 40
10.0
  9
$DIMGAP
 40
1.0
  9
$LUNITS
 70
     2
  9
$LUPREC
 70
     3
  9
$SKETCHINC
 40
0.1
  9
$FILLETRAD
 40
50.0
  9
$AUNITS
 70
     0
  9
$AUPREC
 70
     0
  9
$MENU
  1
acad
  9
$ELEVATION
 40
0.0
  9
$PELEVATION
 40
0.0
  9
$THICKNESS
 40
0.0
  9
$LIMCHECK
 70
     0
  9
$BLIPMODE
 70
     0
  9
$CHAMFERA
 40
0.5
  9
$CHAMFERB
 40
0.5
  9
$SKPOLY
 70
     0
  9
$TDCREATE
 40
2450757.5754703698
  9
$TDUPDATE
 40
2454953.8449001731
  9
$TDINDWG
 40
0.0047565278
  9
$TDUSRTIMER
 40
0.0047565278
  9
$USRTIMER
 70
     1
  9
$ANGBASE
 50
0.0
  9
$ANGDIR
 70
     0
  9
$PDMODE
 70
     0
  9
$PDSIZE
 40
0.0
  9
$PLINEWID
 40
0.0
  9
$COORDS
 70
     1
  9
$SPLFRAME
 70
     0
  9
$SPLINETYPE
 70
     6
  9
$SPLINESEGS
 70
     8
  9
$ATTDIA
 70
     0
  9
$ATTREQ
 70
     1
  9
$HANDLING
 70
 10241
  9
$HANDSEED
  5
7E13
  9
$SURFTAB1
 70
     6
  9
$SURFTAB2
 70
     6
  9
$SURFTYPE
 70
     6
  9
$SURFU
 70
     6
  9
$SURFV
 70
     6
  9
$UCSNAME
  2

  9
$UCSORG
 10
0.0
 20
0.0
 30
0.0
  9
$UCSXDIR
 10
1.0
 20
0.0
 30
0.0
  9
$UCSYDIR
 10
0.0
 20
1.0
 30
0.0
  9
$PUCSNAME
  2

  9
$PUCSORG
 10
0.0
 20
0.0
 30
0.0
  9
$PUCSXDIR
 10
1.0
 20
0.0
 30
0.0
  9
$PUCSYDIR
 10
0.0
 20
1.0
 30
0.0
  9
$USERI1
 70
     0
  9
$USERI2
 70
     0
  9
$USERI3
 70
     0
  9
$USERI4
 70
     0
  9
$USERI5
 70
     0
  9
$USERR1
 40
0.0
  9
$USERR2
 40
0.0
  9
$USERR3
 40
0.0
  9
$USERR4
 40
0.0
  9
$USERR5
 40
0.0
  9
$WORLDVIEW
 70
     1
  9
$SHADEDGE
 70
     3
  9
$SHADEDIF
 70
    70
  9
$TILEMODE
 70
     1
  9
$MAXACTVP
 70
    16
  9
$PLIMCHECK
 70
     0
  9
$PEXTMIN
 10
1.0000000000000000E+020
 20
1.0000000000000000E+020
 30
1.0000000000000000E+020
  9
$PEXTMAX
 10
-1.0000000000000000E+020
 20
-1.0000000000000000E+020
 30
-1.0000000000000000E+020
  9
$PLIMMIN
 10
0.0
 20
0.0
  9
$PLIMMAX
 10
12.0
 20
9.0
  9
$UNITMODE
 70
     0
  9
$VISRETAIN
 70
     0
  9
$PLINEGEN
 70
     0
  9
$PSLTSCALE
 70
     1
  0
ENDSEC
  0
SECTION
  2
TABLES
  0
TABLE
  2
VPORT
 70
     2
  0
VPORT
  2
*ACTIVE
 70
     0
 10
0.0
 20
0.0
 11
1.0
 21
1.0
 12
9029.5760773689744
 22
4600.534378908259
 13
0.0
 23
0.0
 14
10.0
 24
10.0
 15
10.0
 25
10.0
 16
0.0
 26
0.0
 36
1.0
 17
0.0
 27
0.0
 37
0.0
 40
14046.829360524451
 41
1.5051150895140659
 42
50.0
 43
0.0
 44
0.0
 50
0.0
 51
0.0
 71
     0
 72
   100
 73
     1
 74
     0
 75
     0
 76
     0
 77
     0
 78
     0
  0
ENDTAB
  0
TABLE
  2
LTYPE
 70
     2
  0
LTYPE
  2
CONTINUOUS
 70
     0
  3
Solid line
 72
    65
 73
     0
 40
0.0
  0
LTYPE
  2
CENTER
 70
     0
  3
____ _ ____ _ ____ _ ____ _ ____ _ ____ _ ____ 
 72
    65
 73
     4
 40
2.0
 49
1.25
 49
-0.25
 49
0.25
 49
-0.25
  0
ENDTAB
  0
TABLE
  2
LAYER
 70
     6
  0
LAYER
  2
0
 70
     0
 62
     7
  6
CONTINUOUS
  0
LAYER
  2
3
 70
     0
 62
     2
  6
CONTINUOUS
  0
LAYER
  2
2
 70
     0
 62
     3
  6
CENTER
  0
LAYER
  2
1
 70
     0
 62
     4
  6
CONTINUOUS
  0
LAYER
  2
4
 70
     0
 62
     7
  6
CONTINUOUS
  0
LAYER
  2
DEFPOINTS
 70
     0
 62
     7
  6
CONTINUOUS
  0
ENDTAB
  0
TABLE
  2
STYLE
 70
     1
  0
STYLE
  2
STANDARD
 70
     0
 40
0.0
 41
1.0
 50
0.0
 71
     0
 42
180.0
  3
simplex.shx
  4
extfont.shx
  0
ENDTAB
  0
TABLE
  2
VIEW
 70
     0
  0
ENDTAB
  0
TABLE
  2
UCS
 70
     0
  0
ENDTAB
  0
TABLE
  2
APPID
 70
     1
  0
APPID
  2
ACAD
 70
     0
  0
ENDTAB
  0
TABLE
  2
DIMSTYLE
 70
     1
  0
DIMSTYLE
  2
IGA
 70
     0
  3

  4

  5

  6
OPEN
  7
OPEN
 40
2.0
 41
2.0
 42
0.5
 43
10.0
 44
1.0
 45
0.0
 46
0.0
 47
1.0
 48
1.0
140
3.0
141
0.0
142
0.0
143
0.03937
144
1.0
145
0.0
146
10.0
147
1.0
 71
     0
 72
     0
 73
     0
 74
     0
 75
     0
 76
     0
 77
     1
 78
     8
170
     0
171
     2
172
     0
173
     1
174
     0
175
     0
176
     0
177
     0
178
     0
  0
ENDTAB
  0
ENDSEC
  0
SECTION
  2
BLOCKS
  0
BLOCK
  8
0
  2
$MODEL_SPACE
 70
     0
 10
0.0
 20
0.0
 30
0.0
  3
$MODEL_SPACE
  1

  0
ENDBLK
  5
1B
  8
0
  0
BLOCK
 67
     1
  8
0
  2
$PAPER_SPACE
 70
     0
 10
0.0
 20
0.0
 30
0.0
  3
$PAPER_SPACE
  1

  0
ENDBLK
  5
18
 67
     1
  8
0
  0
BLOCK
  8
0
  2
_OPEN
 70
     0
 10
0.0
 20
0.0
 30
0.0
  3
_OPEN
  1

  0
LINE
  5
7B0B
  8
0
  6
BYBLOCK
 62
     0
 10
-1.0
 20
0.166667
 30
0.0
 11
0.0
 21
0.0
 31
0.0
  0
LINE
  5
7B0C
  8
0
  6
BYBLOCK
 62
     0
 10
0.0
 20
0.0
 30
0.0
 11
-1.0
 21
-0.166667
 31
0.0
  0
LINE
  5
7B0D
  8
0
  6
BYBLOCK
 62
     0
 10
0.0
 20
0.0
 30
0.0
 11
-1.0
 21
0.0
 31
0.0
  0
ENDBLK
  5
7B0E
  8
0
  0
BLOCK
  8
0
  2
*D1
 70
     1
 10
0.0
 20
0.0
 30
0.0
  3
*D1
  1

  0
LINE
  5
7D5F
  8
3
 62
     0
 10
1764.8026870000001
 20
4845.2069629999996
 30
0.0
 11
1764.8026870000001
 21
5038.2841820000003
 31
0.0
  0
LINE
  5
7D60
  8
3
 62
     0
 10
3044.8026869999999
 20
4845.2069629999996
 30
0.0
 11
3044.8026869999999
 21
5038.2841820000003
 31
0.0
  0
LINE
  5
7D61
  8
3
 62
     0
 10
1844.8026870000001
 20
4998.2841820000003
 30
0.0
 11
2964.8026869999999
 21
4998.2841820000003
 31
0.0
  0
INSERT
  5
7D62
  8
3
 62
     0
  2
_OPEN
 10
1764.8026870000001
 20
4998.2841820000003
 30
0.0
 41
80.0
 42
80.0
 43
80.0
 50
180.0
  0
INSERT
  5
7D63
  8
3
 62
     0
  2
_OPEN
 10
3044.8026869999999
 20
4998.2841820000003
 30
0.0
 41
80.0
 42
80.0
 43
80.0
  0
TEXT
  8
3
  40
120
  5
7E00
  62
0
  72
0
  71
0
 10
2177.78
 20
4885.88
 30
0.000000
  1
1280
  0
POINT
  5
7D65
  8
DEFPOINTS
 62
     0
 10
1764.8026870000001
 20
4825.2069630000015
 30
0.0
  0
POINT
  5
7D66
  8
DEFPOINTS
 62
     0
 10
3044.8026869999999
 20
4825.2069630000015
 30
0.0
  0
POINT
  5
7D67
  8
DEFPOINTS
 62
     0
 10
3044.8026869999999
 20
4998.2841820000003
 30
0.0
  0
ENDBLK
  5
7B1B
  8
0
  0
BLOCK
  8
0
  2
*D2
 70
     1
 10
0.0
 20
0.0
 30
0.0
  3
*D2
  1

  0
LINE
  5
7D68
  8
3
 62
     0
 10
1764.8026870000001
 20
4845.2069629999996
 30
0.0
 11
1764.8026870000001
 21
5285.0551619999987
 31
0.0
  0
LINE
  5
7D69
  8
3
 62
     0
 10
3098.8026869999999
 20
5064.5137629999999
 30
0.0
 11
3098.8026869999999
 21
5285.0551619999987
 31
0.0
  0
LINE
  5
7D6A
  8
3
 62
     0
 10
1844.8026870000001
 20
5245.0551619999987
 30
0.0
 11
3018.802686999999
 21
5245.0551619999987
 31
0.0
  0
INSERT
  5
7D6B
  8
3
 62
     0
  2
_OPEN
 10
1764.8026870000001
 20
5245.0551619999987
 30
0.0
 41
80.0
 42
80.0
 43
80.0
 50
180.0
  0
INSERT
  5
7D6C
  8
3
 62
     0
  2
_OPEN
 10
3098.8026869999999
 20
5245.0551619999987
 30
0.0
 41
80.0
 42
80.0
 43
80.0
  0
TEXT
  8
3
  40
120
  5
7E01
  62
0
  72
0
  71
0
 10
2177.78
 20
5132.66
 30
0.000000
  1
1334
  0
POINT
  5
7D6E
  8
DEFPOINTS
 62
     0
 10
1764.8026870000001
 20
4825.2069630000015
 30
0.0
  0
POINT
  5
7D6F
  8
DEFPOINTS
 62
     0
 10
3098.8026869999999
 20
5044.5137629999999
 30
0.0
  0
POINT
  5
7D70
  8
DEFPOINTS
 62
     0
 10
3098.8026869999999
 20
5245.0551619999987
 30
0.0
  0
ENDBLK
  5
7B28
  8
0
  0
BLOCK
  8
0
  2
*D3
 70
     1
 10
0.0
 20
0.0
 30
0.0
  3
*D3
  1

  0
LINE
  5
7D71
  8
3
 62
     0
 10
3996.0583449999999
 20
3993.3594629999998
 30
0.0
 11
3996.0583449999999
 21
5285.0551619999987
 31
0.0
  0
LINE
  5
7D72
  8
3
 62
     0
 10
3178.8026869999999
 20
5245.0551619999987
 30
0.0
 11
3916.0583449999999
 21
5245.0551619999987
 31
0.0
  0
INSERT
  5
7D73
  8
3
 62
     0
  2
_OPEN
 10
3098.8026869999999
 20
5245.0551619999987
 30
0.0
 41
80.0
 42
80.0
 43
80.0
 50
180.0
  0
INSERT
  5
7D74
  8
3
 62
     0
  2
_OPEN
 10
3996.0583449999999
 20
5245.0551619999987
 30
0.0
 41
80.0
 42
80.0
 43
80.0
  0
TEXT
  8
3
  40
120
  5
7E02
  62
0
  72
0
  71
0
 10
3307.43
 20
5132.66
 30
0.000000
  1
897
  0
POINT
  5
7D76
  8
DEFPOINTS
 62
     0
 10
3098.8026869999999
 20
5044.5137629999999
 30
0.0
  0
POINT
  5
7D77
  8
DEFPOINTS
 62
     0
 10
3996.0583449999999
 20
3973.3594629999998
 30
0.0
  0
POINT
  5
7D78
  8
DEFPOINTS
 62
     0
 10
3996.0583449999999
 20
5245.0551619999987
 30
0.0
  0
ENDBLK
  5
7B34
  8
0
  0
BLOCK
  8
0
  2
*D4
 70
     1
 10
0.0
 20
0.0
 30
0.0
  3
*D4
  1

  0
LINE
  5
7D79
  8
3
 62
     0
 10
3114.8026869999999
 20
4825.2069630000015
 30
0.0
 11
4361.4508910000004
 21
4825.2069630000015
 31
0.0
  0
LINE
  5
7D7A
  8
3
 62
     0
 10
4186.7180259999996
 20
4000.2069630000001
 30
0.0
 11
4361.4508910000004
 21
4000.2069630000001
 31
0.0
  0
LINE
  5
7D7B
  8
3
 62
     0
 10
4321.4508910000004
 20
4745.2069629999996
 30
0.0
 11
4321.4508910000004
 21
4080.2069630000001
 31
0.0
  0
INSERT
  5
7D7C
  8
3
 62
     0
  2
_OPEN
 10
4321.4508910000004
 20
4825.2069630000015
 30
0.0
 41
80.0
 42
80.0
 43
80.0
 50
90.0
  0
INSERT
  5
7D7D
  8
3
 62
     0
  2
_OPEN
 10
4321.4508910000004
 20
4000.2069630000001
 30
0.0
 41
80.0
 42
80.0
 43
80.0
 50
270.0
  0
TEXT
  8
3
  40
120
  5
7E03
  62
0
  72
0
  71
0
 10
3981.45
 20
4212.74
 30
0.000000
  1
825
  0
POINT
  5
7D7F
  8
DEFPOINTS
 62
     0
 10
3094.8026869999999
 20
4825.2069630000015
 30
0.0
  0
POINT
  5
7D80
  8
DEFPOINTS
 62
     0
 10
4166.7180259999986
 20
4000.2069630000001
 30
0.0
  0
POINT
  5
7D81
  8
DEFPOINTS
 62
     0
 10
4321.4508910000004
 20
4000.2069630000001
 30
0.0
  0
ENDBLK
  5
7B41
  8
0
  0
BLOCK
  8
0
  2
*D5
 70
     1
 10
0.0
 20
0.0
 30
0.0
  3
*D5
  1

  0
LINE
  5
7D82
  8
3
 62
     0
 10
3868.8026869999999
 20
2890.2069630000001
 30
0.0
 11
4361.4508909999986
 21
2890.2069630000001
 31
0.0
  0
LINE
  5
7D83
  8
3
 62
     0
 10
4321.4508910000004
 20
3920.2069630000001
 30
0.0
 11
4321.4508910000004
 21
2970.2069630000001
 31
0.0
  0
INSERT
  5
7D84
  8
3
 62
     0
  2
_OPEN
 10
4321.4508910000004
 20
4000.2069630000001
 30
0.0
 41
80.0
 42
80.0
 43
80.0
 50
90.0
  0
INSERT
  5
7D85
  8
3
 62
     0
  2
_OPEN
 10
4321.4508910000004
 20
2890.2069630000001
 30
0.0
 41
80.0
 42
80.0
 43
80.0
 50
270.0
  0
TEXT
  8
3
  40
120
  5
7E04
  62
0
  72
0
  71
0
 10
3981.45
 20
3232.81
 30
0.000000
  1
1110
  0
POINT
  5
7D87
  8
DEFPOINTS
 62
     0
 10
4166.7180259999986
 20
4000.2069630000001
 30
0.0
  0
POINT
  5
7D88
  8
DEFPOINTS
 62
     0
 10
3848.8026869999999
 20
2890.2069630000001
 30
0.0
  0
POINT
  5
7D89
  8
DEFPOINTS
 62
     0
 10
4321.4508910000004
 20
2890.2069630000001
 30
0.0
  0
ENDBLK
  5
7B4D
  8
0
  0
BLOCK
  8
0
  2
*D6
 70
     1
 10
0.0
 20
0.0
 30
0.0
  3
*D6
  1

  0
LINE
  5
7D8A
  8
3
 62
     0
 10
3868.8026869999999
 20
2890.2069630000001
 30
0.0
 11
4361.4508909999986
 21
2890.2069630000001
 31
0.0
  0
LINE
  5
7D8B
  8
3
 62
     0
 10
3868.8026869999999
 20
2796.2069630000001
 30
0.0
 11
4361.4508909999986
 21
2796.2069630000001
 31
0.0
  0
LINE
  5
7D8C
  8
3
 62
     0
 10
4321.4508910000004
 20
2970.2069630000001
 30
0.0
 11
4321.4508910000004
 21
3050.2069630000001
 31
0.0
  0
LINE
  5
7D8D
  8
3
 62
     0
 10
4321.4508910000004
 20
2716.2069630000001
 30
0.0
 11
4321.4508910000004
 21
2356.2069629999992
 31
0.0
  0
LINE
  5
7D8E
  8
3
 62
     0
 10
4321.4508910000004
 20
2890.2069630000001
 30
0.0
 11
4321.4508910000004
 21
2796.2069630000001
 31
0.0
  0
INSERT
  5
7D8F
  8
3
 62
     0
  2
_OPEN
 10
4321.4508910000004
 20
2890.2069630000001
 30
0.0
 41
80.0
 42
80.0
 43
80.0
 50
270.0
  0
INSERT
  5
7D90
  8
3
 62
     0
  2
_OPEN
 10
4321.4508910000004
 20
2796.2069630000001
 30
0.0
 41
80.0
 42
80.0
 43
80.0
 50
90.0
  0
TEXT
  8
3
  40
120
  5
7E05
  62
0
  72
0
  71
0
 10
3981.45
 20
2283.81
 30
0.000000
  1
94
  0
POINT
  5
7D92
  8
DEFPOINTS
 62
     0
 10
3848.8026869999999
 20
2890.2069630000001
 30
0.0
  0
POINT
  5
7D93
  8
DEFPOINTS
 62
     0
 10
3848.8026869999999
 20
2796.2069630000001
 30
0.0
  0
POINT
  5
7D94
  8
DEFPOINTS
 62
     0
 10
4321.4508910000004
 20
2796.2069630000001
 30
0.0
  0
ENDBLK
  5
7C3A
  8
0
  0
BLOCK
  8
0
  2
*D7
 70
     1
 10
0.0
 20
0.0
 30
0.0
  3
*D7
  1

  0
LINE
  5
7D95
  8
3
 62
     0
 10
3114.8026869999999
 20
4825.2069630000015
 30
0.0
 11
4727.8471910000007
 21
4825.2069630000015
 31
0.0
  0
LINE
  5
7D96
  8
3
 62
     0
 10
3868.8026869999999
 20
2796.2069630000001
 30
0.0
 11
4727.8471910000007
 21
2796.2069630000001
 31
0.0
  0
LINE
  5
7D97
  8
3
 62
     0
 10
4687.8471910000007
 20
4745.2069629999996
 30
0.0
 11
4687.8471910000007
 21
2876.2069630000001
 31
0.0
  0
INSERT
  5
7D98
  8
3
 62
     0
  2
_OPEN
 10
4687.8471910000007
 20
4825.2069630000015
 30
0.0
 41
80.0
 42
80.0
 43
80.0
 50
90.0
  0
INSERT
  5
7D99
  8
3
 62
     0
  2
_OPEN
 10
4687.8471910000007
 20
2796.2069630000001
 30
0.0
 41
80.0
 42
80.0
 43
80.0
 50
270.0
  0
TEXT
  8
3
  40
120
  5
7E06
  62
0
  72
0
  71
0
 10
4347.85
 20
3583.87
 30
0.000000
  1
2029
  0
POINT
  5
7D9B
  8
DEFPOINTS
 62
     0
 10
3094.8026869999999
 20
4825.2069630000015
 30
0.0
  0
POINT
  5
7D9C
  8
DEFPOINTS
 62
     0
 10
3848.8026869999999
 20
2796.2069630000001
 30
0.0
  0
POINT
  5
7D9D
  8
DEFPOINTS
 62
     0
 10
4687.8471910000007
 20
2796.2069630000001
 30
0.0
  0
ENDBLK
  5
7B6A
  8
0
  0
BLOCK
  8
0
  2
*D8
 70
     1
 10
0.0
 20
0.0
 30
0.0
  3
*D8
  1

  0
LINE
  5
7D9E
  8
3
 62
     0
 10
1298.8026870000001
 20
2776.2069630000001
 30
0.0
 11
1298.8026870000001
 21
2453.5763320000001
 31
0.0
  0
LINE
  5
7D9F
  8
3
 62
     0
 10
3098.8026869999999
 20
2511.4182759999999
 30
0.0
 11
3098.8026869999999
 21
2533.5763320000001
 31
0.0
  0
LINE
  5
7DA0
  8
3
 62
     0
 10
1378.8026870000001
 20
2493.5763320000001
 30
0.0
 11
3018.802686999999
 21
2493.5763320000001
 31
0.0
  0
INSERT
  5
7DA1
  8
3
 62
     0
  2
_OPEN
 10
1298.8026870000001
 20
2493.5763320000001
 30
0.0
 41
80.0
 42
80.0
 43
80.0
 50
180.0
  0
INSERT
  5
7DA2
  8
3
 62
     0
  2
_OPEN
 10
3098.8026869999999
 20
2493.5763320000001
 30
0.0
 41
80.0
 42
80.0
 43
80.0
  0
TEXT
  8
3
  40
120
  5
7E07
  62
0
  72
0
  71
0
 10
2038.67
 20
2381.18
 30
0.000000
  1
1800
  0
POINT
  5
7DA4
  8
DEFPOINTS
 62
     0
 10
1298.8026870000001
 20
2796.2069630000001
 30
0.0
  0
POINT
  5
7DA5
  8
DEFPOINTS
 62
     0
 10
3098.8026869999999
 20
2491.4182759999999
 30
0.0
  0
POINT
  5
7DA6
  8
DEFPOINTS
 62
     0
 10
3098.8026869999999
 20
2493.5763320000001
 30
0.0
  0
ENDBLK
  5
7C2D
  8
0
  0
BLOCK
  8
0
  2
*D9
 70
     1
 10
0.0
 20
0.0
 30
0.0
  3
*D9
  1

  0
LINE
  5
7DA7
  8
3
 62
     0
 10
3848.8026869999999
 20
2776.2069630000001
 30
0.0
 11
3848.8026869999999
 21
2453.5763320000001
 31
0.0
  0
LINE
  5
7DA8
  8
3
 62
     0
 10
3178.8026869999999
 20
2493.5763320000001
 30
0.0
 11
3768.8026869999999
 21
2493.5763320000001
 31
0.0
  0
INSERT
  5
7DA9
  8
3
 62
     0
  2
_OPEN
 10
3098.8026869999999
 20
2493.5763320000001
 30
0.0
 41
80.0
 42
80.0
 43
80.0
 50
180.0
  0
INSERT
  5
7DAA
  8
3
 62
     0
  2
_OPEN
 10
3848.8026869999999
 20
2493.5763320000001
 30
0.0
 41
80.0
 42
80.0
 43
80.0
  0
TEXT
  8
3
  40
120
  5
7E08
  62
0
  72
0
  71
0
 10
3233.80
 20
2381.18
 30
0.000000
  1
750
  0
POINT
  5
7DAC
  8
DEFPOINTS
 62
     0
 10
3098.8026869999999
 20
2491.4182759999999
 30
0.0
  0
POINT
  5
7DAD
  8
DEFPOINTS
 62
     0
 10
3848.8026869999999
 20
2796.2069630000001
 30
0.0
  0
POINT
  5
7DAE
  8
DEFPOINTS
 62
     0
 10
3848.8026869999999
 20
2493.5763320000001
 30
0.0
  0
ENDBLK
  5
7B83
  8
0
  0
BLOCK
  8
0
  2
*D10
 70
     1
 10
0.0
 20
0.0
 30
0.0
  3
*D10
  1

  0
LINE
  5
7DAF
  8
3
 62
     0
 10
5685.5561779999998
 20
4845.2069629999996
 30
0.0
 11
5685.5561779999998
 21
5059.7793510000001
 31
0.0
  0
LINE
  5
7DB0
  8
3
 62
     0
 10
6635.5561779999998
 20
4845.2069629999996
 30
0.0
 11
6635.5561779999998
 21
5059.7793510000001
 31
0.0
  0
LINE
  5
7DB1
  8
3
 62
     0
 10
5765.5561779999998
 20
5019.7793510000001
 30
0.0
 11
6555.5561779999998
 21
5019.7793510000001
 31
0.0
  0
INSERT
  5
7DB2
  8
3
 62
     0
  2
_OPEN
 10
5685.5561779999998
 20
5019.7793510000001
 30
0.0
 41
80.0
 42
80.0
 43
80.0
 50
180.0
  0
INSERT
  5
7DB3
  8
3
 62
     0
  2
_OPEN
 10
6635.5561779999998
 20
5019.7793510000001
 30
0.0
 41
80.0
 42
80.0
 43
80.0
  0
TEXT
  8
3
  40
120
  5
7E09
  62
0
  72
0
  71
0
 10
5917.14
 20
4907.38
 30
0.000000
  1
950
  0
POINT
  5
7DB5
  8
DEFPOINTS
 62
     0
 10
5685.5561779999998
 20
4825.2069630000015
 30
0.0
  0
POINT
  5
7DB6
  8
DEFPOINTS
 62
     0
 10
6635.5561779999998
 20
4825.2069630000015
 30
0.0
  0
POINT
  5
7DB7
  8
DEFPOINTS
 62
     0
 10
6635.5561779999998
 20
5019.7793510000001
 30
0.0
  0
ENDBLK
  5
7B90
  8
0
  0
BLOCK
  8
0
  2
*D11
 70
     1
 10
0.0
 20
0.0
 30
0.0
  3
*D11
  1

  0
LINE
  5
7DB8
  8
3
 62
     0
 10
6758.5561779999998
 20
4625.2069630000015
 30
0.0
 11
7089.7412540000023
 21
4625.2069630000015
 31
0.0
  0
LINE
  5
7DB9
  8
3
 62
     0
 10
6758.5561779999998
 20
3375.2069630000001
 30
0.0
 11
7089.7412540000023
 21
3375.2069630000001
 31
0.0
  0
LINE
  5
7DBA
  8
3
 62
     0
 10
7049.7412540000014
 20
4545.2069629999996
 30
0.0
 11
7049.7412540000014
 21
3455.2069630000001
 31
0.0
  0
INSERT
  5
7DBB
  8
3
 62
     0
  2
_OPEN
 10
7049.7412540000014
 20
4625.2069630000015
 30
0.0
 41
80.0
 42
80.0
 43
80.0
 50
90.0
  0
INSERT
  5
7DBC
  8
3
 62
     0
  2
_OPEN
 10
7049.7412540000014
 20
3375.2069630000001
 30
0.0
 41
80.0
 42
80.0
 43
80.0
 50
270.0
  0
TEXT
  8
3
  40
120
  5
7E0A
  62
0
  72
0
  71
0
 10
6709.74
 20
3781.11
 30
0.000000
  1
φ1250
  0
POINT
  5
7DBE
  8
DEFPOINTS
 62
     0
 10
6738.5561779999998
 20
4625.2069630000015
 30
0.0
  0
POINT
  5
7DBF
  8
DEFPOINTS
 62
     0
 10
6738.5561779999998
 20
3375.2069630000001
 30
0.0
  0
POINT
  5
7DC0
  8
DEFPOINTS
 62
     0
 10
7049.7412540000014
 20
3375.2069630000001
 30
0.0
  0
ENDBLK
  5
7C62
  8
0
  0
BLOCK
  8
0
  2
*D12
 70
     1
 10
0.0
 20
0.0
 30
0.0
  3
*D12
  1

  0
LINE
  5
7DC1
  8
3
 62
     0
 10
6738.5561779999998
 20
4695.2069629999996
 30
0.0
 11
6738.5561779999998
 21
5320.2940399999998
 31
0.0
  0
LINE
  5
7DC2
  8
3
 62
     0
 10
6160.5561779999998
 20
5226.0620689999996
 30
0.0
 11
6160.5561779999998
 21
5320.2940399999998
 31
0.0
  0
LINE
  5
7DC3
  8
3
 62
     0
 10
6818.5561779999998
 20
5280.2940399999998
 30
0.0
 11
6898.5561779999989
 21
5280.2940399999998
 31
0.0
  0
LINE
  5
7DC4
  8
3
 62
     0
 10
6080.5561779999998
 20
5280.2940399999998
 30
0.0
 11
6000.5561779999998
 21
5280.2940399999998
 31
0.0
  0
LINE
  5
7DC5
  8
3
 62
     0
 10
6738.5561779999998
 20
5280.2940399999998
 30
0.0
 11
6160.5561779999998
 21
5280.2940399999998
 31
0.0
  0
INSERT
  5
7DC6
  8
3
 62
     0
  2
_OPEN
 10
6738.5561779999998
 20
5280.2940399999998
 30
0.0
 41
80.0
 42
80.0
 43
80.0
 50
180.0
  0
INSERT
  5
7DC7
  8
3
 62
     0
  2
_OPEN
 10
6160.5561779999998
 20
5280.2940399999998
 30
0.0
 41
80.0
 42
80.0
 43
80.0
  0
TEXT
  8
3
  40
120
  5
7E0B
  62
0
  72
0
  71
0
 10
6194.84
 20
5167.89
 30
0.000000
  1
578
  0
POINT
  5
7DC9
  8
DEFPOINTS
 62
     0
 10
6738.5561779999998
 20
4675.2069629999996
 30
0.0
  0
POINT
  5
7DCA
  8
DEFPOINTS
 62
     0
 10
6160.5561779999998
 20
5206.0620689999996
 30
0.0
  0
POINT
  5
7DCB
  8
DEFPOINTS
 62
     0
 10
6160.5561779999998
 20
5280.2940399999998
 30
0.0
  0
ENDBLK
  5
7BE5
  8
0
  0
BLOCK
  8
0
  2
*D13
 70
     1
 10
0.0
 20
0.0
 30
0.0
  3
*D13
  1

  0
LINE
  5
7DCC
  8
3
 62
     0
 10
5320.5561779999998
 20
4398.2069629999996
 30
0.0
 11
5320.5561779999998
 21
5320.2940399999998
 31
0.0
  0
LINE
  5
7DCD
  8
3
 62
     0
 10
6080.5561779999998
 20
5280.2940399999998
 30
0.0
 11
5400.5561779999998
 21
5280.2940399999998
 31
0.0
  0
INSERT
  5
7DCE
  8
3
 62
     0
  2
_OPEN
 10
6160.5561779999998
 20
5280.2940399999998
 30
0.0
 41
80.0
 42
80.0
 43
80.0
  0
INSERT
  5
7DCF
  8
3
 62
     0
  2
_OPEN
 10
5320.5561779999998
 20
5280.2940399999998
 30
0.0
 41
80.0
 42
80.0
 43
80.0
 50
180.0
  0
TEXT
  8
3
  40
120
  5
7E0C
  62
0
  72
0
  71
0
 10
5500.56
 20
5267.89
 30
0.000000
  1
MAX
  0
TEXT
  8
3
  40
120
  5
7E0D
  62
0
  72
0
  71
0
 10
5500.56
 20
5111.89
 30
0.000000
  1
890
  0
POINT
  5
7DD1
  8
DEFPOINTS
 62
     0
 10
6160.5561779999998
 20
5206.0620689999996
 30
0.0
  0
POINT
  5
7DD2
  8
DEFPOINTS
 62
     0
 10
5320.5561779999998
 20
4378.2069630000015
 30
0.0
  0
POINT
  5
7DD3
  8
DEFPOINTS
 62
     0
 10
5320.5561779999998
 20
5280.2940399999998
 30
0.0
  0
ENDBLK
  5
7C57
  8
0
  0
BLOCK
  8
0
  2
*D14
 70
     1
 10
0.0
 20
0.0
 30
0.0
  3
*D14
  1

  0
LINE
  5
7DD4
  8
3
 62
     0
 10
5433.5561779999989
 20
2776.2069630000001
 30
0.0
 11
5433.5561779999989
 21
2477.259474
 31
0.0
  0
LINE
  5
7DD5
  8
3
 62
     0
 10
6160.5561779999998
 20
2586.1588459999998
 30
0.0
 11
6160.5561779999998
 21
2477.259474
 31
0.0
  0
LINE
  5
7DD6
  8
3
 62
     0
 10
5513.5561779999989
 20
2517.259474
 30
0.0
 11
6080.5561779999998
 21
2517.259474
 31
0.0
  0
INSERT
  5
7DD7
  8
3
 62
     0
  2
_OPEN
 10
5433.5561779999989
 20
2517.259474
 30
0.0
 41
80.0
 42
80.0
 43
80.0
 50
180.0
  0
INSERT
  5
7DD8
  8
3
 62
     0
  2
_OPEN
 10
6160.5561779999998
 20
2517.259474
 30
0.0
 41
80.0
 42
80.0
 43
80.0
  0
TEXT
  8
3
  40
120
  5
7E0E
  62
0
  72
0
  71
0
 10
5561.68
 20
2404.86
 30
0.000000
  1
727
  0
POINT
  5
7DDA
  8
DEFPOINTS
 62
     0
 10
5433.5561779999989
 20
2796.2069630000001
 30
0.0
  0
POINT
  5
7DDB
  8
DEFPOINTS
 62
     0
 10
6160.5561779999998
 20
2606.1588459999998
 30
0.0
  0
POINT
  5
7DDC
  8
DEFPOINTS
 62
     0
 10
6160.5561779999998
 20
2517.259474
 30
0.0
  0
ENDBLK
  5
7BC3
  8
0
  0
BLOCK
  8
0
  2
*D15
 70
     1
 10
0.0
 20
0.0
 30
0.0
  3
*D15
  1

  0
LINE
  5
7DDD
  8
3
 62
     0
 10
6713.5561780000007
 20
2776.2069630000001
 30
0.0
 11
6713.5561780000007
 21
2477.259474
 31
0.0
  0
LINE
  5
7DDE
  8
3
 62
     0
 10
6240.5561779999998
 20
2517.259474
 30
0.0
 11
6633.5561779999998
 21
2517.259474
 31
0.0
  0
INSERT
  5
7DDF
  8
3
 62
     0
  2
_OPEN
 10
6160.5561779999998
 20
2517.259474
 30
0.0
 41
80.0
 42
80.0
 43
80.0
 50
180.0
  0
INSERT
  5
7DE0
  8
3
 62
     0
  2
_OPEN
 10
6713.5561780000007
 20
2517.259474
 30
0.0
 41
80.0
 42
80.0
 43
80.0
  0
TEXT
  8
3
  40
120
  5
7E0F
  62
0
  72
0
  71
0
 10
6197.06
 20
2404.86
 30
0.000000
  1
553
  0
POINT
  5
7DE2
  8
DEFPOINTS
 62
     0
 10
6160.5561779999998
 20
2606.1588459999998
 30
0.0
  0
POINT
  5
7DE3
  8
DEFPOINTS
 62
     0
 10
6713.5561780000007
 20
2796.2069630000001
 30
0.0
  0
POINT
  5
7DE4
  8
DEFPOINTS
 62
     0
 10
6713.5561780000007
 20
2517.259474
 30
0.0
  0
ENDBLK
  5
7BCF
  8
0
  0
BLOCK
  8
0
  2
*D16
 70
     1
 10
0.0
 20
0.0
 30
0.0
  3
*D16
  1

  0
LINE
  5
7DE5
  8
3
 62
     0
 10
1298.8026870000001
 20
6715.2069629999987
 30
0.0
 11
1298.8026870000001
 21
6293.3938340000004
 31
0.0
  0
LINE
  5
7DE6
  8
3
 62
     0
 10
3848.8026869999999
 20
6715.2069629999987
 30
0.0
 11
3848.8026869999999
 21
6293.3938340000004
 31
0.0
  0
LINE
  5
7DE7
  8
3
 62
     0
 10
1378.8026870000001
 20
6333.3938340000004
 30
0.0
 11
3768.8026869999999
 21
6333.3938340000004
 31
0.0
  0
INSERT
  5
7DE8
  8
3
 62
     0
  2
_OPEN
 10
1298.8026870000001
 20
6333.3938340000004
 30
0.0
 41
80.0
 42
80.0
 43
80.0
 50
180.0
  0
INSERT
  5
7DE9
  8
3
 62
     0
  2
_OPEN
 10
3848.8026869999999
 20
6333.3938340000004
 30
0.0
 41
80.0
 42
80.0
 43
80.0
  0
TEXT
  8
3
  40
120
  5
7E10
  62
0
  72
0
  71
0
 10
2299.34
 20
6220.99
 30
0.000000
  1
2550
  0
POINT
  5
7DEB
  8
DEFPOINTS
 62
     0
 10
1298.8026870000001
 20
6735.2069629999996
 30
0.0
  0
POINT
  5
7DEC
  8
DEFPOINTS
 62
     0
 10
3848.8026869999999
 20
6735.2069629999996
 30
0.0
  0
POINT
  5
7DED
  8
DEFPOINTS
 62
     0
 10
3848.8026869999999
 20
6333.3938340000004
 30
0.0
  0
ENDBLK
  5
7C22
  8
0
  0
BLOCK
  8
0
  2
*D17
 70
     1
 10
0.0
 20
0.0
 30
0.0
  3
*D17
  1

  0
LINE
  5
7DEE
  8
3
 62
     0
 10
3868.8026869999999
 20
8015.2069629999996
 30
0.0
 11
4459.3318950000003
 21
8015.2069629999996
 31
0.0
  0
LINE
  5
7DEF
  8
3
 62
     0
 10
3868.8026869999999
 20
6735.2069629999996
 30
0.0
 11
4459.3318950000003
 21
6735.2069629999996
 31
0.0
  0
LINE
  5
7DF0
  8
3
 62
     0
 10
4419.3318950000012
 20
7935.2069629999996
 30
0.0
 11
4419.3318950000012
 21
6815.2069629999996
 31
0.0
  0
INSERT
  5
7DF1
  8
3
 62
     0
  2
_OPEN
 10
4419.3318950000012
 20
8015.2069629999996
 30
0.0
 41
80.0
 42
80.0
 43
80.0
 50
90.0
  0
INSERT
  5
7DF2
  8
3
 62
     0
  2
_OPEN
 10
4419.3318950000012
 20
6735.2069629999996
 30
0.0
 41
80.0
 42
80.0
 43
80.0
 50
270.0
  0
TEXT
  8
3
  40
120
  5
7E11
  62
0
  72
0
  71
0
 10
4079.33
 20
7249.89
 30
0.000000
  1
1280
  0
POINT
  5
7DF4
  8
DEFPOINTS
 62
     0
 10
3848.8026869999999
 20
8015.2069629999996
 30
0.0
  0
POINT
  5
7DF5
  8
DEFPOINTS
 62
     0
 10
3848.8026869999999
 20
6735.2069629999996
 30
0.0
  0
POINT
  5
7DF6
  8
DEFPOINTS
 62
     0
 10
4419.3318950000012
 20
6735.2069629999996
 30
0.0
  0
ENDBLK
  5
7C0B
  8
0
  0
BLOCK
  8
0
  2
*D18
 70
     1
 10
0.0
 20
0.0
 30
0.0
  3
*D18
  1

  0
LINE
  5
7DF7
  8
3
 62
     0
 10
1298.8026870000001
 20
3060.2069630000001
 30
0.0
 11
1298.8026870000001
 21
5526.5430759007504
 31
0.0
  0
LINE
  5
7DF8
  8
3
 62
     0
 10
3996.0583449999999
 20
4013.3594629999998
 30
0.0
 11
3996.0583449999999
 21
5526.5430759007504
 31
0.0
  0
LINE
  5
7DF9
  8
3
 62
     0
 10
1378.8026870000001
 20
5486.5430759007504
 30
0.0
 11
3916.0583449999999
 21
5486.5430759007504
 31
0.0
  0
INSERT
  5
7DFA
  8
3
 62
     0
  2
_OPEN
 10
1298.8026870000001
 20
5486.5430759007504
 30
0.0
 41
80.0
 42
80.0
 43
80.0
 50
180.0
  0
INSERT
  5
7DFB
  8
3
 62
     0
  2
_OPEN
 10
3996.0583449999999
 20
5486.5430759007504
 30
0.0
 41
80.0
 42
80.0
 43
80.0
  0
TEXT
  8
3
  40
120
  5
7E12
  62
0
  72
0
  71
0
 10
2384.10
 20
5374.14
 30
0.000000
  1
2697
  0
POINT
  5
7DFD
  8
DEFPOINTS
 62
     0
 10
1298.8026870000001
 20
3040.2069630000001
 30
0.0
  0
POINT
  5
7DFE
  8
DEFPOINTS
 62
     0
 10
3996.0583449999999
 20
3993.3594629999998
 30
0.0
  0
POINT
  5
7DFF
  8
DEFPOINTS
 62
     0
 10
3996.0583449999999
 20
5486.5430759007504
 30
0.0
  0
ENDBLK
  5
7C4C
  8
0
  0
ENDSEC
  0
SECTION
  2
ENTITIES
  0
LINE
  5
7A74
  8
1
 10
6713.5561780000007
 20
2796.2069630000001
 30
0.0
 11
5433.5561779999989
 21
2796.2069630000001
 31
0.0
  0
LINE
  5
7A75
  8
1
 10
6713.5561780000007
 20
2871.2069630000001
 30
0.0
 11
5433.5561779999989
 21
2871.2069630000001
 31
0.0
  0
LINE
  5
7A76
  8
1
 10
5685.5561779999998
 20
4775.2069630000015
 30
0.0
 11
6635.5561779999998
 21
4775.2069630000015
 31
0.0
  0
LINE
  5
7A77
  8
1
 10
6713.5561780000007
 20
2890.2069630000001
 30
0.0
 11
5433.5561779999989
 21
2890.2069630000001
 31
0.0
  0
LINE
  5
7A78
  8
1
 10
6713.5561780000007
 20
3040.2069630000001
 30
0.0
 11
5433.5561779999989
 21
3040.2069630000001
 31
0.0
  0
LINE
  5
7A79
  8
1
 10
5635.5561779999998
 20
4825.2069630000015
 30
0.0
 11
6685.5561779999998
 21
4825.2069630000015
 31
0.0
  0
LINE
  5
7A7A
  8
1
 10
3848.8026869999999
 20
2796.2069630000001
 30
0.0
 11
1298.8026870000001
 21
2796.2069630000001
 31
0.0
  0
LINE
  5
7A7B
  8
1
 10
3848.8026869999999
 20
2871.2069630000001
 30
0.0
 11
1298.8026870000001
 21
2871.2069630000001
 31
0.0
  0
LINE
  5
7A7C
  8
1
 10
1806.1026870000001
 20
3071.2069630000001
 30
0.0
 11
3240.202687
 21
3649.6069630000002
 31
0.0
  0
LINE
  5
7A7D
  8
1
 10
1768.702687
 20
3163.9069629999999
 30
0.0
 11
3202.8026869999999
 21
3742.4069629999999
 31
0.0
  0
LINE
  5
7A7E
  8
1
 10
1601.902687
 20
3458.4069629999999
 30
0.0
 11
2889.4026869999998
 21
4314.9069630000013
 31
0.0
  0
LINE
  5
7A7F
  8
1
 10
1657.3026870000001
 20
3375.1069630000002
 30
0.0
 11
2944.8026869999999
 21
4231.7069629999996
 31
0.0
  0
LINE
  5
7A80
  8
1
 10
3094.8026869999999
 20
4825.2069630000015
 30
0.0
 11
1708.8026870000001
 21
4825.2069630000015
 31
0.0
  0
POLYLINE
  5
7A81
  8
1
 66
     1
 10
0.0
 20
0.0
 30
0.0
  0
VERTEX
  5
7D58
  8
1
 10
1764.8026870000001
 20
4825.2069630000015
 30
0.0
  0
VERTEX
  5
7D59
  8
1
 10
1837.8026870000001
 20
4000.2069630000001
 30
0.0
 42
0.4
  0
VERTEX
  5
7D5A
  8
1
 10
3007.802686999999
 20
2917.7069630000001
 30
0.0
 42
0.4
  0
VERTEX
  5
7D5B
  8
1
 10
3995.9026869999989
 20
3991.5069629999998
 30
0.0
 42
0.4
  0
VERTEX
  5
7D5C
  8
1
 10
3175.8026869999999
 20
4746.2069630000015
 30
0.0
  0
VERTEX
  5
7D5D
  8
1
 10
3044.8026869999999
 20
4733.2069629999996
 30
0.0
 42
0.4
  0
SEQEND
  5
7D5E
  8
1
  0
LINE
  5
7A89
  8
1
 10
3848.8026869999999
 20
2890.2069630000001
 30
0.0
 11
1298.8026870000001
 21
2890.2069630000001
 31
0.0
  0
LINE
  5
7A8A
  8
1
 10
3044.8026869999999
 20
4775.2069630000015
 30
0.0
 11
1764.8026870000001
 21
4775.2069630000015
 31
0.0
  0
LINE
  5
7A8B
  8
1
 10
3848.8026869999999
 20
3040.2069630000001
 30
0.0
 11
1298.8026870000001
 21
3040.2069630000001
 31
0.0
  0
CIRCLE
  5
7A8C
  8
1
 10
3098.8026869999999
 20
4000.2069630000001
 30
0.0
 40
625.0
  0
CIRCLE
  5
7A8D
  8
1
 10
3098.8026869999999
 20
4000.2069630000001
 30
0.0
 40
675.0
  0
ARC
  5
7A8E
  8
1
 10
1723.8026870000001
 20
3275.2069630000001
 30
0.0
 40
220.0
 50
123.59999999999989
 51
292.0
  0
LINE
  5
7A8F
  8
1
 10
1948.8026870000001
 20
3095.2069630000001
 30
0.0
 11
1498.802686999999
 21
3095.2069630000001
 31
0.0
  0
LINE
  5
7A90
  8
1
 10
1298.8026870000001
 20
2871.2069630000001
 30
0.0
 11
1298.8026870000001
 21
2796.2069630000001
 31
0.0
  0
LINE
  5
7A91
  8
1
 10
1298.8026870000001
 20
3040.2069630000001
 30
0.0
 11
1298.8026870000001
 21
2890.2069630000001
 31
0.0
  0
LINE
  5
7A92
  8
1
 10
1498.802686999999
 20
3040.2069630000001
 30
0.0
 11
1498.802686999999
 21
3095.2069630000001
 31
0.0
  0
ARC
  5
7A93
  8
1
 10
1723.8026870000001
 20
3275.2069630000001
 30
0.0
 40
199.0
 50
320.10000000000002
 51
219.90000000000001
  0
CIRCLE
  5
7A94
  8
1
 10
1723.8026870000001
 20
3275.2069630000001
 30
0.0
 40
120.0
  0
LINE
  5
7A95
  8
2
 10
1723.8026870000001
 20
3155.2069630000001
 30
0.0
 11
1723.8026870000001
 21
3395.2069630000001
 31
0.0
  0
LINE
  5
7A96
  8
2
 10
1603.802686999999
 20
3275.2069630000001
 30
0.0
 11
1843.8026870000001
 21
3275.2069630000001
 31
0.0
  0
LINE
  5
7A97
  8
1
 10
1561.8026870000001
 20
3137.7069630000001
 30
0.0
 11
1571.1026869999989
 21
3147.6069629999988
 31
0.0
  0
LINE
  5
7A98
  8
1
 10
1561.8026870000001
 20
3095.2069630000001
 30
0.0
 11
1621.802686999999
 21
3095.2069630000001
 31
0.0
  0
LINE
  5
7A99
  8
1
 10
1561.8026870000001
 20
3095.2069630000001
 30
0.0
 11
1561.8026870000001
 21
3137.7069630000001
 31
0.0
  0
LINE
  5
7A9A
  8
1
 10
1885.802686999999
 20
3137.7069630000001
 30
0.0
 11
1876.5026869999999
 21
3147.6069629999988
 31
0.0
  0
LINE
  5
7A9B
  8
1
 10
1885.802686999999
 20
3095.2069630000001
 30
0.0
 11
1885.802686999999
 21
3137.7069630000001
 31
0.0
  0
LINE
  5
7A9C
  8
1
 10
1948.8026870000001
 20
3040.2069630000001
 30
0.0
 11
1948.8026870000001
 21
3095.2069630000001
 31
0.0
  0
ARC
  5
7A9E
  8
1
 10
3098.8026869999999
 20
4000.2069630000001
 30
0.0
 40
378.0
 50
292.0
 51
123.59999999999989
  0
CIRCLE
  5
7A9F
  8
1
 10
3098.8026869999999
 20
4000.2069630000001
 30
0.0
 40
278.0
  0
LINE
  5
7AA0
  8
2
  6
CENTER
 10
3098.8026869999999
 20
2491.4182759999999
 30
0.0
 11
3098.8026869999999
 21
5044.5137629999999
 31
0.0
  0
LINE
  5
7AA1
  8
2
  6
CENTER
 10
6812.767417
 20
4000.2069630000001
 30
0.0
 11
5211.7354799999994
 21
4000.2069630000001
 31
0.0
  0
LINE
  5
7AA2
  8
1
 10
3848.8026869999999
 20
2871.2069630000001
 30
0.0
 11
3848.8026869999999
 21
2796.2069630000001
 31
0.0
  0
LINE
  5
7AA3
  8
1
 10
3848.8026869999999
 20
3040.2069630000001
 30
0.0
 11
3848.8026869999999
 21
2890.2069630000001
 31
0.0
  0
LINE
  5
7AA4
  8
1
 10
3044.8026869999999
 20
4733.2069629999996
 30
0.0
 11
3044.8026869999999
 21
4825.2069630000015
 31
0.0
  0
LINE
  5
7AA5
  8
1
 10
5685.5561779999998
 20
3040.2069630000001
 30
0.0
 11
5685.5561779999998
 21
4825.2069630000015
 31
0.0
  0
LINE
  5
7AA6
  8
1
 10
5320.5561779999998
 20
3055.2069630000001
 30
0.0
 11
5320.5561779999998
 21
4378.2069630000015
 31
0.0
  0
LINE
  5
7AA7
  8
1
 10
5560.5561779999998
 20
3055.2069630000001
 30
0.0
 11
5560.5561779999998
 21
4378.2069630000015
 31
0.0
  0
LINE
  5
7AA8
  8
1
 10
5390.5561779999998
 20
3722.2069630000001
 30
0.0
 11
5390.5561779999998
 21
4278.2069630000015
 31
0.0
  0
LINE
  5
7AA9
  8
1
 10
5490.5561779999998
 20
3722.2069630000001
 30
0.0
 11
5490.5561779999998
 21
4278.2069630000015
 31
0.0
  0
LINE
  5
7AAA
  8
1
 10
5490.5561779999998
 20
3155.2069630000001
 30
0.0
 11
5490.5561779999998
 21
3395.2069630000001
 31
0.0
  0
LINE
  5
7AAB
  8
1
 10
5390.5561779999998
 20
3155.2069630000001
 30
0.0
 11
5390.5561779999998
 21
3395.2069630000001
 31
0.0
  0
LINE
  5
7AAC
  8
1
 10
5390.5561779999998
 20
3155.2069630000001
 30
0.0
 11
5490.5561779999998
 21
3155.2069630000001
 31
0.0
  0
LINE
  5
7AAD
  8
1
 10
5320.5561779999998
 20
3055.2069630000001
 30
0.0
 11
5560.5561779999998
 21
3055.2069630000001
 31
0.0
  0
LINE
  5
7AB0
  8
1
 10
5433.5561779999989
 20
2796.2069630000001
 30
0.0
 11
5433.5561779999989
 21
2871.2069630000001
 31
0.0
  0
LINE
  5
7AB1
  8
1
 10
5433.5561779999989
 20
2890.2069630000001
 30
0.0
 11
5433.5561779999989
 21
3040.2069630000001
 31
0.0
  0
LINE
  5
7AB2
  8
1
 10
5490.5561779999998
 20
3247.7069630000001
 30
0.0
 11
5685.5561779999998
 21
3247.7069630000001
 31
0.0
  0
LINE
  5
7AB3
  8
1
 10
5390.5561779999998
 20
3395.2069630000001
 30
0.0
 11
5490.5561779999998
 21
3395.2069630000001
 31
0.0
  0
LINE
  5
7AB4
  8
1
 10
5390.5561779999998
 20
3722.2069630000001
 30
0.0
 11
5490.5561779999998
 21
3722.2069630000001
 31
0.0
  0
LINE
  5
7AB5
  8
1
 10
5490.5561779999998
 20
4027.7069629999992
 30
0.0
 11
5685.5561779999998
 21
4027.7069629999992
 31
0.0
  0
LINE
  5
7AB6
  8
1
 10
5490.5561779999998
 20
3972.7069630000001
 30
0.0
 11
5685.5561779999998
 21
3972.7069630000001
 31
0.0
  0
LINE
  5
7AB7
  8
1
 10
5490.5561779999998
 20
3302.7069630000001
 30
0.0
 11
5685.5561779999998
 21
3302.7069630000001
 31
0.0
  0
LINE
  5
7AB8
  8
1
 10
5390.5561779999998
 20
4278.2069630000015
 30
0.0
 11
5490.5561779999998
 21
4278.2069630000015
 31
0.0
  0
LINE
  5
7AB9
  8
1
 10
5320.5561779999998
 20
4378.2069630000015
 30
0.0
 11
5560.5561779999998
 21
4378.2069630000015
 31
0.0
  0
LINE
  5
7ABA
  8
1
 10
1843.8026870000001
 20
6735.2069629999996
 30
0.0
 11
2820.8026869999999
 21
6735.2069629999996
 31
0.0
  0
LINE
  5
7ABB
  8
1
 10
3044.8026869999999
 20
7937.2069629999996
 30
0.0
 11
1764.8026870000001
 21
6987.2069629999996
 31
0.0
  0
LINE
  5
7ABC
  8
1
 10
1764.8026870000001
 20
7937.2069629999996
 30
0.0
 11
3044.8026869999999
 21
6987.2069629999996
 31
0.0
  0
LINE
  5
7ABD
  8
1
 10
3999.3026869999999
 20
7937.2069629999996
 30
0.0
 11
1764.8026870000001
 21
7937.2069629999996
 31
0.0
  0
LINE
  5
7ABE
  8
1
 10
3999.3026869999999
 20
6987.2069629999996
 30
0.0
 11
1764.8026870000001
 21
6987.2069629999996
 31
0.0
  0
LINE
  5
7ABF
  8
1
 10
3773.802686999999
 20
8040.2069630000015
 30
0.0
 11
2423.8026869999999
 21
8040.2069630000015
 31
0.0
  0
LINE
  5
7AC0
  8
1
 10
3476.8026869999999
 20
6622.2069629999996
 30
0.0
 11
1403.802686999999
 21
6622.2069629999996
 31
0.0
  0
LINE
  5
7AC1
  8
1
 10
3476.8026869999999
 20
6862.2069629999996
 30
0.0
 11
1403.802686999999
 21
6862.2069629999996
 31
0.0
  0
LINE
  5
7AC2
  8
1
 10
2473.8026869999999
 20
8015.2069629999996
 30
0.0
 11
1298.8026870000001
 21
8015.2069629999996
 31
0.0
  0
LINE
  5
7AC3
  8
1
 10
1298.8026870000001
 20
6735.2069629999996
 30
0.0
 11
1603.802686999999
 21
6735.2069629999996
 31
0.0
  0
LINE
  5
7AC4
  8
1
 10
1298.8026870000001
 20
8015.2069629999996
 30
0.0
 11
1298.8026870000001
 21
6735.2069629999996
 31
0.0
  0
LINE
  5
7AC5
  8
1
 10
1403.802686999999
 20
6622.2069629999996
 30
0.0
 11
1403.802686999999
 21
6862.2069629999996
 31
0.0
  0
LINE
  5
7AC6
  8
1
 10
1764.8026870000001
 20
6987.2069629999996
 30
0.0
 11
1764.8026870000001
 21
7937.2069629999996
 31
0.0
  0
LINE
  5
7AC7
  8
1
 10
1751.3026870000001
 20
6792.2069629999987
 30
0.0
 11
1751.3026870000001
 21
6906.7069629999987
 31
0.0
  0
LINE
  5
7AC8
  8
1
 10
1696.3026870000001
 20
6792.2069629999987
 30
0.0
 11
1696.3026870000001
 21
6906.7069629999987
 31
0.0
  0
LINE
  5
7AC9
  8
1
 10
1603.802686999999
 20
6792.2069629999987
 30
0.0
 11
1843.8026870000001
 21
6792.2069629999987
 31
0.0
  0
LINE
  5
7ACA
  8
1
 10
1603.802686999999
 20
6692.2069630000015
 30
0.0
 11
1843.8026870000001
 21
6692.2069630000015
 31
0.0
  0
LINE
  5
7ACB
  8
1
 10
1603.802686999999
 20
6692.2069630000015
 30
0.0
 11
1603.802686999999
 21
6792.2069629999987
 31
0.0
  0
LINE
  5
7ACC
  8
1
 10
1843.8026870000001
 20
6692.2069630000015
 30
0.0
 11
1843.8026870000001
 21
6792.2069629999987
 31
0.0
  0
LINE
  5
7ACD
  8
1
 10
1524.702687
 20
6906.7069629999987
 30
0.0
 11
1922.902687
 21
6906.7069629999987
 31
0.0
  0
LINE
  5
7ACE
  8
1
 10
1524.702687
 20
7506.2069629999996
 30
0.0
 11
1764.8026870000001
 21
7506.2069629999996
 31
0.0
  0
LINE
  5
7ACF
  8
1
 10
1524.702687
 20
6906.7069629999987
 30
0.0
 11
1524.702687
 21
7506.2069629999996
 31
0.0
  0
LINE
  5
7AD0
  8
1
 10
1922.902687
 20
6906.7069629999987
 30
0.0
 11
1922.902687
 21
6987.2069629999996
 31
0.0
  0
LINE
  5
7AD1
  8
1
 10
2473.8026869999999
 20
7937.2069629999996
 30
0.0
 11
2473.8026869999999
 21
8040.2069630000015
 31
0.0
  0
LINE
  5
7AD2
  8
1
 10
3044.8026869999999
 20
6987.2069629999996
 30
0.0
 11
3044.8026869999999
 21
7937.2069629999996
 31
0.0
  0
LINE
  5
7AD3
  8
1
 10
2820.8026869999999
 20
6792.2069629999987
 30
0.0
 11
3376.8026869999999
 21
6792.2069629999987
 31
0.0
  0
LINE
  5
7AD4
  8
1
 10
2820.8026869999999
 20
6692.2069630000015
 30
0.0
 11
3376.8026869999999
 21
6692.2069630000015
 31
0.0
  0
LINE
  5
7AD5
  8
1
 10
3071.3026869999999
 20
6792.2069629999987
 30
0.0
 11
3071.3026869999999
 21
6987.2069629999996
 31
0.0
  0
LINE
  5
7AD6
  8
1
 10
3126.3026869999999
 20
6792.2069629999987
 30
0.0
 11
3126.3026869999999
 21
6987.2069629999996
 31
0.0
  0
LINE
  5
7AD7
  8
1
 10
2820.8026869999999
 20
6692.2069630000015
 30
0.0
 11
2820.8026869999999
 21
6792.2069629999987
 31
0.0
  0
LINE
  5
7AD8
  8
1
 10
3848.8026869999999
 20
6735.2069629999996
 30
0.0
 11
3848.8026869999999
 21
6987.2069629999996
 31
0.0
  0
LINE
  5
7AD9
  8
1
 10
3376.8026869999999
 20
6735.2069629999996
 30
0.0
 11
3848.8026869999999
 21
6735.2069629999996
 31
0.0
  0
LINE
  5
7ADA
  8
1
 10
3376.8026869999999
 20
6692.2069630000015
 30
0.0
 11
3376.8026869999999
 21
6792.2069629999987
 31
0.0
  0
LINE
  5
7ADB
  8
1
 10
3476.8026869999999
 20
6622.2069629999996
 30
0.0
 11
3476.8026869999999
 21
6862.2069629999996
 31
0.0
  0
LINE
  5
7ADC
  8
1
 10
3848.8026869999999
 20
7937.2069629999996
 30
0.0
 11
3848.8026869999999
 21
8015.2069629999996
 31
0.0
  0
LINE
  5
7ADD
  8
1
 10
3848.8026869999999
 20
8015.2069629999996
 30
0.0
 11
3723.8026869999999
 21
8015.2069629999996
 31
0.0
  0
LINE
  5
7ADE
  8
1
 10
3723.8026869999999
 20
7937.2069629999996
 30
0.0
 11
3723.8026869999999
 21
8040.2069630000015
 31
0.0
  0
LINE
  5
7ADF
  8
1
 10
3999.3026869999999
 20
6987.2069629999996
 30
0.0
 11
3999.3026869999999
 21
7937.2069629999996
 31
0.0
  0
LINE
  5
7AE0
  8
1
 10
6635.5561779999998
 20
3040.2069630000001
 30
0.0
 11
6635.5561779999998
 21
4825.2069630000015
 31
0.0
  0
LINE
  5
7AE1
  8
1
 10
6738.5561779999998
 20
3325.2069630000001
 30
0.0
 11
6738.5561779999998
 21
4675.2069629999996
 31
0.0
  0
LINE
  5
7AE2
  8
1
 10
6713.5561780000007
 20
2796.2069630000001
 30
0.0
 11
6713.5561780000007
 21
2871.2069630000001
 31
0.0
  0
LINE
  5
7AE3
  8
1
 10
6713.5561780000007
 20
2890.2069630000001
 30
0.0
 11
6713.5561780000007
 21
3040.2069630000001
 31
0.0
  0
LINE
  5
7AE4
  8
1
 10
6635.5561779999998
 20
3375.2069630000001
 30
0.0
 11
6738.5561779999998
 21
3375.2069630000001
 31
0.0
  0
LINE
  5
7AE5
  8
1
 10
6635.5561779999998
 20
4625.2069630000015
 30
0.0
 11
6738.5561779999998
 21
4625.2069630000015
 31
0.0
  0
LINE
  5
7AE6
  8
2
  6
CENTER
 10
1253.602333999999
 20
7462.2069629999987
 30
0.0
 11
4095.4676760000002
 21
7462.2069629999987
 31
0.0
  0
LINE
  5
7AE7
  8
2
  6
CENTER
 10
6160.5561779999998
 20
5036.2707689999997
 30
0.0
 11
6160.5561779999998
 21
2606.1588459999998
 31
0.0
  0
LINE
  5
7AE8
  8
2
  6
CENTER
 10
3098.8026869999999
 20
6507.5267280000007
 30
0.0
 11
3098.8026869999999
 21
8225.9863839999998
 31
0.0
  0
LINE
  5
7AE9
  8
2
  6
CENTER
 10
4166.7180259999986
 20
4000.2069630000001
 30
0.0
 11
1610.7162969999999
 21
4000.2069630000001
 31
0.0
  0
LINE
  5
7AEA
  8
4
 10
7400.0
 20
2000.0
 30
0.0
 11
7400.0
 21
1200.0
 31
0.0
  0
LINE
  5
7AEB
  8
4
 10
4600.0
 20
2000.0
 30
0.0
 11
4600.0
 21
1200.0
 31
0.0
  0
LINE
  5
7AEC
  8
4
 10
2600.0
 20
2000.0
 30
0.0
 11
2600.0
 21
1200.0
 31
0.0
  0
LINE
  5
7AEF
  8
4
 10
2600.0
 20
1200.0
 30
0.0
 11
7400.0
 21
1200.0
 31
0.0
  0
LINE
  5
7AF0
  8
4
 10
2600.0
 20
1600.0
 30
0.0
 11
7400.0
 21
1600.0
 31
0.0
  0
TEXT
  5
7AF1
  8
4
 10
2754.008323
 20
1726.1721030000001
 30
0.0
 40
200.0
  1
機器名称
  0
TEXT
  5
7AF2
  8
4
 10
2745.032424
 20
1286.580627
 30
0.0
 40
200.0
  1
機器型番
  0
TEXT
  5
7AF3
  8
4
 10
4710.7149820000004
 20
1690.2870760000001
 30
0.0
 40
200.0
  1
ミツヤ多翼送風機
  0
TEXT
  5
7AF4
  8
4
 10
4746.6179819999998
 20
1268.6383370000001
 30
0.0
 40
200.0
  1
MFE#8-4
  0
TEXT
  5
7AF6
  8
4
 10
2908.41966
 20
9533.715365
 30
0.0
 40
216.0
  1
床置防振ベット
  0
TEXT
  5
7AF7
  8
4
 10
1264.6703729999999
 20
10135.523905
 30
0.0
 40
288.0
  1
ベルト駆動式片吸込両持排煙ファン
  0
LINE
  5
7AF8
  8
4
 10
1000.0
 20
9877.6350170000005
 30
0.0
 11
7400.0
 21
9877.6350170000005
 31
0.0
  0
LINE
  5
7AF9
  8
4
 10
1000.0
 20
10677.635017000001
 30
0.0
 11
7400.0
 21
10677.635017000001
 31
0.0
  0
LINE
  5
7AFA
  8
4
 10
2600.0
 20
2000.0
 30
0.0
 11
7400.0
 21
2000.0
 31
0.0
  0
LINE
  5
7AFB
  8
4
 10
1000.0
 20
10677.635017000001
 30
0.0
 11
1000.0
 21
9877.6350170000005
 31
0.0
  0
TEXT
  5
7AFC
  8
4
 10
1164.9843310000001
 20
9529.2779099999989
 30
0.0
 40
216.0
  1
右回転上向
  0
TEXT
  5
7AFD
  8
4
 10
5875.8782369999999
 20
10824.244326
 30
0.0
 40
224.0
  1
No.
  0
TEXT
  5
7AFE
  8
4
 10
5245.1842500000012
 20
9533.715365
 30
0.0
 40
216.0
  1
縮尺：1/40
  0
LINE
  5
7AFF
  8
4
 10
7400.0
 20
10677.635017000001
 30
0.0
 11
7400.0
 21
9877.6350170000005
 31
0.0
  0
LINE
  5
7B01
  8
4
 10
5762.4696889999996
 20
10725.054333
 30
0.0
 11
5762.4696889999996
 21
11146.609046
 31
0.0
  0
LINE
  5
7B02
  8
4
 10
5762.4696889999996
 20
11146.609046
 30
0.0
 11
7400.0
 21
11146.609046
 31
0.0
  0
LINE
  5
7B03
  8
4
 10
7400.0
 20
11146.609046
 30
0.0
 11
7400.0
 21
10725.054333
 31
0.0
  0
LINE
  5
7B04
  8
4
 10
7400.0
 20
10725.054333
 30
0.0
 11
5762.4696889999996
 21
10725.054333
 31
0.0
  0
DIMENSION
  5
7B1C
  8
3
  2
*D1
 10
3044.8026869999999
 20
4998.2841820000003
 30
0.0
 11
2417.7832450000001
 21
4998.2841820000003
 31
0.0
 70
   128
 13
1764.8026870000001
 23
4825.2069630000015
 33
0.0
 14
3044.8026869999999
 24
4825.2069630000015
 34
0.0
1001
ACAD
1000
DSTYLE
1002
{
1070
   287
1070
     3
1070
   287
1070
     3
1070
    40
1040
40.0
1070
   143
1040
0.039
1070
   172
1070
     1
1070
   271
1070
     0
1070
   279
1070
     0
1070
   288
1070
     1
1002
}
  0
DIMENSION
  5
7B29
  8
3
  2
*D2
 10
3098.8026869999999
 20
5245.0551619999987
 30
0.0
 11
2417.7832450000001
 21
5245.0551619999987
 31
0.0
 70
   128
 13
1764.8026870000001
 23
4825.2069630000015
 33
0.0
 14
3098.8026869999999
 24
5044.5137629999999
 34
0.0
1001
ACAD
1000
DSTYLE
1002
{
1070
   287
1070
     3
1070
   287
1070
     3
1070
    40
1040
40.0
1070
   143
1040
0.039
1070
   172
1070
     1
1070
   271
1070
     0
1070
   279
1070
     0
1070
   288
1070
     1
1002
}
  0
DIMENSION
  5
7B35
  8
3
  2
*D3
 10
3996.0583449999999
 20
5245.0551619999987
 30
0.0
 11
3547.4305159999999
 21
5345.0551619999997
 31
0.0
 70
     0
 13
3098.8026869999999
 23
5044.5137629999999
 33
0.0
 14
3996.0583449999999
 24
3973.3594629999998
 34
0.0
1001
ACAD
1000
DSTYLE
1002
{
1070
   287
1070
     4
1070
   287
1070
     4
1070
    40
1040
40.0
1070
    75
1070
     1
1070
   143
1040
0.039
1070
   172
1070
     1
1070
   271
1070
     0
1070
   279
1070
     1
1070
   288
1070
     1
1002
}
  0
DIMENSION
  5
7B42
  8
3
  2
*D4
 10
4321.4508910000004
 20
4000.2069630000001
 30
0.0
 11
4321.4508910000004
 21
4425.1386519999996
 31
0.0
 70
   128
 13
3094.8026869999999
 23
4825.2069630000015
 33
0.0
 14
4166.7180259999986
 24
4000.2069630000001
 34
0.0
 50
90.0
1001
ACAD
1000
DSTYLE
1002
{
1070
   287
1070
     3
1070
   287
1070
     3
1070
    40
1040
40.0
1070
   143
1040
0.039
1070
   172
1070
     1
1070
   271
1070
     0
1070
   279
1070
     0
1070
   288
1070
     1
1002
}
  0
DIMENSION
  5
7B4E
  8
3
  2
*D5
 10
4321.4508910000004
 20
2890.2069630000001
 30
0.0
 11
4221.4508909999986
 21
3445.2069630000001
 31
0.0
 70
     0
 13
4166.7180259999986
 23
4000.2069630000001
 33
0.0
 14
3848.8026869999999
 24
2890.2069630000001
 34
0.0
 50
90.0
1001
ACAD
1000
DSTYLE
1002
{
1070
   287
1070
     4
1070
   287
1070
     4
1070
    40
1040
40.0
1070
    75
1070
     1
1070
   143
1040
0.039
1070
   172
1070
     1
1070
   271
1070
     0
1070
   279
1070
     1
1070
   288
1070
     1
1002
}
  0
DIMENSION
  5
7B5E
  8
3
  2
*D6
 10
4321.4508910000004
 20
2796.2069630000001
 30
0.0
 11
4221.4508909999986
 21
2496.2069630000001
 31
0.0
 70
     0
 13
3848.8026869999999
 23
2890.2069630000001
 33
0.0
 14
3848.8026869999999
 24
2796.2069630000001
 34
0.0
 50
90.0
1001
ACAD
1000
DSTYLE
1002
{
1070
   287
1070
     3
1070
   287
1070
     3
1070
    40
1040
40.0
1070
   143
1040
0.039
1070
   172
1070
     1
1070
   271
1070
     0
1070
   279
1070
     0
1070
   288
1070
     1
1002
}
  0
DIMENSION
  5
7B6B
  8
3
  2
*D7
 10
4687.8471910000007
 20
2796.2069630000001
 30
0.0
 11
4687.8471909999998
 21
3796.2706790000002
 31
0.0
 70
   128
 13
3094.8026869999999
 23
4825.2069630000015
 33
0.0
 14
3848.8026869999999
 24
2796.2069630000001
 34
0.0
 50
90.0
1001
ACAD
1000
DSTYLE
1002
{
1070
   287
1070
     3
1070
   287
1070
     3
1070
    40
1040
40.0
1070
   143
1040
0.039
1070
   172
1070
     1
1070
   271
1070
     0
1070
   279
1070
     0
1070
   288
1070
     1
1002
}
  0
DIMENSION
  5
7B78
  8
3
  2
*D8
 10
3098.8026869999999
 20
2493.5763320000001
 30
0.0
 11
2278.6684289999998
 21
2493.5763320000001
 31
0.0
 70
   128
 13
1298.8026870000001
 23
2796.2069630000001
 33
0.0
 14
3098.8026869999999
 24
2491.4182759999999
 34
0.0
1001
ACAD
1000
DSTYLE
1002
{
1070
   287
1070
     3
1070
   287
1070
     3
1070
    40
1040
40.0
1070
   143
1040
0.039
1070
   172
1070
     1
1070
   271
1070
     0
1070
   279
1070
     0
1070
   288
1070
     1
1002
}
  0
DIMENSION
  5
7B84
  8
3
  2
*D9
 10
3848.8026869999999
 20
2493.5763320000001
 30
0.0
 11
3473.8026869999999
 21
2593.5763320000001
 31
0.0
 70
     0
 13
3098.8026869999999
 23
2491.4182759999999
 33
0.0
 14
3848.8026869999999
 24
2796.2069630000001
 34
0.0
1001
ACAD
1000
DSTYLE
1002
{
1070
   287
1070
     4
1070
   287
1070
     4
1070
    40
1040
40.0
1070
    75
1070
     1
1070
   143
1040
0.039
1070
   172
1070
     1
1070
   271
1070
     0
1070
   279
1070
     1
1070
   288
1070
     1
1002
}
  0
DIMENSION
  5
7B91
  8
3
  2
*D10
 10
6635.5561779999998
 20
5019.7793510000001
 30
0.0
 11
6157.139889
 21
5019.7793510000001
 31
0.0
 70
   128
 13
5685.5561779999998
 23
4825.2069630000015
 33
0.0
 14
6635.5561779999998
 24
4825.2069630000015
 34
0.0
1001
ACAD
1000
DSTYLE
1002
{
1070
   287
1070
     3
1070
   287
1070
     3
1070
    40
1040
40.0
1070
   143
1040
0.039
1070
   172
1070
     1
1070
   271
1070
     0
1070
   279
1070
     0
1070
   288
1070
     1
1002
}
  0
DIMENSION
  5
7B9E
  8
3
  2
*D11
 10
7049.7412540000014
 20
3375.2069630000001
 30
0.0
 11
7049.7412540000014
 21
3993.5093630000001
 31
0.0
 70
   128
 13
6738.5561779999998
 23
4625.2069630000015
 33
0.0
 14
6738.5561779999998
 24
3375.2069630000001
 34
0.0
 50
90.0
1001
ACAD
1000
DSTYLE
1002
{
1070
   287
1070
     3
1070
   287
1070
     3
1070
     3
1000
φ<>
1070
    40
1040
40.0
1070
   143
1040
0.039
1070
   172
1070
     1
1070
   271
1070
     0
1070
   279
1070
     0
1070
   288
1070
     1
1002
}
  0
DIMENSION
  5
7BAB
  8
3
  2
*D12
 10
6160.5561779999998
 20
5280.2940399999998
 30
0.0
 11
6434.8418920000004
 21
5280.2940399999998
 31
0.0
 70
   128
 13
6738.5561779999998
 23
4675.2069629999996
 33
0.0
 14
6160.5561779999998
 24
5206.0620689999996
 34
0.0
1001
ACAD
1000
DSTYLE
1002
{
1070
   287
1070
     3
1070
   287
1070
     3
1070
    40
1040
40.0
1070
   143
1040
0.039
1070
   172
1070
     1
1070
   271
1070
     0
1070
   279
1070
     0
1070
   288
1070
     1
1002
}
  0
DIMENSION
  5
7BB7
  8
3
  2
*D13
 10
5320.5561779999998
 20
5280.2940399999998
 30
0.0
 11
5740.5561779999998
 21
5480.2940399999998
 31
0.0
 70
     0
  1
MAX\P890
 13
6160.5561779999998
 23
5206.0620689999996
 33
0.0
 14
5320.5561779999998
 24
4378.2069630000015
 34
0.0
1001
ACAD
1000
DSTYLE
1002
{
1070
   287
1070
     4
1070
   287
1070
     4
1070
    40
1040
40.0
1070
    75
1070
     1
1070
   143
1040
0.039
1070
   172
1070
     1
1070
   271
1070
     0
1070
   279
1070
     1
1070
   288
1070
     1
1002
}
  0
DIMENSION
  5
7BC4
  8
3
  2
*D14
 10
6160.5561779999998
 20
2517.259474
 30
0.0
 11
5801.679153
 21
2517.259474
 31
0.0
 70
   128
 13
5433.5561779999989
 23
2796.2069630000001
 33
0.0
 14
6160.5561779999998
 24
2606.1588459999998
 34
0.0
1001
ACAD
1000
DSTYLE
1002
{
1070
   287
1070
     3
1070
   287
1070
     3
1070
    40
1040
40.0
1070
   143
1040
0.039
1070
   172
1070
     1
1070
   271
1070
     0
1070
   279
1070
     0
1070
   288
1070
     1
1002
}
  0
DIMENSION
  5
7BD0
  8
3
  2
*D15
 10
6713.5561780000007
 20
2517.259474
 30
0.0
 11
6437.0561779999998
 21
2617.259474
 31
0.0
 70
     0
 13
6160.5561779999998
 23
2606.1588459999998
 33
0.0
 14
6713.5561780000007
 24
2796.2069630000001
 34
0.0
1001
ACAD
1000
DSTYLE
1002
{
1070
   287
1070
     4
1070
   287
1070
     4
1070
    40
1040
40.0
1070
    75
1070
     1
1070
   143
1040
0.039
1070
   172
1070
     1
1070
   271
1070
     0
1070
   279
1070
     1
1070
   288
1070
     1
1002
}
  0
DIMENSION
  5
7BFF
  8
3
  2
*D16
 10
3848.8026869999999
 20
6333.3938340000004
 30
0.0
 11
2539.339614
 21
6333.3938340000004
 31
0.0
 70
   128
 13
1298.8026870000001
 23
6735.2069629999996
 33
0.0
 14
3848.8026869999999
 24
6735.2069629999996
 34
0.0
1001
ACAD
1000
DSTYLE
1002
{
1070
   287
1070
     3
1070
   287
1070
     3
1070
    40
1040
40.0
1070
   143
1040
0.039
1070
   172
1070
     1
1070
   271
1070
     0
1070
   279
1070
     0
1070
   288
1070
     1
1002
}
  0
DIMENSION
  5
7C0C
  8
3
  2
*D17
 10
4419.3318950000012
 20
6735.2069629999996
 30
0.0
 11
4419.3318950000003
 21
7462.2908129999996
 31
0.0
 70
   128
 13
3848.8026869999999
 23
8015.2069629999996
 33
0.0
 14
3848.8026869999999
 24
6735.2069629999996
 34
0.0
 50
90.0
1001
ACAD
1000
DSTYLE
1002
{
1070
   287
1070
     3
1070
   287
1070
     3
1070
    40
1040
40.0
1070
   143
1040
0.039
1070
   172
1070
     1
1070
   271
1070
     0
1070
   279
1070
     0
1070
   288
1070
     1
1002
}
  0
DIMENSION
  5
7C4D
  8
3
  2
*D18
 10
3996.0583449999999
 20
5486.5430759007504
 30
0.0
 11
2624.0997781285332
 21
5486.5430759007504
 31
0.0
 70
   128
 13
1298.8026870000001
 23
3040.2069630000001
 33
0.0
 14
3996.0583449999999
 24
3993.3594629999998
 34
0.0
1001
ACAD
1000
DSTYLE
1002
{
1070
   287
1070
     3
1070
   287
1070
     3
1070
    40
1040
40.0
1070
   143
1040
0.039
1070
   172
1070
     1
1070
   271
1070
     0
1070
   279
1070
     0
1070
   288
1070
     1
1002
}
  0
ENDSEC
  0
EOF
