  0
SECTION
  2
HEADER
  9
$ACADVER
  1
AC1009
  9
$INSBASE
 10
0.0
 20
0.0
 30
0.0
  9
$EXTMIN
 10
1000.0
 20
1200.0
 30
0.0
  9
$EXTMAX
 10
7400.0
 20
11146.609046
 30
0.0
  9
$LIMMIN
 10
0.0
 20
0.0
  9
$LIMMAX
 10
297.0
 20
210.0
  9
$ORTHOMODE
 70
     0
  9
$REGENMODE
 70
     1
  9
$FILLMODE
 70
     0
  9
$QTEXTMODE
 70
     0
  9
$MIRRTEXT
 70
     1
  9
$DRAGMODE
 70
     2
  9
$LTSCALE
 40
100.0
  9
$OSMODE
 70
    37
  9
$ATTMODE
 70
     1
  9
$TEXTSIZE
 40
180.0
  9
$TRACEWID
 40
0.05
  9
$TEXTSTYLE
  7
STANDARD
  9
$CLAYER
  8
3
  9
$CELTYPE
  6
BYLAYER
  9
$CECOLOR
 62
   256
  9
$DIMSCALE
 40
40.0
  9
$DIMASZ
 40
2.0
  9
$DIMEXO
 40
0.5
  9
$DIMDLI
 40
10.0
  9
$DIMRND
 40
0.0
  9
$DIMDLE
 40
0.0
  9
$DIMEXE
 40
1.0
  9
$DIMTP
 40
1.0
  9
$DIMTM
 40
1.0
  9
$DIMTXT
 40
3.0
  9
$DIMCEN
 40
0.0
  9
$DIMTSZ
 40
0.0
  9
$DIMTOL
 70
     0
  9
$DIMLIM
 70
     0
  9
$DIMTIH
 70
     0
  9
$DIMTOH
 70
     0
  9
$DIMSE1
 70
     0
  9
$DIMSE2
 70
     0
  9
$DIMTAD
 70
     1
  9
$DIMZIN
 70
     8
  9
$DIMBLK
  1

  9
$DIMASO
 70
     1
  9
$DIMSHO
 70
     1
  9
$DIMPOST
  1

  9
$DIMAPOST
  1

  9
$DIMALT
 70
     0
  9
$DIMALTD
 70
     2
  9
$DIMALTF
 40
0.039
  9
$DIMLFAC
 40
1.0
  9
$DIMTOFL
 70
     1
  9
$DIMTVP
 40
0.0
  9
$DIMTIX
 70
     0
  9
$DIMSOXD
 70
     0
  9
$DIMSAH
 70
     1
  9
$DIMBLK1
  1
OPEN
  9
$DIMBLK2
  1
OPEN
  9
$DIMSTYLE
  2
IGA
  9
$DIMCLRD
 70
     0
  9
$DIMCLRE
 70
     0
  9
$DIMCLRT
 70
     0
  9
$DIMTFAC
 40
10.0
  9
$DIMGAP
 40
1.0
  9
$LUNITS
 70
     2
  9
$LUPREC
 70
     3
  9
$SKETCHINC
 40
0.1
  9
$FILLETRAD
 40
50.0
  9
$AUNITS
 70
     0
  9
$AUPREC
 70
     0
  9
$MENU
  1
acad
  9
$ELEVATION
 40
0.0
  9
$PELEVATION
 40
0.0
  9
$THICKNESS
 40
0.0
  9
$LIMCHECK
 70
     0
  9
$BLIPMODE
 70
     0
  9
$CHAMFERA
 40
0.5
  9
$CHAMFERB
 40
0.5
  9
$SKPOLY
 70
     0
  9
$TDCREATE
 40
2450757.5679880781
  9
$TDUPDATE
 40
2454953.8447216898
  9
$TDINDWG
 40
0.0080175926
  9
$TDUSRTIMER
 40
0.0080175926
  9
$USRTIMER
 70
     1
  9
$ANGBASE
 50
0.0
  9
$ANGDIR
 70
     0
  9
$PDMODE
 70
     0
  9
$PDSIZE
 40
0.0
  9
$PLINEWID
 40
0.0
  9
$COORDS
 70
     1
  9
$SPLFRAME
 70
     0
  9
$SPLINETYPE
 70
     6
  9
$SPLINESEGS
 70
     8
  9
$ATTDIA
 70
     0
  9
$ATTREQ
 70
     1
  9
$HANDLING
 70
 10241
  9
$HANDSEED
  5
7F03
  9
$SURFTAB1
 70
     6
  9
$SURFTAB2
 70
     6
  9
$SURFTYPE
 70
     6
  9
$SURFU
 70
     6
  9
$SURFV
 70
     6
  9
$UCSNAME
  2

  9
$UCSORG
 10
0.0
 20
0.0
 30
0.0
  9
$UCSXDIR
 10
1.0
 20
0.0
 30
0.0
  9
$UCSYDIR
 10
0.0
 20
1.0
 30
0.0
  9
$PUCSNAME
  2

  9
$PUCSORG
 10
0.0
 20
0.0
 30
0.0
  9
$PUCSXDIR
 10
1.0
 20
0.0
 30
0.0
  9
$PUCSYDIR
 10
0.0
 20
1.0
 30
0.0
  9
$USERI1
 70
     0
  9
$USERI2
 70
     0
  9
$USERI3
 70
     0
  9
$USERI4
 70
     0
  9
$USERI5
 70
     0
  9
$USERR1
 40
0.0
  9
$USERR2
 40
0.0
  9
$USERR3
 40
0.0
  9
$USERR4
 40
0.0
  9
$USERR5
 40
0.0
  9
$WORLDVIEW
 70
     1
  9
$SHADEDGE
 70
     3
  9
$SHADEDIF
 70
    70
  9
$TILEMODE
 70
     1
  9
$MAXACTVP
 70
    16
  9
$PLIMCHECK
 70
     0
  9
$PEXTMIN
 10
1.0000000000000000E+020
 20
1.0000000000000000E+020
 30
1.0000000000000000E+020
  9
$PEXTMAX
 10
-1.0000000000000000E+020
 20
-1.0000000000000000E+020
 30
-1.0000000000000000E+020
  9
$PLIMMIN
 10
0.0
 20
0.0
  9
$PLIMMAX
 10
12.0
 20
9.0
  9
$UNITMODE
 70
     0
  9
$VISRETAIN
 70
     0
  9
$PLINEGEN
 70
     0
  9
$PSLTSCALE
 70
     1
  0
ENDSEC
  0
SECTION
  2
TABLES
  0
TABLE
  2
VPORT
 70
     2
  0
VPORT
  2
*ACTIVE
 70
     0
 10
0.0
 20
0.0
 11
1.0
 21
1.0
 12
9324.2394136061976
 22
5613.4396036877488
 13
0.0
 23
0.0
 14
10.0
 24
10.0
 15
10.0
 25
10.0
 16
0.0
 26
0.0
 36
1.0
 17
0.0
 27
0.0
 37
0.0
 40
14046.829360524451
 41
1.5051150895140659
 42
50.0
 43
0.0
 44
0.0
 50
0.0
 51
0.0
 71
     0
 72
   100
 73
     1
 74
     0
 75
     0
 76
     0
 77
     0
 78
     0
  0
ENDTAB
  0
TABLE
  2
LTYPE
 70
     2
  0
LTYPE
  2
CONTINUOUS
 70
     0
  3
Solid line
 72
    65
 73
     0
 40
0.0
  0
LTYPE
  2
CENTER
 70
     0
  3
____ _ ____ _ ____ _ ____ _ ____ _ ____ _ ____ 
 72
    65
 73
     4
 40
2.0
 49
1.25
 49
-0.25
 49
0.25
 49
-0.25
  0
ENDTAB
  0
TABLE
  2
LAYER
 70
     6
  0
LAYER
  2
0
 70
     0
 62
     7
  6
CONTINUOUS
  0
LAYER
  2
3
 70
     0
 62
     2
  6
CONTINUOUS
  0
LAYER
  2
2
 70
     0
 62
     3
  6
CENTER
  0
LAYER
  2
1
 70
     0
 62
     4
  6
CONTINUOUS
  0
LAYER
  2
4
 70
     0
 62
     7
  6
CONTINUOUS
  0
LAYER
  2
DEFPOINTS
 70
     0
 62
     7
  6
CONTINUOUS
  0
ENDTAB
  0
TABLE
  2
STYLE
 70
     1
  0
STYLE
  2
STANDARD
 70
     0
 40
0.0
 41
1.0
 50
0.0
 71
     0
 42
180.0
  3
simplex.shx
  4
extfont.shx
  0
ENDTAB
  0
TABLE
  2
VIEW
 70
     0
  0
ENDTAB
  0
TABLE
  2
UCS
 70
     0
  0
ENDTAB
  0
TABLE
  2
APPID
 70
     1
  0
APPID
  2
ACAD
 70
     0
  0
ENDTAB
  0
TABLE
  2
DIMSTYLE
 70
     1
  0
DIMSTYLE
  2
IGA
 70
     0
  3

  4

  5

  6
OPEN
  7
OPEN
 40
2.0
 41
2.0
 42
0.5
 43
10.0
 44
1.0
 45
0.0
 46
0.0
 47
1.0
 48
1.0
140
3.0
141
0.0
142
0.0
143
0.03937
144
1.0
145
0.0
146
10.0
147
1.0
 71
     0
 72
     0
 73
     0
 74
     0
 75
     0
 76
     0
 77
     1
 78
     8
170
     0
171
     2
172
     0
173
     1
174
     0
175
     0
176
     0
177
     0
178
     0
  0
ENDTAB
  0
ENDSEC
  0
SECTION
  2
BLOCKS
  0
BLOCK
  8
0
  2
$MODEL_SPACE
 70
     0
 10
0.0
 20
0.0
 30
0.0
  3
$MODEL_SPACE
  1

  0
ENDBLK
  5
1B
  8
0
  0
BLOCK
 67
     1
  8
0
  2
$PAPER_SPACE
 70
     0
 10
0.0
 20
0.0
 30
0.0
  3
$PAPER_SPACE
  1

  0
ENDBLK
  5
18
 67
     1
  8
0
  0
BLOCK
  8
0
  2
_OPEN
 70
     0
 10
0.0
 20
0.0
 30
0.0
  3
_OPEN
  1

  0
LINE
  5
7BAB
  8
0
  6
BYBLOCK
 62
     0
 10
-1.0
 20
0.166667
 30
0.0
 11
0.0
 21
0.0
 31
0.0
  0
LINE
  5
7BAC
  8
0
  6
BYBLOCK
 62
     0
 10
0.0
 20
0.0
 30
0.0
 11
-1.0
 21
-0.166667
 31
0.0
  0
LINE
  5
7BAD
  8
0
  6
BYBLOCK
 62
     0
 10
0.0
 20
0.0
 30
0.0
 11
-1.0
 21
0.0
 31
0.0
  0
ENDBLK
  5
7BAE
  8
0
  0
BLOCK
  8
0
  2
*D1
 70
     1
 10
0.0
 20
0.0
 30
0.0
  3
*D1
  1

  0
LINE
  5
7E4F
  8
3
  6
CONTINUOUS
 62
     0
 10
4179.4894210000002
 20
4928.721759
 30
0.0
 11
4179.4894210000002
 21
5223.2312350000002
 31
0.0
  0
LINE
  5
7E50
  8
3
  6
CONTINUOUS
 62
     0
 10
2899.4894210000002
 20
4928.721759
 30
0.0
 11
2899.4894210000002
 21
5223.2312350000002
 31
0.0
  0
LINE
  5
7E51
  8
3
  6
CONTINUOUS
 62
     0
 10
4099.4894210000002
 20
5183.2312350000002
 30
0.0
 11
2979.4894210000002
 21
5183.2312350000002
 31
0.0
  0
INSERT
  5
7E52
  8
3
  6
CONTINUOUS
 62
     0
  2
_OPEN
 10
4179.4894210000002
 20
5183.2312350000002
 30
0.0
 41
80.0
 42
80.0
 43
80.0
  0
INSERT
  5
7E53
  8
3
  6
CONTINUOUS
 62
     0
  2
_OPEN
 10
2899.4894210000002
 20
5183.2312350000002
 30
0.0
 41
80.0
 42
80.0
 43
80.0
 50
180.0
  0
TEXT
  8
3
  40
120
  5
7EF0
  62
0
  72
0
  71
0
 10
3336.32
 20
5070.83
 30
0.000000
  1
1280
  0
POINT
  5
7E55
  8
DEFPOINTS
  6
CONTINUOUS
 62
     0
 10
4179.4894210000002
 20
4908.721759
 30
0.0
  0
POINT
  5
7E56
  8
DEFPOINTS
  6
CONTINUOUS
 62
     0
 10
2899.4894210000002
 20
4908.721759
 30
0.0
  0
POINT
  5
7E57
  8
DEFPOINTS
  6
CONTINUOUS
 62
     0
 10
2899.4894210000002
 20
5183.2312350000002
 30
0.0
  0
ENDBLK
  5
7CE4
  8
0
  0
BLOCK
  8
0
  2
*D2
 70
     1
 10
0.0
 20
0.0
 30
0.0
  3
*D2
  1

  0
LINE
  5
7E58
  8
3
  6
CONTINUOUS
 62
     0
 10
4179.4894210000002
 20
4928.721759
 30
0.0
 11
4179.4894210000002
 21
5503.1850290000002
 31
0.0
  0
LINE
  5
7E59
  8
3
  6
CONTINUOUS
 62
     0
 10
2845.4894210000002
 20
5145.1701939999994
 30
0.0
 11
2845.4894210000002
 21
5503.1850290000002
 31
0.0
  0
LINE
  5
7E5A
  8
3
  6
CONTINUOUS
 62
     0
 10
4099.4894210000002
 20
5463.1850290000002
 30
0.0
 11
2925.4894210000002
 21
5463.1850290000002
 31
0.0
  0
INSERT
  5
7E5B
  8
3
  6
CONTINUOUS
 62
     0
  2
_OPEN
 10
4179.4894210000002
 20
5463.1850290000002
 30
0.0
 41
80.0
 42
80.0
 43
80.0
  0
INSERT
  5
7E5C
  8
3
  6
CONTINUOUS
 62
     0
  2
_OPEN
 10
2845.4894210000002
 20
5463.1850290000002
 30
0.0
 41
80.0
 42
80.0
 43
80.0
 50
180.0
  0
TEXT
  8
3
  40
120
  5
7EF1
  62
0
  72
0
  71
0
 10
3326.66
 20
5350.79
 30
0.000000
  1
1334
  0
POINT
  5
7E5E
  8
DEFPOINTS
  6
CONTINUOUS
 62
     0
 10
4179.4894210000002
 20
4908.721759
 30
0.0
  0
POINT
  5
7E5F
  8
DEFPOINTS
  6
CONTINUOUS
 62
     0
 10
2845.4894210000002
 20
5125.1701939999994
 30
0.0
  0
POINT
  5
7E60
  8
DEFPOINTS
  6
CONTINUOUS
 62
     0
 10
2845.4894210000002
 20
5463.1850290000002
 30
0.0
  0
ENDBLK
  5
7CD9
  8
0
  0
BLOCK
  8
0
  2
*D3
 70
     1
 10
0.0
 20
0.0
 30
0.0
  3
*D3
  1

  0
LINE
  5
7E61
  8
3
  6
CONTINUOUS
 62
     0
 10
1948.2337640000001
 20
4076.8742590000002
 30
0.0
 11
1948.2337640000001
 21
5503.1850290000002
 31
0.0
  0
LINE
  5
7E62
  8
3
  6
CONTINUOUS
 62
     0
 10
2765.4894210000002
 20
5463.1850290000002
 30
0.0
 11
2028.2337640000001
 21
5463.1850290000002
 31
0.0
  0
INSERT
  5
7E63
  8
3
  6
CONTINUOUS
 62
     0
  2
_OPEN
 10
2845.4894210000002
 20
5463.1850290000002
 30
0.0
 41
80.0
 42
80.0
 43
80.0
  0
INSERT
  5
7E64
  8
3
  6
CONTINUOUS
 62
     0
  2
_OPEN
 10
1948.2337640000001
 20
5463.1850290000002
 30
0.0
 41
80.0
 42
80.0
 43
80.0
 50
180.0
  0
TEXT
  8
3
  40
120
  5
7EF2
  62
0
  72
0
  71
0
 10
2156.86
 20
5350.79
 30
0.000000
  1
897
  0
POINT
  5
7E66
  8
DEFPOINTS
  6
CONTINUOUS
 62
     0
 10
2845.4894210000002
 20
5125.1701939999994
 30
0.0
  0
POINT
  5
7E67
  8
DEFPOINTS
  6
CONTINUOUS
 62
     0
 10
1948.2337640000001
 20
4056.8742589999988
 30
0.0
  0
POINT
  5
7E68
  8
DEFPOINTS
  6
CONTINUOUS
 62
     0
 10
1948.2337640000001
 20
5463.1850290000002
 30
0.0
  0
ENDBLK
  5
7CEE
  8
0
  0
BLOCK
  8
0
  2
*D4
 70
     1
 10
0.0
 20
0.0
 30
0.0
  3
*D4
  1

  0
LINE
  5
7E69
  8
3
  6
CONTINUOUS
 62
     0
 10
2829.4894210000002
 20
4908.721759
 30
0.0
 11
1477.9037610000009
 21
4908.7217590000009
 31
0.0
  0
LINE
  5
7E6A
  8
3
  6
CONTINUOUS
 62
     0
 10
1620.287996
 20
4083.7217590000009
 30
0.0
 11
1477.903761
 21
4083.7217590000009
 31
0.0
  0
LINE
  5
7E6B
  8
3
  6
CONTINUOUS
 62
     0
 10
1517.9037610000009
 20
4828.7217590000009
 30
0.0
 11
1517.903761
 21
4163.7217590000009
 31
0.0
  0
INSERT
  5
7E6C
  8
3
  6
CONTINUOUS
 62
     0
  2
_OPEN
 10
1517.9037610000009
 20
4908.7217590000009
 30
0.0
 41
80.0
 42
80.0
 43
80.0
 50
90.0
  0
INSERT
  5
7E6D
  8
3
  6
CONTINUOUS
 62
     0
  2
_OPEN
 10
1517.903761
 20
4083.7217590000009
 30
0.0
 41
80.0
 42
80.0
 43
80.0
 50
270.0
  0
TEXT
  8
3
  40
120
  5
7EF3
  62
0
  72
0
  71
0
 10
1177.90
 20
4269.81
 30
0.000000
  1
825
  0
POINT
  5
7E6F
  8
DEFPOINTS
  6
CONTINUOUS
 62
     0
 10
2849.4894210000002
 20
4908.721759
 30
0.0
  0
POINT
  5
7E70
  8
DEFPOINTS
  6
CONTINUOUS
 62
     0
 10
1640.287996
 20
4083.7217590000009
 30
0.0
  0
POINT
  5
7E71
  8
DEFPOINTS
  6
CONTINUOUS
 62
     0
 10
1517.903761
 20
4083.7217590000009
 30
0.0
  0
ENDBLK
  5
7BE1
  8
0
  0
BLOCK
  8
0
  2
*D5
 70
     1
 10
0.0
 20
0.0
 30
0.0
  3
*D5
  1

  0
LINE
  5
7E72
  8
3
  6
CONTINUOUS
 62
     0
 10
2075.4894210000002
 20
2973.721759
 30
0.0
 11
1477.903761
 21
2973.721759
 31
0.0
  0
LINE
  5
7E73
  8
3
  6
CONTINUOUS
 62
     0
 10
1517.903761
 20
4003.721759
 30
0.0
 11
1517.903761
 21
3053.721759
 31
0.0
  0
INSERT
  5
7E74
  8
3
  6
CONTINUOUS
 62
     0
  2
_OPEN
 10
1517.903761
 20
4083.7217590000009
 30
0.0
 41
80.0
 42
80.0
 43
80.0
 50
90.0
  0
INSERT
  5
7E75
  8
3
  6
CONTINUOUS
 62
     0
  2
_OPEN
 10
1517.903761
 20
2973.721759
 30
0.0
 41
80.0
 42
80.0
 43
80.0
 50
270.0
  0
TEXT
  8
3
  40
120
  5
7EF4
  62
0
  72
0
  71
0
 10
1177.90
 20
3316.32
 30
0.000000
  1
1110
  0
POINT
  5
7E77
  8
DEFPOINTS
  6
CONTINUOUS
 62
     0
 10
1640.287996
 20
4083.7217590000009
 30
0.0
  0
POINT
  5
7E78
  8
DEFPOINTS
  6
CONTINUOUS
 62
     0
 10
2095.4894210000002
 20
2973.721759
 30
0.0
  0
POINT
  5
7E79
  8
DEFPOINTS
  6
CONTINUOUS
 62
     0
 10
1517.903761
 20
2973.721759
 30
0.0
  0
ENDBLK
  5
7BED
  8
0
  0
BLOCK
  8
0
  2
*D6
 70
     1
 10
0.0
 20
0.0
 30
0.0
  3
*D6
  1

  0
LINE
  5
7E7A
  8
3
  6
CONTINUOUS
 62
     0
 10
2075.4894210000002
 20
2973.721759
 30
0.0
 11
1476.4964110000001
 21
2973.721759
 31
0.0
  0
LINE
  5
7E7B
  8
3
  6
CONTINUOUS
 62
     0
 10
2075.4894210000002
 20
2879.721759
 30
0.0
 11
1476.4964110000001
 21
2879.721759
 31
0.0
  0
LINE
  5
7E7C
  8
3
  6
CONTINUOUS
 62
     0
 10
1516.4964110000001
 20
3053.721759
 30
0.0
 11
1516.4964110000001
 21
3133.721759
 31
0.0
  0
LINE
  5
7E7D
  8
3
  6
CONTINUOUS
 62
     0
 10
1516.4964110000001
 20
2799.721759
 30
0.0
 11
1516.4964110000001
 21
2439.721759
 31
0.0
  0
LINE
  5
7E7E
  8
3
  6
CONTINUOUS
 62
     0
 10
1516.4964110000001
 20
2973.721759
 30
0.0
 11
1516.4964110000001
 21
2879.721759
 31
0.0
  0
INSERT
  5
7E7F
  8
3
  6
CONTINUOUS
 62
     0
  2
_OPEN
 10
1516.4964110000001
 20
2973.721759
 30
0.0
 41
80.0
 42
80.0
 43
80.0
 50
270.0
  0
INSERT
  5
7E80
  8
3
  6
CONTINUOUS
 62
     0
  2
_OPEN
 10
1516.4964110000001
 20
2879.721759
 30
0.0
 41
80.0
 42
80.0
 43
80.0
 50
90.0
  0
TEXT
  8
3
  40
120
  5
7EF5
  62
0
  72
0
  71
0
 10
1176.50
 20
2367.32
 30
0.000000
  1
94
  0
POINT
  5
7E82
  8
DEFPOINTS
  6
CONTINUOUS
 62
     0
 10
2095.4894210000002
 20
2973.721759
 30
0.0
  0
POINT
  5
7E83
  8
DEFPOINTS
  6
CONTINUOUS
 62
     0
 10
2095.4894210000002
 20
2879.721759
 30
0.0
  0
POINT
  5
7E84
  8
DEFPOINTS
  6
CONTINUOUS
 62
     0
 10
1516.4964110000001
 20
2879.721759
 30
0.0
  0
ENDBLK
  5
7D1F
  8
0
  0
BLOCK
  8
0
  2
*D7
 70
     1
 10
0.0
 20
0.0
 30
0.0
  3
*D7
  1

  0
LINE
  5
7E85
  8
3
  6
CONTINUOUS
 62
     0
 10
2829.4894210000002
 20
4908.721759
 30
0.0
 11
1252.479032
 21
4908.7217590000009
 31
0.0
  0
LINE
  5
7E86
  8
3
  6
CONTINUOUS
 62
     0
 10
2075.4894210000002
 20
2879.721759
 30
0.0
 11
1252.479032
 21
2879.721759
 31
0.0
  0
LINE
  5
7E87
  8
3
  6
CONTINUOUS
 62
     0
 10
1292.4790320000011
 20
4828.7217590000009
 30
0.0
 11
1292.479032
 21
2959.721759
 31
0.0
  0
INSERT
  5
7E88
  8
3
  6
CONTINUOUS
 62
     0
  2
_OPEN
 10
1292.4790320000011
 20
4908.7217590000009
 30
0.0
 41
80.0
 42
80.0
 43
80.0
 50
90.0
  0
INSERT
  5
7E89
  8
3
  6
CONTINUOUS
 62
     0
  2
_OPEN
 10
1292.479032
 20
2879.721759
 30
0.0
 41
80.0
 42
80.0
 43
80.0
 50
270.0
  0
TEXT
  8
3
  40
120
  5
7EF6
  62
0
  72
0
  71
0
 10
952.479
 20
3661.64
 30
0.000000
  1
2029
  0
POINT
  5
7E8B
  8
DEFPOINTS
  6
CONTINUOUS
 62
     0
 10
2849.4894210000002
 20
4908.721759
 30
0.0
  0
POINT
  5
7E8C
  8
DEFPOINTS
  6
CONTINUOUS
 62
     0
 10
2095.4894210000002
 20
2879.721759
 30
0.0
  0
POINT
  5
7E8D
  8
DEFPOINTS
  6
CONTINUOUS
 62
     0
 10
1292.479032
 20
2879.721759
 30
0.0
  0
ENDBLK
  5
7CCE
  8
0
  0
BLOCK
  8
0
  2
*D8
 70
     1
 10
0.0
 20
0.0
 30
0.0
  3
*D8
  1

  0
LINE
  5
7E8E
  8
3
  6
CONTINUOUS
 62
     0
 10
2095.4894210000002
 20
2859.721759
 30
0.0
 11
2095.4894210000002
 21
2549.150114
 31
0.0
  0
LINE
  5
7E8F
  8
3
  6
CONTINUOUS
 62
     0
 10
2845.4894210000002
 20
2694.3402160000001
 30
0.0
 11
2845.4894210000002
 21
2549.150114
 31
0.0
  0
LINE
  5
7E90
  8
3
  6
CONTINUOUS
 62
     0
 10
2175.4894210000002
 20
2589.150114
 30
0.0
 11
2765.4894210000002
 21
2589.150114
 31
0.0
  0
INSERT
  5
7E91
  8
3
  6
CONTINUOUS
 62
     0
  2
_OPEN
 10
2095.4894210000002
 20
2589.150114
 30
0.0
 41
80.0
 42
80.0
 43
80.0
 50
180.0
  0
INSERT
  5
7E92
  8
3
  6
CONTINUOUS
 62
     0
  2
_OPEN
 10
2845.4894210000002
 20
2589.150114
 30
0.0
 41
80.0
 42
80.0
 43
80.0
  0
TEXT
  8
3
  40
120
  5
7EF7
  62
0
  72
0
  71
0
 10
2214.86
 20
2476.75
 30
0.000000
  1
750
  0
POINT
  5
7E94
  8
DEFPOINTS
  6
CONTINUOUS
 62
     0
 10
2095.4894210000002
 20
2879.721759
 30
0.0
  0
POINT
  5
7E95
  8
DEFPOINTS
  6
CONTINUOUS
 62
     0
 10
2845.4894210000002
 20
2714.3402160000001
 30
0.0
  0
POINT
  5
7E96
  8
DEFPOINTS
  6
CONTINUOUS
 62
     0
 10
2845.4894210000002
 20
2589.150114
 30
0.0
  0
ENDBLK
  5
7C17
  8
0
  0
BLOCK
  8
0
  2
*D9
 70
     1
 10
0.0
 20
0.0
 30
0.0
  3
*D9
  1

  0
LINE
  5
7E97
  8
3
  6
CONTINUOUS
 62
     0
 10
4645.4894210000002
 20
2859.721759
 30
0.0
 11
4645.4894210000002
 21
2549.150114
 31
0.0
  0
LINE
  5
7E98
  8
3
  6
CONTINUOUS
 62
     0
 10
2925.4894210000002
 20
2589.150114
 30
0.0
 11
4565.4894210000002
 21
2589.150114
 31
0.0
  0
INSERT
  5
7E99
  8
3
  6
CONTINUOUS
 62
     0
  2
_OPEN
 10
2845.4894210000002
 20
2589.150114
 30
0.0
 41
80.0
 42
80.0
 43
80.0
 50
180.0
  0
INSERT
  5
7E9A
  8
3
  6
CONTINUOUS
 62
     0
  2
_OPEN
 10
4645.4894210000002
 20
2589.150114
 30
0.0
 41
80.0
 42
80.0
 43
80.0
  0
TEXT
  8
3
  40
120
  5
7EF8
  62
0
  72
0
  71
0
 10
3505.49
 20
2476.75
 30
0.000000
  1
1800
  0
POINT
  5
7E9C
  8
DEFPOINTS
  6
CONTINUOUS
 62
     0
 10
2845.4894210000002
 20
2714.3402160000001
 30
0.0
  0
POINT
  5
7E9D
  8
DEFPOINTS
  6
CONTINUOUS
 62
     0
 10
4645.4894210000002
 20
2879.721759
 30
0.0
  0
POINT
  5
7E9E
  8
DEFPOINTS
  6
CONTINUOUS
 62
     0
 10
4645.4894210000002
 20
2589.150114
 30
0.0
  0
ENDBLK
  5
7D29
  8
0
  0
BLOCK
  8
0
  2
*D10
 70
     1
 10
0.0
 20
0.0
 30
0.0
  3
*D10
  1

  0
LINE
  5
7E9F
  8
3
  6
CONTINUOUS
 62
     0
 10
5776.3910420000002
 20
4928.721759
 30
0.0
 11
5776.3910420000002
 21
5129.4270049999996
 31
0.0
  0
LINE
  5
7EA0
  8
3
  6
CONTINUOUS
 62
     0
 10
6726.3910420000002
 20
4928.721759
 30
0.0
 11
6726.3910420000002
 21
5129.4270049999996
 31
0.0
  0
LINE
  5
7EA1
  8
3
  6
CONTINUOUS
 62
     0
 10
5856.3910420000011
 20
5089.4270049999996
 30
0.0
 11
6646.3910420000011
 21
5089.4270049999996
 31
0.0
  0
INSERT
  5
7EA2
  8
3
  6
CONTINUOUS
 62
     0
  2
_OPEN
 10
5776.3910420000002
 20
5089.4270049999996
 30
0.0
 41
80.0
 42
80.0
 43
80.0
 50
180.0
  0
INSERT
  5
7EA3
  8
3
  6
CONTINUOUS
 62
     0
  2
_OPEN
 10
6726.3910420000002
 20
5089.4270049999996
 30
0.0
 41
80.0
 42
80.0
 43
80.0
  0
TEXT
  8
3
  40
120
  5
7EF9
  62
0
  72
0
  71
0
 10
6015.76
 20
4977.03
 30
0.000000
  1
950
  0
POINT
  5
7EA5
  8
DEFPOINTS
  6
CONTINUOUS
 62
     0
 10
5776.3910420000002
 20
4908.721759
 30
0.0
  0
POINT
  5
7EA6
  8
DEFPOINTS
  6
CONTINUOUS
 62
     0
 10
6726.3910420000002
 20
4908.721759
 30
0.0
  0
POINT
  5
7EA7
  8
DEFPOINTS
  6
CONTINUOUS
 62
     0
 10
6726.3910420000002
 20
5089.4270049999996
 30
0.0
  0
ENDBLK
  5
7C30
  8
0
  0
BLOCK
  8
0
  2
*D11
 70
     1
 10
0.0
 20
0.0
 30
0.0
  3
*D11
  1

  0
LINE
  5
7EA8
  8
3
  6
CONTINUOUS
 62
     0
 10
6849.3910420000002
 20
4708.721759
 30
0.0
 11
7165.1064050000004
 21
4708.721759
 31
0.0
  0
LINE
  5
7EA9
  8
3
  6
CONTINUOUS
 62
     0
 10
6849.3910420000002
 20
3458.7217590000009
 30
0.0
 11
7165.1064050000004
 21
3458.7217590000009
 31
0.0
  0
LINE
  5
7EAA
  8
3
  6
CONTINUOUS
 62
     0
 10
7125.1064050000014
 20
4628.721759
 30
0.0
 11
7125.1064050000014
 21
3538.721759
 31
0.0
  0
INSERT
  5
7EAB
  8
3
  6
CONTINUOUS
 62
     0
  2
_OPEN
 10
7125.1064050000014
 20
4708.721759
 30
0.0
 41
80.0
 42
80.0
 43
80.0
 50
90.0
  0
INSERT
  5
7EAC
  8
3
  6
CONTINUOUS
 62
     0
  2
_OPEN
 10
7125.1064050000014
 20
3458.7217590000009
 30
0.0
 41
80.0
 42
80.0
 43
80.0
 50
270.0
  0
TEXT
  8
3
  40
120
  5
7EFA
  62
0
  72
0
  71
0
 10
6785.11
 20
3863.40
 30
0.000000
  1
φ1250
  0
POINT
  5
7EAE
  8
DEFPOINTS
  6
CONTINUOUS
 62
     0
 10
6829.3910420000011
 20
4708.721759
 30
0.0
  0
POINT
  5
7EAF
  8
DEFPOINTS
  6
CONTINUOUS
 62
     0
 10
6829.3910420000011
 20
3458.7217590000009
 30
0.0
  0
POINT
  5
7EB0
  8
DEFPOINTS
  6
CONTINUOUS
 62
     0
 10
7125.1064050000014
 20
3458.7217590000009
 30
0.0
  0
ENDBLK
  5
7D52
  8
0
  0
BLOCK
  8
0
  2
*D12
 70
     1
 10
0.0
 20
0.0
 30
0.0
  3
*D12
  1

  0
LINE
  5
7EB1
  8
3
  6
CONTINUOUS
 62
     0
 10
6829.3910420000011
 20
4778.721759
 30
0.0
 11
6829.3910420000011
 21
5380.4200540000002
 31
0.0
  0
LINE
  5
7EB2
  8
3
  6
CONTINUOUS
 62
     0
 10
6251.3910420000002
 20
5299.6912259999999
 30
0.0
 11
6251.3910420000002
 21
5380.4200540000002
 31
0.0
  0
LINE
  5
7EB3
  8
3
  6
CONTINUOUS
 62
     0
 10
6909.3910420000002
 20
5340.4200540000002
 30
0.0
 11
6989.3910420000002
 21
5340.4200540000002
 31
0.0
  0
LINE
  5
7EB4
  8
3
  6
CONTINUOUS
 62
     0
 10
6171.3910420000002
 20
5340.4200540000002
 30
0.0
 11
6091.3910420000002
 21
5340.4200540000002
 31
0.0
  0
LINE
  5
7EB5
  8
3
  6
CONTINUOUS
 62
     0
 10
6829.3910420000011
 20
5340.4200540000002
 30
0.0
 11
6251.3910420000002
 21
5340.4200540000002
 31
0.0
  0
INSERT
  5
7EB6
  8
3
  6
CONTINUOUS
 62
     0
  2
_OPEN
 10
6829.3910420000011
 20
5340.4200540000002
 30
0.0
 41
80.0
 42
80.0
 43
80.0
 50
180.0
  0
INSERT
  5
7EB7
  8
3
  6
CONTINUOUS
 62
     0
  2
_OPEN
 10
6251.3910420000002
 20
5340.4200540000002
 30
0.0
 41
80.0
 42
80.0
 43
80.0
  0
TEXT
  8
3
  40
120
  5
7EFB
  62
0
  72
0
  71
0
 10
6315.11
 20
5228.02
 30
0.000000
  1
578
  0
POINT
  5
7EB9
  8
DEFPOINTS
  6
CONTINUOUS
 62
     0
 10
6829.3910420000011
 20
4758.721759
 30
0.0
  0
POINT
  5
7EBA
  8
DEFPOINTS
  6
CONTINUOUS
 62
     0
 10
6251.3910420000002
 20
5279.6912259999999
 30
0.0
  0
POINT
  5
7EBB
  8
DEFPOINTS
  6
CONTINUOUS
 62
     0
 10
6251.3910420000002
 20
5340.4200540000002
 30
0.0
  0
ENDBLK
  5
7C85
  8
0
  0
BLOCK
  8
0
  2
*D13
 70
     1
 10
0.0
 20
0.0
 30
0.0
  3
*D13
  1

  0
LINE
  5
7EBC
  8
3
  6
CONTINUOUS
 62
     0
 10
5411.3910420000002
 20
4481.721759
 30
0.0
 11
5411.3910420000002
 21
5380.4200540000002
 31
0.0
  0
LINE
  5
7EBD
  8
3
  6
CONTINUOUS
 62
     0
 10
6171.3910420000002
 20
5340.4200540000002
 30
0.0
 11
5491.3910420000002
 21
5340.4200540000002
 31
0.0
  0
INSERT
  5
7EBE
  8
3
  6
CONTINUOUS
 62
     0
  2
_OPEN
 10
6251.3910420000002
 20
5340.4200540000002
 30
0.0
 41
80.0
 42
80.0
 43
80.0
  0
INSERT
  5
7EBF
  8
3
  6
CONTINUOUS
 62
     0
  2
_OPEN
 10
5411.3910420000002
 20
5340.4200540000002
 30
0.0
 41
80.0
 42
80.0
 43
80.0
 50
180.0
  0
TEXT
  8
3
  40
120
  5
7EFC
  62
0
  72
0
  71
0
 10
5591.39
 20
5328.02
 30
0.000000
  1
MAX
  0
TEXT
  8
3
  40
120
  5
7EFD
  62
0
  72
0
  71
0
 10
5591.39
 20
5172.02
 30
0.000000
  1
890
  0
POINT
  5
7EC1
  8
DEFPOINTS
  6
CONTINUOUS
 62
     0
 10
6251.3910420000002
 20
5279.6912259999999
 30
0.0
  0
POINT
  5
7EC2
  8
DEFPOINTS
  6
CONTINUOUS
 62
     0
 10
5411.3910420000002
 20
4461.721759
 30
0.0
  0
POINT
  5
7EC3
  8
DEFPOINTS
  6
CONTINUOUS
 62
     0
 10
5411.3910420000002
 20
5340.4200540000002
 30
0.0
  0
ENDBLK
  5
7D47
  8
0
  0
BLOCK
  8
0
  2
*D14
 70
     1
 10
0.0
 20
0.0
 30
0.0
  3
*D14
  1

  0
LINE
  5
7EC4
  8
3
  6
CONTINUOUS
 62
     0
 10
5524.3910420000011
 20
2859.721759
 30
0.0
 11
5524.3910420000011
 21
2520.1893700000001
 31
0.0
  0
LINE
  5
7EC5
  8
3
  6
CONTINUOUS
 62
     0
 10
6251.3910420000002
 20
2682.8502130000002
 30
0.0
 11
6251.3910420000002
 21
2520.1893700000001
 31
0.0
  0
LINE
  5
7EC6
  8
3
  6
CONTINUOUS
 62
     0
 10
5604.3910420000002
 20
2560.1893700000001
 30
0.0
 11
6171.3910420000002
 21
2560.1893700000001
 31
0.0
  0
INSERT
  5
7EC7
  8
3
  6
CONTINUOUS
 62
     0
  2
_OPEN
 10
5524.3910420000011
 20
2560.1893700000001
 30
0.0
 41
80.0
 42
80.0
 43
80.0
 50
180.0
  0
INSERT
  5
7EC8
  8
3
  6
CONTINUOUS
 62
     0
  2
_OPEN
 10
6251.3910420000002
 20
2560.1893700000001
 30
0.0
 41
80.0
 42
80.0
 43
80.0
  0
TEXT
  8
3
  40
120
  5
7EFE
  62
0
  72
0
  71
0
 10
5677.68
 20
2447.79
 30
0.000000
  1
727
  0
POINT
  5
7ECA
  8
DEFPOINTS
  6
CONTINUOUS
 62
     0
 10
5524.3910420000011
 20
2879.721759
 30
0.0
  0
POINT
  5
7ECB
  8
DEFPOINTS
  6
CONTINUOUS
 62
     0
 10
6251.3910420000002
 20
2702.8502129999988
 30
0.0
  0
POINT
  5
7ECC
  8
DEFPOINTS
  6
CONTINUOUS
 62
     0
 10
6251.3910420000002
 20
2560.1893700000001
 30
0.0
  0
ENDBLK
  5
7C63
  8
0
  0
BLOCK
  8
0
  2
*D15
 70
     1
 10
0.0
 20
0.0
 30
0.0
  3
*D15
  1

  0
LINE
  5
7ECD
  8
3
  6
CONTINUOUS
 62
     0
 10
6804.3910420000002
 20
2859.721759
 30
0.0
 11
6804.3910420000002
 21
2520.1893700000001
 31
0.0
  0
LINE
  5
7ECE
  8
3
  6
CONTINUOUS
 62
     0
 10
6331.3910420000002
 20
2560.1893700000001
 30
0.0
 11
6724.3910420000002
 21
2560.1893700000001
 31
0.0
  0
INSERT
  5
7ECF
  8
3
  6
CONTINUOUS
 62
     0
  2
_OPEN
 10
6251.3910420000002
 20
2560.1893700000001
 30
0.0
 41
80.0
 42
80.0
 43
80.0
 50
180.0
  0
INSERT
  5
7ED0
  8
3
  6
CONTINUOUS
 62
     0
  2
_OPEN
 10
6804.3910420000002
 20
2560.1893700000001
 30
0.0
 41
80.0
 42
80.0
 43
80.0
  0
TEXT
  8
3
  40
120
  5
7EFF
  62
0
  72
0
  71
0
 10
6287.89
 20
2447.79
 30
0.000000
  1
553
  0
POINT
  5
7ED2
  8
DEFPOINTS
  6
CONTINUOUS
 62
     0
 10
6251.3910420000002
 20
2702.8502129999988
 30
0.0
  0
POINT
  5
7ED3
  8
DEFPOINTS
  6
CONTINUOUS
 62
     0
 10
6804.3910420000002
 20
2879.721759
 30
0.0
  0
POINT
  5
7ED4
  8
DEFPOINTS
  6
CONTINUOUS
 62
     0
 10
6804.3910420000002
 20
2560.1893700000001
 30
0.0
  0
ENDBLK
  5
7C6F
  8
0
  0
BLOCK
  8
0
  2
*D16
 70
     1
 10
0.0
 20
0.0
 30
0.0
  3
*D16
  1

  0
LINE
  5
7ED5
  8
3
  6
CONTINUOUS
 62
     0
 10
2095.4894210000002
 20
7344.677635
 30
0.0
 11
2095.4894210000002
 21
6833.9268789999996
 31
0.0
  0
LINE
  5
7ED6
  8
3
  6
CONTINUOUS
 62
     0
 10
4645.4894210000002
 20
7344.677635
 30
0.0
 11
4645.4894210000002
 21
6833.9268789999996
 31
0.0
  0
LINE
  5
7ED7
  8
3
  6
CONTINUOUS
 62
     0
 10
2175.4894210000002
 20
6873.9268790000006
 30
0.0
 11
4565.4894210000002
 21
6873.9268790000006
 31
0.0
  0
INSERT
  5
7ED8
  8
3
  6
CONTINUOUS
 62
     0
  2
_OPEN
 10
2095.4894210000002
 20
6873.9268790000006
 30
0.0
 41
80.0
 42
80.0
 43
80.0
 50
180.0
  0
INSERT
  5
7ED9
  8
3
  6
CONTINUOUS
 62
     0
  2
_OPEN
 10
4645.4894210000002
 20
6873.9268790000006
 30
0.0
 41
80.0
 42
80.0
 43
80.0
  0
TEXT
  8
3
  40
120
  5
7F00
  62
0
  72
0
  71
0
 10
3064.89
 20
6761.53
 30
0.000000
  1
2550
  0
POINT
  5
7EDB
  8
DEFPOINTS
  6
CONTINUOUS
 62
     0
 10
2095.4894210000002
 20
7364.6776349999991
 30
0.0
  0
POINT
  5
7EDC
  8
DEFPOINTS
  6
CONTINUOUS
 62
     0
 10
4645.4894210000002
 20
7364.6776349999991
 30
0.0
  0
POINT
  5
7EDD
  8
DEFPOINTS
  6
CONTINUOUS
 62
     0
 10
4645.4894210000002
 20
6873.9268790000006
 30
0.0
  0
ENDBLK
  5
7D12
  8
0
  0
BLOCK
  8
0
  2
*D17
 70
     1
 10
0.0
 20
0.0
 30
0.0
  3
*D17
  1

  0
LINE
  5
7EDE
  8
3
  6
CONTINUOUS
 62
     0
 10
4665.4894210000002
 20
8644.677635
 30
0.0
 11
5096.6425310000013
 21
8644.677635
 31
0.0
  0
LINE
  5
7EDF
  8
3
  6
CONTINUOUS
 62
     0
 10
4660.4894210000002
 20
7364.6776349999991
 30
0.0
 11
5096.6425310000013
 21
7364.6776349999991
 31
0.0
  0
LINE
  5
7EE0
  8
3
  6
CONTINUOUS
 62
     0
 10
5056.6425310000013
 20
8564.677635
 30
0.0
 11
5056.6425310000013
 21
7444.6776349999991
 31
0.0
  0
INSERT
  5
7EE1
  8
3
  6
CONTINUOUS
 62
     0
  2
_OPEN
 10
5056.6425310000013
 20
8644.677635
 30
0.0
 41
80.0
 42
80.0
 43
80.0
 50
90.0
  0
INSERT
  5
7EE2
  8
3
  6
CONTINUOUS
 62
     0
  2
_OPEN
 10
5056.6425310000013
 20
7364.6776349999991
 30
0.0
 41
80.0
 42
80.0
 43
80.0
 50
270.0
  0
TEXT
  8
3
  40
120
  5
7F01
  62
0
  72
0
  71
0
 10
4716.64
 20
7829.61
 30
0.000000
  1
1280
  0
POINT
  5
7EE4
  8
DEFPOINTS
  6
CONTINUOUS
 62
     0
 10
4645.4894210000002
 20
8644.677635
 30
0.0
  0
POINT
  5
7EE5
  8
DEFPOINTS
  6
CONTINUOUS
 62
     0
 10
4640.4894210000002
 20
7364.6776349999991
 30
0.0
  0
POINT
  5
7EE6
  8
DEFPOINTS
  6
CONTINUOUS
 62
     0
 10
5056.6425310000013
 20
7364.6776349999991
 30
0.0
  0
ENDBLK
  5
7C9E
  8
0
  0
BLOCK
  8
0
  2
*D18
 70
     1
 10
0.0
 20
0.0
 30
0.0
  3
*D18
  1

  0
LINE
  5
7EE7
  8
3
 62
     0
 10
1948.2337640000001
 20
4096.8742590000002
 30
0.0
 11
1948.2337640000001
 21
5752.3338941184784
 31
0.0
  0
LINE
  5
7EE8
  8
3
 62
     0
 10
4645.4894210000002
 20
3143.7217589999991
 30
0.0
 11
4645.4894210000002
 21
5752.3338941184784
 31
0.0
  0
LINE
  5
7EE9
  8
3
 62
     0
 10
2028.2337640000001
 20
5712.3338941184784
 30
0.0
 11
4565.4894210000002
 21
5712.3338941184784
 31
0.0
  0
INSERT
  5
7EEA
  8
3
 62
     0
  2
_OPEN
 10
1948.2337640000001
 20
5712.3338941184784
 30
0.0
 41
80.0
 42
80.0
 43
80.0
 50
180.0
  0
INSERT
  5
7EEB
  8
3
 62
     0
  2
_OPEN
 10
4645.4894210000002
 20
5712.3338941184784
 30
0.0
 41
80.0
 42
80.0
 43
80.0
  0
TEXT
  8
3
  40
120
  5
7F02
  62
0
  72
0
  71
0
 10
3059.90
 20
5599.93
 30
0.000000
  1
2697
  0
POINT
  5
7EED
  8
DEFPOINTS
 62
     0
 10
1948.2337640000001
 20
4076.8742590000002
 30
0.0
  0
POINT
  5
7EEE
  8
DEFPOINTS
 62
     0
 10
4645.4894210000002
 20
3123.721759
 30
0.0
  0
POINT
  5
7EEF
  8
DEFPOINTS
 62
     0
 10
4645.4894210000002
 20
5712.3338941184784
 30
0.0
  0
ENDBLK
  5
7D3C
  8
0
  0
ENDSEC
  0
SECTION
  2
ENTITIES
  0
LINE
  5
7AC4
  8
1
  6
CONTINUOUS
 10
2467.4894210000002
 20
7491.6776349999991
 30
0.0
 11
4540.4894210000002
 21
7491.6776349999991
 31
0.0
  0
LINE
  5
7AC5
  8
1
  6
CONTINUOUS
 10
2467.4894210000002
 20
7251.6776349999991
 30
0.0
 11
4540.4894210000002
 21
7251.6776349999991
 31
0.0
  0
LINE
  5
7AC6
  8
1
  6
CONTINUOUS
 10
1944.989421
 20
7616.6776349999991
 30
0.0
 11
4179.4894210000002
 21
7616.6776349999991
 31
0.0
  0
LINE
  5
7AC7
  8
1
  6
CONTINUOUS
 10
1944.989421
 20
8566.6776350000018
 30
0.0
 11
4179.4894210000002
 21
8566.6776350000018
 31
0.0
  0
LINE
  5
7AC8
  8
1
  6
CONTINUOUS
 10
4419.5894209999997
 20
7536.177635
 30
0.0
 11
4021.3894210000012
 21
7536.177635
 31
0.0
  0
LINE
  5
7AC9
  8
1
  6
CONTINUOUS
 10
3995.4894210000002
 20
3178.721759
 30
0.0
 11
4445.4894210000002
 21
3178.721759
 31
0.0
  0
ARC
  5
7ACA
  8
1
  6
CONTINUOUS
 10
4220.4894210000002
 20
3358.7217590000009
 30
0.0
 40
199.0
 50
320.10000000000002
 51
219.90000000000001
  0
LINE
  5
7ACB
  8
1
  6
CONTINUOUS
 10
2095.4894210000002
 20
3123.721759
 30
0.0
 11
4645.4894210000002
 21
3123.721759
 31
0.0
  0
LINE
  5
7ACC
  8
1
  6
CONTINUOUS
 10
2899.4894210000002
 20
4858.721759
 30
0.0
 11
4179.4894210000002
 21
4858.721759
 31
0.0
  0
LINE
  5
7ACD
  8
1
  6
CONTINUOUS
 10
2095.4894210000002
 20
2973.721759
 30
0.0
 11
4645.4894210000002
 21
2973.721759
 31
0.0
  0
POLYLINE
  5
7ACE
  8
1
  6
CONTINUOUS
 66
     1
 10
0.0
 20
0.0
 30
0.0
  0
VERTEX
  5
7E48
  8
1
  6
CONTINUOUS
 10
4179.4894210000002
 20
4908.721759
 30
0.0
  0
VERTEX
  5
7E49
  8
1
  6
CONTINUOUS
 10
4106.4894210000002
 20
4083.7217590000009
 30
0.0
 42
-0.4
  0
VERTEX
  5
7E4A
  8
1
  6
CONTINUOUS
 10
2936.4894210000002
 20
3001.221759
 30
0.0
 42
-0.4
  0
VERTEX
  5
7E4B
  8
1
  6
CONTINUOUS
 10
1948.3894210000001
 20
4075.0217590000011
 30
0.0
 42
-0.4
  0
VERTEX
  5
7E4C
  8
1
  6
CONTINUOUS
 10
2768.4894210000002
 20
4829.721759
 30
0.0
  0
VERTEX
  5
7E4D
  8
1
  6
CONTINUOUS
 10
2899.4894210000002
 20
4816.7217589999991
 30
0.0
 42
-0.4
  0
SEQEND
  5
7E4E
  8
1
  6
CONTINUOUS
  0
LINE
  5
7AD6
  8
1
  6
CONTINUOUS
 10
2849.4894210000002
 20
4908.721759
 30
0.0
 11
4235.4894210000002
 21
4908.721759
 31
0.0
  0
LINE
  5
7AD7
  8
1
  6
CONTINUOUS
 10
4179.4894210000002
 20
8566.6776350000018
 30
0.0
 11
2899.4894210000002
 21
7616.6776349999991
 31
0.0
  0
LINE
  5
7AD8
  8
1
  6
CONTINUOUS
 10
2899.4894210000002
 20
8566.6776350000018
 30
0.0
 11
4179.4894210000002
 21
7616.6776349999991
 31
0.0
  0
LINE
  5
7AD9
  8
1
  6
CONTINUOUS
 10
4100.4894210000002
 20
7364.6776349999991
 30
0.0
 11
3123.4894210000002
 21
7364.6776349999991
 31
0.0
  0
LINE
  5
7ADA
  8
1
  6
CONTINUOUS
 10
3470.4894209999989
 20
8644.677635
 30
0.0
 11
4645.4894210000011
 21
8644.677635
 31
0.0
  0
LINE
  5
7ADB
  8
1
  6
CONTINUOUS
 10
4286.9894210000002
 20
3458.6217590000001
 30
0.0
 11
2999.4894210000002
 21
4315.2217589999991
 31
0.0
  0
LINE
  5
7ADC
  8
1
  6
CONTINUOUS
 10
4342.3894209999999
 20
3541.9217589999998
 30
0.0
 11
3054.8894209999999
 21
4398.4217589999998
 31
0.0
  0
LINE
  5
7ADD
  8
1
  6
CONTINUOUS
 10
4175.5894209999997
 20
3247.4217589999998
 30
0.0
 11
2741.4894210000002
 21
3825.9217589999998
 31
0.0
  0
LINE
  5
7ADE
  8
1
  6
CONTINUOUS
 10
4138.1894209999991
 20
3154.721759
 30
0.0
 11
2704.0894210000001
 21
3733.121759000001
 31
0.0
  0
LINE
  5
7ADF
  8
1
  6
CONTINUOUS
 10
2095.4894210000002
 20
2954.721759
 30
0.0
 11
4645.4894210000002
 21
2954.721759
 31
0.0
  0
LINE
  5
7AE0
  8
1
  6
CONTINUOUS
 10
2095.4894210000002
 20
2879.721759
 30
0.0
 11
4645.4894210000002
 21
2879.721759
 31
0.0
  0
LINE
  5
7AE1
  8
2
  6
CENTER
 10
1640.287996
 20
4083.7217590000009
 30
0.0
 11
4290.3688529999999
 21
4083.7217590000009
 31
0.0
  0
CIRCLE
  5
7AE2
  8
1
  6
CONTINUOUS
 10
2845.4894210000002
 20
4083.7217590000009
 30
0.0
 40
278.0
  0
CIRCLE
  5
7AE3
  8
1
  6
CONTINUOUS
 10
2845.4894210000002
 20
4083.7217590000009
 30
0.0
 40
675.0
  0
CIRCLE
  5
7AE4
  8
1
  6
CONTINUOUS
 10
2845.4894210000002
 20
4083.7217590000009
 30
0.0
 40
625.0
  0
ARC
  5
7AE5
  8
1
  6
CONTINUOUS
 10
2845.4894210000002
 20
4083.7217590000009
 30
0.0
 40
378.0
 50
56.399999999999991
 51
248.0
  0
LINE
  5
7AE6
  8
1
  6
CONTINUOUS
 10
2095.4894210000002
 20
3123.721759
 30
0.0
 11
2095.4894210000002
 21
2973.721759
 31
0.0
  0
LINE
  5
7AE7
  8
1
  6
CONTINUOUS
 10
2095.4894210000002
 20
2954.721759
 30
0.0
 11
2095.4894210000002
 21
2879.721759
 31
0.0
  0
LINE
  5
7AE8
  8
2
  6
CENTER
 10
2845.4894210000002
 20
2714.3402160000001
 30
0.0
 11
2845.4894210000002
 21
5125.1701939999994
 31
0.0
  0
LINE
  5
7AE9
  8
1
  6
CONTINUOUS
 10
3995.4894210000002
 20
3123.721759
 30
0.0
 11
3995.4894210000002
 21
3178.721759
 31
0.0
  0
LINE
  5
7AEA
  8
1
  6
CONTINUOUS
 10
2899.4894210000002
 20
4816.7217589999991
 30
0.0
 11
2899.4894210000002
 21
4908.721759
 31
0.0
  0
LINE
  5
7AEB
  8
1
  6
CONTINUOUS
 10
3123.4894210000002
 20
7321.6776349999991
 30
0.0
 11
2567.4894210000002
 21
7321.6776349999991
 31
0.0
  0
LINE
  5
7AEC
  8
1
  6
CONTINUOUS
 10
3123.4894210000002
 20
7421.6776349999991
 30
0.0
 11
2567.4894210000002
 21
7421.6776349999991
 31
0.0
  0
LINE
  5
7AED
  8
1
  6
CONTINUOUS
 10
2170.4894210000002
 20
8669.6776350000018
 30
0.0
 11
3520.4894210000002
 21
8669.6776350000018
 31
0.0
  0
LINE
  5
7AEE
  8
1
  6
CONTINUOUS
 10
1944.989421
 20
7616.6776349999991
 30
0.0
 11
1944.989421
 21
8566.6776350000018
 31
0.0
  0
LINE
  5
7AEF
  8
1
  6
CONTINUOUS
 10
2567.4894210000002
 20
7364.6776349999991
 30
0.0
 11
2095.4894210000002
 21
7364.6776349999991
 31
0.0
  0
LINE
  5
7AF0
  8
1
  6
CONTINUOUS
 10
2095.4894210000002
 20
7364.6776349999991
 30
0.0
 11
2095.4894210000002
 21
7616.6776349999991
 31
0.0
  0
LINE
  5
7AF1
  8
1
  6
CONTINUOUS
 10
2817.9894210000002
 20
7421.6776349999991
 30
0.0
 11
2817.9894210000002
 21
7616.6776349999991
 31
0.0
  0
LINE
  5
7AF2
  8
1
  6
CONTINUOUS
 10
2467.4894210000002
 20
7251.6776349999991
 30
0.0
 11
2467.4894210000002
 21
7491.6776349999991
 31
0.0
  0
LINE
  5
7AF3
  8
1
  6
CONTINUOUS
 10
2567.4894210000002
 20
7321.6776349999991
 30
0.0
 11
2567.4894210000002
 21
7421.6776349999991
 31
0.0
  0
LINE
  5
7AF4
  8
1
  6
CONTINUOUS
 10
2220.4894210000002
 20
8566.6776350000018
 30
0.0
 11
2220.4894210000002
 21
8669.6776350000018
 31
0.0
  0
LINE
  5
7AF5
  8
1
  6
CONTINUOUS
 10
2095.4894210000002
 20
8644.677635
 30
0.0
 11
2220.4894210000002
 21
8644.677635
 31
0.0
  0
LINE
  5
7AF6
  8
1
  6
CONTINUOUS
 10
2095.4894210000002
 20
8566.6776350000018
 30
0.0
 11
2095.4894210000002
 21
8644.677635
 31
0.0
  0
LINE
  5
7AF7
  8
1
  6
CONTINUOUS
 10
2899.4894210000002
 20
7616.6776349999991
 30
0.0
 11
2899.4894210000002
 21
8566.6776350000018
 31
0.0
  0
LINE
  5
7AF8
  8
1
  6
CONTINUOUS
 10
2872.9894210000002
 20
7421.6776349999991
 30
0.0
 11
2872.9894210000002
 21
7616.6776349999991
 31
0.0
  0
LINE
  5
7AF9
  8
1
  6
CONTINUOUS
 10
3123.4894210000002
 20
7321.6776349999991
 30
0.0
 11
3123.4894210000002
 21
7421.6776349999991
 31
0.0
  0
LINE
  5
7AFA
  8
1
  6
CONTINUOUS
 10
4021.3894210000012
 20
7536.177635
 30
0.0
 11
4021.3894210000012
 21
7616.6776349999991
 31
0.0
  0
LINE
  5
7AFB
  8
1
  6
CONTINUOUS
 10
3470.4894210000002
 20
8566.6776350000018
 30
0.0
 11
3470.4894210000002
 21
8669.6776350000018
 31
0.0
  0
LINE
  5
7AFC
  8
1
  6
CONTINUOUS
 10
6804.3910420000002
 20
2879.721759
 30
0.0
 11
5524.3910420000011
 21
2879.721759
 31
0.0
  0
LINE
  5
7AFD
  8
1
  6
CONTINUOUS
 10
6804.3910420000002
 20
2954.721759
 30
0.0
 11
5524.3910420000011
 21
2954.721759
 31
0.0
  0
LINE
  5
7AFE
  8
1
  6
CONTINUOUS
 10
5776.3910420000002
 20
4858.721759
 30
0.0
 11
6726.3910420000002
 21
4858.721759
 31
0.0
  0
LINE
  5
7AFF
  8
1
  6
CONTINUOUS
 10
6804.3910420000002
 20
2973.721759
 30
0.0
 11
5524.3910420000011
 21
2973.721759
 31
0.0
  0
LINE
  5
7B00
  8
1
  6
CONTINUOUS
 10
6804.3910420000002
 20
3123.721759
 30
0.0
 11
5524.3910420000011
 21
3123.721759
 31
0.0
  0
LINE
  5
7B01
  8
1
  6
CONTINUOUS
 10
5726.3910420000002
 20
4908.721759
 30
0.0
 11
6776.3910420000002
 21
4908.721759
 31
0.0
  0
LINE
  5
7B18
  8
2
  6
CENTER
 10
4220.4894210000002
 20
3238.721759
 30
0.0
 11
4220.4894210000002
 21
3478.721759
 31
0.0
  0
CIRCLE
  5
7B19
  8
1
  6
CONTINUOUS
 10
4220.4894210000002
 20
3358.7217590000009
 30
0.0
 40
120.0
  0
ARC
  5
7B1A
  8
1
  6
CONTINUOUS
 10
4220.4894210000002
 20
3358.7217590000009
 30
0.0
 40
220.0
 50
248.0
 51
56.399999999999991
  0
LINE
  5
7B1B
  8
1
  6
CONTINUOUS
 10
4382.4894210000002
 20
3178.721759
 30
0.0
 11
4322.4894210000002
 21
3178.721759
 31
0.0
  0
LINE
  5
7B1C
  8
2
  6
CENTER
 10
4340.4894210000002
 20
3358.7217590000009
 30
0.0
 11
4100.4894210000002
 21
3358.7217590000009
 31
0.0
  0
LINE
  5
7B1D
  8
1
  6
CONTINUOUS
 10
4058.4894209999989
 20
3178.721759
 30
0.0
 11
4058.4894209999989
 21
3221.221759
 31
0.0
  0
LINE
  5
7B1E
  8
1
  6
CONTINUOUS
 10
4058.4894209999989
 20
3221.221759
 30
0.0
 11
4067.789420999999
 21
3231.1217590000001
 31
0.0
  0
LINE
  5
7B1F
  8
1
  6
CONTINUOUS
 10
4445.4894210000002
 20
3123.721759
 30
0.0
 11
4445.4894210000002
 21
3178.721759
 31
0.0
  0
LINE
  5
7B20
  8
1
  6
CONTINUOUS
 10
4382.4894210000002
 20
3178.721759
 30
0.0
 11
4382.4894210000002
 21
3221.221759
 31
0.0
  0
LINE
  5
7B21
  8
1
  6
CONTINUOUS
 10
4382.4894210000002
 20
3221.221759
 30
0.0
 11
4373.189421
 21
3231.1217590000001
 31
0.0
  0
LINE
  5
7B22
  8
1
  6
CONTINUOUS
 10
4645.4894210000002
 20
3123.721759
 30
0.0
 11
4645.4894210000002
 21
2973.721759
 31
0.0
  0
LINE
  5
7B23
  8
1
  6
CONTINUOUS
 10
4645.4894210000002
 20
2954.721759
 30
0.0
 11
4645.4894210000002
 21
2879.721759
 31
0.0
  0
LINE
  5
7B39
  8
1
  6
CONTINUOUS
 10
5776.3910420000002
 20
3123.721759
 30
0.0
 11
5776.3910420000002
 21
4908.721759
 31
0.0
  0
LINE
  5
7B3A
  8
1
  6
CONTINUOUS
 10
5411.3910420000002
 20
3138.721759
 30
0.0
 11
5411.3910420000002
 21
4461.721759
 31
0.0
  0
LINE
  5
7B3B
  8
1
  6
CONTINUOUS
 10
5651.3910420000002
 20
3138.721759
 30
0.0
 11
5651.3910420000002
 21
4461.721759
 31
0.0
  0
LINE
  5
7B3C
  8
1
  6
CONTINUOUS
 10
5481.3910420000011
 20
3805.721759
 30
0.0
 11
5481.3910420000011
 21
4361.721759
 31
0.0
  0
LINE
  5
7B3D
  8
1
  6
CONTINUOUS
 10
5581.3910420000002
 20
3805.721759
 30
0.0
 11
5581.3910420000002
 21
4361.721759
 31
0.0
  0
LINE
  5
7B3E
  8
1
  6
CONTINUOUS
 10
5581.3910420000002
 20
3238.721759
 30
0.0
 11
5581.3910420000002
 21
3478.721759
 31
0.0
  0
LINE
  5
7B3F
  8
1
  6
CONTINUOUS
 10
5481.3910420000011
 20
3238.721759
 30
0.0
 11
5481.3910420000011
 21
3478.721759
 31
0.0
  0
LINE
  5
7B40
  8
1
  6
CONTINUOUS
 10
5481.3910420000011
 20
3238.721759
 30
0.0
 11
5581.3910420000002
 21
3238.721759
 31
0.0
  0
LINE
  5
7B41
  8
1
  6
CONTINUOUS
 10
5411.3910420000002
 20
3138.721759
 30
0.0
 11
5651.3910420000002
 21
3138.721759
 31
0.0
  0
LINE
  5
7B44
  8
1
  6
CONTINUOUS
 10
5524.3910420000011
 20
2879.721759
 30
0.0
 11
5524.3910420000011
 21
2954.721759
 31
0.0
  0
LINE
  5
7B45
  8
1
  6
CONTINUOUS
 10
5524.3910420000011
 20
2973.721759
 30
0.0
 11
5524.3910420000011
 21
3123.721759
 31
0.0
  0
LINE
  5
7B46
  8
1
  6
CONTINUOUS
 10
5581.3910420000002
 20
3331.221759
 30
0.0
 11
5776.3910420000002
 21
3331.221759
 31
0.0
  0
LINE
  5
7B47
  8
1
  6
CONTINUOUS
 10
5481.3910420000011
 20
3478.721759
 30
0.0
 11
5581.3910420000002
 21
3478.721759
 31
0.0
  0
LINE
  5
7B48
  8
1
  6
CONTINUOUS
 10
5481.3910420000011
 20
3805.721759
 30
0.0
 11
5581.3910420000002
 21
3805.721759
 31
0.0
  0
LINE
  5
7B49
  8
1
  6
CONTINUOUS
 10
5581.3910420000002
 20
4111.221759
 30
0.0
 11
5776.3910420000002
 21
4111.221759
 31
0.0
  0
LINE
  5
7B4A
  8
1
  6
CONTINUOUS
 10
5581.3910420000002
 20
4056.221759
 30
0.0
 11
5776.3910420000002
 21
4056.221759
 31
0.0
  0
LINE
  5
7B4B
  8
1
  6
CONTINUOUS
 10
5581.3910420000002
 20
3386.221759
 30
0.0
 11
5776.3910420000002
 21
3386.221759
 31
0.0
  0
LINE
  5
7B4C
  8
1
  6
CONTINUOUS
 10
5481.3910420000011
 20
4361.721759
 30
0.0
 11
5581.3910420000002
 21
4361.721759
 31
0.0
  0
LINE
  5
7B4D
  8
1
  6
CONTINUOUS
 10
5411.3910420000002
 20
4461.721759
 30
0.0
 11
5651.3910420000002
 21
4461.721759
 31
0.0
  0
LINE
  5
7B59
  8
1
  6
CONTINUOUS
 10
4645.4894210000002
 20
8644.677635
 30
0.0
 11
4645.4894210000002
 21
7364.6776349999991
 31
0.0
  0
LINE
  5
7B5A
  8
1
  6
CONTINUOUS
 10
4179.4894210000002
 20
7616.6776349999991
 30
0.0
 11
4179.4894210000002
 21
8566.6776350000018
 31
0.0
  0
LINE
  5
7B5B
  8
1
  6
CONTINUOUS
 10
4247.9894210000002
 20
7421.6776349999991
 30
0.0
 11
4247.9894210000002
 21
7536.177635
 31
0.0
  0
LINE
  5
7B5C
  8
1
  6
CONTINUOUS
 10
4192.9894210000002
 20
7421.6776349999991
 30
0.0
 11
4192.9894210000002
 21
7536.177635
 31
0.0
  0
LINE
  5
7B5D
  8
1
  6
CONTINUOUS
 10
4645.4894210000002
 20
7364.6776349999991
 30
0.0
 11
4340.4894210000002
 21
7364.6776349999991
 31
0.0
  0
LINE
  5
7B5E
  8
1
  6
CONTINUOUS
 10
4340.4894210000002
 20
7321.6776349999991
 30
0.0
 11
4100.4894210000002
 21
7321.6776349999991
 31
0.0
  0
LINE
  5
7B5F
  8
1
  6
CONTINUOUS
 10
4340.4894210000002
 20
7421.6776349999991
 30
0.0
 11
4100.4894210000002
 21
7421.6776349999991
 31
0.0
  0
LINE
  5
7B60
  8
1
  6
CONTINUOUS
 10
4100.4894210000002
 20
7321.6776349999991
 30
0.0
 11
4100.4894210000002
 21
7421.6776349999991
 31
0.0
  0
LINE
  5
7B61
  8
1
  6
CONTINUOUS
 10
4340.4894210000002
 20
7321.6776349999991
 30
0.0
 11
4340.4894210000002
 21
7421.6776349999991
 31
0.0
  0
LINE
  5
7B62
  8
1
  6
CONTINUOUS
 10
4540.4894210000002
 20
7251.6776349999991
 30
0.0
 11
4540.4894210000002
 21
7491.6776349999991
 31
0.0
  0
LINE
  5
7B63
  8
1
  6
CONTINUOUS
 10
4419.5894209999997
 20
8135.6776349999982
 30
0.0
 11
4179.4894210000002
 21
8135.6776349999982
 31
0.0
  0
LINE
  5
7B64
  8
1
  6
CONTINUOUS
 10
4419.5894209999997
 20
7536.177635
 30
0.0
 11
4419.5894209999997
 21
8135.6776349999982
 31
0.0
  0
LINE
  5
7B80
  8
1
  6
CONTINUOUS
 10
6726.3910420000002
 20
3123.721759
 30
0.0
 11
6726.3910420000002
 21
4908.721759
 31
0.0
  0
LINE
  5
7B81
  8
1
  6
CONTINUOUS
 10
6829.3910420000011
 20
3408.721759
 30
0.0
 11
6829.3910420000011
 21
4758.721759
 31
0.0
  0
LINE
  5
7B82
  8
1
  6
CONTINUOUS
 10
6804.3910420000002
 20
2879.721759
 30
0.0
 11
6804.3910420000002
 21
2954.721759
 31
0.0
  0
LINE
  5
7B83
  8
1
  6
CONTINUOUS
 10
6804.3910420000002
 20
2973.721759
 30
0.0
 11
6804.3910420000002
 21
3123.721759
 31
0.0
  0
LINE
  5
7B84
  8
1
  6
CONTINUOUS
 10
6726.3910420000002
 20
3458.7217590000009
 30
0.0
 11
6829.3910420000011
 21
3458.7217590000009
 31
0.0
  0
LINE
  5
7B85
  8
1
  6
CONTINUOUS
 10
6726.3910420000002
 20
4708.721759
 30
0.0
 11
6829.3910420000011
 21
4708.721759
 31
0.0
  0
LINE
  5
7B86
  8
2
  6
CENTER
 10
1841.967048
 20
8091.6776349999991
 30
0.0
 11
4802.4583679999987
 21
8091.6776349999991
 31
0.0
  0
LINE
  5
7B87
  8
2
  6
CENTER
 10
6251.3910420000002
 20
5104.8171240000001
 30
0.0
 11
6251.3910420000002
 21
2702.8502129999988
 31
0.0
  0
LINE
  5
7B88
  8
2
  6
CENTER
 10
2845.4894210000002
 20
7078.9375620000001
 30
0.0
 11
2845.4894210000002
 21
8829.2664459999996
 31
0.0
  0
LINE
  5
7B89
  8
2
  6
CENTER
 10
5291.8611709999996
 20
4083.7217590000009
 30
0.0
 11
6873.962595
 21
4083.7217590000009
 31
0.0
  0
LINE
  5
7B8A
  8
4
  6
CONTINUOUS
 10
7400.0
 20
2000.0
 30
0.0
 11
7400.0
 21
1200.0
 31
0.0
  0
LINE
  5
7B8B
  8
4
  6
CONTINUOUS
 10
4600.0
 20
2000.0
 30
0.0
 11
4600.0
 21
1200.0
 31
0.0
  0
LINE
  5
7B8C
  8
4
  6
CONTINUOUS
 10
2600.0
 20
2000.0
 30
0.0
 11
2600.0
 21
1200.0
 31
0.0
  0
LINE
  5
7B8F
  8
4
  6
CONTINUOUS
 10
2600.0
 20
1200.0
 30
0.0
 11
7400.0
 21
1200.0
 31
0.0
  0
LINE
  5
7B90
  8
4
  6
CONTINUOUS
 10
2600.0
 20
1600.0
 30
0.0
 11
7400.0
 21
1600.0
 31
0.0
  0
TEXT
  5
7B91
  8
4
  6
CONTINUOUS
 10
2754.008323
 20
1726.1721030000001
 30
0.0
 40
200.0
  1
機器名称
  0
TEXT
  5
7B92
  8
4
  6
CONTINUOUS
 10
2745.032424
 20
1286.580627
 30
0.0
 40
200.0
  1
機器型番
  0
TEXT
  5
7B93
  8
4
  6
CONTINUOUS
 10
4710.7149820000004
 20
1690.2870760000001
 30
0.0
 40
200.0
  1
ミツヤ多翼送風機
  0
TEXT
  5
7B94
  8
4
  6
CONTINUOUS
 10
4746.6179819999998
 20
1268.6383370000001
 30
0.0
 40
200.0
  1
MFE#8-4
  0
TEXT
  5
7B96
  8
4
  6
CONTINUOUS
 10
2927.628404
 20
9533.715365
 30
0.0
 40
216.0
  1
床置防振ベット
  0
TEXT
  5
7B97
  8
4
  6
CONTINUOUS
 10
1264.6703729999999
 20
10135.523905
 30
0.0
 40
288.0
  1
ベルト駆動式片吸込両持排煙ファン
  0
LINE
  5
7B98
  8
4
  6
CONTINUOUS
 10
1000.0
 20
9877.6350170000005
 30
0.0
 11
7400.0
 21
9877.6350170000005
 31
0.0
  0
LINE
  5
7B99
  8
4
  6
CONTINUOUS
 10
1000.0
 20
10677.635017000001
 30
0.0
 11
7400.0
 21
10677.635017000001
 31
0.0
  0
LINE
  5
7B9A
  8
4
  6
CONTINUOUS
 10
2600.0
 20
2000.0
 30
0.0
 11
7400.0
 21
2000.0
 31
0.0
  0
LINE
  5
7B9B
  8
4
  6
CONTINUOUS
 10
1000.0
 20
10677.635017000001
 30
0.0
 11
1000.0
 21
9877.6350170000005
 31
0.0
  0
TEXT
  5
7B9C
  8
4
  6
CONTINUOUS
 10
1184.1930749999999
 20
9529.2779099999989
 30
0.0
 40
216.0
  1
左回転上向
  0
TEXT
  5
7B9D
  8
4
  6
CONTINUOUS
 10
5875.8782369999999
 20
10824.244326
 30
0.0
 40
224.0
  1
No.
  0
TEXT
  5
7B9E
  8
4
  6
CONTINUOUS
 10
5245.1842500000012
 20
9533.715365
 30
0.0
 40
216.0
  1
縮尺：1/40
  0
LINE
  5
7B9F
  8
4
  6
CONTINUOUS
 10
7400.0
 20
10677.635017000001
 30
0.0
 11
7400.0
 21
9877.6350170000005
 31
0.0
  0
LINE
  5
7BA1
  8
4
  6
CONTINUOUS
 10
5762.4696889999996
 20
10725.054333
 30
0.0
 11
5762.4696889999996
 21
11146.609046
 31
0.0
  0
LINE
  5
7BA2
  8
4
  6
CONTINUOUS
 10
5762.4696889999996
 20
11146.609046
 30
0.0
 11
7400.0
 21
11146.609046
 31
0.0
  0
LINE
  5
7BA3
  8
4
  6
CONTINUOUS
 10
7400.0
 20
11146.609046
 30
0.0
 11
7400.0
 21
10725.054333
 31
0.0
  0
LINE
  5
7BA4
  8
4
  6
CONTINUOUS
 10
7400.0
 20
10725.054333
 30
0.0
 11
5762.4696889999996
 21
10725.054333
 31
0.0
  0
DIMENSION
  5
7BBC
  8
3
  6
CONTINUOUS
  2
*D1
 10
2899.4894210000002
 20
5183.2312350000002
 30
0.0
 11
3576.3150609999989
 21
5183.2312350000002
 31
0.0
 70
   128
 13
4179.4894210000002
 23
4908.721759
 33
0.0
 14
2899.4894210000002
 24
4908.721759
 34
0.0
1001
ACAD
1000
DSTYLE
1002
{
1070
   287
1070
     3
1070
   287
1070
     3
1070
    40
1040
40.0
1070
   143
1040
0.039
1070
   172
1070
     1
1070
   271
1070
     0
1070
   279
1070
     0
1070
   288
1070
     1
1002
}
  0
DIMENSION
  5
7BC9
  8
3
  6
CONTINUOUS
  2
*D2
 10
2845.4894210000002
 20
5463.1850290000002
 30
0.0
 11
3566.6556869999999
 21
5463.1850290000002
 31
0.0
 70
   128
 13
4179.4894210000002
 23
4908.721759
 33
0.0
 14
2845.4894210000002
 24
5125.1701939999994
 34
0.0
1001
ACAD
1000
DSTYLE
1002
{
1070
   287
1070
     3
1070
   287
1070
     3
1070
    40
1040
40.0
1070
   143
1040
0.039
1070
   172
1070
     1
1070
   271
1070
     0
1070
   279
1070
     0
1070
   288
1070
     1
1002
}
  0
DIMENSION
  5
7BD5
  8
3
  6
CONTINUOUS
  2
*D3
 10
1948.2337640000001
 20
5463.1850290000002
 30
0.0
 11
2396.8615924999999
 21
5563.1850290000002
 31
0.0
 70
     0
 13
2845.4894210000002
 23
5125.1701939999994
 33
0.0
 14
1948.2337640000001
 24
4056.8742589999988
 34
0.0
1001
ACAD
1000
DSTYLE
1002
{
1070
   287
1070
     4
1070
   287
1070
     4
1070
    40
1040
40.0
1070
    75
1070
     1
1070
   143
1040
0.039
1070
   172
1070
     1
1070
   271
1070
     0
1070
   279
1070
     1
1070
   288
1070
     1
1002
}
  0
DIMENSION
  5
7BE2
  8
3
  6
CONTINUOUS
  2
*D4
 10
1517.903761
 20
4083.7217590000009
 30
0.0
 11
1517.903761
 21
4482.21353
 31
0.0
 70
   128
 13
2849.4894210000002
 23
4908.721759
 33
0.0
 14
1640.287996
 24
4083.7217590000009
 34
0.0
 50
90.0
1001
ACAD
1000
DSTYLE
1002
{
1070
   287
1070
     3
1070
   287
1070
     3
1070
    40
1040
40.0
1070
   143
1040
0.039
1070
   172
1070
     1
1070
   271
1070
     0
1070
   279
1070
     0
1070
   288
1070
     1
1002
}
  0
DIMENSION
  5
7BEE
  8
3
  6
CONTINUOUS
  2
*D5
 10
1517.903761
 20
2973.721759
 30
0.0
 11
1417.9037609999989
 21
3528.7217590000009
 31
0.0
 70
     0
 13
1640.287996
 23
4083.7217590000009
 33
0.0
 14
2095.4894210000002
 24
2973.721759
 34
0.0
 50
90.0
1001
ACAD
1000
DSTYLE
1002
{
1070
   287
1070
     4
1070
   287
1070
     4
1070
    40
1040
40.0
1070
    75
1070
     1
1070
   143
1040
0.039
1070
   172
1070
     1
1070
   271
1070
     0
1070
   279
1070
     1
1070
   288
1070
     1
1002
}
  0
DIMENSION
  5
7BFE
  8
3
  6
CONTINUOUS
  2
*D6
 10
1516.4964110000001
 20
2879.721759
 30
0.0
 11
1516.4964110000001
 21
2579.721759
 31
0.0
 70
   128
 13
2095.4894210000002
 23
2973.721759
 33
0.0
 14
2095.4894210000002
 24
2879.721759
 34
0.0
 50
90.0
1001
ACAD
1000
DSTYLE
1002
{
1070
   287
1070
     3
1070
   287
1070
     3
1070
    40
1040
40.0
1070
   143
1040
0.039
1070
   172
1070
     1
1070
   271
1070
     0
1070
   279
1070
     0
1070
   288
1070
     1
1002
}
  0
DIMENSION
  5
7C0B
  8
3
  6
CONTINUOUS
  2
*D7
 10
1292.479032
 20
2879.721759
 30
0.0
 11
1292.479032
 21
3874.0380519999999
 31
0.0
 70
   128
 13
2849.4894210000002
 23
4908.721759
 33
0.0
 14
2095.4894210000002
 24
2879.721759
 34
0.0
 50
90.0
1001
ACAD
1000
DSTYLE
1002
{
1070
   287
1070
     3
1070
   287
1070
     3
1070
    40
1040
40.0
1070
   143
1040
0.039
1070
   172
1070
     1
1070
   271
1070
     0
1070
   279
1070
     0
1070
   288
1070
     1
1002
}
  0
DIMENSION
  5
7C18
  8
3
  6
CONTINUOUS
  2
*D8
 10
2845.4894210000002
 20
2589.150114
 30
0.0
 11
2454.8635089999989
 21
2589.150114
 31
0.0
 70
   128
 13
2095.4894210000002
 23
2879.721759
 33
0.0
 14
2845.4894210000002
 24
2714.3402160000001
 34
0.0
1001
ACAD
1000
DSTYLE
1002
{
1070
   287
1070
     3
1070
   287
1070
     3
1070
    40
1040
40.0
1070
   143
1040
0.039
1070
   172
1070
     1
1070
   271
1070
     0
1070
   279
1070
     0
1070
   288
1070
     1
1002
}
  0
DIMENSION
  5
7C24
  8
3
  6
CONTINUOUS
  2
*D9
 10
4645.4894210000002
 20
2589.150114
 30
0.0
 11
3745.4894210000002
 21
2689.150114
 31
0.0
 70
     0
 13
2845.4894210000002
 23
2714.3402160000001
 33
0.0
 14
4645.4894210000002
 24
2879.721759
 34
0.0
1001
ACAD
1000
DSTYLE
1002
{
1070
   287
1070
     4
1070
   287
1070
     4
1070
    40
1040
40.0
1070
    75
1070
     1
1070
   143
1040
0.039
1070
   172
1070
     1
1070
   271
1070
     0
1070
   279
1070
     1
1070
   288
1070
     1
1002
}
  0
DIMENSION
  5
7C31
  8
3
  6
CONTINUOUS
  2
*D10
 10
6726.3910420000002
 20
5089.4270049999996
 30
0.0
 11
6255.7623590000012
 21
5089.4270049999996
 31
0.0
 70
   128
 13
5776.3910420000002
 23
4908.721759
 33
0.0
 14
6726.3910420000002
 24
4908.721759
 34
0.0
1001
ACAD
1000
DSTYLE
1002
{
1070
   287
1070
     3
1070
   287
1070
     3
1070
    40
1040
40.0
1070
   143
1040
0.039
1070
   172
1070
     1
1070
   271
1070
     0
1070
   279
1070
     0
1070
   288
1070
     1
1002
}
  0
DIMENSION
  5
7C3E
  8
3
  6
CONTINUOUS
  2
*D11
 10
7125.1064050000014
 20
3458.7217590000009
 30
0.0
 11
7125.1064050000004
 21
4075.8012359999998
 31
0.0
 70
   128
 13
6829.3910420000011
 23
4708.721759
 33
0.0
 14
6829.3910420000011
 24
3458.7217590000009
 34
0.0
 50
90.0
1001
ACAD
1000
DSTYLE
1002
{
1070
   287
1070
     3
1070
   287
1070
     3
1070
     3
1000
φ<>
1070
    40
1040
40.0
1070
   143
1040
0.039
1070
   172
1070
     1
1070
   271
1070
     0
1070
   279
1070
     0
1070
   288
1070
     1
1002
}
  0
DIMENSION
  5
7C4B
  8
3
  6
CONTINUOUS
  2
*D12
 10
6251.3910420000002
 20
5340.4200540000002
 30
0.0
 11
6555.1053279999996
 21
5340.4200540000002
 31
0.0
 70
   128
 13
6829.3910420000011
 23
4758.721759
 33
0.0
 14
6251.3910420000002
 24
5279.6912259999999
 34
0.0
1001
ACAD
1000
DSTYLE
1002
{
1070
   287
1070
     3
1070
   287
1070
     3
1070
    40
1040
40.0
1070
   143
1040
0.039
1070
   172
1070
     1
1070
   271
1070
     0
1070
   279
1070
     0
1070
   288
1070
     1
1002
}
  0
DIMENSION
  5
7C57
  8
3
  6
CONTINUOUS
  2
*D13
 10
5411.3910420000002
 20
5340.4200540000002
 30
0.0
 11
5831.3910420000002
 21
5540.4200540000011
 31
0.0
 70
     0
  1
MAX\P890
 13
6251.3910420000002
 23
5279.6912259999999
 33
0.0
 14
5411.3910420000002
 24
4461.721759
 34
0.0
1001
ACAD
1000
DSTYLE
1002
{
1070
   287
1070
     4
1070
   287
1070
     4
1070
    40
1040
40.0
1070
    75
1070
     1
1070
   143
1040
0.039
1070
   172
1070
     1
1070
   271
1070
     0
1070
   279
1070
     1
1070
   288
1070
     1
1002
}
  0
DIMENSION
  5
7C64
  8
3
  6
CONTINUOUS
  2
*D14
 10
6251.3910420000002
 20
2560.1893700000001
 30
0.0
 11
5917.6841400000003
 21
2560.1893700000001
 31
0.0
 70
   128
 13
5524.3910420000011
 23
2879.721759
 33
0.0
 14
6251.3910420000002
 24
2702.8502129999988
 34
0.0
1001
ACAD
1000
DSTYLE
1002
{
1070
   287
1070
     3
1070
   287
1070
     3
1070
    40
1040
40.0
1070
   143
1040
0.039
1070
   172
1070
     1
1070
   271
1070
     0
1070
   279
1070
     0
1070
   288
1070
     1
1002
}
  0
DIMENSION
  5
7C70
  8
3
  6
CONTINUOUS
  2
*D15
 10
6804.3910420000002
 20
2560.1893700000001
 30
0.0
 11
6527.8910420000002
 21
2660.1893700000001
 31
0.0
 70
     0
 13
6251.3910420000002
 23
2702.8502129999988
 33
0.0
 14
6804.3910420000002
 24
2879.721759
 34
0.0
1001
ACAD
1000
DSTYLE
1002
{
1070
   287
1070
     4
1070
   287
1070
     4
1070
    40
1040
40.0
1070
    75
1070
     1
1070
   143
1040
0.039
1070
   172
1070
     1
1070
   271
1070
     0
1070
   279
1070
     1
1070
   288
1070
     1
1002
}
  0
DIMENSION
  5
7C92
  8
3
  6
CONTINUOUS
  2
*D16
 10
4645.4894210000002
 20
6873.9268790000006
 30
0.0
 11
3304.8888059999999
 21
6873.9268790000006
 31
0.0
 70
   128
 13
2095.4894210000002
 23
7364.6776349999991
 33
0.0
 14
4645.4894210000002
 24
7364.6776349999991
 34
0.0
1001
ACAD
1000
DSTYLE
1002
{
1070
   287
1070
     3
1070
   287
1070
     3
1070
    40
1040
40.0
1070
   143
1040
0.039
1070
   172
1070
     1
1070
   271
1070
     0
1070
   279
1070
     0
1070
   288
1070
     1
1002
}
  0
DIMENSION
  5
7C9F
  8
3
  6
CONTINUOUS
  2
*D17
 10
5056.6425310000013
 20
7364.6776349999991
 30
0.0
 11
5056.6425310000013
 21
8042.0099169999994
 31
0.0
 70
   128
 13
4645.4894210000002
 23
8644.677635
 33
0.0
 14
4640.4894210000002
 24
7364.6776349999991
 34
0.0
 50
90.0
1001
ACAD
1000
DSTYLE
1002
{
1070
   287
1070
     3
1070
   287
1070
     3
1070
    40
1040
40.0
1070
   143
1040
0.039
1070
   172
1070
     1
1070
   271
1070
     0
1070
   279
1070
     0
1070
   288
1070
     1
1002
}
  0
DIMENSION
  5
7D3D
  8
3
  2
*D18
 10
4645.4894210000002
 20
5712.3338941184784
 30
0.0
 11
3299.896590670709
 21
5712.3338941184784
 31
0.0
 70
   128
 13
1948.2337640000001
 23
4076.8742590000002
 33
0.0
 14
4645.4894210000002
 24
3123.721759
 34
0.0
1001
ACAD
1000
DSTYLE
1002
{
1070
   287
1070
     3
1070
   287
1070
     3
1070
    40
1040
40.0
1070
   143
1040
0.039
1070
   172
1070
     1
1070
   271
1070
     0
1070
   279
1070
     0
1070
   288
1070
     1
1002
}
  0
ENDSEC
  0
EOF
