  0
SECTION
  2
HEADER
  9
$ACADVER
  1
AC1009
  9
$INSBASE
 10
0.0
 20
0.0
 30
0.0
  9
$EXTMIN
 10
1000.0
 20
1200.0
 30
0.0
  9
$EXTMAX
 10
7400.0
 20
11146.609046
 30
0.0
  9
$LIMMIN
 10
0.0
 20
0.0
  9
$LIMMAX
 10
297.0
 20
210.0
  9
$ORTHOMODE
 70
     0
  9
$REGENMODE
 70
     1
  9
$FILLMODE
 70
     0
  9
$QTEXTMODE
 70
     0
  9
$MIRRTEXT
 70
     1
  9
$DRAGMODE
 70
     2
  9
$LTSCALE
 40
100.0
  9
$OSMODE
 70
    37
  9
$ATTMODE
 70
     1
  9
$TEXTSIZE
 40
180.0
  9
$TRACEWID
 40
0.05
  9
$TEXTSTYLE
  7
STANDARD
  9
$CLAYER
  8
3
  9
$CELTYPE
  6
BYLAYER
  9
$CECOLOR
 62
   256
  9
$DIMSCALE
 40
40.0
  9
$DIMASZ
 40
2.0
  9
$DIMEXO
 40
0.5
  9
$DIMDLI
 40
10.0
  9
$DIMRND
 40
0.0
  9
$DIMDLE
 40
0.0
  9
$DIMEXE
 40
1.0
  9
$DIMTP
 40
1.0
  9
$DIMTM
 40
1.0
  9
$DIMTXT
 40
3.0
  9
$DIMCEN
 40
0.0
  9
$DIMTSZ
 40
0.0
  9
$DIMTOL
 70
     0
  9
$DIMLIM
 70
     0
  9
$DIMTIH
 70
     0
  9
$DIMTOH
 70
     0
  9
$DIMSE1
 70
     0
  9
$DIMSE2
 70
     0
  9
$DIMTAD
 70
     1
  9
$DIMZIN
 70
     8
  9
$DIMBLK
  1

  9
$DIMASO
 70
     1
  9
$DIMSHO
 70
     1
  9
$DIMPOST
  1

  9
$DIMAPOST
  1

  9
$DIMALT
 70
     0
  9
$DIMALTD
 70
     2
  9
$DIMALTF
 40
0.039
  9
$DIMLFAC
 40
1.0
  9
$DIMTOFL
 70
     1
  9
$DIMTVP
 40
0.0
  9
$DIMTIX
 70
     0
  9
$DIMSOXD
 70
     0
  9
$DIMSAH
 70
     1
  9
$DIMBLK1
  1
OPEN
  9
$DIMBLK2
  1
OPEN
  9
$DIMSTYLE
  2
IGA
  9
$DIMCLRD
 70
     0
  9
$DIMCLRE
 70
     0
  9
$DIMCLRT
 70
     0
  9
$DIMTFAC
 40
10.0
  9
$DIMGAP
 40
1.0
  9
$LUNITS
 70
     2
  9
$LUPREC
 70
     3
  9
$SKETCHINC
 40
0.1
  9
$FILLETRAD
 40
50.0
  9
$AUNITS
 70
     0
  9
$AUPREC
 70
     0
  9
$MENU
  1
acad
  9
$ELEVATION
 40
0.0
  9
$PELEVATION
 40
0.0
  9
$THICKNESS
 40
0.0
  9
$LIMCHECK
 70
     0
  9
$BLIPMODE
 70
     0
  9
$CHAMFERA
 40
0.5
  9
$CHAMFERB
 40
0.5
  9
$SKPOLY
 70
     0
  9
$TDCREATE
 40
2450757.4718079851
  9
$TDUPDATE
 40
2454953.8445379511
  9
$TDINDWG
 40
0.0052420602
  9
$TDUSRTIMER
 40
0.0052420602
  9
$USRTIMER
 70
     1
  9
$ANGBASE
 50
0.0
  9
$ANGDIR
 70
     0
  9
$PDMODE
 70
     0
  9
$PDSIZE
 40
0.0
  9
$PLINEWID
 40
0.0
  9
$COORDS
 70
     1
  9
$SPLFRAME
 70
     0
  9
$SPLINETYPE
 70
     6
  9
$SPLINESEGS
 70
     8
  9
$ATTDIA
 70
     0
  9
$ATTREQ
 70
     1
  9
$HANDLING
 70
 10241
  9
$HANDSEED
  5
7DC7
  9
$SURFTAB1
 70
     6
  9
$SURFTAB2
 70
     6
  9
$SURFTYPE
 70
     6
  9
$SURFU
 70
     6
  9
$SURFV
 70
     6
  9
$UCSNAME
  2

  9
$UCSORG
 10
0.0
 20
0.0
 30
0.0
  9
$UCSXDIR
 10
1.0
 20
0.0
 30
0.0
  9
$UCSYDIR
 10
0.0
 20
1.0
 30
0.0
  9
$PUCSNAME
  2

  9
$PUCSORG
 10
0.0
 20
0.0
 30
0.0
  9
$PUCSXDIR
 10
1.0
 20
0.0
 30
0.0
  9
$PUCSYDIR
 10
0.0
 20
1.0
 30
0.0
  9
$USERI1
 70
     0
  9
$USERI2
 70
     0
  9
$USERI3
 70
     0
  9
$USERI4
 70
     0
  9
$USERI5
 70
     0
  9
$USERR1
 40
0.0
  9
$USERR2
 40
0.0
  9
$USERR3
 40
0.0
  9
$USERR4
 40
0.0
  9
$USERR5
 40
0.0
  9
$WORLDVIEW
 70
     1
  9
$SHADEDGE
 70
     3
  9
$SHADEDIF
 70
    70
  9
$TILEMODE
 70
     1
  9
$MAXACTVP
 70
    16
  9
$PLIMCHECK
 70
     0
  9
$PEXTMIN
 10
1.0000000000000000E+020
 20
1.0000000000000000E+020
 30
1.0000000000000000E+020
  9
$PEXTMAX
 10
-1.0000000000000000E+020
 20
-1.0000000000000000E+020
 30
-1.0000000000000000E+020
  9
$PLIMMIN
 10
0.0
 20
0.0
  9
$PLIMMAX
 10
12.0
 20
9.0
  9
$UNITMODE
 70
     0
  9
$VISRETAIN
 70
     0
  9
$PLINEGEN
 70
     0
  9
$PSLTSCALE
 70
     1
  0
ENDSEC
  0
SECTION
  2
TABLES
  0
TABLE
  2
VPORT
 70
     2
  0
VPORT
  2
*ACTIVE
 70
     0
 10
0.0
 20
0.0
 11
1.0
 21
1.0
 12
10852.80551033233
 22
6663.1777609548253
 13
0.0
 23
0.0
 14
10.0
 24
10.0
 15
10.0
 25
10.0
 16
0.0
 26
0.0
 36
1.0
 17
0.0
 27
0.0
 37
0.0
 40
14046.829360524451
 41
1.5051150895140659
 42
50.0
 43
0.0
 44
0.0
 50
0.0
 51
0.0
 71
     0
 72
   100
 73
     1
 74
     0
 75
     0
 76
     0
 77
     0
 78
     0
  0
ENDTAB
  0
TABLE
  2
LTYPE
 70
     2
  0
LTYPE
  2
CONTINUOUS
 70
     0
  3
Solid line
 72
    65
 73
     0
 40
0.0
  0
LTYPE
  2
CENTER
 70
     0
  3
____ _ ____ _ ____ _ ____ _ ____ _ ____ _ ____ 
 72
    65
 73
     4
 40
2.0
 49
1.25
 49
-0.25
 49
0.25
 49
-0.25
  0
ENDTAB
  0
TABLE
  2
LAYER
 70
     6
  0
LAYER
  2
0
 70
     0
 62
     7
  6
CONTINUOUS
  0
LAYER
  2
3
 70
     0
 62
     2
  6
CONTINUOUS
  0
LAYER
  2
2
 70
     0
 62
     3
  6
CENTER
  0
LAYER
  2
1
 70
     0
 62
     4
  6
CONTINUOUS
  0
LAYER
  2
4
 70
     0
 62
     7
  6
CONTINUOUS
  0
LAYER
  2
DEFPOINTS
 70
     0
 62
     7
  6
CONTINUOUS
  0
ENDTAB
  0
TABLE
  2
STYLE
 70
     1
  0
STYLE
  2
STANDARD
 70
     0
 40
0.0
 41
1.0
 50
0.0
 71
     0
 42
180.0
  3
simplex.shx
  4
extfont.shx
  0
ENDTAB
  0
TABLE
  2
VIEW
 70
     0
  0
ENDTAB
  0
TABLE
  2
UCS
 70
     0
  0
ENDTAB
  0
TABLE
  2
APPID
 70
     1
  0
APPID
  2
ACAD
 70
     0
  0
ENDTAB
  0
TABLE
  2
DIMSTYLE
 70
     1
  0
DIMSTYLE
  2
IGA
 70
     0
  3

  4

  5

  6
OPEN
  7
OPEN
 40
2.0
 41
2.0
 42
0.5
 43
10.0
 44
1.0
 45
0.0
 46
0.0
 47
1.0
 48
1.0
140
3.0
141
0.0
142
0.0
143
0.03937
144
1.0
145
0.0
146
10.0
147
1.0
 71
     0
 72
     0
 73
     0
 74
     0
 75
     0
 76
     0
 77
     1
 78
     8
170
     0
171
     2
172
     0
173
     1
174
     0
175
     0
176
     0
177
     0
178
     0
  0
ENDTAB
  0
ENDSEC
  0
SECTION
  2
BLOCKS
  0
BLOCK
  8
0
  2
$MODEL_SPACE
 70
     0
 10
0.0
 20
0.0
 30
0.0
  3
$MODEL_SPACE
  1

  0
ENDBLK
  5
1B
  8
0
  0
BLOCK
 67
     1
  8
0
  2
$PAPER_SPACE
 70
     0
 10
0.0
 20
0.0
 30
0.0
  3
$PAPER_SPACE
  1

  0
ENDBLK
  5
18
 67
     1
  8
0
  0
BLOCK
  8
0
  2
_OPEN
 70
     0
 10
0.0
 20
0.0
 30
0.0
  3
_OPEN
  1

  0
LINE
  5
7AF5
  8
0
  6
BYBLOCK
 62
     0
 10
-1.0
 20
0.166667
 30
0.0
 11
0.0
 21
0.0
 31
0.0
  0
LINE
  5
7AF6
  8
0
  6
BYBLOCK
 62
     0
 10
0.0
 20
0.0
 30
0.0
 11
-1.0
 21
-0.166667
 31
0.0
  0
LINE
  5
7AF7
  8
0
  6
BYBLOCK
 62
     0
 10
0.0
 20
0.0
 30
0.0
 11
-1.0
 21
0.0
 31
0.0
  0
ENDBLK
  5
7AF8
  8
0
  0
BLOCK
  8
0
  2
*D1
 70
     1
 10
0.0
 20
0.0
 30
0.0
  3
*D1
  1

  0
LINE
  5
7D1F
  8
3
  6
CONTINUOUS
 62
     0
 10
1773.225727
 20
4912.936788
 30
0.0
 11
1773.225727
 21
5102.2886930000013
 31
0.0
  0
LINE
  5
7D20
  8
3
  6
CONTINUOUS
 62
     0
 10
3053.225727
 20
4912.936788
 30
0.0
 11
3053.225727
 21
5102.2886930000013
 31
0.0
  0
LINE
  5
7D21
  8
3
  6
CONTINUOUS
 62
     0
 10
1853.2257269999991
 20
5062.2886930000013
 30
0.0
 11
2973.225727
 21
5062.2886930000013
 31
0.0
  0
INSERT
  5
7D22
  8
3
  6
CONTINUOUS
 62
     0
  2
_OPEN
 10
1773.225727
 20
5062.2886930000013
 30
0.0
 41
80.0
 42
80.0
 43
80.0
 50
180.0
  0
INSERT
  5
7D23
  8
3
  6
CONTINUOUS
 62
     0
  2
_OPEN
 10
3053.225727
 20
5062.2886930000013
 30
0.0
 41
80.0
 42
80.0
 43
80.0
  0
TEXT
  8
3
  40
120
  5
7DB5
  62
0
  72
0
  71
0
 10
2163.51
 20
4949.89
 30
0.000000
  1
1280
  0
POINT
  5
7D25
  8
DEFPOINTS
  6
CONTINUOUS
 62
     0
 10
1773.225727
 20
4892.936788
 30
0.0
  0
POINT
  5
7D26
  8
DEFPOINTS
  6
CONTINUOUS
 62
     0
 10
3053.225727
 20
4892.936788
 30
0.0
  0
POINT
  5
7D27
  8
DEFPOINTS
  6
CONTINUOUS
 62
     0
 10
3053.225727
 20
5062.2886930000013
 30
0.0
  0
ENDBLK
  5
7B05
  8
0
  0
BLOCK
  8
0
  2
*D2
 70
     1
 10
0.0
 20
0.0
 30
0.0
  3
*D2
  1

  0
LINE
  5
7D28
  8
3
  6
CONTINUOUS
 62
     0
 10
1773.225727
 20
4912.936788
 30
0.0
 11
1773.225727
 21
5373.9654559999999
 31
0.0
  0
LINE
  5
7D29
  8
3
  6
CONTINUOUS
 62
     0
 10
3107.225727
 20
5057.0637530000013
 30
0.0
 11
3107.225727
 21
5373.9654559999999
 31
0.0
  0
LINE
  5
7D2A
  8
3
  6
CONTINUOUS
 62
     0
 10
1853.2257269999991
 20
5333.9654559999999
 30
0.0
 11
3027.225727
 21
5333.9654559999999
 31
0.0
  0
INSERT
  5
7D2B
  8
3
  6
CONTINUOUS
 62
     0
  2
_OPEN
 10
1773.225727
 20
5333.9654559999999
 30
0.0
 41
80.0
 42
80.0
 43
80.0
 50
180.0
  0
INSERT
  5
7D2C
  8
3
  6
CONTINUOUS
 62
     0
  2
_OPEN
 10
3107.225727
 20
5333.9654559999999
 30
0.0
 41
80.0
 42
80.0
 43
80.0
  0
TEXT
  8
3
  40
120
  5
7DB6
  62
0
  72
0
  71
0
 10
2138.79
 20
5221.57
 30
0.000000
  1
1334
  0
POINT
  5
7D2E
  8
DEFPOINTS
  6
CONTINUOUS
 62
     0
 10
1773.225727
 20
4892.936788
 30
0.0
  0
POINT
  5
7D2F
  8
DEFPOINTS
  6
CONTINUOUS
 62
     0
 10
3107.225727
 20
5037.0637530000004
 30
0.0
  0
POINT
  5
7D30
  8
DEFPOINTS
  6
CONTINUOUS
 62
     0
 10
3107.225727
 20
5333.9654559999999
 30
0.0
  0
ENDBLK
  5
7B12
  8
0
  0
BLOCK
  8
0
  2
*D3
 70
     1
 10
0.0
 20
0.0
 30
0.0
  3
*D3
  1

  0
LINE
  5
7D31
  8
3
  6
CONTINUOUS
 62
     0
 10
4004.481385
 20
4061.0892880000001
 30
0.0
 11
4004.481385
 21
5373.9654559999999
 31
0.0
  0
LINE
  5
7D32
  8
3
  6
CONTINUOUS
 62
     0
 10
3187.225727
 20
5333.9654559999999
 30
0.0
 11
3924.4813849999991
 21
5333.9654559999999
 31
0.0
  0
INSERT
  5
7D33
  8
3
  6
CONTINUOUS
 62
     0
  2
_OPEN
 10
3107.225727
 20
5333.9654559999999
 30
0.0
 41
80.0
 42
80.0
 43
80.0
 50
180.0
  0
INSERT
  5
7D34
  8
3
  6
CONTINUOUS
 62
     0
  2
_OPEN
 10
4004.481385
 20
5333.9654559999999
 30
0.0
 41
80.0
 42
80.0
 43
80.0
  0
TEXT
  8
3
  40
120
  5
7DB7
  62
0
  72
0
  71
0
 10
3315.85
 20
5221.57
 30
0.000000
  1
897
  0
POINT
  5
7D36
  8
DEFPOINTS
  6
CONTINUOUS
 62
     0
 10
3107.225727
 20
5037.0637530000004
 30
0.0
  0
POINT
  5
7D37
  8
DEFPOINTS
  6
CONTINUOUS
 62
     0
 10
4004.481385
 20
4041.0892880000001
 30
0.0
  0
POINT
  5
7D38
  8
DEFPOINTS
  6
CONTINUOUS
 62
     0
 10
4004.481385
 20
5333.9654559999999
 30
0.0
  0
ENDBLK
  5
7B1E
  8
0
  0
BLOCK
  8
0
  2
*D4
 70
     1
 10
0.0
 20
0.0
 30
0.0
  3
*D4
  1

  0
LINE
  5
7D39
  8
3
  6
CONTINUOUS
 62
     0
 10
1307.225727
 20
2937.936788
 30
0.0
 11
1307.225727
 21
2610.1282259999998
 31
0.0
  0
LINE
  5
7D3A
  8
3
  6
CONTINUOUS
 62
     0
 10
3107.225727
 20
2835.1200239999998
 30
0.0
 11
3107.225727
 21
2610.1282259999998
 31
0.0
  0
LINE
  5
7D3B
  8
3
  6
CONTINUOUS
 62
     0
 10
1387.225727
 20
2650.1282259999998
 30
0.0
 11
3027.225727
 21
2650.1282259999998
 31
0.0
  0
INSERT
  5
7D3C
  8
3
  6
CONTINUOUS
 62
     0
  2
_OPEN
 10
1307.225727
 20
2650.1282259999998
 30
0.0
 41
80.0
 42
80.0
 43
80.0
 50
180.0
  0
INSERT
  5
7D3D
  8
3
  6
CONTINUOUS
 62
     0
  2
_OPEN
 10
3107.225727
 20
2650.1282259999998
 30
0.0
 41
80.0
 42
80.0
 43
80.0
  0
TEXT
  8
3
  40
120
  5
7DB8
  62
0
  72
0
  71
0
 10
2056.42
 20
2537.73
 30
0.000000
  1
1800
  0
POINT
  5
7D3F
  8
DEFPOINTS
  6
CONTINUOUS
 62
     0
 10
1307.225727
 20
2957.9367879999991
 30
0.0
  0
POINT
  5
7D40
  8
DEFPOINTS
  6
CONTINUOUS
 62
     0
 10
3107.225727
 20
2855.1200239999998
 30
0.0
  0
POINT
  5
7D41
  8
DEFPOINTS
  6
CONTINUOUS
 62
     0
 10
3107.225727
 20
2650.1282259999998
 30
0.0
  0
ENDBLK
  5
7C05
  8
0
  0
BLOCK
  8
0
  2
*D5
 70
     1
 10
0.0
 20
0.0
 30
0.0
  3
*D5
  1

  0
LINE
  5
7D42
  8
3
  6
CONTINUOUS
 62
     0
 10
3857.2257270000009
 20
2937.936788
 30
0.0
 11
3857.2257270000009
 21
2610.1282259999998
 31
0.0
  0
LINE
  5
7D43
  8
3
  6
CONTINUOUS
 62
     0
 10
3187.225727
 20
2650.1282259999998
 30
0.0
 11
3777.225727
 21
2650.1282259999998
 31
0.0
  0
INSERT
  5
7D44
  8
3
  6
CONTINUOUS
 62
     0
  2
_OPEN
 10
3107.225727
 20
2650.1282259999998
 30
0.0
 41
80.0
 42
80.0
 43
80.0
 50
180.0
  0
INSERT
  5
7D45
  8
3
  6
CONTINUOUS
 62
     0
  2
_OPEN
 10
3857.2257270000009
 20
2650.1282259999998
 30
0.0
 41
80.0
 42
80.0
 43
80.0
  0
TEXT
  8
3
  40
120
  5
7DB9
  62
0
  72
0
  71
0
 10
3242.23
 20
2537.73
 30
0.000000
  1
750
  0
POINT
  5
7D47
  8
DEFPOINTS
  6
CONTINUOUS
 62
     0
 10
3107.225727
 20
2855.1200239999998
 30
0.0
  0
POINT
  5
7D48
  8
DEFPOINTS
  6
CONTINUOUS
 62
     0
 10
3857.2257270000009
 20
2957.9367879999991
 30
0.0
  0
POINT
  5
7D49
  8
DEFPOINTS
  6
CONTINUOUS
 62
     0
 10
3857.2257270000009
 20
2650.1282259999998
 30
0.0
  0
ENDBLK
  5
7B37
  8
0
  0
BLOCK
  8
0
  2
*D6
 70
     1
 10
0.0
 20
0.0
 30
0.0
  3
*D6
  1

  0
LINE
  5
7D4A
  8
3
  6
CONTINUOUS
 62
     0
 10
3123.225727
 20
4892.936788
 30
0.0
 11
4362.8624180000006
 21
4892.936788
 31
0.0
  0
LINE
  5
7D4B
  8
3
  6
CONTINUOUS
 62
     0
 10
4197.8352489999997
 20
4067.936788
 30
0.0
 11
4362.8624180000006
 21
4067.936788
 31
0.0
  0
LINE
  5
7D4C
  8
3
  6
CONTINUOUS
 62
     0
 10
4322.8624179999997
 20
4812.936788
 30
0.0
 11
4322.8624179999997
 21
4147.9367879999991
 31
0.0
  0
INSERT
  5
7D4D
  8
3
  6
CONTINUOUS
 62
     0
  2
_OPEN
 10
4322.8624179999997
 20
4892.936788
 30
0.0
 41
80.0
 42
80.0
 43
80.0
 50
90.0
  0
INSERT
  5
7D4E
  8
3
  6
CONTINUOUS
 62
     0
  2
_OPEN
 10
4322.8624179999997
 20
4067.936788
 30
0.0
 41
80.0
 42
80.0
 43
80.0
 50
270.0
  0
TEXT
  8
3
  40
120
  5
7DBA
  62
0
  72
0
  71
0
 10
3982.86
 20
4257.14
 30
0.000000
  1
825
  0
POINT
  5
7D50
  8
DEFPOINTS
  6
CONTINUOUS
 62
     0
 10
3103.225727
 20
4892.936788
 30
0.0
  0
POINT
  5
7D51
  8
DEFPOINTS
  6
CONTINUOUS
 62
     0
 10
4177.8352490000007
 20
4067.936788
 30
0.0
  0
POINT
  5
7D52
  8
DEFPOINTS
  6
CONTINUOUS
 62
     0
 10
4322.8624179999997
 20
4067.936788
 30
0.0
  0
ENDBLK
  5
7B44
  8
0
  0
BLOCK
  8
0
  2
*D7
 70
     1
 10
0.0
 20
0.0
 30
0.0
  3
*D7
  1

  0
LINE
  5
7D53
  8
3
  6
CONTINUOUS
 62
     0
 10
3877.225727
 20
2957.9367879999991
 30
0.0
 11
4362.8624179999988
 21
2957.9367879999991
 31
0.0
  0
LINE
  5
7D54
  8
3
  6
CONTINUOUS
 62
     0
 10
4322.8624179999988
 20
3987.936788
 30
0.0
 11
4322.8624179999988
 21
3037.936788
 31
0.0
  0
INSERT
  5
7D55
  8
3
  6
CONTINUOUS
 62
     0
  2
_OPEN
 10
4322.8624179999988
 20
4067.936788
 30
0.0
 41
80.0
 42
80.0
 43
80.0
 50
90.0
  0
INSERT
  5
7D56
  8
3
  6
CONTINUOUS
 62
     0
  2
_OPEN
 10
4322.8624179999988
 20
2957.9367879999991
 30
0.0
 41
80.0
 42
80.0
 43
80.0
 50
270.0
  0
TEXT
  8
3
  40
120
  5
7DBB
  62
0
  72
0
  71
0
 10
3982.86
 20
3300.54
 30
0.000000
  1
1110
  0
POINT
  5
7D58
  8
DEFPOINTS
  6
CONTINUOUS
 62
     0
 10
4177.8352490000007
 20
4067.936788
 30
0.0
  0
POINT
  5
7D59
  8
DEFPOINTS
  6
CONTINUOUS
 62
     0
 10
3857.2257270000009
 20
2957.9367879999991
 30
0.0
  0
POINT
  5
7D5A
  8
DEFPOINTS
  6
CONTINUOUS
 62
     0
 10
4322.8624179999988
 20
2957.9367879999991
 30
0.0
  0
ENDBLK
  5
7B50
  8
0
  0
BLOCK
  8
0
  2
*D8
 70
     1
 10
0.0
 20
0.0
 30
0.0
  3
*D8
  1

  0
LINE
  5
7D5B
  8
3
  6
CONTINUOUS
 62
     0
 10
3143.225727
 20
4892.936788
 30
0.0
 11
4634.7024120000005
 21
4892.936788
 31
0.0
  0
LINE
  5
7D5C
  8
3
  6
CONTINUOUS
 62
     0
 10
3877.225727
 20
2957.9367879999991
 30
0.0
 11
4634.7024120000005
 21
2957.9367879999991
 31
0.0
  0
LINE
  5
7D5D
  8
3
  6
CONTINUOUS
 62
     0
 10
4594.7024120000005
 20
4812.936788
 30
0.0
 11
4594.7024120000005
 21
3037.936788
 31
0.0
  0
INSERT
  5
7D5E
  8
3
  6
CONTINUOUS
 62
     0
  2
_OPEN
 10
4594.7024120000005
 20
4892.936788
 30
0.0
 41
80.0
 42
80.0
 43
80.0
 50
90.0
  0
INSERT
  5
7D5F
  8
3
  6
CONTINUOUS
 62
     0
  2
_OPEN
 10
4594.7024120000005
 20
2957.9367879999991
 30
0.0
 41
80.0
 42
80.0
 43
80.0
 50
270.0
  0
TEXT
  8
3
  40
120
  5
7DBC
  62
0
  72
0
  71
0
 10
4254.70
 20
3590.30
 30
0.000000
  1
1935
  0
POINT
  5
7D61
  8
DEFPOINTS
  6
CONTINUOUS
 62
     0
 10
3123.225727
 20
4892.936788
 30
0.0
  0
POINT
  5
7D62
  8
DEFPOINTS
  6
CONTINUOUS
 62
     0
 10
3857.2257270000009
 20
2957.9367879999991
 30
0.0
  0
POINT
  5
7D63
  8
DEFPOINTS
  6
CONTINUOUS
 62
     0
 10
4594.7024120000005
 20
2957.9367879999991
 30
0.0
  0
ENDBLK
  5
7B5D
  8
0
  0
BLOCK
  8
0
  2
*D9
 70
     1
 10
0.0
 20
0.0
 30
0.0
  3
*D9
  1

  0
LINE
  5
7D64
  8
3
  6
CONTINUOUS
 62
     0
 10
5839.72397
 20
4912.936788
 30
0.0
 11
5839.72397
 21
5069.3581690000001
 31
0.0
  0
LINE
  5
7D65
  8
3
  6
CONTINUOUS
 62
     0
 10
6789.72397
 20
4912.936788
 30
0.0
 11
6789.72397
 21
5069.3581690000001
 31
0.0
  0
LINE
  5
7D66
  8
3
  6
CONTINUOUS
 62
     0
 10
5919.72397
 20
5029.3581690000001
 30
0.0
 11
6709.72397
 21
5029.3581690000001
 31
0.0
  0
INSERT
  5
7D67
  8
3
  6
CONTINUOUS
 62
     0
  2
_OPEN
 10
5839.72397
 20
5029.3581690000001
 30
0.0
 41
80.0
 42
80.0
 43
80.0
 50
180.0
  0
INSERT
  5
7D68
  8
3
  6
CONTINUOUS
 62
     0
  2
_OPEN
 10
6789.72397
 20
5029.3581690000001
 30
0.0
 41
80.0
 42
80.0
 43
80.0
  0
TEXT
  8
3
  40
120
  5
7DBD
  62
0
  72
0
  71
0
 10
6078.96
 20
4916.96
 30
0.000000
  1
950
  0
POINT
  5
7D6A
  8
DEFPOINTS
  6
CONTINUOUS
 62
     0
 10
5839.72397
 20
4892.936788
 30
0.0
  0
POINT
  5
7D6B
  8
DEFPOINTS
  6
CONTINUOUS
 62
     0
 10
6789.72397
 20
4892.936788
 30
0.0
  0
POINT
  5
7D6C
  8
DEFPOINTS
  6
CONTINUOUS
 62
     0
 10
6789.72397
 20
5029.3581690000001
 30
0.0
  0
ENDBLK
  5
7B6A
  8
0
  0
BLOCK
  8
0
  2
*D10
 70
     1
 10
0.0
 20
0.0
 30
0.0
  3
*D10
  1

  0
LINE
  5
7D6D
  8
3
  6
CONTINUOUS
 62
     0
 10
6912.72397
 20
4692.9367879999991
 30
0.0
 11
7240.3806120000008
 21
4692.9367879999991
 31
0.0
  0
LINE
  5
7D6E
  8
3
  6
CONTINUOUS
 62
     0
 10
6912.72397
 20
3442.936788
 30
0.0
 11
7240.3806120000008
 21
3442.936788
 31
0.0
  0
LINE
  5
7D6F
  8
3
  6
CONTINUOUS
 62
     0
 10
7200.3806120000017
 20
4612.936788
 30
0.0
 11
7200.3806120000017
 21
3522.9367879999991
 31
0.0
  0
INSERT
  5
7D70
  8
3
  6
CONTINUOUS
 62
     0
  2
_OPEN
 10
7200.3806120000017
 20
4692.9367879999991
 30
0.0
 41
80.0
 42
80.0
 43
80.0
 50
90.0
  0
INSERT
  5
7D71
  8
3
  6
CONTINUOUS
 62
     0
  2
_OPEN
 10
7200.3806120000017
 20
3442.936788
 30
0.0
 41
80.0
 42
80.0
 43
80.0
 50
270.0
  0
TEXT
  8
3
  40
120
  5
7DBE
  62
0
  72
0
  71
0
 10
6860.38
 20
3837.28
 30
0.000000
  1
φ1250
  0
POINT
  5
7D73
  8
DEFPOINTS
  6
CONTINUOUS
 62
     0
 10
6892.72397
 20
4692.9367879999991
 30
0.0
  0
POINT
  5
7D74
  8
DEFPOINTS
  6
CONTINUOUS
 62
     0
 10
6892.72397
 20
3442.936788
 30
0.0
  0
POINT
  5
7D75
  8
DEFPOINTS
  6
CONTINUOUS
 62
     0
 10
7200.3806120000017
 20
3442.936788
 30
0.0
  0
ENDBLK
  5
7C2D
  8
0
  0
BLOCK
  8
0
  2
*D11
 70
     1
 10
0.0
 20
0.0
 30
0.0
  3
*D11
  1

  0
LINE
  5
7D76
  8
3
  6
CONTINUOUS
 62
     0
 10
6892.72397
 20
4762.936788
 30
0.0
 11
6892.72397
 21
5357.5001939999993
 31
0.0
  0
LINE
  5
7D77
  8
3
  6
CONTINUOUS
 62
     0
 10
6314.72397
 20
5261.155839
 30
0.0
 11
6314.72397
 21
5357.5001939999993
 31
0.0
  0
LINE
  5
7D78
  8
3
  6
CONTINUOUS
 62
     0
 10
6972.72397
 20
5317.5001940000002
 30
0.0
 11
7052.7239699999991
 21
5317.5001940000002
 31
0.0
  0
LINE
  5
7D79
  8
3
  6
CONTINUOUS
 62
     0
 10
6234.7239700000009
 20
5317.5001940000002
 30
0.0
 11
6154.72397
 21
5317.5001940000002
 31
0.0
  0
LINE
  5
7D7A
  8
3
  6
CONTINUOUS
 62
     0
 10
6892.72397
 20
5317.5001940000002
 30
0.0
 11
6314.72397
 21
5317.5001940000002
 31
0.0
  0
INSERT
  5
7D7B
  8
3
  6
CONTINUOUS
 62
     0
  2
_OPEN
 10
6892.72397
 20
5317.5001940000002
 30
0.0
 41
80.0
 42
80.0
 43
80.0
 50
180.0
  0
INSERT
  5
7D7C
  8
3
  6
CONTINUOUS
 62
     0
  2
_OPEN
 10
6314.72397
 20
5317.5001940000002
 30
0.0
 41
80.0
 42
80.0
 43
80.0
  0
TEXT
  8
3
  40
120
  5
7DBF
  62
0
  72
0
  71
0
 10
6378.44
 20
5205.10
 30
0.000000
  1
578
  0
POINT
  5
7D7E
  8
DEFPOINTS
  6
CONTINUOUS
 62
     0
 10
6892.72397
 20
4742.936788
 30
0.0
  0
POINT
  5
7D7F
  8
DEFPOINTS
  6
CONTINUOUS
 62
     0
 10
6314.72397
 20
5241.1558390000009
 30
0.0
  0
POINT
  5
7D80
  8
DEFPOINTS
  6
CONTINUOUS
 62
     0
 10
6314.72397
 20
5317.5001940000002
 30
0.0
  0
ENDBLK
  5
7BBF
  8
0
  0
BLOCK
  8
0
  2
*D12
 70
     1
 10
0.0
 20
0.0
 30
0.0
  3
*D12
  1

  0
LINE
  5
7D81
  8
3
  6
CONTINUOUS
 62
     0
 10
5474.72397
 20
4465.9367879999991
 30
0.0
 11
5474.72397
 21
5357.5001939999993
 31
0.0
  0
LINE
  5
7D82
  8
3
  6
CONTINUOUS
 62
     0
 10
6234.7239700000009
 20
5317.5001940000002
 30
0.0
 11
5554.72397
 21
5317.5001940000002
 31
0.0
  0
INSERT
  5
7D83
  8
3
  6
CONTINUOUS
 62
     0
  2
_OPEN
 10
6314.72397
 20
5317.5001940000002
 30
0.0
 41
80.0
 42
80.0
 43
80.0
  0
INSERT
  5
7D84
  8
3
  6
CONTINUOUS
 62
     0
  2
_OPEN
 10
5474.72397
 20
5317.5001940000002
 30
0.0
 41
80.0
 42
80.0
 43
80.0
 50
180.0
  0
TEXT
  8
3
  40
120
  5
7DC0
  62
0
  72
0
  71
0
 10
5654.72
 20
5305.10
 30
0.000000
  1
MAX
  0
TEXT
  8
3
  40
120
  5
7DC1
  62
0
  72
0
  71
0
 10
5654.72
 20
5149.10
 30
0.000000
  1
890
  0
POINT
  5
7D86
  8
DEFPOINTS
  6
CONTINUOUS
 62
     0
 10
6314.72397
 20
5241.1558390000009
 30
0.0
  0
POINT
  5
7D87
  8
DEFPOINTS
  6
CONTINUOUS
 62
     0
 10
5474.72397
 20
4445.936788
 30
0.0
  0
POINT
  5
7D88
  8
DEFPOINTS
  6
CONTINUOUS
 62
     0
 10
5474.72397
 20
5317.5001940000002
 30
0.0
  0
ENDBLK
  5
7C22
  8
0
  0
BLOCK
  8
0
  2
*D13
 70
     1
 10
0.0
 20
0.0
 30
0.0
  3
*D13
  1

  0
LINE
  5
7D89
  8
3
  6
CONTINUOUS
 62
     0
 10
5587.72397
 20
2937.936788
 30
0.0
 11
5587.72397
 21
2610.1282259999998
 31
0.0
  0
LINE
  5
7D8A
  8
3
  6
CONTINUOUS
 62
     0
 10
6314.72397
 20
2810.8962019999999
 30
0.0
 11
6314.72397
 21
2610.1282259999998
 31
0.0
  0
LINE
  5
7D8B
  8
3
  6
CONTINUOUS
 62
     0
 10
5667.72397
 20
2650.1282259999998
 30
0.0
 11
6234.7239700000009
 21
2650.1282259999998
 31
0.0
  0
INSERT
  5
7D8C
  8
3
  6
CONTINUOUS
 62
     0
  2
_OPEN
 10
5587.72397
 20
2650.1282259999998
 30
0.0
 41
80.0
 42
80.0
 43
80.0
 50
180.0
  0
INSERT
  5
7D8D
  8
3
  6
CONTINUOUS
 62
     0
  2
_OPEN
 10
6314.72397
 20
2650.1282259999998
 30
0.0
 41
80.0
 42
80.0
 43
80.0
  0
TEXT
  8
3
  40
120
  5
7DC2
  62
0
  72
0
  71
0
 10
5724.74
 20
2537.73
 30
0.000000
  1
727
  0
POINT
  5
7D8F
  8
DEFPOINTS
  6
CONTINUOUS
 62
     0
 10
5587.72397
 20
2957.9367879999991
 30
0.0
  0
POINT
  5
7D90
  8
DEFPOINTS
  6
CONTINUOUS
 62
     0
 10
6314.72397
 20
2830.896201999999
 30
0.0
  0
POINT
  5
7D91
  8
DEFPOINTS
  6
CONTINUOUS
 62
     0
 10
6314.72397
 20
2650.1282259999998
 30
0.0
  0
ENDBLK
  5
7B9D
  8
0
  0
BLOCK
  8
0
  2
*D14
 70
     1
 10
0.0
 20
0.0
 30
0.0
  3
*D14
  1

  0
LINE
  5
7D92
  8
3
  6
CONTINUOUS
 62
     0
 10
6867.72397
 20
2937.936788
 30
0.0
 11
6867.72397
 21
2610.1282259999998
 31
0.0
  0
LINE
  5
7D93
  8
3
  6
CONTINUOUS
 62
     0
 10
6394.7239700000009
 20
2650.1282259999998
 30
0.0
 11
6787.72397
 21
2650.1282259999998
 31
0.0
  0
INSERT
  5
7D94
  8
3
  6
CONTINUOUS
 62
     0
  2
_OPEN
 10
6314.72397
 20
2650.1282259999998
 30
0.0
 41
80.0
 42
80.0
 43
80.0
 50
180.0
  0
INSERT
  5
7D95
  8
3
  6
CONTINUOUS
 62
     0
  2
_OPEN
 10
6867.72397
 20
2650.1282259999998
 30
0.0
 41
80.0
 42
80.0
 43
80.0
  0
TEXT
  8
3
  40
120
  5
7DC3
  62
0
  72
0
  71
0
 10
6351.22
 20
2537.73
 30
0.000000
  1
553
  0
POINT
  5
7D97
  8
DEFPOINTS
  6
CONTINUOUS
 62
     0
 10
6314.72397
 20
2830.896201999999
 30
0.0
  0
POINT
  5
7D98
  8
DEFPOINTS
  6
CONTINUOUS
 62
     0
 10
6867.72397
 20
2957.9367879999991
 30
0.0
  0
POINT
  5
7D99
  8
DEFPOINTS
  6
CONTINUOUS
 62
     0
 10
6867.72397
 20
2650.1282259999998
 30
0.0
  0
ENDBLK
  5
7BA9
  8
0
  0
BLOCK
  8
0
  2
*D15
 70
     1
 10
0.0
 20
0.0
 30
0.0
  3
*D15
  1

  0
LINE
  5
7D9A
  8
3
  6
CONTINUOUS
 62
     0
 10
1307.225727
 20
7248.0103159999999
 30
0.0
 11
1307.225727
 21
6792.2195170000014
 31
0.0
  0
LINE
  5
7D9B
  8
3
  6
CONTINUOUS
 62
     0
 10
3857.2257270000009
 20
7248.0103159999999
 30
0.0
 11
3857.2257270000009
 21
6792.2195170000014
 31
0.0
  0
LINE
  5
7D9C
  8
3
  6
CONTINUOUS
 62
     0
 10
1387.225727
 20
6832.2195170000005
 30
0.0
 11
3777.225727
 21
6832.2195170000005
 31
0.0
  0
INSERT
  5
7D9D
  8
3
  6
CONTINUOUS
 62
     0
  2
_OPEN
 10
1307.225727
 20
6832.2195170000005
 30
0.0
 41
80.0
 42
80.0
 43
80.0
 50
180.0
  0
INSERT
  5
7D9E
  8
3
  6
CONTINUOUS
 62
     0
  2
_OPEN
 10
3857.2257270000009
 20
6832.2195170000005
 30
0.0
 41
80.0
 42
80.0
 43
80.0
  0
TEXT
  8
3
  40
120
  5
7DC4
  62
0
  72
0
  71
0
 10
2320.02
 20
6719.82
 30
0.000000
  1
2550
  0
POINT
  5
7DA0
  8
DEFPOINTS
  6
CONTINUOUS
 62
     0
 10
1307.225727
 20
7268.0103159999999
 30
0.0
  0
POINT
  5
7DA1
  8
DEFPOINTS
  6
CONTINUOUS
 62
     0
 10
3857.2257270000009
 20
7268.0103159999999
 30
0.0
  0
POINT
  5
7DA2
  8
DEFPOINTS
  6
CONTINUOUS
 62
     0
 10
3857.2257270000009
 20
6832.2195170000005
 30
0.0
  0
ENDBLK
  5
7BFA
  8
0
  0
BLOCK
  8
0
  2
*D16
 70
     1
 10
0.0
 20
0.0
 30
0.0
  3
*D16
  1

  0
LINE
  5
7DA3
  8
3
  6
CONTINUOUS
 62
     0
 10
3877.225727
 20
8548.0103159999999
 30
0.0
 11
4412.2878790000004
 21
8548.0103159999999
 31
0.0
  0
LINE
  5
7DA4
  8
3
  6
CONTINUOUS
 62
     0
 10
3877.225727
 20
7268.0103159999999
 30
0.0
 11
4412.2878790000004
 21
7268.0103159999999
 31
0.0
  0
LINE
  5
7DA5
  8
3
  6
CONTINUOUS
 62
     0
 10
4372.2878790000004
 20
8468.0103159999999
 30
0.0
 11
4372.2878790000004
 21
7348.010315999999
 31
0.0
  0
INSERT
  5
7DA6
  8
3
  6
CONTINUOUS
 62
     0
  2
_OPEN
 10
4372.2878790000004
 20
8548.0103159999999
 30
0.0
 41
80.0
 42
80.0
 43
80.0
 50
90.0
  0
INSERT
  5
7DA7
  8
3
  6
CONTINUOUS
 62
     0
  2
_OPEN
 10
4372.2878790000004
 20
7268.0103159999999
 30
0.0
 41
80.0
 42
80.0
 43
80.0
 50
270.0
  0
TEXT
  8
3
  40
120
  5
7DC5
  62
0
  72
0
  71
0
 10
4032.29
 20
7772.39
 30
0.000000
  1
1280
  0
POINT
  5
7DA9
  8
DEFPOINTS
  6
CONTINUOUS
 62
     0
 10
3857.2257270000009
 20
8548.0103159999999
 30
0.0
  0
POINT
  5
7DAA
  8
DEFPOINTS
  6
CONTINUOUS
 62
     0
 10
3857.2257270000009
 20
7268.0103159999999
 30
0.0
  0
POINT
  5
7DAB
  8
DEFPOINTS
  6
CONTINUOUS
 62
     0
 10
4372.2878790000004
 20
7268.0103159999999
 30
0.0
  0
ENDBLK
  5
7BD9
  8
0
  0
BLOCK
  8
0
  2
*D17
 70
     1
 10
0.0
 20
0.0
 30
0.0
  3
*D17
  1

  0
LINE
  5
7DAC
  8
3
 62
     0
 10
4004.481385
 20
4081.0892880000001
 30
0.0
 11
4004.481385
 21
5621.1743646852919
 31
0.0
  0
LINE
  5
7DAD
  8
3
 62
     0
 10
1307.225727
 20
3127.9367879999991
 30
0.0
 11
1307.225727
 21
5621.1743646852919
 31
0.0
  0
LINE
  5
7DAE
  8
3
 62
     0
 10
3924.4813849999991
 20
5581.1743646852919
 30
0.0
 11
1387.225727
 21
5581.1743646852919
 31
0.0
  0
INSERT
  5
7DAF
  8
3
 62
     0
  2
_OPEN
 10
4004.481385
 20
5581.1743646852919
 30
0.0
 41
80.0
 42
80.0
 43
80.0
  0
INSERT
  5
7DB0
  8
3
 62
     0
  2
_OPEN
 10
1307.225727
 20
5581.1743646852919
 30
0.0
 41
80.0
 42
80.0
 43
80.0
 50
180.0
  0
TEXT
  8
3
  40
120
  5
7DC6
  62
0
  72
0
  71
0
 10
2460.76
 20
5468.77
 30
0.000000
  1
2697
  0
POINT
  5
7DB2
  8
DEFPOINTS
 62
     0
 10
4004.481385
 20
4061.0892880000001
 30
0.0
  0
POINT
  5
7DB3
  8
DEFPOINTS
 62
     0
 10
1307.225727
 20
3107.9367879999991
 30
0.0
  0
POINT
  5
7DB4
  8
DEFPOINTS
 62
     0
 10
1307.225727
 20
5581.1743646852919
 30
0.0
  0
ENDBLK
  5
7C17
  8
0
  0
ENDSEC
  0
SECTION
  2
ENTITIES
  0
LINE
  5
7A69
  8
1
  6
CONTINUOUS
 10
5789.72397
 20
4892.936788
 30
0.0
 11
6839.72397
 21
4892.936788
 31
0.0
  0
LINE
  5
7A6A
  8
1
  6
CONTINUOUS
 10
6867.72397
 20
3107.9367879999991
 30
0.0
 11
5587.72397
 21
3107.9367879999991
 31
0.0
  0
LINE
  5
7A6B
  8
1
  6
CONTINUOUS
 10
6867.72397
 20
2957.9367879999991
 30
0.0
 11
5587.72397
 21
2957.9367879999991
 31
0.0
  0
LINE
  5
7A6C
  8
1
  6
CONTINUOUS
 10
5839.72397
 20
4842.936788
 30
0.0
 11
6789.72397
 21
4842.936788
 31
0.0
  0
CIRCLE
  5
7A6D
  8
1
  6
CONTINUOUS
 10
3107.225727
 20
4067.936788
 30
0.0
 40
675.0
  0
CIRCLE
  5
7A6E
  8
1
  6
CONTINUOUS
 10
3107.225727
 20
4067.936788
 30
0.0
 40
625.0
  0
LINE
  5
7A6F
  8
1
  6
CONTINUOUS
 10
3857.2257270000009
 20
3107.9367879999991
 30
0.0
 11
1307.225727
 21
3107.9367879999991
 31
0.0
  0
LINE
  5
7A70
  8
1
  6
CONTINUOUS
 10
3053.225727
 20
4842.936788
 30
0.0
 11
1773.225727
 21
4842.936788
 31
0.0
  0
LINE
  5
7A71
  8
1
  6
CONTINUOUS
 10
3857.2257270000009
 20
2957.9367879999991
 30
0.0
 11
1307.225727
 21
2957.9367879999991
 31
0.0
  0
POLYLINE
  5
7A72
  8
1
  6
CONTINUOUS
 66
     1
 10
0.0
 20
0.0
 30
0.0
  0
VERTEX
  5
7D18
  8
1
  6
CONTINUOUS
 10
1773.225727
 20
4892.936788
 30
0.0
  0
VERTEX
  5
7D19
  8
1
  6
CONTINUOUS
 10
1846.225727
 20
4067.936788
 30
0.0
 42
0.4
  0
VERTEX
  5
7D1A
  8
1
  6
CONTINUOUS
 10
3016.225727
 20
2985.436788
 30
0.0
 42
0.4
  0
VERTEX
  5
7D1B
  8
1
  6
CONTINUOUS
 10
4004.3257269999999
 20
4059.2367880000002
 30
0.0
 42
0.4
  0
VERTEX
  5
7D1C
  8
1
  6
CONTINUOUS
 10
3184.225727
 20
4813.936788
 30
0.0
  0
VERTEX
  5
7D1D
  8
1
  6
CONTINUOUS
 10
3053.225727
 20
4800.936788
 30
0.0
 42
0.4
  0
SEQEND
  5
7D1E
  8
1
  6
CONTINUOUS
  0
LINE
  5
7A7A
  8
1
  6
CONTINUOUS
 10
3103.225727
 20
4892.936788
 30
0.0
 11
1717.2257269999991
 21
4892.936788
 31
0.0
  0
LINE
  5
7A7B
  8
1
  6
CONTINUOUS
 10
1665.7257269999991
 20
3442.8367880000001
 30
0.0
 11
2953.225727
 21
4299.436788
 31
0.0
  0
LINE
  5
7A7C
  8
1
  6
CONTINUOUS
 10
1610.3257269999999
 20
3526.1367879999998
 30
0.0
 11
2897.8257269999999
 21
4382.6367880000007
 31
0.0
  0
LINE
  5
7A7D
  8
1
  6
CONTINUOUS
 10
1777.1257270000001
 20
3231.6367879999998
 30
0.0
 11
3211.225727
 21
3810.1367879999998
 31
0.0
  0
LINE
  5
7A7E
  8
1
  6
CONTINUOUS
 10
1814.5257269999991
 20
3138.936788
 30
0.0
 11
3248.6257270000001
 21
3717.3367880000001
 31
0.0
  0
LINE
  5
7A7F
  8
1
  6
CONTINUOUS
 10
1957.225727
 20
3162.936788
 30
0.0
 11
1507.2257269999991
 21
3162.936788
 31
0.0
  0
ARC
  5
7A80
  8
1
  6
CONTINUOUS
 10
1732.225727
 20
3342.936788
 30
0.0
 40
220.0
 50
123.59999999999989
 51
292.0
  0
LINE
  5
7A81
  8
1
  6
CONTINUOUS
 10
1507.2257269999991
 20
3107.9367879999991
 30
0.0
 11
1507.2257269999991
 21
3162.936788
 31
0.0
  0
LINE
  5
7A82
  8
1
  6
CONTINUOUS
 10
1307.225727
 20
3107.9367879999991
 30
0.0
 11
1307.225727
 21
2957.9367879999991
 31
0.0
  0
ARC
  5
7A83
  8
1
  6
CONTINUOUS
 10
1732.225727
 20
3342.936788
 30
0.0
 40
199.0
 50
320.10000000000002
 51
219.90000000000001
  0
LINE
  5
7A84
  8
2
  6
CENTER
 10
1612.225727
 20
3342.936788
 30
0.0
 11
1852.225727
 21
3342.936788
 31
0.0
  0
CIRCLE
  5
7A85
  8
1
  6
CONTINUOUS
 10
1732.225727
 20
3342.936788
 30
0.0
 40
120.0
  0
LINE
  5
7A86
  8
2
  6
CENTER
 10
1732.225727
 20
3222.936788
 30
0.0
 11
1732.225727
 21
3462.936788
 31
0.0
  0
LINE
  5
7A87
  8
1
  6
CONTINUOUS
 10
1570.225727
 20
3162.936788
 30
0.0
 11
1570.225727
 21
3205.436788
 31
0.0
  0
LINE
  5
7A88
  8
1
  6
CONTINUOUS
 10
1570.225727
 20
3162.936788
 30
0.0
 11
1630.225727
 21
3162.936788
 31
0.0
  0
LINE
  5
7A89
  8
1
  6
CONTINUOUS
 10
1570.225727
 20
3205.436788
 30
0.0
 11
1579.525727
 21
3215.3367880000001
 31
0.0
  0
LINE
  5
7A8A
  8
1
  6
CONTINUOUS
 10
1957.225727
 20
3107.9367879999991
 30
0.0
 11
1957.225727
 21
3162.936788
 31
0.0
  0
LINE
  5
7A8B
  8
1
  6
CONTINUOUS
 10
1894.225727
 20
3162.936788
 30
0.0
 11
1894.225727
 21
3205.436788
 31
0.0
  0
LINE
  5
7A8C
  8
1
  6
CONTINUOUS
 10
1894.225727
 20
3205.436788
 30
0.0
 11
1884.9257270000001
 21
3215.3367880000001
 31
0.0
  0
ARC
  5
7A8D
  8
1
  6
CONTINUOUS
 10
3107.225727
 20
4067.936788
 30
0.0
 40
378.0
 50
292.0
 51
123.59999999999989
  0
LINE
  5
7A8E
  8
2
  6
CENTER
 10
6936.778194999999
 20
4067.936788
 30
0.0
 11
5385.7378100000014
 21
4067.936788
 31
0.0
  0
CIRCLE
  5
7A8F
  8
1
  6
CONTINUOUS
 10
3107.225727
 20
4067.936788
 30
0.0
 40
278.0
  0
LINE
  5
7A90
  8
2
  6
CENTER
 10
3107.225727
 20
2855.1200239999998
 30
0.0
 11
3107.225727
 21
5037.0637530000004
 31
0.0
  0
LINE
  5
7A91
  8
1
  6
CONTINUOUS
 10
3857.2257270000009
 20
3107.9367879999991
 30
0.0
 11
3857.2257270000009
 21
2957.9367879999991
 31
0.0
  0
LINE
  5
7A92
  8
1
  6
CONTINUOUS
 10
3053.225727
 20
4800.936788
 30
0.0
 11
3053.225727
 21
4892.936788
 31
0.0
  0
LINE
  5
7A93
  8
1
  6
CONTINUOUS
 10
5714.72397
 20
3122.936788
 30
0.0
 11
5714.72397
 21
4445.936788
 31
0.0
  0
LINE
  5
7A94
  8
1
  6
CONTINUOUS
 10
5474.72397
 20
3122.936788
 30
0.0
 11
5474.72397
 21
4445.936788
 31
0.0
  0
LINE
  5
7A95
  8
1
  6
CONTINUOUS
 10
5839.72397
 20
3107.9367879999991
 30
0.0
 11
5839.72397
 21
4892.936788
 31
0.0
  0
LINE
  5
7A96
  8
1
  6
CONTINUOUS
 10
5474.72397
 20
3122.936788
 30
0.0
 11
5714.72397
 21
3122.936788
 31
0.0
  0
LINE
  5
7A97
  8
1
  6
CONTINUOUS
 10
5544.72397
 20
3462.936788
 30
0.0
 11
5644.7239700000009
 21
3462.936788
 31
0.0
  0
LINE
  5
7A98
  8
1
  6
CONTINUOUS
 10
5544.72397
 20
3222.936788
 30
0.0
 11
5644.7239700000009
 21
3222.936788
 31
0.0
  0
LINE
  5
7A99
  8
1
  6
CONTINUOUS
 10
5544.72397
 20
3222.936788
 30
0.0
 11
5544.72397
 21
3462.936788
 31
0.0
  0
LINE
  5
7A9A
  8
1
  6
CONTINUOUS
 10
5644.7239700000009
 20
3222.936788
 30
0.0
 11
5644.7239700000009
 21
3462.936788
 31
0.0
  0
LINE
  5
7A9B
  8
1
  6
CONTINUOUS
 10
5644.7239700000009
 20
3370.4367880000009
 30
0.0
 11
5839.72397
 21
3370.4367880000009
 31
0.0
  0
LINE
  5
7A9C
  8
1
  6
CONTINUOUS
 10
5644.7239700000009
 20
3315.436788
 30
0.0
 11
5839.72397
 21
3315.436788
 31
0.0
  0
LINE
  5
7A9D
  8
1
  6
CONTINUOUS
 10
5587.72397
 20
2957.9367879999991
 30
0.0
 11
5587.72397
 21
3107.9367879999991
 31
0.0
  0
LINE
  5
7A9E
  8
1
  6
CONTINUOUS
 10
5544.72397
 20
3789.936788
 30
0.0
 11
5644.7239700000009
 21
3789.936788
 31
0.0
  0
LINE
  5
7A9F
  8
1
  6
CONTINUOUS
 10
5544.72397
 20
4345.936788
 30
0.0
 11
5644.7239700000009
 21
4345.936788
 31
0.0
  0
LINE
  5
7AA0
  8
1
  6
CONTINUOUS
 10
5544.72397
 20
3789.936788
 30
0.0
 11
5544.72397
 21
4345.936788
 31
0.0
  0
LINE
  5
7AA1
  8
1
  6
CONTINUOUS
 10
5644.7239700000009
 20
3789.936788
 30
0.0
 11
5644.7239700000009
 21
4345.936788
 31
0.0
  0
LINE
  5
7AA2
  8
1
  6
CONTINUOUS
 10
5644.7239700000009
 20
4040.436788
 30
0.0
 11
5839.72397
 21
4040.436788
 31
0.0
  0
LINE
  5
7AA3
  8
1
  6
CONTINUOUS
 10
5644.7239700000009
 20
4095.436788
 30
0.0
 11
5839.72397
 21
4095.436788
 31
0.0
  0
LINE
  5
7AA4
  8
1
  6
CONTINUOUS
 10
5474.72397
 20
4445.936788
 30
0.0
 11
5714.72397
 21
4445.936788
 31
0.0
  0
LINE
  5
7AA5
  8
1
  6
CONTINUOUS
 10
6892.72397
 20
3392.936788
 30
0.0
 11
6892.72397
 21
4742.936788
 31
0.0
  0
LINE
  5
7AA6
  8
1
  6
CONTINUOUS
 10
6789.72397
 20
3107.9367879999991
 30
0.0
 11
6789.72397
 21
4892.936788
 31
0.0
  0
LINE
  5
7AA7
  8
1
  6
CONTINUOUS
 10
6789.72397
 20
3442.936788
 30
0.0
 11
6892.72397
 21
3442.936788
 31
0.0
  0
LINE
  5
7AA8
  8
1
  6
CONTINUOUS
 10
6867.72397
 20
2957.9367879999991
 30
0.0
 11
6867.72397
 21
3107.9367879999991
 31
0.0
  0
LINE
  5
7AA9
  8
1
  6
CONTINUOUS
 10
6789.72397
 20
4692.9367879999991
 30
0.0
 11
6892.72397
 21
4692.9367879999991
 31
0.0
  0
LINE
  5
7AAA
  8
1
  6
CONTINUOUS
 10
3485.225727
 20
7395.0103159999999
 30
0.0
 11
1412.225727
 21
7395.0103159999999
 31
0.0
  0
LINE
  5
7AAB
  8
1
  6
CONTINUOUS
 10
3485.225727
 20
7155.0103160000008
 30
0.0
 11
1412.225727
 21
7155.0103160000008
 31
0.0
  0
LINE
  5
7AAC
  8
1
  6
CONTINUOUS
 10
3782.2257270000009
 20
8573.0103159999999
 30
0.0
 11
2432.225727
 21
8573.0103159999999
 31
0.0
  0
LINE
  5
7AAD
  8
1
  6
CONTINUOUS
 10
4007.725727
 20
7520.0103159999999
 30
0.0
 11
1773.225727
 21
7520.0103159999999
 31
0.0
  0
LINE
  5
7AAE
  8
1
  6
CONTINUOUS
 10
4007.725727
 20
8470.0103159999999
 30
0.0
 11
1773.225727
 21
8470.0103159999999
 31
0.0
  0
LINE
  5
7AAF
  8
1
  6
CONTINUOUS
 10
1773.225727
 20
8470.0103159999999
 30
0.0
 11
3053.225727
 21
7520.0103159999999
 31
0.0
  0
LINE
  5
7AB0
  8
1
  6
CONTINUOUS
 10
3053.225727
 20
8470.0103159999999
 30
0.0
 11
1773.225727
 21
7520.0103159999999
 31
0.0
  0
LINE
  5
7AB1
  8
1
  6
CONTINUOUS
 10
1852.225727
 20
7268.0103159999999
 30
0.0
 11
2829.225727
 21
7268.0103159999999
 31
0.0
  0
LINE
  5
7AB2
  8
1
  6
CONTINUOUS
 10
1307.225727
 20
7268.0103159999999
 30
0.0
 11
1612.225727
 21
7268.0103159999999
 31
0.0
  0
LINE
  5
7AB3
  8
1
  6
CONTINUOUS
 10
2482.225727
 20
8548.0103159999999
 30
0.0
 11
1307.225727
 21
8548.0103159999999
 31
0.0
  0
LINE
  5
7AB4
  8
1
  6
CONTINUOUS
 10
1307.225727
 20
8548.0103159999999
 30
0.0
 11
1307.225727
 21
7268.0103159999999
 31
0.0
  0
LINE
  5
7AB5
  8
1
  6
CONTINUOUS
 10
1412.225727
 20
7155.0103160000008
 30
0.0
 11
1412.225727
 21
7395.0103159999999
 31
0.0
  0
LINE
  5
7AB6
  8
1
  6
CONTINUOUS
 10
2482.225727
 20
8470.0103159999999
 30
0.0
 11
2482.225727
 21
8573.0103159999999
 31
0.0
  0
LINE
  5
7AB7
  8
1
  6
CONTINUOUS
 10
1533.125726999999
 20
7439.5103159999999
 30
0.0
 11
1533.125726999999
 21
8039.0103159999999
 31
0.0
  0
LINE
  5
7AB8
  8
1
  6
CONTINUOUS
 10
1773.225727
 20
7520.0103159999999
 30
0.0
 11
1773.225727
 21
8470.0103159999999
 31
0.0
  0
LINE
  5
7AB9
  8
1
  6
CONTINUOUS
 10
1612.225727
 20
7225.010315999999
 30
0.0
 11
1852.225727
 21
7225.010315999999
 31
0.0
  0
LINE
  5
7ABA
  8
1
  6
CONTINUOUS
 10
1612.225727
 20
7325.0103159999999
 30
0.0
 11
1852.225727
 21
7325.0103159999999
 31
0.0
  0
LINE
  5
7ABB
  8
1
  6
CONTINUOUS
 10
1533.125726999999
 20
7439.5103159999999
 30
0.0
 11
1931.3257269999999
 21
7439.5103159999999
 31
0.0
  0
LINE
  5
7ABC
  8
1
  6
CONTINUOUS
 10
1612.225727
 20
7225.010315999999
 30
0.0
 11
1612.225727
 21
7325.0103159999999
 31
0.0
  0
LINE
  5
7ABD
  8
1
  6
CONTINUOUS
 10
1704.725727
 20
7325.0103159999999
 30
0.0
 11
1704.725727
 21
7439.5103159999999
 31
0.0
  0
LINE
  5
7ABE
  8
1
  6
CONTINUOUS
 10
1759.725727
 20
7325.0103159999999
 30
0.0
 11
1759.725727
 21
7439.5103159999999
 31
0.0
  0
LINE
  5
7ABF
  8
1
  6
CONTINUOUS
 10
1852.225727
 20
7225.010315999999
 30
0.0
 11
1852.225727
 21
7325.0103159999999
 31
0.0
  0
LINE
  5
7AC0
  8
1
  6
CONTINUOUS
 10
1931.3257269999999
 20
7439.5103159999999
 30
0.0
 11
1931.3257269999999
 21
7520.0103159999999
 31
0.0
  0
LINE
  5
7AC1
  8
1
  6
CONTINUOUS
 10
1533.125726999999
 20
8039.0103159999999
 30
0.0
 11
1773.225727
 21
8039.0103159999999
 31
0.0
  0
LINE
  5
7AC2
  8
1
  6
CONTINUOUS
 10
3732.2257270000009
 20
8470.0103159999999
 30
0.0
 11
3732.2257270000009
 21
8573.0103159999999
 31
0.0
  0
LINE
  5
7AC3
  8
1
  6
CONTINUOUS
 10
3857.2257270000009
 20
8470.0103159999999
 30
0.0
 11
3857.2257270000009
 21
8548.0103159999999
 31
0.0
  0
LINE
  5
7AC4
  8
1
  6
CONTINUOUS
 10
2829.225727
 20
7225.010315999999
 30
0.0
 11
3385.225727
 21
7225.010315999999
 31
0.0
  0
LINE
  5
7AC5
  8
1
  6
CONTINUOUS
 10
2829.225727
 20
7325.0103159999999
 30
0.0
 11
3385.225727
 21
7325.0103159999999
 31
0.0
  0
LINE
  5
7AC6
  8
1
  6
CONTINUOUS
 10
3053.225727
 20
7520.0103159999999
 30
0.0
 11
3053.225727
 21
8470.0103159999999
 31
0.0
  0
LINE
  5
7AC7
  8
1
  6
CONTINUOUS
 10
2829.225727
 20
7225.010315999999
 30
0.0
 11
2829.225727
 21
7325.0103159999999
 31
0.0
  0
LINE
  5
7AC8
  8
1
  6
CONTINUOUS
 10
3134.725727
 20
7325.0103159999999
 30
0.0
 11
3134.725727
 21
7520.0103159999999
 31
0.0
  0
LINE
  5
7AC9
  8
1
  6
CONTINUOUS
 10
3079.725727
 20
7325.0103159999999
 30
0.0
 11
3079.725727
 21
7520.0103159999999
 31
0.0
  0
LINE
  5
7ACA
  8
1
  6
CONTINUOUS
 10
3385.225727
 20
7268.0103159999999
 30
0.0
 11
3857.2257270000009
 21
7268.0103159999999
 31
0.0
  0
LINE
  5
7ACB
  8
1
  6
CONTINUOUS
 10
3485.225727
 20
7155.0103160000008
 30
0.0
 11
3485.225727
 21
7395.0103159999999
 31
0.0
  0
LINE
  5
7ACC
  8
1
  6
CONTINUOUS
 10
3385.225727
 20
7225.010315999999
 30
0.0
 11
3385.225727
 21
7325.0103159999999
 31
0.0
  0
LINE
  5
7ACD
  8
1
  6
CONTINUOUS
 10
3857.2257270000009
 20
7268.0103159999999
 30
0.0
 11
3857.2257270000009
 21
7520.0103159999999
 31
0.0
  0
LINE
  5
7ACE
  8
1
  6
CONTINUOUS
 10
3857.2257270000009
 20
8548.0103159999999
 30
0.0
 11
3732.2257270000009
 21
8548.0103159999999
 31
0.0
  0
LINE
  5
7ACF
  8
1
  6
CONTINUOUS
 10
4007.725727
 20
7520.0103159999999
 30
0.0
 11
4007.725727
 21
8470.0103159999999
 31
0.0
  0
LINE
  5
7AD0
  8
2
  6
CENTER
 10
1305.5365489999999
 20
7995.0103159999999
 30
0.0
 11
4177.8352490000007
 21
7995.0103159999999
 31
0.0
  0
LINE
  5
7AD1
  8
2
  6
CENTER
 10
6314.72397
 20
5241.1558390000009
 30
0.0
 11
6314.72397
 21
5224.9154530000014
 31
0.0
  0
LINE
  5
7AD2
  8
2
  6
CENTER
 10
3107.225727
 20
6997.8440920000012
 30
0.0
 11
3107.225727
 21
8736.6032489999998
 31
0.0
  0
LINE
  5
7AD3
  8
2
  6
CENTER
 10
4177.8352490000007
 20
4067.936788
 30
0.0
 11
1633.606086
 21
4067.936788
 31
0.0
  0
LINE
  5
7AD4
  8
4
  6
CONTINUOUS
 10
7400.0
 20
2000.0
 30
0.0
 11
7400.0
 21
1200.0
 31
0.0
  0
LINE
  5
7AD5
  8
4
  6
CONTINUOUS
 10
4600.0
 20
2000.0
 30
0.0
 11
4600.0
 21
1200.0
 31
0.0
  0
LINE
  5
7AD6
  8
4
  6
CONTINUOUS
 10
2600.0
 20
2000.0
 30
0.0
 11
2600.0
 21
1200.0
 31
0.0
  0
LINE
  5
7AD9
  8
4
  6
CONTINUOUS
 10
2600.0
 20
1200.0
 30
0.0
 11
7400.0
 21
1200.0
 31
0.0
  0
LINE
  5
7ADA
  8
4
  6
CONTINUOUS
 10
2600.0
 20
1600.0
 30
0.0
 11
7400.0
 21
1600.0
 31
0.0
  0
TEXT
  5
7ADB
  8
4
  6
CONTINUOUS
 10
2754.008323
 20
1726.1721030000001
 30
0.0
 40
200.0
  1
機器名称
  0
TEXT
  5
7ADC
  8
4
  6
CONTINUOUS
 10
2745.032424
 20
1286.580627
 30
0.0
 40
200.0
  1
機器型番
  0
TEXT
  5
7ADD
  8
4
  6
CONTINUOUS
 10
4710.7149820000004
 20
1690.2870760000001
 30
0.0
 40
200.0
  1
ミツヤ多翼送風機
  0
TEXT
  5
7ADE
  8
4
  6
CONTINUOUS
 10
4746.6179819999998
 20
1268.6383370000001
 30
0.0
 40
200.0
  1
MFE#8-4
  0
TEXT
  5
7AE0
  8
4
  6
CONTINUOUS
 10
3619.1430620000001
 20
9533.715365
 30
0.0
 40
216.0
  1
床置ベット
  0
TEXT
  5
7AE1
  8
4
  6
CONTINUOUS
 10
1264.6703729999999
 20
10135.523905
 30
0.0
 40
288.0
  1
ベルト駆動式片吸込両持排煙ファン
  0
LINE
  5
7AE2
  8
4
  6
CONTINUOUS
 10
1000.0
 20
9877.6350170000005
 30
0.0
 11
7400.0
 21
9877.6350170000005
 31
0.0
  0
LINE
  5
7AE3
  8
4
  6
CONTINUOUS
 10
1000.0
 20
10677.635017000001
 30
0.0
 11
7400.0
 21
10677.635017000001
 31
0.0
  0
LINE
  5
7AE4
  8
4
  6
CONTINUOUS
 10
2600.0
 20
2000.0
 30
0.0
 11
7400.0
 21
2000.0
 31
0.0
  0
LINE
  5
7AE5
  8
4
  6
CONTINUOUS
 10
1000.0
 20
10677.635017000001
 30
0.0
 11
1000.0
 21
9877.6350170000005
 31
0.0
  0
TEXT
  5
7AE6
  8
4
  6
CONTINUOUS
 10
1875.7077329999991
 20
9529.2779099999989
 30
0.0
 40
216.0
  1
右回転上向
  0
TEXT
  5
7AE7
  8
4
  6
CONTINUOUS
 10
5875.8782369999999
 20
10824.244326
 30
0.0
 40
224.0
  1
No.
  0
TEXT
  5
7AE8
  8
4
  6
CONTINUOUS
 10
5245.1842500000012
 20
9533.715365
 30
0.0
 40
216.0
  1
縮尺：1/40
  0
LINE
  5
7AE9
  8
4
  6
CONTINUOUS
 10
7400.0
 20
10677.635017000001
 30
0.0
 11
7400.0
 21
9877.6350170000005
 31
0.0
  0
LINE
  5
7AEB
  8
4
  6
CONTINUOUS
 10
5762.4696889999996
 20
10725.054333
 30
0.0
 11
5762.4696889999996
 21
11146.609046
 31
0.0
  0
LINE
  5
7AEC
  8
4
  6
CONTINUOUS
 10
5762.4696889999996
 20
11146.609046
 30
0.0
 11
7400.0
 21
11146.609046
 31
0.0
  0
LINE
  5
7AED
  8
4
  6
CONTINUOUS
 10
7400.0
 20
11146.609046
 30
0.0
 11
7400.0
 21
10725.054333
 31
0.0
  0
LINE
  5
7AEE
  8
4
  6
CONTINUOUS
 10
7400.0
 20
10725.054333
 30
0.0
 11
5762.4696889999996
 21
10725.054333
 31
0.0
  0
DIMENSION
  5
7B06
  8
3
  6
CONTINUOUS
  2
*D1
 10
3053.225727
 20
5062.2886930000013
 30
0.0
 11
2403.507306
 21
5062.2886930000013
 31
0.0
 70
   128
 13
1773.225727
 23
4892.936788
 33
0.0
 14
3053.225727
 24
4892.936788
 34
0.0
1001
ACAD
1000
DSTYLE
1002
{
1070
   287
1070
     3
1070
   287
1070
     3
1070
    40
1040
40.0
1070
   143
1040
0.039
1070
   172
1070
     1
1070
   271
1070
     0
1070
   279
1070
     0
1070
   288
1070
     1
1002
}
  0
DIMENSION
  5
7B13
  8
3
  6
CONTINUOUS
  2
*D2
 10
3107.225727
 20
5333.9654559999999
 30
0.0
 11
2378.794621
 21
5333.9654559999999
 31
0.0
 70
   128
 13
1773.225727
 23
4892.936788
 33
0.0
 14
3107.225727
 24
5037.0637530000004
 34
0.0
1001
ACAD
1000
DSTYLE
1002
{
1070
   287
1070
     3
1070
   287
1070
     3
1070
    40
1040
40.0
1070
   143
1040
0.039
1070
   172
1070
     1
1070
   271
1070
     0
1070
   279
1070
     0
1070
   288
1070
     1
1002
}
  0
DIMENSION
  5
7B1F
  8
3
  6
CONTINUOUS
  2
*D3
 10
4004.481385
 20
5333.9654559999999
 30
0.0
 11
3555.853556
 21
5433.9654559999999
 31
0.0
 70
     0
 13
3107.225727
 23
5037.0637530000004
 33
0.0
 14
4004.481385
 24
4041.0892880000001
 34
0.0
1001
ACAD
1000
DSTYLE
1002
{
1070
   287
1070
     4
1070
   287
1070
     4
1070
    40
1040
40.0
1070
    75
1070
     1
1070
   143
1040
0.039
1070
   172
1070
     1
1070
   271
1070
     0
1070
   279
1070
     1
1070
   288
1070
     1
1002
}
  0
DIMENSION
  5
7B2C
  8
3
  6
CONTINUOUS
  2
*D4
 10
3107.225727
 20
2650.1282259999998
 30
0.0
 11
2296.4188509999999
 21
2650.1282259999998
 31
0.0
 70
   128
 13
1307.225727
 23
2957.9367879999991
 33
0.0
 14
3107.225727
 24
2855.1200239999998
 34
0.0
1001
ACAD
1000
DSTYLE
1002
{
1070
   287
1070
     3
1070
   287
1070
     3
1070
    40
1040
40.0
1070
   143
1040
0.039
1070
   172
1070
     1
1070
   271
1070
     0
1070
   279
1070
     0
1070
   288
1070
     1
1002
}
  0
DIMENSION
  5
7B38
  8
3
  6
CONTINUOUS
  2
*D5
 10
3857.2257270000009
 20
2650.1282259999998
 30
0.0
 11
3482.225727
 21
2750.1282259999998
 31
0.0
 70
     0
 13
3107.225727
 23
2855.1200239999998
 33
0.0
 14
3857.2257270000009
 24
2957.9367879999991
 34
0.0
1001
ACAD
1000
DSTYLE
1002
{
1070
   287
1070
     4
1070
   287
1070
     4
1070
    40
1040
40.0
1070
    75
1070
     1
1070
   143
1040
0.039
1070
   172
1070
     1
1070
   271
1070
     0
1070
   279
1070
     1
1070
   288
1070
     1
1002
}
  0
DIMENSION
  5
7B45
  8
3
  6
CONTINUOUS
  2
*D6
 10
4322.8624179999997
 20
4067.936788
 30
0.0
 11
4322.8624179999988
 21
4469.53935
 31
0.0
 70
   128
 13
3103.225727
 23
4892.936788
 33
0.0
 14
4177.8352490000007
 24
4067.936788
 34
0.0
 50
90.0
1001
ACAD
1000
DSTYLE
1002
{
1070
   287
1070
     3
1070
   287
1070
     3
1070
    40
1040
40.0
1070
   143
1040
0.039
1070
   172
1070
     1
1070
   271
1070
     0
1070
   279
1070
     0
1070
   288
1070
     1
1002
}
  0
DIMENSION
  5
7B51
  8
3
  6
CONTINUOUS
  2
*D7
 10
4322.8624179999988
 20
2957.9367879999991
 30
0.0
 11
4222.8624179999988
 21
3512.936788
 31
0.0
 70
     0
 13
4177.8352490000007
 23
4067.936788
 33
0.0
 14
3857.2257270000009
 24
2957.9367879999991
 34
0.0
 50
90.0
1001
ACAD
1000
DSTYLE
1002
{
1070
   287
1070
     4
1070
   287
1070
     4
1070
    40
1040
40.0
1070
    75
1070
     1
1070
   143
1040
0.039
1070
   172
1070
     1
1070
   271
1070
     0
1070
   279
1070
     1
1070
   288
1070
     1
1002
}
  0
DIMENSION
  5
7B5E
  8
3
  6
CONTINUOUS
  2
*D8
 10
4594.7024120000005
 20
2957.9367879999991
 30
0.0
 11
4594.7024119999987
 21
3802.6963580000001
 31
0.0
 70
   128
 13
3123.225727
 23
4892.936788
 33
0.0
 14
3857.2257270000009
 24
2957.9367879999991
 34
0.0
 50
90.0
1001
ACAD
1000
DSTYLE
1002
{
1070
   287
1070
     3
1070
   287
1070
     3
1070
    40
1040
40.0
1070
   143
1040
0.039
1070
   172
1070
     1
1070
   271
1070
     0
1070
   279
1070
     0
1070
   288
1070
     1
1002
}
  0
DIMENSION
  5
7B6B
  8
3
  6
CONTINUOUS
  2
*D9
 10
6789.72397
 20
5029.3581690000001
 30
0.0
 11
6318.9600140000002
 21
5029.3581690000001
 31
0.0
 70
   128
 13
5839.72397
 23
4892.936788
 33
0.0
 14
6789.72397
 24
4892.936788
 34
0.0
1001
ACAD
1000
DSTYLE
1002
{
1070
   287
1070
     3
1070
   287
1070
     3
1070
    40
1040
40.0
1070
   143
1040
0.039
1070
   172
1070
     1
1070
   271
1070
     0
1070
   279
1070
     0
1070
   288
1070
     1
1002
}
  0
DIMENSION
  5
7B78
  8
3
  6
CONTINUOUS
  2
*D10
 10
7200.3806120000017
 20
3442.936788
 30
0.0
 11
7200.3806119999999
 21
4049.6752579999988
 31
0.0
 70
   128
 13
6892.72397
 23
4692.9367879999991
 33
0.0
 14
6892.72397
 24
3442.936788
 34
0.0
 50
90.0
1001
ACAD
1000
DSTYLE
1002
{
1070
   287
1070
     3
1070
   287
1070
     3
1070
     3
1000
φ<>
1070
    40
1040
40.0
1070
   143
1040
0.039
1070
   172
1070
     1
1070
   271
1070
     0
1070
   279
1070
     0
1070
   288
1070
     1
1002
}
  0
DIMENSION
  5
7B85
  8
3
  6
CONTINUOUS
  2
*D11
 10
6314.72397
 20
5317.5001940000002
 30
0.0
 11
6618.4382560000013
 21
5317.5001940000002
 31
0.0
 70
   128
 13
6892.72397
 23
4742.936788
 33
0.0
 14
6314.72397
 24
5241.1558390000009
 34
0.0
1001
ACAD
1000
DSTYLE
1002
{
1070
   287
1070
     3
1070
   287
1070
     3
1070
    40
1040
40.0
1070
   143
1040
0.039
1070
   172
1070
     1
1070
   271
1070
     0
1070
   279
1070
     0
1070
   288
1070
     1
1002
}
  0
DIMENSION
  5
7B91
  8
3
  6
CONTINUOUS
  2
*D12
 10
5474.72397
 20
5317.5001940000002
 30
0.0
 11
5894.7239700000009
 21
5517.5001940000002
 31
0.0
 70
     0
  1
MAX\P890
 13
6314.72397
 23
5241.1558390000009
 33
0.0
 14
5474.72397
 24
4445.936788
 34
0.0
1001
ACAD
1000
DSTYLE
1002
{
1070
   287
1070
     4
1070
   287
1070
     4
1070
    40
1040
40.0
1070
    75
1070
     1
1070
   143
1040
0.039
1070
   172
1070
     1
1070
   271
1070
     0
1070
   279
1070
     1
1070
   288
1070
     1
1002
}
  0
DIMENSION
  5
7B9E
  8
3
  6
CONTINUOUS
  2
*D13
 10
6314.72397
 20
2650.1282259999998
 30
0.0
 11
5964.7442510000001
 21
2650.1282259999998
 31
0.0
 70
   128
 13
5587.72397
 23
2957.9367879999991
 33
0.0
 14
6314.72397
 24
2830.896201999999
 34
0.0
1001
ACAD
1000
DSTYLE
1002
{
1070
   287
1070
     3
1070
   287
1070
     3
1070
    40
1040
40.0
1070
   143
1040
0.039
1070
   172
1070
     1
1070
   271
1070
     0
1070
   279
1070
     0
1070
   288
1070
     1
1002
}
  0
DIMENSION
  5
7BAA
  8
3
  6
CONTINUOUS
  2
*D14
 10
6867.72397
 20
2650.1282259999998
 30
0.0
 11
6591.22397
 21
2750.1282259999998
 31
0.0
 70
     0
 13
6314.72397
 23
2830.896201999999
 33
0.0
 14
6867.72397
 24
2957.9367879999991
 34
0.0
1001
ACAD
1000
DSTYLE
1002
{
1070
   287
1070
     4
1070
   287
1070
     4
1070
    40
1040
40.0
1070
    75
1070
     1
1070
   143
1040
0.039
1070
   172
1070
     1
1070
   271
1070
     0
1070
   279
1070
     1
1070
   288
1070
     1
1002
}
  0
LINE
  5
7BC0
  8
2
  6
CENTER
 10
6314.72397
 20
5042.5907180000004
 30
0.0
 11
6314.72397
 21
2830.896201999999
 31
0.0
  0
DIMENSION
  5
7BCD
  8
3
  6
CONTINUOUS
  2
*D15
 10
3857.2257270000009
 20
6832.2195170000005
 30
0.0
 11
2560.0212679999991
 21
6832.2195170000005
 31
0.0
 70
   128
 13
1307.225727
 23
7268.0103159999999
 33
0.0
 14
3857.2257270000009
 24
7268.0103159999999
 34
0.0
1001
ACAD
1000
DSTYLE
1002
{
1070
   287
1070
     3
1070
   287
1070
     3
1070
    40
1040
40.0
1070
   143
1040
0.039
1070
   172
1070
     1
1070
   271
1070
     0
1070
   279
1070
     0
1070
   288
1070
     1
1002
}
  0
DIMENSION
  5
7BDA
  8
3
  6
CONTINUOUS
  2
*D16
 10
4372.2878790000004
 20
7268.0103159999999
 30
0.0
 11
4372.2878789999986
 21
7984.7876480000014
 31
0.0
 70
   128
 13
3857.2257270000009
 23
8548.0103159999999
 33
0.0
 14
3857.2257270000009
 24
7268.0103159999999
 34
0.0
 50
90.0
1001
ACAD
1000
DSTYLE
1002
{
1070
   287
1070
     3
1070
   287
1070
     3
1070
    40
1040
40.0
1070
   143
1040
0.039
1070
   172
1070
     1
1070
   271
1070
     0
1070
   279
1070
     0
1070
   288
1070
     1
1002
}
  0
DIMENSION
  5
7C18
  8
3
  2
*D17
 10
1307.225727
 20
5581.1743646852919
 30
0.0
 11
2700.7616722491939
 21
5581.1743646852919
 31
0.0
 70
   128
 13
4004.481385
 23
4061.0892880000001
 33
0.0
 14
1307.225727
 24
3107.9367879999991
 34
0.0
1001
ACAD
1000
DSTYLE
1002
{
1070
   287
1070
     3
1070
   287
1070
     3
1070
    40
1040
40.0
1070
   143
1040
0.039
1070
   172
1070
     1
1070
   271
1070
     0
1070
   279
1070
     0
1070
   288
1070
     1
1002
}
  0
ENDSEC
  0
EOF
