  0
SECTION
  2
HEADER
  9
$ACADVER
  1
AC1009
  9
$INSBASE
 10
0.0
 20
0.0
 30
0.0
  9
$EXTMIN
 10
1000.0
 20
1200.0
 30
0.0
  9
$EXTMAX
 10
7400.0
 20
11146.609046
 30
0.0
  9
$LIMMIN
 10
0.0
 20
0.0
  9
$LIMMAX
 10
297.0
 20
210.0
  9
$ORTHOMODE
 70
     0
  9
$REGENMODE
 70
     1
  9
$FILLMODE
 70
     0
  9
$QTEXTMODE
 70
     0
  9
$MIRRTEXT
 70
     1
  9
$DRAGMODE
 70
     2
  9
$LTSCALE
 40
100.0
  9
$OSMODE
 70
    37
  9
$ATTMODE
 70
     1
  9
$TEXTSIZE
 40
180.0
  9
$TRACEWID
 40
0.05
  9
$TEXTSTYLE
  7
STANDARD
  9
$CLAYER
  8
3
  9
$CELTYPE
  6
BYLAYER
  9
$CECOLOR
 62
   256
  9
$DIMSCALE
 40
40.0
  9
$DIMASZ
 40
2.0
  9
$DIMEXO
 40
0.5
  9
$DIMDLI
 40
10.0
  9
$DIMRND
 40
0.0
  9
$DIMDLE
 40
0.0
  9
$DIMEXE
 40
1.0
  9
$DIMTP
 40
1.0
  9
$DIMTM
 40
1.0
  9
$DIMTXT
 40
3.0
  9
$DIMCEN
 40
0.0
  9
$DIMTSZ
 40
0.0
  9
$DIMTOL
 70
     0
  9
$DIMLIM
 70
     0
  9
$DIMTIH
 70
     0
  9
$DIMTOH
 70
     0
  9
$DIMSE1
 70
     0
  9
$DIMSE2
 70
     0
  9
$DIMTAD
 70
     1
  9
$DIMZIN
 70
     8
  9
$DIMBLK
  1

  9
$DIMASO
 70
     1
  9
$DIMSHO
 70
     1
  9
$DIMPOST
  1

  9
$DIMAPOST
  1

  9
$DIMALT
 70
     0
  9
$DIMALTD
 70
     2
  9
$DIMALTF
 40
0.039
  9
$DIMLFAC
 40
1.0
  9
$DIMTOFL
 70
     1
  9
$DIMTVP
 40
0.0
  9
$DIMTIX
 70
     0
  9
$DIMSOXD
 70
     0
  9
$DIMSAH
 70
     1
  9
$DIMBLK1
  1
OPEN
  9
$DIMBLK2
  1
OPEN
  9
$DIMSTYLE
  2
IGA
  9
$DIMCLRD
 70
     0
  9
$DIMCLRE
 70
     0
  9
$DIMCLRT
 70
     0
  9
$DIMTFAC
 40
10.0
  9
$DIMGAP
 40
1.0
  9
$LUNITS
 70
     2
  9
$LUPREC
 70
     3
  9
$SKETCHINC
 40
0.1
  9
$FILLETRAD
 40
50.0
  9
$AUNITS
 70
     0
  9
$AUPREC
 70
     0
  9
$MENU
  1
acad
  9
$ELEVATION
 40
0.0
  9
$PELEVATION
 40
0.0
  9
$THICKNESS
 40
0.0
  9
$LIMCHECK
 70
     0
  9
$BLIPMODE
 70
     0
  9
$CHAMFERA
 40
0.5
  9
$CHAMFERB
 40
0.5
  9
$SKPOLY
 70
     0
  9
$TDCREATE
 40
2450757.4572622678
  9
$TDUPDATE
 40
2454953.8444786342
  9
$TDINDWG
 40
0.0054198495
  9
$TDUSRTIMER
 40
0.0054198495
  9
$USRTIMER
 70
     1
  9
$ANGBASE
 50
0.0
  9
$ANGDIR
 70
     0
  9
$PDMODE
 70
     0
  9
$PDSIZE
 40
0.0
  9
$PLINEWID
 40
0.0
  9
$COORDS
 70
     1
  9
$SPLFRAME
 70
     0
  9
$SPLINETYPE
 70
     6
  9
$SPLINESEGS
 70
     8
  9
$ATTDIA
 70
     0
  9
$ATTREQ
 70
     1
  9
$HANDLING
 70
 10241
  9
$HANDSEED
  5
7DE0
  9
$SURFTAB1
 70
     6
  9
$SURFTAB2
 70
     6
  9
$SURFTYPE
 70
     6
  9
$SURFU
 70
     6
  9
$SURFV
 70
     6
  9
$UCSNAME
  2

  9
$UCSORG
 10
0.0
 20
0.0
 30
0.0
  9
$UCSXDIR
 10
1.0
 20
0.0
 30
0.0
  9
$UCSYDIR
 10
0.0
 20
1.0
 30
0.0
  9
$PUCSNAME
  2

  9
$PUCSORG
 10
0.0
 20
0.0
 30
0.0
  9
$PUCSXDIR
 10
1.0
 20
0.0
 30
0.0
  9
$PUCSYDIR
 10
0.0
 20
1.0
 30
0.0
  9
$USERI1
 70
     0
  9
$USERI2
 70
     0
  9
$USERI3
 70
     0
  9
$USERI4
 70
     0
  9
$USERI5
 70
     0
  9
$USERR1
 40
0.0
  9
$USERR2
 40
0.0
  9
$USERR3
 40
0.0
  9
$USERR4
 40
0.0
  9
$USERR5
 40
0.0
  9
$WORLDVIEW
 70
     1
  9
$SHADEDGE
 70
     3
  9
$SHADEDIF
 70
    70
  9
$TILEMODE
 70
     1
  9
$MAXACTVP
 70
    16
  9
$PLIMCHECK
 70
     0
  9
$PEXTMIN
 10
1.0000000000000000E+020
 20
1.0000000000000000E+020
 30
1.0000000000000000E+020
  9
$PEXTMAX
 10
-1.0000000000000000E+020
 20
-1.0000000000000000E+020
 30
-1.0000000000000000E+020
  9
$PLIMMIN
 10
0.0
 20
0.0
  9
$PLIMMAX
 10
12.0
 20
9.0
  9
$UNITMODE
 70
     0
  9
$VISRETAIN
 70
     0
  9
$PLINEGEN
 70
     0
  9
$PSLTSCALE
 70
     1
  0
ENDSEC
  0
SECTION
  2
TABLES
  0
TABLE
  2
VPORT
 70
     2
  0
VPORT
  2
*ACTIVE
 70
     0
 10
0.0
 20
0.0
 11
1.0
 21
1.0
 12
11202.718262109571
 22
6037.0181662837858
 13
0.0
 23
0.0
 14
10.0
 24
10.0
 15
10.0
 25
10.0
 16
0.0
 26
0.0
 36
1.0
 17
0.0
 27
0.0
 37
0.0
 40
14046.829360524451
 41
1.5051150895140659
 42
50.0
 43
0.0
 44
0.0
 50
0.0
 51
0.0
 71
     0
 72
   100
 73
     1
 74
     0
 75
     0
 76
     0
 77
     0
 78
     0
  0
ENDTAB
  0
TABLE
  2
LTYPE
 70
     2
  0
LTYPE
  2
CONTINUOUS
 70
     0
  3
Solid line
 72
    65
 73
     0
 40
0.0
  0
LTYPE
  2
CENTER
 70
     0
  3
____ _ ____ _ ____ _ ____ _ ____ _ ____ _ ____ 
 72
    65
 73
     4
 40
2.0
 49
1.25
 49
-0.25
 49
0.25
 49
-0.25
  0
ENDTAB
  0
TABLE
  2
LAYER
 70
     6
  0
LAYER
  2
0
 70
     0
 62
     7
  6
CONTINUOUS
  0
LAYER
  2
3
 70
     0
 62
     2
  6
CONTINUOUS
  0
LAYER
  2
2
 70
     0
 62
     3
  6
CENTER
  0
LAYER
  2
1
 70
     0
 62
     4
  6
CONTINUOUS
  0
LAYER
  2
4
 70
     0
 62
     7
  6
CONTINUOUS
  0
LAYER
  2
DEFPOINTS
 70
     0
 62
     7
  6
CONTINUOUS
  0
ENDTAB
  0
TABLE
  2
STYLE
 70
     1
  0
STYLE
  2
STANDARD
 70
     0
 40
0.0
 41
1.0
 50
0.0
 71
     0
 42
180.0
  3
simplex.shx
  4
extfont.shx
  0
ENDTAB
  0
TABLE
  2
VIEW
 70
     0
  0
ENDTAB
  0
TABLE
  2
UCS
 70
     0
  0
ENDTAB
  0
TABLE
  2
APPID
 70
     1
  0
APPID
  2
ACAD
 70
     0
  0
ENDTAB
  0
TABLE
  2
DIMSTYLE
 70
     1
  0
DIMSTYLE
  2
IGA
 70
     0
  3

  4

  5

  6
OPEN
  7
OPEN
 40
2.0
 41
2.0
 42
0.5
 43
10.0
 44
1.0
 45
0.0
 46
0.0
 47
1.0
 48
1.0
140
3.0
141
0.0
142
0.0
143
0.03937
144
1.0
145
0.0
146
10.0
147
1.0
 71
     0
 72
     0
 73
     0
 74
     0
 75
     0
 76
     0
 77
     1
 78
     8
170
     0
171
     2
172
     0
173
     1
174
     0
175
     0
176
     0
177
     0
178
     0
  0
ENDTAB
  0
ENDSEC
  0
SECTION
  2
BLOCKS
  0
BLOCK
  8
0
  2
$MODEL_SPACE
 70
     0
 10
0.0
 20
0.0
 30
0.0
  3
$MODEL_SPACE
  1

  0
ENDBLK
  5
1B
  8
0
  0
BLOCK
 67
     1
  8
0
  2
$PAPER_SPACE
 70
     0
 10
0.0
 20
0.0
 30
0.0
  3
$PAPER_SPACE
  1

  0
ENDBLK
  5
18
 67
     1
  8
0
  0
BLOCK
  8
0
  2
_OPEN
 70
     0
 10
0.0
 20
0.0
 30
0.0
  3
_OPEN
  1

  0
LINE
  5
7AF6
  8
0
  6
BYBLOCK
 62
     0
 10
-1.0
 20
0.166667
 30
0.0
 11
0.0
 21
0.0
 31
0.0
  0
LINE
  5
7AF7
  8
0
  6
BYBLOCK
 62
     0
 10
0.0
 20
0.0
 30
0.0
 11
-1.0
 21
-0.166667
 31
0.0
  0
LINE
  5
7AF8
  8
0
  6
BYBLOCK
 62
     0
 10
0.0
 20
0.0
 30
0.0
 11
-1.0
 21
0.0
 31
0.0
  0
ENDBLK
  5
7AF9
  8
0
  0
BLOCK
  8
0
  2
*D1
 70
     1
 10
0.0
 20
0.0
 30
0.0
  3
*D1
  1

  0
LINE
  5
7D36
  8
3
  6
CONTINUOUS
 62
     0
 10
3853.473179999999
 20
5076.6996909999989
 30
0.0
 11
4172.2651939999996
 21
5076.6996909999989
 31
0.0
  0
LINE
  5
7D37
  8
3
  6
CONTINUOUS
 62
     0
 10
3853.473179999999
 20
3796.6996909999998
 30
0.0
 11
4172.2651939999996
 21
3796.6996909999998
 31
0.0
  0
LINE
  5
7D38
  8
3
  6
CONTINUOUS
 62
     0
 10
4132.2651940000014
 20
4996.6996909999989
 30
0.0
 11
4132.2651940000014
 21
3876.6996909999989
 31
0.0
  0
INSERT
  5
7D39
  8
3
  6
CONTINUOUS
 62
     0
  2
_OPEN
 10
4132.2651940000014
 20
5076.6996909999989
 30
0.0
 41
80.0
 42
80.0
 43
80.0
 50
90.0
  0
INSERT
  5
7D3A
  8
3
  6
CONTINUOUS
 62
     0
  2
_OPEN
 10
4132.2651940000014
 20
3796.6996909999998
 30
0.0
 41
80.0
 42
80.0
 43
80.0
 50
270.0
  0
TEXT
  8
3
  40
120
  5
7DCE
  62
0
  72
0
  71
0
 10
3792.27
 20
4155.87
 30
0.000000
  1
1280
  0
POINT
  5
7D3C
  8
DEFPOINTS
  6
CONTINUOUS
 62
     0
 10
3833.473179999999
 20
5076.6996909999989
 30
0.0
  0
POINT
  5
7D3D
  8
DEFPOINTS
  6
CONTINUOUS
 62
     0
 10
3833.473179999999
 20
3796.6996909999998
 30
0.0
  0
POINT
  5
7D3E
  8
DEFPOINTS
  6
CONTINUOUS
 62
     0
 10
4132.2651940000014
 20
3796.6996909999998
 30
0.0
  0
ENDBLK
  5
7B06
  8
0
  0
BLOCK
  8
0
  2
*D2
 70
     1
 10
0.0
 20
0.0
 30
0.0
  3
*D2
  1

  0
LINE
  5
7D3F
  8
3
  6
CONTINUOUS
 62
     0
 10
3853.473179999999
 20
5076.6996909999989
 30
0.0
 11
4458.7628640000012
 21
5076.6996909999989
 31
0.0
  0
LINE
  5
7D40
  8
3
  6
CONTINUOUS
 62
     0
 10
4012.7204230000002
 20
3742.6996909999998
 30
0.0
 11
4458.7628640000012
 21
3742.6996909999998
 31
0.0
  0
LINE
  5
7D41
  8
3
  6
CONTINUOUS
 62
     0
 10
4418.7628640000012
 20
4996.6996909999989
 30
0.0
 11
4418.7628640000012
 21
3822.6996909999998
 31
0.0
  0
INSERT
  5
7D42
  8
3
  6
CONTINUOUS
 62
     0
  2
_OPEN
 10
4418.7628640000012
 20
5076.6996909999989
 30
0.0
 41
80.0
 42
80.0
 43
80.0
 50
90.0
  0
INSERT
  5
7D43
  8
3
  6
CONTINUOUS
 62
     0
  2
_OPEN
 10
4418.7628640000012
 20
3742.6996909999998
 30
0.0
 41
80.0
 42
80.0
 43
80.0
 50
270.0
  0
TEXT
  8
3
  40
120
  5
7DCF
  62
0
  72
0
  71
0
 10
4078.76
 20
4172.71
 30
0.000000
  1
1334
  0
POINT
  5
7D45
  8
DEFPOINTS
  6
CONTINUOUS
 62
     0
 10
3833.473179999999
 20
5076.6996909999989
 30
0.0
  0
POINT
  5
7D46
  8
DEFPOINTS
  6
CONTINUOUS
 62
     0
 10
3992.7204230000002
 20
3742.6996909999998
 30
0.0
  0
POINT
  5
7D47
  8
DEFPOINTS
  6
CONTINUOUS
 62
     0
 10
4418.7628640000012
 20
3742.6996909999998
 30
0.0
  0
ENDBLK
  5
7B13
  8
0
  0
BLOCK
  8
0
  2
*D3
 70
     1
 10
0.0
 20
0.0
 30
0.0
  3
*D3
  1

  0
LINE
  5
7D48
  8
3
  6
CONTINUOUS
 62
     0
 10
3778.473179999999
 20
2817.6996909999989
 30
0.0
 11
4458.7628640000003
 21
2817.6996909999989
 31
0.0
  0
LINE
  5
7D49
  8
3
  6
CONTINUOUS
 62
     0
 10
4418.7628640000003
 20
3662.6996909999989
 30
0.0
 11
4418.7628640000003
 21
2897.6996909999989
 31
0.0
  0
INSERT
  5
7D4A
  8
3
  6
CONTINUOUS
 62
     0
  2
_OPEN
 10
4418.7628640000003
 20
3742.6996909999998
 30
0.0
 41
80.0
 42
80.0
 43
80.0
 50
90.0
  0
INSERT
  5
7D4B
  8
3
  6
CONTINUOUS
 62
     0
  2
_OPEN
 10
4418.7628640000003
 20
2817.6996909999989
 30
0.0
 41
80.0
 42
80.0
 43
80.0
 50
270.0
  0
TEXT
  8
3
  40
120
  5
7DD0
  62
0
  72
0
  71
0
 10
4078.76
 20
3067.80
 30
0.000000
  1
925
  0
POINT
  5
7D4D
  8
DEFPOINTS
  6
CONTINUOUS
 62
     0
 10
3992.7204230000002
 20
3742.6996909999998
 30
0.0
  0
POINT
  5
7D4E
  8
DEFPOINTS
  6
CONTINUOUS
 62
     0
 10
3758.473179999999
 20
2817.6996909999989
 30
0.0
  0
POINT
  5
7D4F
  8
DEFPOINTS
  6
CONTINUOUS
 62
     0
 10
4418.7628640000003
 20
2817.6996909999989
 30
0.0
  0
ENDBLK
  5
7B1F
  8
0
  0
BLOCK
  8
0
  2
*D4
 70
     1
 10
0.0
 20
0.0
 30
0.0
  3
*D4
  1

  0
LINE
  5
7D50
  8
3
  6
CONTINUOUS
 62
     0
 10
3853.473179999999
 20
5132.6996909999998
 30
0.0
 11
4804.9180690000012
 21
5132.6996909999998
 31
0.0
  0
LINE
  5
7D51
  8
3
  6
CONTINUOUS
 62
     0
 10
3778.473179999999
 20
2817.6996909999989
 30
0.0
 11
4804.9180690000012
 21
2817.6996909999989
 31
0.0
  0
LINE
  5
7D52
  8
3
  6
CONTINUOUS
 62
     0
 10
4764.9180690000003
 20
5052.6996909999998
 30
0.0
 11
4764.9180690000003
 21
2897.6996909999989
 31
0.0
  0
INSERT
  5
7D53
  8
3
  6
CONTINUOUS
 62
     0
  2
_OPEN
 10
4764.9180690000003
 20
5132.6996909999998
 30
0.0
 41
80.0
 42
80.0
 43
80.0
 50
90.0
  0
INSERT
  5
7D54
  8
3
  6
CONTINUOUS
 62
     0
  2
_OPEN
 10
4764.9180690000003
 20
2817.6996909999989
 30
0.0
 41
80.0
 42
80.0
 43
80.0
 50
270.0
  0
TEXT
  8
3
  40
120
  5
7DD1
  62
0
  72
0
  71
0
 10
4424.92
 20
3683.65
 30
0.000000
  1
2315
  0
POINT
  5
7D56
  8
DEFPOINTS
  6
CONTINUOUS
 62
     0
 10
3833.473179999999
 20
5132.6996909999998
 30
0.0
  0
POINT
  5
7D57
  8
DEFPOINTS
  6
CONTINUOUS
 62
     0
 10
3758.473179999999
 20
2817.6996909999989
 30
0.0
  0
POINT
  5
7D58
  8
DEFPOINTS
  6
CONTINUOUS
 62
     0
 10
4764.9180690000003
 20
2817.6996909999989
 30
0.0
  0
ENDBLK
  5
7B2C
  8
0
  0
BLOCK
  8
0
  2
*D5
 70
     1
 10
0.0
 20
0.0
 30
0.0
  3
*D5
  1

  0
LINE
  5
7D59
  8
3
  6
CONTINUOUS
 62
     0
 10
1208.47318
 20
2797.6996909999998
 30
0.0
 11
1208.47318
 21
2475.9882320000002
 31
0.0
  0
LINE
  5
7D5A
  8
3
  6
CONTINUOUS
 62
     0
 10
3008.47318
 20
2687.5861399999999
 30
0.0
 11
3008.47318
 21
2475.9882320000002
 31
0.0
  0
LINE
  5
7D5B
  8
3
  6
CONTINUOUS
 62
     0
 10
1288.47318
 20
2515.9882320000002
 30
0.0
 11
2928.47318
 21
2515.9882320000002
 31
0.0
  0
INSERT
  5
7D5C
  8
3
  6
CONTINUOUS
 62
     0
  2
_OPEN
 10
1208.47318
 20
2515.9882320000002
 30
0.0
 41
80.0
 42
80.0
 43
80.0
 50
180.0
  0
INSERT
  5
7D5D
  8
3
  6
CONTINUOUS
 62
     0
  2
_OPEN
 10
3008.47318
 20
2515.9882320000002
 30
0.0
 41
80.0
 42
80.0
 43
80.0
  0
TEXT
  8
3
  40
120
  5
7DD2
  62
0
  72
0
  71
0
 10
1957.63
 20
2403.59
 30
0.000000
  1
1800
  0
POINT
  5
7D5F
  8
DEFPOINTS
  6
CONTINUOUS
 62
     0
 10
1208.47318
 20
2817.6996909999989
 30
0.0
  0
POINT
  5
7D60
  8
DEFPOINTS
  6
CONTINUOUS
 62
     0
 10
3008.47318
 20
2707.5861399999999
 30
0.0
  0
POINT
  5
7D61
  8
DEFPOINTS
  6
CONTINUOUS
 62
     0
 10
3008.47318
 20
2515.9882320000002
 30
0.0
  0
ENDBLK
  5
7C11
  8
0
  0
BLOCK
  8
0
  2
*D6
 70
     1
 10
0.0
 20
0.0
 30
0.0
  3
*D6
  1

  0
LINE
  5
7D62
  8
3
  6
CONTINUOUS
 62
     0
 10
3758.473179999999
 20
2797.6996909999998
 30
0.0
 11
3758.473179999999
 21
2475.9882320000002
 31
0.0
  0
LINE
  5
7D63
  8
3
  6
CONTINUOUS
 62
     0
 10
3088.47318
 20
2515.9882320000002
 30
0.0
 11
3678.473179999999
 21
2515.9882320000002
 31
0.0
  0
INSERT
  5
7D64
  8
3
  6
CONTINUOUS
 62
     0
  2
_OPEN
 10
3008.47318
 20
2515.9882320000002
 30
0.0
 41
80.0
 42
80.0
 43
80.0
 50
180.0
  0
INSERT
  5
7D65
  8
3
  6
CONTINUOUS
 62
     0
  2
_OPEN
 10
3758.473179999999
 20
2515.9882320000002
 30
0.0
 41
80.0
 42
80.0
 43
80.0
  0
TEXT
  8
3
  40
120
  5
7DD3
  62
0
  72
0
  71
0
 10
3143.47
 20
2403.59
 30
0.000000
  1
750
  0
POINT
  5
7D67
  8
DEFPOINTS
  6
CONTINUOUS
 62
     0
 10
3008.47318
 20
2707.5861399999999
 30
0.0
  0
POINT
  5
7D68
  8
DEFPOINTS
  6
CONTINUOUS
 62
     0
 10
3758.473179999999
 20
2817.6996909999989
 30
0.0
  0
POINT
  5
7D69
  8
DEFPOINTS
  6
CONTINUOUS
 62
     0
 10
3758.473179999999
 20
2515.9882320000002
 30
0.0
  0
ENDBLK
  5
7B45
  8
0
  0
BLOCK
  8
0
  2
*D7
 70
     1
 10
0.0
 20
0.0
 30
0.0
  3
*D7
  1

  0
LINE
  5
7D6A
  8
3
  6
CONTINUOUS
 62
     0
 10
3833.473179999999
 20
5152.6996909999998
 30
0.0
 11
3833.473179999999
 21
5403.5816610000002
 31
0.0
  0
LINE
  5
7D6B
  8
3
  6
CONTINUOUS
 62
     0
 10
3008.47318
 20
5231.6216850000001
 30
0.0
 11
3008.47318
 21
5403.5816610000002
 31
0.0
  0
LINE
  5
7D6C
  8
3
  6
CONTINUOUS
 62
     0
 10
3753.473179999999
 20
5363.5816610000011
 30
0.0
 11
3088.47318
 21
5363.5816610000011
 31
0.0
  0
INSERT
  5
7D6D
  8
3
  6
CONTINUOUS
 62
     0
  2
_OPEN
 10
3833.473179999999
 20
5363.5816610000011
 30
0.0
 41
80.0
 42
80.0
 43
80.0
  0
INSERT
  5
7D6E
  8
3
  6
CONTINUOUS
 62
     0
  2
_OPEN
 10
3008.47318
 20
5363.5816610000011
 30
0.0
 41
80.0
 42
80.0
 43
80.0
 50
180.0
  0
TEXT
  8
3
  40
120
  5
7DD4
  62
0
  72
0
  71
0
 10
3182.92
 20
5251.18
 30
0.000000
  1
825
  0
POINT
  5
7D70
  8
DEFPOINTS
  6
CONTINUOUS
 62
     0
 10
3833.473179999999
 20
5132.6996909999998
 30
0.0
  0
POINT
  5
7D71
  8
DEFPOINTS
  6
CONTINUOUS
 62
     0
 10
3008.47318
 20
5211.6216850000001
 30
0.0
  0
POINT
  5
7D72
  8
DEFPOINTS
  6
CONTINUOUS
 62
     0
 10
3008.47318
 20
5363.5816610000011
 30
0.0
  0
ENDBLK
  5
7B52
  8
0
  0
BLOCK
  8
0
  2
*D8
 70
     1
 10
0.0
 20
0.0
 30
0.0
  3
*D8
  1

  0
LINE
  5
7D73
  8
3
  6
CONTINUOUS
 62
     0
 10
5777.7524789999998
 20
5096.6996909999998
 30
0.0
 11
5777.7524789999998
 21
5316.1129310000006
 31
0.0
  0
LINE
  5
7D74
  8
3
  6
CONTINUOUS
 62
     0
 10
6727.7524789999998
 20
5096.6996909999998
 30
0.0
 11
6727.7524789999998
 21
5316.1129310000006
 31
0.0
  0
LINE
  5
7D75
  8
3
  6
CONTINUOUS
 62
     0
 10
5857.7524789999998
 20
5276.1129310000006
 30
0.0
 11
6647.7524790000007
 21
5276.1129310000006
 31
0.0
  0
INSERT
  5
7D76
  8
3
  6
CONTINUOUS
 62
     0
  2
_OPEN
 10
5777.7524789999998
 20
5276.1129310000006
 30
0.0
 41
80.0
 42
80.0
 43
80.0
 50
180.0
  0
INSERT
  5
7D77
  8
3
  6
CONTINUOUS
 62
     0
  2
_OPEN
 10
6727.7524789999998
 20
5276.1129310000006
 30
0.0
 41
80.0
 42
80.0
 43
80.0
  0
TEXT
  8
3
  40
120
  5
7DD5
  62
0
  72
0
  71
0
 10
6017.49
 20
5163.71
 30
0.000000
  1
950
  0
POINT
  5
7D79
  8
DEFPOINTS
  6
CONTINUOUS
 62
     0
 10
5777.7524789999998
 20
5076.6996909999989
 30
0.0
  0
POINT
  5
7D7A
  8
DEFPOINTS
  6
CONTINUOUS
 62
     0
 10
6727.7524789999998
 20
5076.6996909999989
 30
0.0
  0
POINT
  5
7D7B
  8
DEFPOINTS
  6
CONTINUOUS
 62
     0
 10
6727.7524789999998
 20
5276.1129310000006
 30
0.0
  0
ENDBLK
  5
7B6B
  8
0
  0
BLOCK
  8
0
  2
*D9
 70
     1
 10
0.0
 20
0.0
 30
0.0
  3
*D9
  1

  0
LINE
  5
7D7C
  8
3
  6
CONTINUOUS
 62
     0
 10
6850.7524789999998
 20
4367.6996909999998
 30
0.0
 11
7192.1540810000006
 21
4367.6996909999998
 31
0.0
  0
LINE
  5
7D7D
  8
3
  6
CONTINUOUS
 62
     0
 10
6850.7524789999998
 20
3117.6996909999998
 30
0.0
 11
7192.1540810000006
 21
3117.6996909999989
 31
0.0
  0
LINE
  5
7D7E
  8
3
  6
CONTINUOUS
 62
     0
 10
7152.1540810000024
 20
4287.6996909999989
 30
0.0
 11
7152.1540810000024
 21
3197.6996909999998
 31
0.0
  0
INSERT
  5
7D7F
  8
3
  6
CONTINUOUS
 62
     0
  2
_OPEN
 10
7152.1540810000024
 20
4367.6996909999998
 30
0.0
 41
80.0
 42
80.0
 43
80.0
 50
90.0
  0
INSERT
  5
7D80
  8
3
  6
CONTINUOUS
 62
     0
  2
_OPEN
 10
7152.1540810000024
 20
3117.6996909999998
 30
0.0
 41
80.0
 42
80.0
 43
80.0
 50
270.0
  0
TEXT
  8
3
  40
120
  5
7DD6
  62
0
  72
0
  71
0
 10
6812.15
 20
3528.15
 30
0.000000
  1
φ1250
  0
POINT
  5
7D82
  8
DEFPOINTS
  6
CONTINUOUS
 62
     0
 10
6830.7524789999998
 20
4367.6996909999998
 30
0.0
  0
POINT
  5
7D83
  8
DEFPOINTS
  6
CONTINUOUS
 62
     0
 10
6830.7524789999998
 20
3117.6996909999998
 30
0.0
  0
POINT
  5
7D84
  8
DEFPOINTS
  6
CONTINUOUS
 62
     0
 10
7152.1540810000024
 20
3117.6996909999998
 30
0.0
  0
ENDBLK
  5
7C44
  8
0
  0
BLOCK
  8
0
  2
*D10
 70
     1
 10
0.0
 20
0.0
 30
0.0
  3
*D10
  1

  0
LINE
  5
7D85
  8
3
  6
CONTINUOUS
 62
     0
 10
6830.7524789999998
 20
4437.6996909999989
 30
0.0
 11
6830.7524789999998
 21
5597.9566450000002
 31
0.0
  0
LINE
  5
7D86
  8
3
  6
CONTINUOUS
 62
     0
 10
6252.7524789999998
 20
5519.6196030000001
 30
0.0
 11
6252.7524789999998
 21
5597.9566450000002
 31
0.0
  0
LINE
  5
7D87
  8
3
  6
CONTINUOUS
 62
     0
 10
6910.7524790000007
 20
5557.9566450000002
 30
0.0
 11
6990.7524790000007
 21
5557.9566450000002
 31
0.0
  0
LINE
  5
7D88
  8
3
  6
CONTINUOUS
 62
     0
 10
6172.7524789999989
 20
5557.9566450000002
 30
0.0
 11
6092.7524789999998
 21
5557.9566450000002
 31
0.0
  0
LINE
  5
7D89
  8
3
  6
CONTINUOUS
 62
     0
 10
6830.7524789999998
 20
5557.9566450000002
 30
0.0
 11
6252.7524789999998
 21
5557.9566450000002
 31
0.0
  0
INSERT
  5
7D8A
  8
3
  6
CONTINUOUS
 62
     0
  2
_OPEN
 10
6830.7524789999998
 20
5557.9566450000002
 30
0.0
 41
80.0
 42
80.0
 43
80.0
 50
180.0
  0
INSERT
  5
7D8B
  8
3
  6
CONTINUOUS
 62
     0
  2
_OPEN
 10
6252.7524789999998
 20
5557.9566450000002
 30
0.0
 41
80.0
 42
80.0
 43
80.0
  0
TEXT
  8
3
  40
120
  5
7DD7
  62
0
  72
0
  71
0
 10
6287.04
 20
5445.56
 30
0.000000
  1
578
  0
POINT
  5
7D8D
  8
DEFPOINTS
  6
CONTINUOUS
 62
     0
 10
6830.7524789999998
 20
4417.6996909999998
 30
0.0
  0
POINT
  5
7D8E
  8
DEFPOINTS
  6
CONTINUOUS
 62
     0
 10
6252.7524789999998
 20
5499.6196030000001
 30
0.0
  0
POINT
  5
7D8F
  8
DEFPOINTS
  6
CONTINUOUS
 62
     0
 10
6252.7524789999998
 20
5557.9566450000002
 30
0.0
  0
ENDBLK
  5
7BC0
  8
0
  0
BLOCK
  8
0
  2
*D11
 70
     1
 10
0.0
 20
0.0
 30
0.0
  3
*D11
  1

  0
LINE
  5
7D90
  8
3
  6
CONTINUOUS
 62
     0
 10
5412.7524789999989
 20
4140.6996909999998
 30
0.0
 11
5412.7524789999989
 21
5597.9566450000002
 31
0.0
  0
LINE
  5
7D91
  8
3
  6
CONTINUOUS
 62
     0
 10
6172.7524789999989
 20
5557.9566450000002
 30
0.0
 11
5492.7524789999989
 21
5557.9566450000002
 31
0.0
  0
INSERT
  5
7D92
  8
3
  6
CONTINUOUS
 62
     0
  2
_OPEN
 10
6252.7524789999998
 20
5557.9566450000002
 30
0.0
 41
80.0
 42
80.0
 43
80.0
  0
INSERT
  5
7D93
  8
3
  6
CONTINUOUS
 62
     0
  2
_OPEN
 10
5412.7524789999989
 20
5557.9566450000002
 30
0.0
 41
80.0
 42
80.0
 43
80.0
 50
180.0
  0
TEXT
  8
3
  40
120
  5
7DD8
  62
0
  72
0
  71
0
 10
5592.75
 20
5545.56
 30
0.000000
  1
MAX
  0
TEXT
  8
3
  40
120
  5
7DD9
  62
0
  72
0
  71
0
 10
5592.75
 20
5389.56
 30
0.000000
  1
890
  0
POINT
  5
7D95
  8
DEFPOINTS
  6
CONTINUOUS
 62
     0
 10
6252.7524789999998
 20
5499.6196030000001
 30
0.0
  0
POINT
  5
7D96
  8
DEFPOINTS
  6
CONTINUOUS
 62
     0
 10
5412.7524789999989
 20
4120.6996909999998
 30
0.0
  0
POINT
  5
7D97
  8
DEFPOINTS
  6
CONTINUOUS
 62
     0
 10
5412.7524789999989
 20
5557.9566450000002
 30
0.0
  0
ENDBLK
  5
7C39
  8
0
  0
BLOCK
  8
0
  2
*D12
 70
     1
 10
0.0
 20
0.0
 30
0.0
  3
*D12
  1

  0
LINE
  5
7D98
  8
3
  6
CONTINUOUS
 62
     0
 10
5525.7524789999998
 20
2797.6996909999998
 30
0.0
 11
5525.7524789999998
 21
2485.7069929999989
 31
0.0
  0
LINE
  5
7D99
  8
3
  6
CONTINUOUS
 62
     0
 10
6252.7524789999998
 20
2661.7544330000001
 30
0.0
 11
6252.7524789999998
 21
2485.7069929999989
 31
0.0
  0
LINE
  5
7D9A
  8
3
  6
CONTINUOUS
 62
     0
 10
5445.7524789999998
 20
2525.7069929999998
 30
0.0
 11
5365.7524789999998
 21
2525.7069929999998
 31
0.0
  0
LINE
  5
7D9B
  8
3
  6
CONTINUOUS
 62
     0
 10
6332.7524789999989
 20
2525.7069929999998
 30
0.0
 11
6412.7524789999989
 21
2525.7069929999998
 31
0.0
  0
LINE
  5
7D9C
  8
3
  6
CONTINUOUS
 62
     0
 10
5525.7524789999998
 20
2525.7069929999998
 30
0.0
 11
6252.7524789999998
 21
2525.7069929999998
 31
0.0
  0
INSERT
  5
7D9D
  8
3
  6
CONTINUOUS
 62
     0
  2
_OPEN
 10
5525.7524789999998
 20
2525.7069929999998
 30
0.0
 41
80.0
 42
80.0
 43
80.0
  0
INSERT
  5
7D9E
  8
3
  6
CONTINUOUS
 62
     0
  2
_OPEN
 10
6252.7524789999998
 20
2525.7069929999998
 30
0.0
 41
80.0
 42
80.0
 43
80.0
 50
180.0
  0
TEXT
  8
3
  40
120
  5
7DDA
  62
0
  72
0
  71
0
 10
5738.47
 20
2413.31
 30
0.000000
  1
727
  0
POINT
  5
7DA0
  8
DEFPOINTS
  6
CONTINUOUS
 62
     0
 10
5525.7524789999998
 20
2817.6996909999989
 30
0.0
  0
POINT
  5
7DA1
  8
DEFPOINTS
  6
CONTINUOUS
 62
     0
 10
6252.7524789999998
 20
2681.7544330000001
 30
0.0
  0
POINT
  5
7DA2
  8
DEFPOINTS
  6
CONTINUOUS
 62
     0
 10
6252.7524789999998
 20
2525.7069929999998
 30
0.0
  0
ENDBLK
  5
7B9E
  8
0
  0
BLOCK
  8
0
  2
*D13
 70
     1
 10
0.0
 20
0.0
 30
0.0
  3
*D13
  1

  0
LINE
  5
7DA3
  8
3
  6
CONTINUOUS
 62
     0
 10
6805.7524789999998
 20
2797.6996909999998
 30
0.0
 11
6805.7524789999998
 21
2485.7069929999989
 31
0.0
  0
LINE
  5
7DA4
  8
3
  6
CONTINUOUS
 62
     0
 10
6332.7524789999989
 20
2525.7069929999998
 30
0.0
 11
6725.7524789999998
 21
2525.7069929999998
 31
0.0
  0
INSERT
  5
7DA5
  8
3
  6
CONTINUOUS
 62
     0
  2
_OPEN
 10
6252.7524789999998
 20
2525.7069929999998
 30
0.0
 41
80.0
 42
80.0
 43
80.0
 50
180.0
  0
INSERT
  5
7DA6
  8
3
  6
CONTINUOUS
 62
     0
  2
_OPEN
 10
6805.7524789999998
 20
2525.7069929999998
 30
0.0
 41
80.0
 42
80.0
 43
80.0
  0
TEXT
  8
3
  40
120
  5
7DDB
  62
0
  72
0
  71
0
 10
6289.25
 20
2413.31
 30
0.000000
  1
553
  0
POINT
  5
7DA8
  8
DEFPOINTS
  6
CONTINUOUS
 62
     0
 10
6252.7524789999998
 20
2681.7544330000001
 30
0.0
  0
POINT
  5
7DA9
  8
DEFPOINTS
  6
CONTINUOUS
 62
     0
 10
6805.7524789999998
 20
2817.6996909999989
 30
0.0
  0
POINT
  5
7DAA
  8
DEFPOINTS
  6
CONTINUOUS
 62
     0
 10
6805.7524789999998
 20
2525.7069929999998
 30
0.0
  0
ENDBLK
  5
7BAA
  8
0
  0
BLOCK
  8
0
  2
*D14
 70
     1
 10
0.0
 20
0.0
 30
0.0
  3
*D14
  1

  0
LINE
  5
7DAB
  8
3
  6
CONTINUOUS
 62
     0
 10
1208.47318
 20
7188.6555669999989
 30
0.0
 11
1208.47318
 21
6765.5993850000004
 31
0.0
  0
LINE
  5
7DAC
  8
3
  6
CONTINUOUS
 62
     0
 10
3758.473179999999
 20
7188.6555669999989
 30
0.0
 11
3758.473179999999
 21
6765.5993850000004
 31
0.0
  0
LINE
  5
7DAD
  8
3
  6
CONTINUOUS
 62
     0
 10
1288.47318
 20
6805.5993849999986
 30
0.0
 11
3678.473179999999
 21
6805.5993849999986
 31
0.0
  0
INSERT
  5
7DAE
  8
3
  6
CONTINUOUS
 62
     0
  2
_OPEN
 10
1208.47318
 20
6805.5993849999986
 30
0.0
 41
80.0
 42
80.0
 43
80.0
 50
180.0
  0
INSERT
  5
7DAF
  8
3
  6
CONTINUOUS
 62
     0
  2
_OPEN
 10
3758.473179999999
 20
6805.5993849999986
 30
0.0
 41
80.0
 42
80.0
 43
80.0
  0
TEXT
  8
3
  40
120
  5
7DDC
  62
0
  72
0
  71
0
 10
2220.19
 20
6693.20
 30
0.000000
  1
2550
  0
POINT
  5
7DB1
  8
DEFPOINTS
  6
CONTINUOUS
 62
     0
 10
1208.47318
 20
7208.6555669999998
 30
0.0
  0
POINT
  5
7DB2
  8
DEFPOINTS
  6
CONTINUOUS
 62
     0
 10
3758.473179999999
 20
7208.6555669999998
 30
0.0
  0
POINT
  5
7DB3
  8
DEFPOINTS
  6
CONTINUOUS
 62
     0
 10
3758.473179999999
 20
6805.5993849999986
 30
0.0
  0
ENDBLK
  5
7C06
  8
0
  0
BLOCK
  8
0
  2
*D15
 70
     1
 10
0.0
 20
0.0
 30
0.0
  3
*D15
  1

  0
LINE
  5
7DB4
  8
3
  6
CONTINUOUS
 62
     0
 10
3778.473179999999
 20
8488.6555669999998
 30
0.0
 11
4250.6165610000007
 21
8488.655566999998
 31
0.0
  0
LINE
  5
7DB5
  8
3
  6
CONTINUOUS
 62
     0
 10
3778.473179999999
 20
7208.6555669999998
 30
0.0
 11
4250.6165610000007
 21
7208.6555669999998
 31
0.0
  0
LINE
  5
7DB6
  8
3
  6
CONTINUOUS
 62
     0
 10
4210.6165610000007
 20
8408.655566999998
 30
0.0
 11
4210.6165610000007
 21
7288.6555669999989
 31
0.0
  0
INSERT
  5
7DB7
  8
3
  6
CONTINUOUS
 62
     0
  2
_OPEN
 10
4210.6165610000007
 20
8488.655566999998
 30
0.0
 41
80.0
 42
80.0
 43
80.0
 50
90.0
  0
INSERT
  5
7DB8
  8
3
  6
CONTINUOUS
 62
     0
  2
_OPEN
 10
4210.6165610000007
 20
7208.6555669999998
 30
0.0
 41
80.0
 42
80.0
 43
80.0
 50
270.0
  0
TEXT
  8
3
  40
120
  5
7DDD
  62
0
  72
0
  71
0
 10
3870.62
 20
7633.11
 30
0.000000
  1
1280
  0
POINT
  5
7DBA
  8
DEFPOINTS
  6
CONTINUOUS
 62
     0
 10
3758.473179999999
 20
8488.6555669999998
 30
0.0
  0
POINT
  5
7DBB
  8
DEFPOINTS
  6
CONTINUOUS
 62
     0
 10
3758.473179999999
 20
7208.6555669999998
 30
0.0
  0
POINT
  5
7DBC
  8
DEFPOINTS
  6
CONTINUOUS
 62
     0
 10
4210.6165610000007
 20
7208.6555669999998
 30
0.0
  0
ENDBLK
  5
7BDA
  8
0
  0
BLOCK
  8
0
  2
*D16
 70
     1
 10
0.0
 20
0.0
 30
0.0
  3
*D16
  1

  0
LINE
  5
7DBD
  8
3
  6
CONTINUOUS
 62
     0
 10
1929.47318
 20
3762.6996909999989
 30
0.0
 11
1929.47318
 21
5403.5816610000002
 31
0.0
  0
LINE
  5
7DBE
  8
3
  6
CONTINUOUS
 62
     0
 10
2928.47318
 20
5363.5816610000011
 30
0.0
 11
2009.47318
 21
5363.5816610000011
 31
0.0
  0
INSERT
  5
7DBF
  8
3
  6
CONTINUOUS
 62
     0
  2
_OPEN
 10
3008.47318
 20
5363.5816610000011
 30
0.0
 41
80.0
 42
80.0
 43
80.0
  0
INSERT
  5
7DC0
  8
3
  6
CONTINUOUS
 62
     0
  2
_OPEN
 10
1929.47318
 20
5363.5816610000011
 30
0.0
 41
80.0
 42
80.0
 43
80.0
 50
180.0
  0
TEXT
  8
3
  40
120
  5
7DDE
  62
0
  72
0
  71
0
 10
2228.97
 20
5251.18
 30
0.000000
  1
1079
  0
POINT
  5
7DC2
  8
DEFPOINTS
  6
CONTINUOUS
 62
     0
 10
3008.47318
 20
5211.6216850000001
 30
0.0
  0
POINT
  5
7DC3
  8
DEFPOINTS
  6
CONTINUOUS
 62
     0
 10
1929.47318
 20
3742.6996909999998
 30
0.0
  0
POINT
  5
7DC4
  8
DEFPOINTS
  6
CONTINUOUS
 62
     0
 10
1929.47318
 20
5363.5816610000011
 30
0.0
  0
ENDBLK
  5
7C22
  8
0
  0
BLOCK
  8
0
  2
*D17
 70
     1
 10
0.0
 20
0.0
 30
0.0
  3
*D17
  1

  0
LINE
  5
7DC5
  8
3
 62
     0
 10
3833.473179999999
 20
5152.6996909999998
 30
0.0
 11
3833.473179999999
 21
5656.4749509474268
 31
0.0
  0
LINE
  5
7DC6
  8
3
 62
     0
 10
1208.47318
 20
2987.6996909999989
 30
0.0
 11
1208.47318
 21
5656.4749509474268
 31
0.0
  0
LINE
  5
7DC7
  8
3
 62
     0
 10
3753.473179999999
 20
5616.4749509474268
 30
0.0
 11
1288.47318
 21
5616.4749509474268
 31
0.0
  0
INSERT
  5
7DC8
  8
3
 62
     0
  2
_OPEN
 10
3833.473179999999
 20
5616.4749509474268
 30
0.0
 41
80.0
 42
80.0
 43
80.0
  0
INSERT
  5
7DC9
  8
3
 62
     0
  2
_OPEN
 10
1208.47318
 20
5616.4749509474268
 30
0.0
 41
80.0
 42
80.0
 43
80.0
 50
180.0
  0
TEXT
  8
3
  40
120
  5
7DDF
  62
0
  72
0
  71
0
 10
2364.40
 20
5504.07
 30
0.000000
  1
2625
  0
POINT
  5
7DCB
  8
DEFPOINTS
 62
     0
 10
3833.473179999999
 20
5132.6996909999998
 30
0.0
  0
POINT
  5
7DCC
  8
DEFPOINTS
 62
     0
 10
1208.47318
 20
2967.6996909999989
 30
0.0
  0
POINT
  5
7DCD
  8
DEFPOINTS
 62
     0
 10
1208.47318
 20
5616.4749509474268
 30
0.0
  0
ENDBLK
  5
7C2E
  8
0
  0
ENDSEC
  0
SECTION
  2
ENTITIES
  0
POLYLINE
  5
7A69
  8
1
  6
CONTINUOUS
 66
     1
 10
0.0
 20
0.0
 30
0.0
  0
VERTEX
  5
7D2F
  8
1
  6
CONTINUOUS
 10
3833.473179999999
 20
5076.6996909999989
 30
0.0
  0
VERTEX
  5
7D30
  8
1
  6
CONTINUOUS
 10
3008.47318
 20
5003.6996909999998
 30
0.0
 42
0.4
  0
VERTEX
  5
7D31
  8
1
  6
CONTINUOUS
 10
1925.97318
 20
3833.6996909999989
 30
0.0
 42
0.4
  0
VERTEX
  5
7D32
  8
1
  6
CONTINUOUS
 10
2999.7731800000001
 20
2845.5996909999999
 30
0.0
 42
0.4
  0
VERTEX
  5
7D33
  8
1
  6
CONTINUOUS
 10
3754.473179999999
 20
3665.6996909999989
 30
0.0
  0
VERTEX
  5
7D34
  8
1
  6
CONTINUOUS
 10
3741.473179999999
 20
3796.6996909999998
 30
0.0
 42
0.4
  0
SEQEND
  5
7D35
  8
1
  6
CONTINUOUS
  0
LINE
  5
7A71
  8
1
  6
CONTINUOUS
 10
3758.473179999999
 20
2817.6996909999989
 30
0.0
 11
1208.47318
 21
2817.6996909999989
 31
0.0
  0
LINE
  5
7A72
  8
1
  6
CONTINUOUS
 10
3758.473179999999
 20
2967.6996909999989
 30
0.0
 11
1208.47318
 21
2967.6996909999989
 31
0.0
  0
LINE
  5
7A73
  8
1
  6
CONTINUOUS
 10
2879.7731800000001
 20
3989.099690999999
 30
0.0
 11
1577.87318
 21
3309.0996909999999
 31
0.0
  0
LINE
  5
7A74
  8
1
  6
CONTINUOUS
 10
2833.47318
 20
4077.6996909999998
 30
0.0
 11
1531.5731800000001
 21
3397.6996909999989
 31
0.0
  0
LINE
  5
7A75
  8
1
  6
CONTINUOUS
 10
3081.87318
 20
3474.599690999999
 30
0.0
 11
1665.17318
 21
3086.999691
 31
0.0
  0
LINE
  5
7A76
  8
1
  6
CONTINUOUS
 10
3108.2731800000001
 20
3378.099690999999
 30
0.0
 11
1691.573179999999
 21
2990.499691
 31
0.0
  0
LINE
  5
7A77
  8
1
  6
CONTINUOUS
 10
1208.47318
 20
2967.6996909999989
 30
0.0
 11
1208.47318
 21
2817.6996909999989
 31
0.0
  0
ARC
  5
7A78
  8
1
  6
CONTINUOUS
 10
1633.47318
 20
3202.6996909999998
 30
0.0
 40
199.0
 50
320.10000000000002
 51
219.90000000000001
  0
ARC
  5
7A79
  8
1
  6
CONTINUOUS
 10
1633.47318
 20
3202.6996909999998
 30
0.0
 40
220.0
 50
117.59999999999989
 51
285.30000000000001
  0
LINE
  5
7A7A
  8
1
  6
CONTINUOUS
 10
1858.47318
 20
3022.6996909999989
 30
0.0
 11
1408.47318
 21
3022.6996909999989
 31
0.0
  0
CIRCLE
  5
7A7B
  8
1
  6
CONTINUOUS
 10
1633.47318
 20
3202.6996909999998
 30
0.0
 40
120.0
  0
LINE
  5
7A7C
  8
2
  6
CENTER
 10
1513.47318
 20
3202.6996909999998
 30
0.0
 11
1753.47318
 21
3202.6996909999998
 31
0.0
  0
LINE
  5
7A7D
  8
1
  6
CONTINUOUS
 10
1471.47318
 20
3065.1996909999998
 30
0.0
 11
1480.7731799999999
 21
3075.0996909999999
 31
0.0
  0
LINE
  5
7A7E
  8
1
  6
CONTINUOUS
 10
1471.47318
 20
3022.6996909999989
 30
0.0
 11
1531.47318
 21
3022.6996909999989
 31
0.0
  0
LINE
  5
7A7F
  8
1
  6
CONTINUOUS
 10
1471.47318
 20
3022.6996909999989
 30
0.0
 11
1471.47318
 21
3065.1996909999998
 31
0.0
  0
LINE
  5
7A80
  8
1
  6
CONTINUOUS
 10
1408.47318
 20
2967.6996909999989
 30
0.0
 11
1408.47318
 21
3022.6996909999989
 31
0.0
  0
LINE
  5
7A81
  8
2
  6
CENTER
 10
1633.47318
 20
3082.6996909999998
 30
0.0
 11
1633.47318
 21
3322.6996909999989
 31
0.0
  0
LINE
  5
7A82
  8
1
  6
CONTINUOUS
 10
1795.47318
 20
3065.1996909999998
 30
0.0
 11
1786.17318
 21
3075.0996909999999
 31
0.0
  0
LINE
  5
7A83
  8
1
  6
CONTINUOUS
 10
1795.47318
 20
3022.6996909999989
 30
0.0
 11
1795.47318
 21
3065.1996909999998
 31
0.0
  0
LINE
  5
7A84
  8
1
  6
CONTINUOUS
 10
1858.47318
 20
2967.6996909999989
 30
0.0
 11
1858.47318
 21
3022.6996909999989
 31
0.0
  0
CIRCLE
  5
7A85
  8
1
  6
CONTINUOUS
 10
3008.47318
 20
3742.6996909999998
 30
0.0
 40
625.0
  0
CIRCLE
  5
7A86
  8
1
  6
CONTINUOUS
 10
3008.47318
 20
3742.6996909999998
 30
0.0
 40
675.0
  0
CIRCLE
  5
7A87
  8
1
  6
CONTINUOUS
 10
3008.47318
 20
3742.6996909999998
 30
0.0
 40
278.0
  0
LINE
  5
7A88
  8
2
  6
CENTER
 10
1720.0151919999989
 20
3742.6996909999998
 30
0.0
 11
3992.7204230000002
 21
3742.6996909999998
 31
0.0
  0
ARC
  5
7A89
  8
1
  6
CONTINUOUS
 10
3008.47318
 20
3742.6996909999998
 30
0.0
 40
378.0
 50
285.30000000000001
 51
117.59999999999989
  0
LINE
  5
7A8A
  8
2
  6
CENTER
 10
3008.47318
 20
2707.5861399999999
 30
0.0
 11
3008.47318
 21
5211.6216850000001
 31
0.0
  0
LINE
  5
7A8B
  8
1
  6
CONTINUOUS
 10
3833.473179999999
 20
3746.6996909999989
 30
0.0
 11
3833.473179999999
 21
5132.6996909999998
 31
0.0
  0
LINE
  5
7A8C
  8
1
  6
CONTINUOUS
 10
3783.473179999999
 20
3796.6996909999998
 30
0.0
 11
3783.473179999999
 21
5076.6996909999989
 31
0.0
  0
LINE
  5
7A8D
  8
1
  6
CONTINUOUS
 10
3741.473179999999
 20
3796.6996909999998
 30
0.0
 11
3833.473179999999
 21
3796.6996909999998
 31
0.0
  0
LINE
  5
7A8E
  8
1
  6
CONTINUOUS
 10
3758.473179999999
 20
2967.6996909999989
 30
0.0
 11
3758.473179999999
 21
2817.6996909999989
 31
0.0
  0
LINE
  5
7A8F
  8
1
  6
CONTINUOUS
 10
6805.7524789999998
 20
2817.6996909999989
 30
0.0
 11
5525.7524789999998
 21
2817.6996909999989
 31
0.0
  0
LINE
  5
7A90
  8
1
  6
CONTINUOUS
 10
6805.7524789999998
 20
2967.6996909999989
 30
0.0
 11
5525.7524789999998
 21
2967.6996909999989
 31
0.0
  0
LINE
  5
7A91
  8
1
  6
CONTINUOUS
 10
5777.7524789999998
 20
5076.6996909999989
 30
0.0
 11
6727.7524789999998
 21
5076.6996909999989
 31
0.0
  0
LINE
  5
7A92
  8
1
  6
CONTINUOUS
 10
5777.7524789999998
 20
3796.6996909999998
 30
0.0
 11
6727.7524789999998
 21
3796.6996909999998
 31
0.0
  0
LINE
  5
7A93
  8
1
  6
CONTINUOUS
 10
5777.7524789999998
 20
3796.6996909999998
 30
0.0
 11
6727.7524789999998
 21
5076.6996909999989
 31
0.0
  0
LINE
  5
7A94
  8
1
  6
CONTINUOUS
 10
5777.7524789999998
 20
5076.6996909999989
 30
0.0
 11
6727.7524789999998
 21
3796.6996909999998
 31
0.0
  0
LINE
  5
7A95
  8
1
  6
CONTINUOUS
 10
5777.7524789999998
 20
2967.6996909999989
 30
0.0
 11
5777.7524789999998
 21
5076.6996909999989
 31
0.0
  0
LINE
  5
7A96
  8
1
  6
CONTINUOUS
 10
5582.7524789999989
 20
3770.1996909999998
 30
0.0
 11
5777.7524789999998
 21
3770.1996909999998
 31
0.0
  0
LINE
  5
7A97
  8
1
  6
CONTINUOUS
 10
5582.7524789999989
 20
3715.1996909999998
 30
0.0
 11
5777.7524789999998
 21
3715.1996909999998
 31
0.0
  0
LINE
  5
7A98
  8
1
  6
CONTINUOUS
 10
5582.7524789999989
 20
3175.1996909999989
 30
0.0
 11
5777.7524789999998
 21
3175.1996909999989
 31
0.0
  0
LINE
  5
7A99
  8
1
  6
CONTINUOUS
 10
5582.7524789999989
 20
3230.1996909999998
 30
0.0
 11
5777.7524789999998
 21
3230.1996909999998
 31
0.0
  0
LINE
  5
7A9A
  8
1
  6
CONTINUOUS
 10
5412.7524789999989
 20
2982.6996909999998
 30
0.0
 11
5412.7524789999989
 21
4120.6996909999998
 31
0.0
  0
LINE
  5
7A9B
  8
1
  6
CONTINUOUS
 10
5652.7524789999998
 20
2982.6996909999998
 30
0.0
 11
5652.7524789999998
 21
4120.6996909999998
 31
0.0
  0
LINE
  5
7A9C
  8
1
  6
CONTINUOUS
 10
5525.7524789999998
 20
2817.6996909999989
 30
0.0
 11
5525.7524789999998
 21
2967.6996909999989
 31
0.0
  0
LINE
  5
7A9D
  8
1
  6
CONTINUOUS
 10
5482.7524789999998
 20
3082.6996909999998
 30
0.0
 11
5582.7524789999989
 21
3082.6996909999998
 31
0.0
  0
LINE
  5
7A9E
  8
1
  6
CONTINUOUS
 10
5482.7524789999998
 20
3322.6996909999989
 30
0.0
 11
5582.7524789999989
 21
3322.6996909999989
 31
0.0
  0
LINE
  5
7A9F
  8
1
  6
CONTINUOUS
 10
5412.7524789999989
 20
2982.6996909999998
 30
0.0
 11
5652.7524789999998
 21
2982.6996909999998
 31
0.0
  0
LINE
  5
7AA0
  8
1
  6
CONTINUOUS
 10
5582.7524789999989
 20
3082.6996909999998
 30
0.0
 11
5582.7524789999989
 21
3322.6996909999989
 31
0.0
  0
LINE
  5
7AA1
  8
1
  6
CONTINUOUS
 10
5482.7524789999998
 20
3082.6996909999998
 30
0.0
 11
5482.7524789999998
 21
3322.6996909999989
 31
0.0
  0
LINE
  5
7AA2
  8
1
  6
CONTINUOUS
 10
5482.7524789999998
 20
4020.6996909999989
 30
0.0
 11
5582.7524789999989
 21
4020.6996909999989
 31
0.0
  0
LINE
  5
7AA3
  8
1
  6
CONTINUOUS
 10
5482.7524789999998
 20
3464.6996909999989
 30
0.0
 11
5582.7524789999989
 21
3464.6996909999989
 31
0.0
  0
LINE
  5
7AA4
  8
1
  6
CONTINUOUS
 10
5412.7524789999989
 20
4120.6996909999998
 30
0.0
 11
5652.7524789999998
 21
4120.6996909999998
 31
0.0
  0
LINE
  5
7AA5
  8
1
  6
CONTINUOUS
 10
5482.7524789999998
 20
3464.6996909999989
 30
0.0
 11
5482.7524789999998
 21
4020.6996909999989
 31
0.0
  0
LINE
  5
7AA6
  8
1
  6
CONTINUOUS
 10
5582.7524789999989
 20
3464.6996909999989
 30
0.0
 11
5582.7524789999989
 21
4020.6996909999989
 31
0.0
  0
LINE
  5
7AA7
  8
1
  6
CONTINUOUS
 10
6727.7524789999998
 20
2967.6996909999989
 30
0.0
 11
6727.7524789999998
 21
5076.6996909999989
 31
0.0
  0
LINE
  5
7AA8
  8
1
  6
CONTINUOUS
 10
6830.7524789999998
 20
3067.6996909999998
 30
0.0
 11
6830.7524789999998
 21
4417.6996909999998
 31
0.0
  0
LINE
  5
7AA9
  8
1
  6
CONTINUOUS
 10
6805.7524789999998
 20
2817.6996909999989
 30
0.0
 11
6805.7524789999998
 21
2967.6996909999989
 31
0.0
  0
LINE
  5
7AAA
  8
1
  6
CONTINUOUS
 10
6727.7524789999998
 20
3117.6996909999998
 30
0.0
 11
6830.7524789999998
 21
3117.6996909999998
 31
0.0
  0
LINE
  5
7AAB
  8
1
  6
CONTINUOUS
 10
6727.7524789999998
 20
4367.6996909999998
 30
0.0
 11
6830.7524789999998
 21
4367.6996909999998
 31
0.0
  0
LINE
  5
7AAC
  8
1
  6
CONTINUOUS
 10
3833.473179999999
 20
8410.6555669999998
 30
0.0
 11
1925.97318
 21
8410.6555669999998
 31
0.0
  0
LINE
  5
7AAD
  8
1
  6
CONTINUOUS
 10
3833.473179999999
 20
7460.6555669999998
 30
0.0
 11
1925.97318
 21
7460.6555669999998
 31
0.0
  0
LINE
  5
7AAE
  8
1
  6
CONTINUOUS
 10
3386.473179999999
 20
7095.6555669999998
 30
0.0
 11
1313.47318
 21
7095.6555669999998
 31
0.0
  0
LINE
  5
7AAF
  8
1
  6
CONTINUOUS
 10
3386.473179999999
 20
7335.6555669999998
 30
0.0
 11
1313.47318
 21
7335.6555669999998
 31
0.0
  0
LINE
  5
7AB0
  8
1
  6
CONTINUOUS
 10
1753.47318
 20
7208.6555669999998
 30
0.0
 11
2730.47318
 21
7208.6555669999998
 31
0.0
  0
LINE
  5
7AB1
  8
1
  6
CONTINUOUS
 10
2383.47318
 20
8488.6555669999998
 30
0.0
 11
1208.47318
 21
8488.6555669999998
 31
0.0
  0
LINE
  5
7AB2
  8
1
  6
CONTINUOUS
 10
1208.47318
 20
8488.6555669999998
 30
0.0
 11
1208.47318
 21
7208.6555669999998
 31
0.0
  0
LINE
  5
7AB3
  8
1
  6
CONTINUOUS
 10
1208.47318
 20
7208.6555669999998
 30
0.0
 11
1513.47318
 21
7208.6555669999998
 31
0.0
  0
LINE
  5
7AB4
  8
1
  6
CONTINUOUS
 10
1313.47318
 20
7095.6555669999998
 30
0.0
 11
1313.47318
 21
7335.6555669999998
 31
0.0
  0
LINE
  5
7AB5
  8
1
  6
CONTINUOUS
 10
1832.573179999999
 20
7380.1555669999998
 30
0.0
 11
1832.573179999999
 21
7979.6555669999998
 31
0.0
  0
LINE
  5
7AB6
  8
1
  6
CONTINUOUS
 10
1434.37318
 20
7380.1555669999998
 30
0.0
 11
1434.37318
 21
7979.6555669999998
 31
0.0
  0
LINE
  5
7AB7
  8
1
  6
CONTINUOUS
 10
1925.97318
 20
7460.6555669999998
 30
0.0
 11
1925.97318
 21
8410.6555669999998
 31
0.0
  0
LINE
  5
7AB8
  8
1
  6
CONTINUOUS
 10
1434.37318
 20
7380.1555669999998
 30
0.0
 11
1832.573179999999
 21
7380.1555669999998
 31
0.0
  0
LINE
  5
7AB9
  8
1
  6
CONTINUOUS
 10
1513.47318
 20
7265.6555669999998
 30
0.0
 11
1753.47318
 21
7265.6555669999998
 31
0.0
  0
LINE
  5
7ABA
  8
1
  6
CONTINUOUS
 10
1513.47318
 20
7165.6555669999998
 30
0.0
 11
1753.47318
 21
7165.6555669999998
 31
0.0
  0
LINE
  5
7ABB
  8
1
  6
CONTINUOUS
 10
1605.97318
 20
7265.6555669999998
 30
0.0
 11
1605.97318
 21
7380.1555669999998
 31
0.0
  0
LINE
  5
7ABC
  8
1
  6
CONTINUOUS
 10
1513.47318
 20
7165.6555669999998
 30
0.0
 11
1513.47318
 21
7265.6555669999998
 31
0.0
  0
LINE
  5
7ABD
  8
1
  6
CONTINUOUS
 10
1660.97318
 20
7265.6555669999998
 30
0.0
 11
1660.97318
 21
7380.1555669999998
 31
0.0
  0
LINE
  5
7ABE
  8
1
  6
CONTINUOUS
 10
1753.47318
 20
7165.6555669999998
 30
0.0
 11
1753.47318
 21
7265.6555669999998
 31
0.0
  0
LINE
  5
7ABF
  8
1
  6
CONTINUOUS
 10
1434.37318
 20
7979.6555669999998
 30
0.0
 11
1832.573179999999
 21
7979.6555669999998
 31
0.0
  0
LINE
  5
7AC0
  8
1
  6
CONTINUOUS
 10
3683.473179999999
 20
8513.655566999998
 30
0.0
 11
2333.473179999999
 21
8513.655566999998
 31
0.0
  0
LINE
  5
7AC1
  8
1
  6
CONTINUOUS
 10
2730.47318
 20
7265.6555669999998
 30
0.0
 11
3286.47318
 21
7265.6555669999998
 31
0.0
  0
LINE
  5
7AC2
  8
1
  6
CONTINUOUS
 10
2730.47318
 20
7165.6555669999998
 30
0.0
 11
3286.47318
 21
7165.6555669999998
 31
0.0
  0
LINE
  5
7AC3
  8
1
  6
CONTINUOUS
 10
2383.47318
 20
8410.6555669999998
 30
0.0
 11
2383.47318
 21
8513.655566999998
 31
0.0
  0
LINE
  5
7AC4
  8
1
  6
CONTINUOUS
 10
2730.47318
 20
7165.6555669999998
 30
0.0
 11
2730.47318
 21
7265.6555669999998
 31
0.0
  0
LINE
  5
7AC5
  8
1
  6
CONTINUOUS
 10
2980.97318
 20
7265.6555669999998
 30
0.0
 11
2980.97318
 21
7460.6555669999998
 31
0.0
  0
LINE
  5
7AC6
  8
1
  6
CONTINUOUS
 10
3035.97318
 20
7265.6555669999998
 30
0.0
 11
3035.97318
 21
7460.6555669999998
 31
0.0
  0
LINE
  5
7AC7
  8
1
  6
CONTINUOUS
 10
3833.473179999999
 20
7410.6555669999998
 30
0.0
 11
3833.473179999999
 21
8460.6555670000016
 31
0.0
  0
LINE
  5
7AC8
  8
1
  6
CONTINUOUS
 10
3633.473179999999
 20
8410.6555669999998
 30
0.0
 11
3633.473179999999
 21
8513.655566999998
 31
0.0
  0
LINE
  5
7AC9
  8
1
  6
CONTINUOUS
 10
3758.473179999999
 20
8410.6555669999998
 30
0.0
 11
3758.473179999999
 21
8488.6555669999998
 31
0.0
  0
LINE
  5
7ACA
  8
1
  6
CONTINUOUS
 10
3286.47318
 20
7208.6555669999998
 30
0.0
 11
3758.473179999999
 21
7208.6555669999998
 31
0.0
  0
LINE
  5
7ACB
  8
1
  6
CONTINUOUS
 10
3286.47318
 20
7165.6555669999998
 30
0.0
 11
3286.47318
 21
7265.6555669999998
 31
0.0
  0
LINE
  5
7ACC
  8
1
  6
CONTINUOUS
 10
3386.473179999999
 20
7095.6555669999998
 30
0.0
 11
3386.473179999999
 21
7335.6555669999998
 31
0.0
  0
LINE
  5
7ACD
  8
1
  6
CONTINUOUS
 10
3758.473179999999
 20
7208.6555669999998
 30
0.0
 11
3758.473179999999
 21
7460.6555669999998
 31
0.0
  0
LINE
  5
7ACE
  8
1
  6
CONTINUOUS
 10
3783.473179999999
 20
7460.6555669999998
 30
0.0
 11
3783.473179999999
 21
8410.6555669999998
 31
0.0
  0
LINE
  5
7ACF
  8
1
  6
CONTINUOUS
 10
3758.473179999999
 20
8488.6555669999998
 30
0.0
 11
3633.473179999999
 21
8488.6555669999998
 31
0.0
  0
LINE
  5
7AD0
  8
2
  6
CENTER
 10
1149.927494999999
 20
7935.6555670000007
 30
0.0
 11
3974.2431419999998
 21
7935.6555670000007
 31
0.0
  0
LINE
  5
7AD1
  8
2
  6
CENTER
 10
6252.7524789999998
 20
5499.6196030000001
 30
0.0
 11
6252.7524789999998
 21
5467.1974409999993
 31
0.0
  0
LINE
  5
7AD3
  8
2
  6
CENTER
 10
5342.0499170000003
 20
3742.6996909999998
 30
0.0
 11
6945.4624660000009
 21
3742.6996909999998
 31
0.0
  0
LINE
  5
7AD4
  8
2
  6
CENTER
 10
3008.47318
 20
6994.8119150000011
 30
0.0
 11
3008.47318
 21
8656.7685019999972
 31
0.0
  0
LINE
  5
7AD5
  8
4
  6
CONTINUOUS
 10
7400.0
 20
2000.0
 30
0.0
 11
7400.0
 21
1200.0
 31
0.0
  0
LINE
  5
7AD6
  8
4
  6
CONTINUOUS
 10
4600.0
 20
2000.0
 30
0.0
 11
4600.0
 21
1200.0
 31
0.0
  0
LINE
  5
7AD7
  8
4
  6
CONTINUOUS
 10
2600.0
 20
2000.0
 30
0.0
 11
2600.0
 21
1200.0
 31
0.0
  0
LINE
  5
7ADA
  8
4
  6
CONTINUOUS
 10
2600.0
 20
1200.0
 30
0.0
 11
7400.0
 21
1200.0
 31
0.0
  0
LINE
  5
7ADB
  8
4
  6
CONTINUOUS
 10
2600.0
 20
1600.0
 30
0.0
 11
7400.0
 21
1600.0
 31
0.0
  0
TEXT
  5
7ADC
  8
4
  6
CONTINUOUS
 10
2754.008323
 20
1726.1721030000001
 30
0.0
 40
200.0
  1
機器名称
  0
TEXT
  5
7ADD
  8
4
  6
CONTINUOUS
 10
2745.032424
 20
1286.580627
 30
0.0
 40
200.0
  1
機器型番
  0
TEXT
  5
7ADE
  8
4
  6
CONTINUOUS
 10
4710.7149820000004
 20
1690.2870760000001
 30
0.0
 40
200.0
  1
ミツヤ多翼送風機
  0
TEXT
  5
7ADF
  8
4
  6
CONTINUOUS
 10
4746.6179819999998
 20
1268.6383370000001
 30
0.0
 40
200.0
  1
MFE#8-4
  0
TEXT
  5
7AE1
  8
4
  6
CONTINUOUS
 10
3619.1430620000001
 20
9533.715365
 30
0.0
 40
216.0
  1
床置ベット
  0
TEXT
  5
7AE2
  8
4
  6
CONTINUOUS
 10
1264.6703729999999
 20
10135.523905
 30
0.0
 40
288.0
  1
ベルト駆動式片吸込両持排煙ファン
  0
LINE
  5
7AE3
  8
4
  6
CONTINUOUS
 10
1000.0
 20
9877.6350170000005
 30
0.0
 11
7400.0
 21
9877.6350170000005
 31
0.0
  0
LINE
  5
7AE4
  8
4
  6
CONTINUOUS
 10
1000.0
 20
10677.635017000001
 30
0.0
 11
7400.0
 21
10677.635017000001
 31
0.0
  0
LINE
  5
7AE5
  8
4
  6
CONTINUOUS
 10
2600.0
 20
2000.0
 30
0.0
 11
7400.0
 21
2000.0
 31
0.0
  0
LINE
  5
7AE6
  8
4
  6
CONTINUOUS
 10
1000.0
 20
10677.635017000001
 30
0.0
 11
1000.0
 21
9877.6350170000005
 31
0.0
  0
TEXT
  5
7AE7
  8
4
  6
CONTINUOUS
 10
1664.411558
 20
9529.2779099999989
 30
0.0
 40
216.0
  1
右回転右横向
  0
TEXT
  5
7AE8
  8
4
  6
CONTINUOUS
 10
5875.8782369999999
 20
10824.244326
 30
0.0
 40
224.0
  1
No.
  0
TEXT
  5
7AE9
  8
4
  6
CONTINUOUS
 10
5245.1842500000012
 20
9533.715365
 30
0.0
 40
216.0
  1
縮尺：1/40
  0
LINE
  5
7AEA
  8
4
  6
CONTINUOUS
 10
7400.0
 20
10677.635017000001
 30
0.0
 11
7400.0
 21
9877.6350170000005
 31
0.0
  0
LINE
  5
7AEC
  8
4
  6
CONTINUOUS
 10
5762.4696889999996
 20
10725.054333
 30
0.0
 11
5762.4696889999996
 21
11146.609046
 31
0.0
  0
LINE
  5
7AED
  8
4
  6
CONTINUOUS
 10
5762.4696889999996
 20
11146.609046
 30
0.0
 11
7400.0
 21
11146.609046
 31
0.0
  0
LINE
  5
7AEE
  8
4
  6
CONTINUOUS
 10
7400.0
 20
11146.609046
 30
0.0
 11
7400.0
 21
10725.054333
 31
0.0
  0
LINE
  5
7AEF
  8
4
  6
CONTINUOUS
 10
7400.0
 20
10725.054333
 30
0.0
 11
5762.4696889999996
 21
10725.054333
 31
0.0
  0
DIMENSION
  5
7B07
  8
3
  6
CONTINUOUS
  2
*D1
 10
4132.2651940000014
 20
3796.6996909999998
 30
0.0
 11
4132.2651939999996
 21
4368.2709219999988
 31
0.0
 70
   128
 13
3833.473179999999
 23
5076.6996909999989
 33
0.0
 14
3833.473179999999
 24
3796.6996909999998
 34
0.0
 50
90.0
1001
ACAD
1000
DSTYLE
1002
{
1070
   287
1070
     3
1070
   287
1070
     3
1070
    40
1040
40.0
1070
   143
1040
0.039
1070
   172
1070
     1
1070
   271
1070
     0
1070
   279
1070
     0
1070
   288
1070
     1
1002
}
  0
DIMENSION
  5
7B14
  8
3
  6
CONTINUOUS
  2
*D2
 10
4418.7628640000012
 20
3742.6996909999998
 30
0.0
 11
4418.7628640000003
 21
4385.1136020000004
 31
0.0
 70
   128
 13
3833.473179999999
 23
5076.6996909999989
 33
0.0
 14
3992.7204230000002
 24
3742.6996909999998
 34
0.0
 50
90.0
1001
ACAD
1000
DSTYLE
1002
{
1070
   287
1070
     3
1070
   287
1070
     3
1070
    40
1040
40.0
1070
   143
1040
0.039
1070
   172
1070
     1
1070
   271
1070
     0
1070
   279
1070
     0
1070
   288
1070
     1
1002
}
  0
DIMENSION
  5
7B20
  8
3
  6
CONTINUOUS
  2
*D3
 10
4418.7628640000003
 20
2817.6996909999989
 30
0.0
 11
4318.7628639999994
 21
3280.1996909999989
 31
0.0
 70
     0
 13
3992.7204230000002
 23
3742.6996909999998
 33
0.0
 14
3758.473179999999
 24
2817.6996909999989
 34
0.0
 50
90.0
1001
ACAD
1000
DSTYLE
1002
{
1070
   287
1070
     4
1070
   287
1070
     4
1070
    40
1040
40.0
1070
    75
1070
     1
1070
   143
1040
0.039
1070
   172
1070
     1
1070
   271
1070
     0
1070
   279
1070
     1
1070
   288
1070
     1
1002
}
  0
DIMENSION
  5
7B2D
  8
3
  6
CONTINUOUS
  2
*D4
 10
4764.9180690000003
 20
2817.6996909999989
 30
0.0
 11
4764.9180689999994
 21
3896.050581
 31
0.0
 70
   128
 13
3833.473179999999
 23
5132.6996909999998
 33
0.0
 14
3758.473179999999
 24
2817.6996909999989
 34
0.0
 50
90.0
1001
ACAD
1000
DSTYLE
1002
{
1070
   287
1070
     3
1070
   287
1070
     3
1070
    40
1040
40.0
1070
   143
1040
0.039
1070
   172
1070
     1
1070
   271
1070
     0
1070
   279
1070
     0
1070
   288
1070
     1
1002
}
  0
DIMENSION
  5
7B3A
  8
3
  6
CONTINUOUS
  2
*D5
 10
3008.47318
 20
2515.9882320000002
 30
0.0
 11
2197.6269510000002
 21
2515.9882320000002
 31
0.0
 70
   128
 13
1208.47318
 23
2817.6996909999989
 33
0.0
 14
3008.47318
 24
2707.5861399999999
 34
0.0
1001
ACAD
1000
DSTYLE
1002
{
1070
   287
1070
     3
1070
   287
1070
     3
1070
    40
1040
40.0
1070
   143
1040
0.039
1070
   172
1070
     1
1070
   271
1070
     0
1070
   279
1070
     0
1070
   288
1070
     1
1002
}
  0
DIMENSION
  5
7B46
  8
3
  6
CONTINUOUS
  2
*D6
 10
3758.473179999999
 20
2515.9882320000002
 30
0.0
 11
3383.47318
 21
2615.9882320000002
 31
0.0
 70
     0
 13
3008.47318
 23
2707.5861399999999
 33
0.0
 14
3758.473179999999
 24
2817.6996909999989
 34
0.0
1001
ACAD
1000
DSTYLE
1002
{
1070
   287
1070
     4
1070
   287
1070
     4
1070
    40
1040
40.0
1070
    75
1070
     1
1070
   143
1040
0.039
1070
   172
1070
     1
1070
   271
1070
     0
1070
   279
1070
     1
1070
   288
1070
     1
1002
}
  0
DIMENSION
  5
7B53
  8
3
  6
CONTINUOUS
  2
*D7
 10
3008.47318
 20
5363.5816610000011
 30
0.0
 11
3422.9249809999992
 21
5363.5816610000011
 31
0.0
 70
   128
 13
3833.473179999999
 23
5132.6996909999998
 33
0.0
 14
3008.47318
 24
5211.6216850000001
 34
0.0
1001
ACAD
1000
DSTYLE
1002
{
1070
   287
1070
     3
1070
   287
1070
     3
1070
    40
1040
40.0
1070
   143
1040
0.039
1070
   172
1070
     1
1070
   271
1070
     0
1070
   279
1070
     0
1070
   288
1070
     1
1002
}
  0
DIMENSION
  5
7B6C
  8
3
  6
CONTINUOUS
  2
*D8
 10
6727.7524789999998
 20
5276.1129310000006
 30
0.0
 11
6257.492037
 21
5276.1129310000006
 31
0.0
 70
   128
 13
5777.7524789999998
 23
5076.6996909999989
 33
0.0
 14
6727.7524789999998
 24
5076.6996909999989
 34
0.0
1001
ACAD
1000
DSTYLE
1002
{
1070
   287
1070
     3
1070
   287
1070
     3
1070
    40
1040
40.0
1070
   143
1040
0.039
1070
   172
1070
     1
1070
   271
1070
     0
1070
   279
1070
     0
1070
   288
1070
     1
1002
}
  0
DIMENSION
  5
7B79
  8
3
  6
CONTINUOUS
  2
*D9
 10
7152.1540810000024
 20
3117.6996909999998
 30
0.0
 11
7152.1540809999997
 21
3740.5505819999998
 31
0.0
 70
   128
 13
6830.7524789999998
 23
4367.6996909999998
 33
0.0
 14
6830.7524789999998
 24
3117.6996909999998
 34
0.0
 50
90.0
1001
ACAD
1000
DSTYLE
1002
{
1070
   287
1070
     3
1070
   287
1070
     3
1070
     3
1000
φ<>
1070
    40
1040
40.0
1070
   143
1040
0.039
1070
   172
1070
     1
1070
   271
1070
     0
1070
   279
1070
     0
1070
   288
1070
     1
1002
}
  0
DIMENSION
  5
7B86
  8
3
  6
CONTINUOUS
  2
*D10
 10
6252.7524789999998
 20
5557.9566450000002
 30
0.0
 11
6527.0381930000003
 21
5557.9566450000002
 31
0.0
 70
   128
 13
6830.7524789999998
 23
4417.6996909999998
 33
0.0
 14
6252.7524789999998
 24
5499.6196030000001
 34
0.0
1001
ACAD
1000
DSTYLE
1002
{
1070
   287
1070
     3
1070
   287
1070
     3
1070
    40
1040
40.0
1070
   143
1040
0.039
1070
   172
1070
     1
1070
   271
1070
     0
1070
   279
1070
     0
1070
   288
1070
     1
1002
}
  0
DIMENSION
  5
7B92
  8
3
  6
CONTINUOUS
  2
*D11
 10
5412.7524789999989
 20
5557.9566450000002
 30
0.0
 11
5832.7524789999989
 21
5757.9566450000002
 31
0.0
 70
     0
  1
MAX\P890
 13
6252.7524789999998
 23
5499.6196030000001
 33
0.0
 14
5412.7524789999989
 24
4120.6996909999998
 34
0.0
1001
ACAD
1000
DSTYLE
1002
{
1070
   287
1070
     4
1070
   287
1070
     4
1070
    40
1040
40.0
1070
    75
1070
     1
1070
   143
1040
0.039
1070
   172
1070
     1
1070
   271
1070
     0
1070
   279
1070
     1
1070
   288
1070
     1
1002
}
  0
DIMENSION
  5
7B9F
  8
3
  6
CONTINUOUS
  2
*D12
 10
6252.7524789999998
 20
2525.7069929999998
 30
0.0
 11
5978.4667650000001
 21
2525.7069929999998
 31
0.0
 70
   128
 13
5525.7524789999998
 23
2817.6996909999989
 33
0.0
 14
6252.7524789999998
 24
2681.7544330000001
 34
0.0
1001
ACAD
1000
DSTYLE
1002
{
1070
   287
1070
     3
1070
   287
1070
     3
1070
    40
1040
40.0
1070
   143
1040
0.039
1070
   172
1070
     1
1070
   271
1070
     0
1070
   279
1070
     0
1070
   288
1070
     1
1002
}
  0
DIMENSION
  5
7BAB
  8
3
  6
CONTINUOUS
  2
*D13
 10
6805.7524789999998
 20
2525.7069929999998
 30
0.0
 11
6529.2524789999998
 21
2625.7069929999998
 31
0.0
 70
     0
 13
6252.7524789999998
 23
2681.7544330000001
 33
0.0
 14
6805.7524789999998
 24
2817.6996909999989
 34
0.0
1001
ACAD
1000
DSTYLE
1002
{
1070
   287
1070
     4
1070
   287
1070
     4
1070
    40
1040
40.0
1070
    75
1070
     1
1070
   143
1040
0.039
1070
   172
1070
     1
1070
   271
1070
     0
1070
   279
1070
     1
1070
   288
1070
     1
1002
}
  0
LINE
  5
7BC1
  8
2
  6
CENTER
 10
6252.7524789999998
 20
5294.057847
 30
0.0
 11
6252.7524789999998
 21
2681.7544330000001
 31
0.0
  0
DIMENSION
  5
7BCE
  8
3
  6
CONTINUOUS
  2
*D14
 10
3758.473179999999
 20
6805.5993849999986
 30
0.0
 11
2460.1907660000002
 21
6805.5993849999986
 31
0.0
 70
   128
 13
1208.47318
 23
7208.6555669999998
 33
0.0
 14
3758.473179999999
 24
7208.6555669999998
 34
0.0
1001
ACAD
1000
DSTYLE
1002
{
1070
   287
1070
     3
1070
   287
1070
     3
1070
    40
1040
40.0
1070
   143
1040
0.039
1070
   172
1070
     1
1070
   271
1070
     0
1070
   279
1070
     0
1070
   288
1070
     1
1002
}
  0
DIMENSION
  5
7BDB
  8
3
  6
CONTINUOUS
  2
*D15
 10
4210.6165610000007
 20
7208.6555669999998
 30
0.0
 11
4210.6165609999998
 21
7845.5055430000011
 31
0.0
 70
   128
 13
3758.473179999999
 23
8488.6555669999998
 33
0.0
 14
3758.473179999999
 24
7208.6555669999998
 34
0.0
 50
90.0
1001
ACAD
1000
DSTYLE
1002
{
1070
   287
1070
     3
1070
   287
1070
     3
1070
    40
1040
40.0
1070
   143
1040
0.039
1070
   172
1070
     1
1070
   271
1070
     0
1070
   279
1070
     0
1070
   288
1070
     1
1002
}
  0
DIMENSION
  5
7BF1
  8
3
  6
CONTINUOUS
  2
*D16
 10
1929.47318
 20
5363.5816610000011
 30
0.0
 11
2468.97318
 21
5463.5816610000002
 31
0.0
 70
     0
 13
3008.47318
 23
5211.6216850000001
 33
0.0
 14
1929.47318
 24
3742.6996909999998
 34
0.0
1001
ACAD
1000
DSTYLE
1002
{
1070
   287
1070
     4
1070
   287
1070
     4
1070
    40
1040
40.0
1070
    75
1070
     1
1070
   143
1040
0.039
1070
   172
1070
     1
1070
   271
1070
     0
1070
   279
1070
     1
1070
   288
1070
     1
1002
}
  0
DIMENSION
  5
7C2F
  8
3
  2
*D17
 10
1208.47318
 20
5616.4749509474268
 30
0.0
 11
2604.400528967235
 21
5616.4749509474268
 31
0.0
 70
   128
 13
3833.473179999999
 23
5132.6996909999998
 33
0.0
 14
1208.47318
 24
2967.6996909999989
 34
0.0
1001
ACAD
1000
DSTYLE
1002
{
1070
   287
1070
     3
1070
   287
1070
     3
1070
    40
1040
40.0
1070
   143
1040
0.039
1070
   172
1070
     1
1070
   271
1070
     0
1070
   279
1070
     0
1070
   288
1070
     1
1002
}
  0
ENDSEC
  0
EOF
