  0
SECTION
  2
HEADER
  9
$ACADVER
  1
AC1009
  9
$INSBASE
 10
0.0
 20
0.0
 30
0.0
  9
$EXTMIN
 10
1000.0
 20
1200.0
 30
0.0
  9
$EXTMAX
 10
7400.0
 20
11146.609046
 30
0.0
  9
$LIMMIN
 10
0.0
 20
0.0
  9
$LIMMAX
 10
297.0
 20
210.0
  9
$ORTHOMODE
 70
     0
  9
$REGENMODE
 70
     1
  9
$FILLMODE
 70
     0
  9
$QTEXTMODE
 70
     0
  9
$MIRRTEXT
 70
     1
  9
$DRAGMODE
 70
     2
  9
$LTSCALE
 40
100.0
  9
$OSMODE
 70
    37
  9
$ATTMODE
 70
     1
  9
$TEXTSIZE
 40
180.0
  9
$TRACEWID
 40
0.05
  9
$TEXTSTYLE
  7
STANDARD
  9
$CLAYER
  8
3
  9
$CELTYPE
  6
BYLAYER
  9
$CECOLOR
 62
   256
  9
$DIMSCALE
 40
40.0
  9
$DIMASZ
 40
2.0
  9
$DIMEXO
 40
0.5
  9
$DIMDLI
 40
10.0
  9
$DIMRND
 40
0.0
  9
$DIMDLE
 40
0.0
  9
$DIMEXE
 40
1.0
  9
$DIMTP
 40
1.0
  9
$DIMTM
 40
1.0
  9
$DIMTXT
 40
3.0
  9
$DIMCEN
 40
0.0
  9
$DIMTSZ
 40
0.0
  9
$DIMTOL
 70
     0
  9
$DIMLIM
 70
     0
  9
$DIMTIH
 70
     0
  9
$DIMTOH
 70
     0
  9
$DIMSE1
 70
     0
  9
$DIMSE2
 70
     0
  9
$DIMTAD
 70
     1
  9
$DIMZIN
 70
     8
  9
$DIMBLK
  1

  9
$DIMASO
 70
     1
  9
$DIMSHO
 70
     1
  9
$DIMPOST
  1

  9
$DIMAPOST
  1

  9
$DIMALT
 70
     0
  9
$DIMALTD
 70
     2
  9
$DIMALTF
 40
0.039
  9
$DIMLFAC
 40
1.0
  9
$DIMTOFL
 70
     1
  9
$DIMTVP
 40
0.0
  9
$DIMTIX
 70
     0
  9
$DIMSOXD
 70
     0
  9
$DIMSAH
 70
     1
  9
$DIMBLK1
  1
OPEN
  9
$DIMBLK2
  1
OPEN
  9
$DIMSTYLE
  2
IGA
  9
$DIMCLRD
 70
     0
  9
$DIMCLRE
 70
     0
  9
$DIMCLRT
 70
     0
  9
$DIMTFAC
 40
10.0
  9
$DIMGAP
 40
1.0
  9
$LUNITS
 70
     2
  9
$LUPREC
 70
     3
  9
$SKETCHINC
 40
0.1
  9
$FILLETRAD
 40
50.0
  9
$AUNITS
 70
     0
  9
$AUPREC
 70
     0
  9
$MENU
  1
acad
  9
$ELEVATION
 40
0.0
  9
$PELEVATION
 40
0.0
  9
$THICKNESS
 40
0.0
  9
$LIMCHECK
 70
     0
  9
$BLIPMODE
 70
     0
  9
$CHAMFERA
 40
0.5
  9
$CHAMFERB
 40
0.5
  9
$SKPOLY
 70
     0
  9
$TDCREATE
 40
2450757.5369583331
  9
$TDUPDATE
 40
2454953.84441787
  9
$TDINDWG
 40
0.0055444676
  9
$TDUSRTIMER
 40
0.0055444676
  9
$USRTIMER
 70
     1
  9
$ANGBASE
 50
0.0
  9
$ANGDIR
 70
     0
  9
$PDMODE
 70
     0
  9
$PDSIZE
 40
0.0
  9
$PLINEWID
 40
0.0
  9
$COORDS
 70
     1
  9
$SPLFRAME
 70
     0
  9
$SPLINETYPE
 70
     6
  9
$SPLINESEGS
 70
     8
  9
$ATTDIA
 70
     0
  9
$ATTREQ
 70
     1
  9
$HANDLING
 70
 10241
  9
$HANDSEED
  5
7E45
  9
$SURFTAB1
 70
     6
  9
$SURFTAB2
 70
     6
  9
$SURFTYPE
 70
     6
  9
$SURFU
 70
     6
  9
$SURFV
 70
     6
  9
$UCSNAME
  2

  9
$UCSORG
 10
0.0
 20
0.0
 30
0.0
  9
$UCSXDIR
 10
1.0
 20
0.0
 30
0.0
  9
$UCSYDIR
 10
0.0
 20
1.0
 30
0.0
  9
$PUCSNAME
  2

  9
$PUCSORG
 10
0.0
 20
0.0
 30
0.0
  9
$PUCSXDIR
 10
1.0
 20
0.0
 30
0.0
  9
$PUCSYDIR
 10
0.0
 20
1.0
 30
0.0
  9
$USERI1
 70
     0
  9
$USERI2
 70
     0
  9
$USERI3
 70
     0
  9
$USERI4
 70
     0
  9
$USERI5
 70
     0
  9
$USERR1
 40
0.0
  9
$USERR2
 40
0.0
  9
$USERR3
 40
0.0
  9
$USERR4
 40
0.0
  9
$USERR5
 40
0.0
  9
$WORLDVIEW
 70
     1
  9
$SHADEDGE
 70
     3
  9
$SHADEDIF
 70
    70
  9
$TILEMODE
 70
     1
  9
$MAXACTVP
 70
    16
  9
$PLIMCHECK
 70
     0
  9
$PEXTMIN
 10
1.0000000000000000E+020
 20
1.0000000000000000E+020
 30
1.0000000000000000E+020
  9
$PEXTMAX
 10
-1.0000000000000000E+020
 20
-1.0000000000000000E+020
 30
-1.0000000000000000E+020
  9
$PLIMMIN
 10
0.0
 20
0.0
  9
$PLIMMAX
 10
12.0
 20
9.0
  9
$UNITMODE
 70
     0
  9
$VISRETAIN
 70
     0
  9
$PLINEGEN
 70
     0
  9
$PSLTSCALE
 70
     1
  0
ENDSEC
  0
SECTION
  2
TABLES
  0
TABLE
  2
VPORT
 70
     2
  0
VPORT
  2
*ACTIVE
 70
     0
 10
0.0
 20
0.0
 11
1.0
 21
1.0
 12
8989.4062458497738
 22
4935.4960712525753
 13
0.0
 23
0.0
 14
10.0
 24
10.0
 15
10.0
 25
10.0
 16
0.0
 26
0.0
 36
1.0
 17
0.0
 27
0.0
 37
0.0
 40
14578.418086324111
 41
1.5051150895140659
 42
50.0
 43
0.0
 44
0.0
 50
0.0
 51
0.0
 71
     0
 72
   100
 73
     1
 74
     0
 75
     0
 76
     0
 77
     0
 78
     0
  0
ENDTAB
  0
TABLE
  2
LTYPE
 70
     2
  0
LTYPE
  2
CONTINUOUS
 70
     0
  3
Solid line
 72
    65
 73
     0
 40
0.0
  0
LTYPE
  2
CENTER
 70
     0
  3
____ _ ____ _ ____ _ ____ _ ____ _ ____ _ ____ 
 72
    65
 73
     4
 40
2.0
 49
1.25
 49
-0.25
 49
0.25
 49
-0.25
  0
ENDTAB
  0
TABLE
  2
LAYER
 70
     6
  0
LAYER
  2
0
 70
     0
 62
     7
  6
CONTINUOUS
  0
LAYER
  2
3
 70
     0
 62
     2
  6
CONTINUOUS
  0
LAYER
  2
2
 70
     0
 62
     3
  6
CENTER
  0
LAYER
  2
1
 70
     0
 62
     4
  6
CONTINUOUS
  0
LAYER
  2
4
 70
     0
 62
     7
  6
CONTINUOUS
  0
LAYER
  2
DEFPOINTS
 70
     0
 62
     7
  6
CONTINUOUS
  0
ENDTAB
  0
TABLE
  2
STYLE
 70
     1
  0
STYLE
  2
STANDARD
 70
     0
 40
0.0
 41
1.0
 50
0.0
 71
     0
 42
180.0
  3
simplex.shx
  4
extfont.shx
  0
ENDTAB
  0
TABLE
  2
VIEW
 70
     0
  0
ENDTAB
  0
TABLE
  2
UCS
 70
     0
  0
ENDTAB
  0
TABLE
  2
APPID
 70
     1
  0
APPID
  2
ACAD
 70
     0
  0
ENDTAB
  0
TABLE
  2
DIMSTYLE
 70
     1
  0
DIMSTYLE
  2
IGA
 70
     0
  3

  4

  5

  6
OPEN
  7
OPEN
 40
2.0
 41
2.0
 42
0.5
 43
10.0
 44
1.0
 45
0.0
 46
0.0
 47
1.0
 48
1.0
140
3.0
141
0.0
142
0.0
143
0.03937
144
1.0
145
0.0
146
10.0
147
1.0
 71
     0
 72
     0
 73
     0
 74
     0
 75
     0
 76
     0
 77
     1
 78
     8
170
     0
171
     2
172
     0
173
     1
174
     0
175
     0
176
     0
177
     0
178
     0
  0
ENDTAB
  0
ENDSEC
  0
SECTION
  2
BLOCKS
  0
BLOCK
  8
0
  2
$MODEL_SPACE
 70
     0
 10
0.0
 20
0.0
 30
0.0
  3
$MODEL_SPACE
  1

  0
ENDBLK
  5
1B
  8
0
  0
BLOCK
 67
     1
  8
0
  2
$PAPER_SPACE
 70
     0
 10
0.0
 20
0.0
 30
0.0
  3
$PAPER_SPACE
  1

  0
ENDBLK
  5
18
 67
     1
  8
0
  0
BLOCK
  8
0
  2
_OPEN
 70
     0
 10
0.0
 20
0.0
 30
0.0
  3
_OPEN
  1

  0
LINE
  5
7AF9
  8
0
  6
BYBLOCK
 62
     0
 10
-1.0
 20
0.166667
 30
0.0
 11
0.0
 21
0.0
 31
0.0
  0
LINE
  5
7AFA
  8
0
  6
BYBLOCK
 62
     0
 10
0.0
 20
0.0
 30
0.0
 11
-1.0
 21
-0.166667
 31
0.0
  0
LINE
  5
7AFB
  8
0
  6
BYBLOCK
 62
     0
 10
0.0
 20
0.0
 30
0.0
 11
-1.0
 21
0.0
 31
0.0
  0
ENDBLK
  5
7AFC
  8
0
  0
BLOCK
  8
0
  2
*D1
 70
     1
 10
0.0
 20
0.0
 30
0.0
  3
*D1
  1

  0
LINE
  5
7D93
  8
3
  6
CONTINUOUS
 62
     0
 10
3753.914385
 20
4295.3317429999997
 30
0.0
 11
4047.3244520000012
 21
4295.3317429999997
 31
0.0
  0
LINE
  5
7D94
  8
3
  6
CONTINUOUS
 62
     0
 10
3753.914385
 20
3015.3317430000002
 30
0.0
 11
4047.3244519999998
 21
3015.3317430000002
 31
0.0
  0
LINE
  5
7D95
  8
3
  6
CONTINUOUS
 62
     0
 10
4007.3244520000012
 20
4215.3317429999997
 30
0.0
 11
4007.3244520000012
 21
3095.3317430000002
 31
0.0
  0
INSERT
  5
7D96
  8
3
  6
CONTINUOUS
 62
     0
  2
_OPEN
 10
4007.3244520000012
 20
4295.3317429999997
 30
0.0
 41
80.0
 42
80.0
 43
80.0
 50
90.0
  0
INSERT
  5
7D97
  8
3
  6
CONTINUOUS
 62
     0
  2
_OPEN
 10
4007.3244520000012
 20
3015.3317430000002
 30
0.0
 41
80.0
 42
80.0
 43
80.0
 50
270.0
  0
TEXT
  8
3
  40
120
  5
7E32
  62
0
  72
0
  71
0
 10
3667.32
 20
3410.29
 30
0.000000
  1
1280
  0
POINT
  5
7D99
  8
DEFPOINTS
  6
CONTINUOUS
 62
     0
 10
3733.914385
 20
4295.3317429999997
 30
0.0
  0
POINT
  5
7D9A
  8
DEFPOINTS
  6
CONTINUOUS
 62
     0
 10
3733.914385
 20
3015.3317430000002
 30
0.0
  0
POINT
  5
7D9B
  8
DEFPOINTS
  6
CONTINUOUS
 62
     0
 10
4007.3244520000012
 20
3015.3317430000002
 30
0.0
  0
ENDBLK
  5
7B09
  8
0
  0
BLOCK
  8
0
  2
*D2
 70
     1
 10
0.0
 20
0.0
 30
0.0
  3
*D2
  1

  0
LINE
  5
7D9C
  8
3
  6
CONTINUOUS
 62
     0
 10
3908.9890730000002
 20
4349.3317429999988
 30
0.0
 11
4308.335379000001
 21
4349.3317429999988
 31
0.0
  0
LINE
  5
7D9D
  8
3
  6
CONTINUOUS
 62
     0
 10
3753.914385
 20
3015.3317430000002
 30
0.0
 11
4308.335379000001
 21
3015.3317430000002
 31
0.0
  0
LINE
  5
7D9E
  8
3
  6
CONTINUOUS
 62
     0
 10
4268.335379000001
 20
4269.3317429999997
 30
0.0
 11
4268.335379000001
 21
3095.3317430000002
 31
0.0
  0
INSERT
  5
7D9F
  8
3
  6
CONTINUOUS
 62
     0
  2
_OPEN
 10
4268.335379000001
 20
4349.3317429999988
 30
0.0
 41
80.0
 42
80.0
 43
80.0
 50
90.0
  0
INSERT
  5
7DA0
  8
3
  6
CONTINUOUS
 62
     0
  2
_OPEN
 10
4268.335379000001
 20
3015.3317430000002
 30
0.0
 41
80.0
 42
80.0
 43
80.0
 50
270.0
  0
TEXT
  8
3
  40
120
  5
7E33
  62
0
  72
0
  71
0
 10
3928.34
 20
3417.97
 30
0.000000
  1
1334
  0
POINT
  5
7DA2
  8
DEFPOINTS
  6
CONTINUOUS
 62
     0
 10
3888.9890729999988
 20
4349.3317429999988
 30
0.0
  0
POINT
  5
7DA3
  8
DEFPOINTS
  6
CONTINUOUS
 62
     0
 10
3733.914385
 20
3015.3317430000002
 30
0.0
  0
POINT
  5
7DA4
  8
DEFPOINTS
  6
CONTINUOUS
 62
     0
 10
4268.335379000001
 20
3015.3317430000002
 30
0.0
  0
ENDBLK
  5
7B16
  8
0
  0
BLOCK
  8
0
  2
*D3
 70
     1
 10
0.0
 20
0.0
 30
0.0
  3
*D3
  1

  0
LINE
  5
7DA5
  8
3
  6
CONTINUOUS
 62
     0
 10
2902.0668850000002
 20
5246.5874009999998
 30
0.0
 11
4566.5091789999997
 21
5246.5874009999998
 31
0.0
  0
LINE
  5
7DA6
  8
3
  6
CONTINUOUS
 62
     0
 10
3908.9890730000002
 20
4349.3317429999988
 30
0.0
 11
4566.5091789999997
 21
4349.3317429999988
 31
0.0
  0
LINE
  5
7DA7
  8
3
  6
CONTINUOUS
 62
     0
 10
4526.5091789999997
 20
5166.5874009999998
 30
0.0
 11
4526.5091789999997
 21
4429.3317429999988
 31
0.0
  0
INSERT
  5
7DA8
  8
3
  6
CONTINUOUS
 62
     0
  2
_OPEN
 10
4526.5091789999997
 20
5246.5874009999998
 30
0.0
 41
80.0
 42
80.0
 43
80.0
 50
90.0
  0
INSERT
  5
7DA9
  8
3
  6
CONTINUOUS
 62
     0
  2
_OPEN
 10
4526.5091789999997
 20
4349.3317429999988
 30
0.0
 41
80.0
 42
80.0
 43
80.0
 50
270.0
  0
TEXT
  8
3
  40
120
  5
7E34
  62
0
  72
0
  71
0
 10
4186.51
 20
4544.89
 30
0.000000
  1
897
  0
POINT
  5
7DAB
  8
DEFPOINTS
  6
CONTINUOUS
 62
     0
 10
2882.0668850000002
 20
5246.5874009999998
 30
0.0
  0
POINT
  5
7DAC
  8
DEFPOINTS
  6
CONTINUOUS
 62
     0
 10
3888.9890729999988
 20
4349.3317429999988
 30
0.0
  0
POINT
  5
7DAD
  8
DEFPOINTS
  6
CONTINUOUS
 62
     0
 10
4526.5091789999997
 20
4349.3317429999988
 30
0.0
  0
ENDBLK
  5
7B23
  8
0
  0
BLOCK
  8
0
  2
*D4
 70
     1
 10
0.0
 20
0.0
 30
0.0
  3
*D4
  1

  0
LINE
  5
7DAE
  8
3
  6
CONTINUOUS
 62
     0
 10
3678.914385
 20
2799.3317430000002
 30
0.0
 11
4566.5091789999988
 21
2799.3317430000002
 31
0.0
  0
LINE
  5
7DAF
  8
3
  6
CONTINUOUS
 62
     0
 10
4526.5091789999997
 20
4269.3317429999997
 30
0.0
 11
4526.5091789999997
 21
2879.3317430000002
 31
0.0
  0
INSERT
  5
7DB0
  8
3
  6
CONTINUOUS
 62
     0
  2
_OPEN
 10
4526.5091789999997
 20
4349.3317429999988
 30
0.0
 41
80.0
 42
80.0
 43
80.0
 50
90.0
  0
INSERT
  5
7DB1
  8
3
  6
CONTINUOUS
 62
     0
  2
_OPEN
 10
4526.5091789999997
 20
2799.3317430000002
 30
0.0
 41
80.0
 42
80.0
 43
80.0
 50
270.0
  0
TEXT
  8
3
  40
120
  5
7E35
  62
0
  72
0
  71
0
 10
4186.51
 20
3361.93
 30
0.000000
  1
1550
  0
POINT
  5
7DB3
  8
DEFPOINTS
  6
CONTINUOUS
 62
     0
 10
3888.9890729999988
 20
4349.3317429999988
 30
0.0
  0
POINT
  5
7DB4
  8
DEFPOINTS
  6
CONTINUOUS
 62
     0
 10
3658.914385
 20
2799.3317430000002
 30
0.0
  0
POINT
  5
7DB5
  8
DEFPOINTS
  6
CONTINUOUS
 62
     0
 10
4526.5091789999997
 20
2799.3317430000002
 30
0.0
  0
ENDBLK
  5
7C65
  8
0
  0
BLOCK
  8
0
  2
*D5
 70
     1
 10
0.0
 20
0.0
 30
0.0
  3
*D5
  1

  0
LINE
  5
7DB6
  8
3
  6
CONTINUOUS
 62
     0
 10
1108.914385
 20
2779.3317430000002
 30
0.0
 11
1108.914385
 21
2372.7435449999998
 31
0.0
  0
LINE
  5
7DB7
  8
3
  6
CONTINUOUS
 62
     0
 10
2908.914385
 20
2567.3630129999988
 30
0.0
 11
2908.914385
 21
2372.7435449999998
 31
0.0
  0
LINE
  5
7DB8
  8
3
  6
CONTINUOUS
 62
     0
 10
1188.914385
 20
2412.7435449999998
 30
0.0
 11
2828.914385
 21
2412.7435449999998
 31
0.0
  0
INSERT
  5
7DB9
  8
3
  6
CONTINUOUS
 62
     0
  2
_OPEN
 10
1108.914385
 20
2412.7435449999998
 30
0.0
 41
80.0
 42
80.0
 43
80.0
 50
180.0
  0
INSERT
  5
7DBA
  8
3
  6
CONTINUOUS
 62
     0
  2
_OPEN
 10
2908.914385
 20
2412.7435449999998
 30
0.0
 41
80.0
 42
80.0
 43
80.0
  0
TEXT
  8
3
  40
120
  5
7E36
  62
0
  72
0
  71
0
 10
1798.28
 20
2300.34
 30
0.000000
  1
1800
  0
POINT
  5
7DBC
  8
DEFPOINTS
  6
CONTINUOUS
 62
     0
 10
1108.914385
 20
2799.3317430000002
 30
0.0
  0
POINT
  5
7DBD
  8
DEFPOINTS
  6
CONTINUOUS
 62
     0
 10
2908.914385
 20
2587.3630130000001
 30
0.0
  0
POINT
  5
7DBE
  8
DEFPOINTS
  6
CONTINUOUS
 62
     0
 10
2908.914385
 20
2412.7435449999998
 30
0.0
  0
ENDBLK
  5
7C4A
  8
0
  0
BLOCK
  8
0
  2
*D6
 70
     1
 10
0.0
 20
0.0
 30
0.0
  3
*D6
  1

  0
LINE
  5
7DBF
  8
3
  6
CONTINUOUS
 62
     0
 10
3658.914385
 20
2779.3317430000002
 30
0.0
 11
3658.914385
 21
2372.7435449999998
 31
0.0
  0
LINE
  5
7DC0
  8
3
  6
CONTINUOUS
 62
     0
 10
2988.914385
 20
2412.7435449999998
 30
0.0
 11
3578.914385
 21
2412.7435449999998
 31
0.0
  0
INSERT
  5
7DC1
  8
3
  6
CONTINUOUS
 62
     0
  2
_OPEN
 10
2908.914385
 20
2412.7435449999998
 30
0.0
 41
80.0
 42
80.0
 43
80.0
 50
180.0
  0
INSERT
  5
7DC2
  8
3
  6
CONTINUOUS
 62
     0
  2
_OPEN
 10
3658.914385
 20
2412.7435449999998
 30
0.0
 41
80.0
 42
80.0
 43
80.0
  0
TEXT
  8
3
  40
120
  5
7E37
  62
0
  72
0
  71
0
 10
3043.91
 20
2300.34
 30
0.000000
  1
750
  0
POINT
  5
7DC4
  8
DEFPOINTS
  6
CONTINUOUS
 62
     0
 10
2908.914385
 20
2587.3630130000001
 30
0.0
  0
POINT
  5
7DC5
  8
DEFPOINTS
  6
CONTINUOUS
 62
     0
 10
3658.914385
 20
2799.3317430000002
 30
0.0
  0
POINT
  5
7DC6
  8
DEFPOINTS
  6
CONTINUOUS
 62
     0
 10
3658.914385
 20
2412.7435449999998
 30
0.0
  0
ENDBLK
  5
7C15
  8
0
  0
BLOCK
  8
0
  2
*D7
 70
     1
 10
0.0
 20
0.0
 30
0.0
  3
*D7
  1

  0
LINE
  5
7DC7
  8
3
  6
CONTINUOUS
 62
     0
 10
3733.914385
 20
4365.3317429999997
 30
0.0
 11
3733.914385
 21
5523.568929
 31
0.0
  0
LINE
  5
7DC8
  8
3
  6
CONTINUOUS
 62
     0
 10
2908.914385
 20
5415.8881490000003
 30
0.0
 11
2908.914385
 21
5523.568929
 31
0.0
  0
LINE
  5
7DC9
  8
3
  6
CONTINUOUS
 62
     0
 10
3653.914385
 20
5483.568929
 30
0.0
 11
2988.914385
 21
5483.568929
 31
0.0
  0
INSERT
  5
7DCA
  8
3
  6
CONTINUOUS
 62
     0
  2
_OPEN
 10
3733.914385
 20
5483.568929
 30
0.0
 41
80.0
 42
80.0
 43
80.0
  0
INSERT
  5
7DCB
  8
3
  6
CONTINUOUS
 62
     0
  2
_OPEN
 10
2908.914385
 20
5483.568929
 30
0.0
 41
80.0
 42
80.0
 43
80.0
 50
180.0
  0
TEXT
  8
3
  40
120
  5
7E38
  62
0
  72
0
  71
0
 10
3101.64
 20
5371.17
 30
0.000000
  1
825
  0
POINT
  5
7DCD
  8
DEFPOINTS
  6
CONTINUOUS
 62
     0
 10
3733.914385
 20
4345.3317429999997
 30
0.0
  0
POINT
  5
7DCE
  8
DEFPOINTS
  6
CONTINUOUS
 62
     0
 10
2908.914385
 20
5395.8881490000012
 30
0.0
  0
POINT
  5
7DCF
  8
DEFPOINTS
  6
CONTINUOUS
 62
     0
 10
2908.914385
 20
5483.568929
 30
0.0
  0
ENDBLK
  5
7B55
  8
0
  0
BLOCK
  8
0
  2
*D8
 70
     1
 10
0.0
 20
0.0
 30
0.0
  3
*D8
  1

  0
LINE
  5
7DD0
  8
3
  6
CONTINUOUS
 62
     0
 10
2902.0668850000002
 20
5246.5874009999998
 30
0.0
 11
4850.8777520000021
 21
5246.5874009999998
 31
0.0
  0
LINE
  5
7DD1
  8
3
  6
CONTINUOUS
 62
     0
 10
3678.914385
 20
2799.3317430000002
 30
0.0
 11
4850.8777520000021
 21
2799.3317430000002
 31
0.0
  0
LINE
  5
7DD2
  8
3
  6
CONTINUOUS
 62
     0
 10
4810.8777520000012
 20
5166.5874009999998
 30
0.0
 11
4810.8777520000012
 21
2879.3317430000002
 31
0.0
  0
INSERT
  5
7DD3
  8
3
  6
CONTINUOUS
 62
     0
  2
_OPEN
 10
4810.8777520000012
 20
5246.5874009999998
 30
0.0
 41
80.0
 42
80.0
 43
80.0
 50
90.0
  0
INSERT
  5
7DD4
  8
3
  6
CONTINUOUS
 62
     0
  2
_OPEN
 10
4810.8777520000012
 20
2799.3317430000002
 30
0.0
 41
80.0
 42
80.0
 43
80.0
 50
270.0
  0
TEXT
  8
3
  40
120
  5
7E39
  62
0
  72
0
  71
0
 10
4470.88
 20
3818.60
 30
0.000000
  1
2447
  0
POINT
  5
7DD6
  8
DEFPOINTS
  6
CONTINUOUS
 62
     0
 10
2882.0668850000002
 20
5246.5874009999998
 30
0.0
  0
POINT
  5
7DD7
  8
DEFPOINTS
  6
CONTINUOUS
 62
     0
 10
3658.914385
 20
2799.3317430000002
 30
0.0
  0
POINT
  5
7DD8
  8
DEFPOINTS
  6
CONTINUOUS
 62
     0
 10
4810.8777520000012
 20
2799.3317430000002
 30
0.0
  0
ENDBLK
  5
7C5B
  8
0
  0
BLOCK
  8
0
  2
*D9
 70
     1
 10
0.0
 20
0.0
 30
0.0
  3
*D9
  1

  0
LINE
  5
7DD9
  8
3
  6
CONTINUOUS
 62
     0
 10
6618.5465299999996
 20
5198.3317429999997
 30
0.0
 11
6618.5465299999996
 21
5428.8363100000006
 31
0.0
  0
LINE
  5
7DDA
  8
3
  6
CONTINUOUS
 62
     0
 10
5668.5465299999996
 20
5198.3317429999997
 30
0.0
 11
5668.5465299999996
 21
5428.8363100000006
 31
0.0
  0
LINE
  5
7DDB
  8
3
  6
CONTINUOUS
 62
     0
 10
6538.5465299999987
 20
5388.8363100000006
 30
0.0
 11
5748.5465299999987
 21
5388.8363100000006
 31
0.0
  0
INSERT
  5
7DDC
  8
3
  6
CONTINUOUS
 62
     0
  2
_OPEN
 10
6618.5465299999996
 20
5388.8363100000006
 30
0.0
 41
80.0
 42
80.0
 43
80.0
  0
INSERT
  5
7DDD
  8
3
  6
CONTINUOUS
 62
     0
  2
_OPEN
 10
5668.5465299999996
 20
5388.8363100000006
 30
0.0
 41
80.0
 42
80.0
 43
80.0
 50
180.0
  0
TEXT
  8
3
  40
120
  5
7E3A
  62
0
  72
0
  71
0
 10
5913.73
 20
5276.44
 30
0.000000
  1
950
  0
POINT
  5
7DDF
  8
DEFPOINTS
  6
CONTINUOUS
 62
     0
 10
6618.5465299999996
 20
5178.3317429999997
 30
0.0
  0
POINT
  5
7DE0
  8
DEFPOINTS
  6
CONTINUOUS
 62
     0
 10
5668.5465299999996
 20
5178.3317429999997
 30
0.0
  0
POINT
  5
7DE1
  8
DEFPOINTS
  6
CONTINUOUS
 62
     0
 10
5668.5465299999996
 20
5388.8363100000006
 30
0.0
  0
ENDBLK
  5
7B7B
  8
0
  0
BLOCK
  8
0
  2
*D10
 70
     1
 10
0.0
 20
0.0
 30
0.0
  3
*D10
  1

  0
LINE
  5
7DE2
  8
3
  6
CONTINUOUS
 62
     0
 10
6741.5465299999987
 20
4974.3317429999997
 30
0.0
 11
7054.7342520000002
 21
4974.3317429999997
 31
0.0
  0
LINE
  5
7DE3
  8
3
  6
CONTINUOUS
 62
     0
 10
6741.5465299999987
 20
3724.3317430000002
 30
0.0
 11
7054.7342520000002
 21
3724.3317430000002
 31
0.0
  0
LINE
  5
7DE4
  8
3
  6
CONTINUOUS
 62
     0
 10
7014.7342520000011
 20
4894.3317429999997
 30
0.0
 11
7014.7342520000011
 21
3804.3317430000002
 31
0.0
  0
INSERT
  5
7DE5
  8
3
  6
CONTINUOUS
 62
     0
  2
_OPEN
 10
7014.7342520000011
 20
4974.3317429999997
 30
0.0
 41
80.0
 42
80.0
 43
80.0
 50
90.0
  0
INSERT
  5
7DE6
  8
3
  6
CONTINUOUS
 62
     0
  2
_OPEN
 10
7014.7342520000011
 20
3724.3317430000002
 30
0.0
 41
80.0
 42
80.0
 43
80.0
 50
270.0
  0
TEXT
  8
3
  40
120
  5
7E3B
  62
0
  72
0
  71
0
 10
6674.73
 20
4126.48
 30
0.000000
  1
φ1250
  0
POINT
  5
7DE8
  8
DEFPOINTS
  6
CONTINUOUS
 62
     0
 10
6721.5465299999987
 20
4974.3317429999997
 30
0.0
  0
POINT
  5
7DE9
  8
DEFPOINTS
  6
CONTINUOUS
 62
     0
 10
6721.5465299999987
 20
3724.3317430000002
 30
0.0
  0
POINT
  5
7DEA
  8
DEFPOINTS
  6
CONTINUOUS
 62
     0
 10
7014.7342520000011
 20
3724.3317430000002
 30
0.0
  0
ENDBLK
  5
7C98
  8
0
  0
BLOCK
  8
0
  2
*D11
 70
     1
 10
0.0
 20
0.0
 30
0.0
  3
*D11
  1

  0
LINE
  5
7DEB
  8
3
  6
CONTINUOUS
 62
     0
 10
6721.5465299999987
 20
5044.3317429999997
 30
0.0
 11
6721.5465299999987
 21
5689.3509999999997
 31
0.0
  0
LINE
  5
7DEC
  8
3
  6
CONTINUOUS
 62
     0
 10
6143.5465299999996
 20
5594.8381209999998
 30
0.0
 11
6143.5465299999996
 21
5689.3509999999997
 31
0.0
  0
LINE
  5
7DED
  8
3
  6
CONTINUOUS
 62
     0
 10
6801.5465299999996
 20
5649.3509999999997
 30
0.0
 11
6881.5465299999996
 21
5649.3509999999997
 31
0.0
  0
LINE
  5
7DEE
  8
3
  6
CONTINUOUS
 62
     0
 10
6063.5465299999987
 20
5649.3509999999997
 30
0.0
 11
5983.5465299999987
 21
5649.3509999999997
 31
0.0
  0
LINE
  5
7DEF
  8
3
  6
CONTINUOUS
 62
     0
 10
6721.5465299999987
 20
5649.3509999999997
 30
0.0
 11
6143.5465299999996
 21
5649.3509999999997
 31
0.0
  0
INSERT
  5
7DF0
  8
3
  6
CONTINUOUS
 62
     0
  2
_OPEN
 10
6721.5465299999987
 20
5649.3509999999997
 30
0.0
 41
80.0
 42
80.0
 43
80.0
 50
180.0
  0
INSERT
  5
7DF1
  8
3
  6
CONTINUOUS
 62
     0
  2
_OPEN
 10
6143.5465299999996
 20
5649.3509999999997
 30
0.0
 41
80.0
 42
80.0
 43
80.0
  0
TEXT
  8
3
  40
120
  5
7E3C
  62
0
  72
0
  71
0
 10
6177.83
 20
5536.95
 30
0.000000
  1
578
  0
POINT
  5
7DF3
  8
DEFPOINTS
  6
CONTINUOUS
 62
     0
 10
6721.5465299999987
 20
5024.3317429999997
 30
0.0
  0
POINT
  5
7DF4
  8
DEFPOINTS
  6
CONTINUOUS
 62
     0
 10
6143.5465299999996
 20
5574.8381209999989
 30
0.0
  0
POINT
  5
7DF5
  8
DEFPOINTS
  6
CONTINUOUS
 62
     0
 10
6143.5465299999996
 20
5649.3509999999997
 30
0.0
  0
ENDBLK
  5
7BD0
  8
0
  0
BLOCK
  8
0
  2
*D12
 70
     1
 10
0.0
 20
0.0
 30
0.0
  3
*D12
  1

  0
LINE
  5
7DF6
  8
3
  6
CONTINUOUS
 62
     0
 10
5303.5465299999996
 20
4747.3317429999997
 30
0.0
 11
5303.5465299999996
 21
5689.3509999999997
 31
0.0
  0
LINE
  5
7DF7
  8
3
  6
CONTINUOUS
 62
     0
 10
6063.5465299999987
 20
5649.3509999999997
 30
0.0
 11
5383.5465299999996
 21
5649.3509999999997
 31
0.0
  0
INSERT
  5
7DF8
  8
3
  6
CONTINUOUS
 62
     0
  2
_OPEN
 10
6143.5465299999996
 20
5649.3509999999997
 30
0.0
 41
80.0
 42
80.0
 43
80.0
  0
INSERT
  5
7DF9
  8
3
  6
CONTINUOUS
 62
     0
  2
_OPEN
 10
5303.5465299999996
 20
5649.3509999999997
 30
0.0
 41
80.0
 42
80.0
 43
80.0
 50
180.0
  0
TEXT
  8
3
  40
120
  5
7E3D
  62
0
  72
0
  71
0
 10
5483.55
 20
5636.95
 30
0.000000
  1
MAX
  0
TEXT
  8
3
  40
120
  5
7E3E
  62
0
  72
0
  71
0
 10
5483.55
 20
5480.95
 30
0.000000
  1
890
  0
POINT
  5
7DFB
  8
DEFPOINTS
  6
CONTINUOUS
 62
     0
 10
6143.5465299999996
 20
5574.8381209999989
 30
0.0
  0
POINT
  5
7DFC
  8
DEFPOINTS
  6
CONTINUOUS
 62
     0
 10
5303.5465299999996
 20
4727.3317429999988
 30
0.0
  0
POINT
  5
7DFD
  8
DEFPOINTS
  6
CONTINUOUS
 62
     0
 10
5303.5465299999996
 20
5649.3509999999997
 30
0.0
  0
ENDBLK
  5
7C8D
  8
0
  0
BLOCK
  8
0
  2
*D13
 70
     1
 10
0.0
 20
0.0
 30
0.0
  3
*D13
  1

  0
LINE
  5
7DFE
  8
3
  6
CONTINUOUS
 62
     0
 10
5416.5465299999987
 20
2779.3317430000002
 30
0.0
 11
5416.5465299999987
 21
2419.4878819999999
 31
0.0
  0
LINE
  5
7DFF
  8
3
  6
CONTINUOUS
 62
     0
 10
6143.5465299999996
 20
2548.9978959999999
 30
0.0
 11
6143.5465299999996
 21
2419.4878819999999
 31
0.0
  0
LINE
  5
7E00
  8
3
  6
CONTINUOUS
 62
     0
 10
5496.5465299999987
 20
2459.487881999999
 30
0.0
 11
6063.5465299999987
 21
2459.487881999999
 31
0.0
  0
INSERT
  5
7E01
  8
3
  6
CONTINUOUS
 62
     0
  2
_OPEN
 10
5416.5465299999987
 20
2459.487881999999
 30
0.0
 41
80.0
 42
80.0
 43
80.0
 50
180.0
  0
INSERT
  5
7E02
  8
3
  6
CONTINUOUS
 62
     0
  2
_OPEN
 10
6143.5465299999996
 20
2459.487881999999
 30
0.0
 41
80.0
 42
80.0
 43
80.0
  0
TEXT
  8
3
  40
120
  5
7E3F
  62
0
  72
0
  71
0
 10
5550.37
 20
2347.09
 30
0.000000
  1
727
  0
POINT
  5
7E04
  8
DEFPOINTS
  6
CONTINUOUS
 62
     0
 10
5416.5465299999987
 20
2799.3317430000002
 30
0.0
  0
POINT
  5
7E05
  8
DEFPOINTS
  6
CONTINUOUS
 62
     0
 10
6143.5465299999996
 20
2568.9978959999999
 30
0.0
  0
POINT
  5
7E06
  8
DEFPOINTS
  6
CONTINUOUS
 62
     0
 10
6143.5465299999996
 20
2459.487881999999
 30
0.0
  0
ENDBLK
  5
7C20
  8
0
  0
BLOCK
  8
0
  2
*D14
 70
     1
 10
0.0
 20
0.0
 30
0.0
  3
*D14
  1

  0
LINE
  5
7E07
  8
3
  6
CONTINUOUS
 62
     0
 10
6696.5465299999987
 20
2779.3317430000002
 30
0.0
 11
6696.5465299999987
 21
2419.4878819999999
 31
0.0
  0
LINE
  5
7E08
  8
3
  6
CONTINUOUS
 62
     0
 10
6223.5465299999996
 20
2459.487881999999
 30
0.0
 11
6616.5465299999987
 21
2459.487881999999
 31
0.0
  0
INSERT
  5
7E09
  8
3
  6
CONTINUOUS
 62
     0
  2
_OPEN
 10
6143.5465299999996
 20
2459.487881999999
 30
0.0
 41
80.0
 42
80.0
 43
80.0
 50
180.0
  0
INSERT
  5
7E0A
  8
3
  6
CONTINUOUS
 62
     0
  2
_OPEN
 10
6696.5465299999987
 20
2459.487881999999
 30
0.0
 41
80.0
 42
80.0
 43
80.0
  0
TEXT
  8
3
  40
120
  5
7E40
  62
0
  72
0
  71
0
 10
6180.05
 20
2347.09
 30
0.000000
  1
553
  0
POINT
  5
7E0C
  8
DEFPOINTS
  6
CONTINUOUS
 62
     0
 10
6143.5465299999996
 20
2568.9978959999999
 30
0.0
  0
POINT
  5
7E0D
  8
DEFPOINTS
  6
CONTINUOUS
 62
     0
 10
6696.5465299999987
 20
2799.3317430000002
 30
0.0
  0
POINT
  5
7E0E
  8
DEFPOINTS
  6
CONTINUOUS
 62
     0
 10
6696.5465299999987
 20
2459.487881999999
 30
0.0
  0
ENDBLK
  5
7C2A
  8
0
  0
BLOCK
  8
0
  2
*D15
 70
     1
 10
0.0
 20
0.0
 30
0.0
  3
*D15
  1

  0
LINE
  5
7E0F
  8
3
  6
CONTINUOUS
 62
     0
 10
1108.914385
 20
7209.4052709999996
 30
0.0
 11
1108.914385
 21
6780.1714110000012
 31
0.0
  0
LINE
  5
7E10
  8
3
  6
CONTINUOUS
 62
     0
 10
3658.914385
 20
7209.4052709999996
 30
0.0
 11
3658.914385
 21
6780.1714110000012
 31
0.0
  0
LINE
  5
7E11
  8
3
  6
CONTINUOUS
 62
     0
 10
1188.914385
 20
6820.1714110000003
 30
0.0
 11
3578.914385
 21
6820.1714110000003
 31
0.0
  0
INSERT
  5
7E12
  8
3
  6
CONTINUOUS
 62
     0
  2
_OPEN
 10
1108.914385
 20
6820.1714110000003
 30
0.0
 41
80.0
 42
80.0
 43
80.0
 50
180.0
  0
INSERT
  5
7E13
  8
3
  6
CONTINUOUS
 62
     0
  2
_OPEN
 10
3658.914385
 20
6820.1714110000003
 30
0.0
 41
80.0
 42
80.0
 43
80.0
  0
TEXT
  8
3
  40
120
  5
7E41
  62
0
  72
0
  71
0
 10
2137.95
 20
6707.77
 30
0.000000
  1
2550
  0
POINT
  5
7E15
  8
DEFPOINTS
  6
CONTINUOUS
 62
     0
 10
1108.914385
 20
7229.4052709999996
 30
0.0
  0
POINT
  5
7E16
  8
DEFPOINTS
  6
CONTINUOUS
 62
     0
 10
3658.914385
 20
7229.4052709999996
 30
0.0
  0
POINT
  5
7E17
  8
DEFPOINTS
  6
CONTINUOUS
 62
     0
 10
3658.914385
 20
6820.1714110000003
 30
0.0
  0
ENDBLK
  5
7C3F
  8
0
  0
BLOCK
  8
0
  2
*D16
 70
     1
 10
0.0
 20
0.0
 30
0.0
  3
*D16
  1

  0
LINE
  5
7E18
  8
3
  6
CONTINUOUS
 62
     0
 10
3678.914385
 20
8509.4052709999996
 30
0.0
 11
4147.8554490000006
 21
8509.4052709999978
 31
0.0
  0
LINE
  5
7E19
  8
3
  6
CONTINUOUS
 62
     0
 10
3678.914385
 20
7229.4052709999996
 30
0.0
 11
4147.8554490000006
 21
7229.4052709999996
 31
0.0
  0
LINE
  5
7E1A
  8
3
  6
CONTINUOUS
 62
     0
 10
4107.8554490000006
 20
8429.4052709999978
 30
0.0
 11
4107.8554490000006
 21
7309.4052709999996
 31
0.0
  0
INSERT
  5
7E1B
  8
3
  6
CONTINUOUS
 62
     0
  2
_OPEN
 10
4107.8554490000006
 20
8509.4052709999978
 30
0.0
 41
80.0
 42
80.0
 43
80.0
 50
90.0
  0
INSERT
  5
7E1C
  8
3
  6
CONTINUOUS
 62
     0
  2
_OPEN
 10
4107.8554490000006
 20
7229.4052709999996
 30
0.0
 41
80.0
 42
80.0
 43
80.0
 50
270.0
  0
TEXT
  8
3
  40
120
  5
7E42
  62
0
  72
0
  71
0
 10
3767.86
 20
7610.36
 30
0.000000
  1
1280
  0
POINT
  5
7E1E
  8
DEFPOINTS
  6
CONTINUOUS
 62
     0
 10
3658.914385
 20
8509.4052709999996
 30
0.0
  0
POINT
  5
7E1F
  8
DEFPOINTS
  6
CONTINUOUS
 62
     0
 10
3658.914385
 20
7229.4052709999996
 30
0.0
  0
POINT
  5
7E20
  8
DEFPOINTS
  6
CONTINUOUS
 62
     0
 10
4107.8554490000006
 20
7229.4052709999996
 30
0.0
  0
ENDBLK
  5
7BE9
  8
0
  0
BLOCK
  8
0
  2
*D17
 70
     1
 10
0.0
 20
0.0
 30
0.0
  3
*D17
  1

  0
LINE
  5
7E21
  8
3
  6
CONTINUOUS
 62
     0
 10
1829.914385
 20
4369.3317429999997
 30
0.0
 11
1829.914385
 21
5523.568929
 31
0.0
  0
LINE
  5
7E22
  8
3
  6
CONTINUOUS
 62
     0
 10
2828.914385
 20
5483.568929
 30
0.0
 11
1909.914385
 21
5483.568929
 31
0.0
  0
INSERT
  5
7E23
  8
3
  6
CONTINUOUS
 62
     0
  2
_OPEN
 10
2908.914385
 20
5483.568929
 30
0.0
 41
80.0
 42
80.0
 43
80.0
  0
INSERT
  5
7E24
  8
3
  6
CONTINUOUS
 62
     0
  2
_OPEN
 10
1829.914385
 20
5483.568929
 30
0.0
 41
80.0
 42
80.0
 43
80.0
 50
180.0
  0
TEXT
  8
3
  40
120
  5
7E43
  62
0
  72
0
  71
0
 10
2129.41
 20
5371.17
 30
0.000000
  1
1079
  0
POINT
  5
7E26
  8
DEFPOINTS
  6
CONTINUOUS
 62
     0
 10
2908.914385
 20
5395.8881490000012
 30
0.0
  0
POINT
  5
7E27
  8
DEFPOINTS
  6
CONTINUOUS
 62
     0
 10
1829.914385
 20
4349.3317429999988
 30
0.0
  0
POINT
  5
7E28
  8
DEFPOINTS
  6
CONTINUOUS
 62
     0
 10
1829.914385
 20
5483.568929
 30
0.0
  0
ENDBLK
  5
7C76
  8
0
  0
BLOCK
  8
0
  2
*D18
 70
     1
 10
0.0
 20
0.0
 30
0.0
  3
*D18
  1

  0
LINE
  5
7E29
  8
3
 62
     0
 10
3733.914385
 20
4365.3317429999997
 30
0.0
 11
3733.914385
 21
5804.0976160714272
 31
0.0
  0
LINE
  5
7E2A
  8
3
 62
     0
 10
1108.914385
 20
2969.3317430000002
 30
0.0
 11
1108.914385
 21
5804.0976160714272
 31
0.0
  0
LINE
  5
7E2B
  8
3
 62
     0
 10
3653.914385
 20
5764.0976160714281
 30
0.0
 11
1188.914385
 21
5764.0976160714281
 31
0.0
  0
INSERT
  5
7E2C
  8
3
 62
     0
  2
_OPEN
 10
3733.914385
 20
5764.0976160714281
 30
0.0
 41
80.0
 42
80.0
 43
80.0
  0
INSERT
  5
7E2D
  8
3
 62
     0
  2
_OPEN
 10
1108.914385
 20
5764.0976160714281
 30
0.0
 41
80.0
 42
80.0
 43
80.0
 50
180.0
  0
TEXT
  8
3
  40
120
  5
7E44
  62
0
  72
0
  71
0
 10
2170.55
 20
5651.70
 30
0.000000
  1
2625
  0
POINT
  5
7E2F
  8
DEFPOINTS
 62
     0
 10
3733.914385
 20
4345.3317429999997
 30
0.0
  0
POINT
  5
7E30
  8
DEFPOINTS
 62
     0
 10
1108.914385
 20
2949.3317430000002
 30
0.0
  0
POINT
  5
7E31
  8
DEFPOINTS
 62
     0
 10
1108.914385
 20
5764.0976160714281
 30
0.0
  0
ENDBLK
  5
7C82
  8
0
  0
ENDSEC
  0
SECTION
  2
ENTITIES
  0
LINE
  5
7A6B
  8
1
  6
CONTINUOUS
 10
5668.5465299999996
 20
4295.3317429999997
 30
0.0
 11
6618.5465299999996
 21
3015.3317430000002
 31
0.0
  0
LINE
  5
7A6C
  8
1
  6
CONTINUOUS
 10
5668.5465299999996
 20
3015.3317430000002
 30
0.0
 11
6618.5465299999996
 21
4295.3317429999997
 31
0.0
  0
LINE
  5
7A6D
  8
1
  6
CONTINUOUS
 10
5668.5465299999996
 20
3015.3317430000002
 30
0.0
 11
6618.5465299999996
 21
3015.3317430000002
 31
0.0
  0
LINE
  5
7A6E
  8
1
  6
CONTINUOUS
 10
5668.5465299999996
 20
5178.3317429999997
 30
0.0
 11
6618.5465299999996
 21
5178.3317429999997
 31
0.0
  0
LINE
  5
7A6F
  8
1
  6
CONTINUOUS
 10
6696.5465299999987
 20
2799.3317430000002
 30
0.0
 11
5416.5465299999987
 21
2799.3317430000002
 31
0.0
  0
LINE
  5
7A70
  8
1
  6
CONTINUOUS
 10
5668.5465299999996
 20
4295.3317429999997
 30
0.0
 11
6618.5465299999996
 21
4295.3317429999997
 31
0.0
  0
CIRCLE
  5
7A71
  8
1
  6
CONTINUOUS
 10
2908.914385
 20
4349.3317429999988
 30
0.0
 40
675.0
  0
CIRCLE
  5
7A72
  8
1
  6
CONTINUOUS
 10
2908.914385
 20
4349.3317429999988
 30
0.0
 40
625.0
  0
LINE
  5
7A73
  8
1
  6
CONTINUOUS
 10
3658.914385
 20
2949.3317430000002
 30
0.0
 11
1108.914385
 21
2949.3317430000002
 31
0.0
  0
LINE
  5
7A74
  8
1
  6
CONTINUOUS
 10
3658.914385
 20
2799.3317430000002
 30
0.0
 11
1108.914385
 21
2799.3317430000002
 31
0.0
  0
POLYLINE
  5
7A75
  8
1
  6
CONTINUOUS
 66
     1
 10
0.0
 20
0.0
 30
0.0
  0
VERTEX
  5
7D8C
  8
1
  6
CONTINUOUS
 10
3733.914385
 20
3015.3317430000002
 30
0.0
  0
VERTEX
  5
7D8D
  8
1
  6
CONTINUOUS
 10
2908.914385
 20
3088.3317430000002
 30
0.0
 42
-0.4
  0
VERTEX
  5
7D8E
  8
1
  6
CONTINUOUS
 10
1826.4143849999989
 20
4258.3317429999997
 30
0.0
 42
-0.4
  0
VERTEX
  5
7D8F
  8
1
  6
CONTINUOUS
 10
2900.2143850000002
 20
5246.4317430000001
 30
0.0
 42
-0.4
  0
VERTEX
  5
7D90
  8
1
  6
CONTINUOUS
 10
3654.914385
 20
4426.3317429999997
 30
0.0
  0
VERTEX
  5
7D91
  8
1
  6
CONTINUOUS
 10
3641.914385
 20
4295.3317429999997
 30
0.0
 42
-0.4
  0
SEQEND
  5
7D92
  8
1
  6
CONTINUOUS
  0
ARC
  5
7A7D
  8
1
  6
CONTINUOUS
 10
2908.914385
 20
4349.3317429999988
 30
0.0
 40
378.0
 50
302.0
 51
132.49999999999989
  0
LINE
  5
7A7E
  8
1
  6
CONTINUOUS
 10
1452.914385
 20
3272.8317430000002
 30
0.0
 11
2721.1143849999999
 21
4554.3317429999988
 31
0.0
  0
LINE
  5
7A7F
  8
1
  6
CONTINUOUS
 10
1385.3143849999999
 20
3346.5317429999991
 30
0.0
 11
2653.6143849999999
 21
4628.131742999999
 31
0.0
  0
LINE
  5
7A80
  8
1
  6
CONTINUOUS
 10
1597.5143849999999
 20
3082.531743
 30
0.0
 11
3056.2143850000002
 21
4113.5317429999986
 31
0.0
  0
LINE
  5
7A81
  8
1
  6
CONTINUOUS
 10
1650.414385
 20
2997.7317429999998
 30
0.0
 11
3109.1143849999999
 21
4028.7317429999998
 31
0.0
  0
LINE
  5
7A82
  8
1
  6
CONTINUOUS
 10
1371.914385
 20
3004.3317430000002
 30
0.0
 11
1431.914385
 21
3004.3317430000002
 31
0.0
  0
LINE
  5
7A83
  8
1
  6
CONTINUOUS
 10
1758.9143849999989
 20
3004.3317430000002
 30
0.0
 11
1308.914385
 21
3004.3317430000002
 31
0.0
  0
ARC
  5
7A84
  8
1
  6
CONTINUOUS
 10
1533.914385
 20
3184.3317430000002
 30
0.0
 40
199.0
 50
320.10000000000002
 51
219.90000000000001
  0
ARC
  5
7A85
  8
1
  6
CONTINUOUS
 10
1533.914385
 20
3184.3317430000002
 30
0.0
 40
220.0
 50
132.49999999999989
 51
302.0
  0
LINE
  5
7A86
  8
1
  6
CONTINUOUS
 10
1308.914385
 20
2949.3317430000002
 30
0.0
 11
1308.914385
 21
3004.3317430000002
 31
0.0
  0
LINE
  5
7A87
  8
1
  6
CONTINUOUS
 10
1371.914385
 20
3004.3317430000002
 30
0.0
 11
1371.914385
 21
3046.8317430000002
 31
0.0
  0
LINE
  5
7A88
  8
1
  6
CONTINUOUS
 10
1371.914385
 20
3046.8317430000002
 30
0.0
 11
1381.214385
 21
3056.7317429999998
 31
0.0
  0
LINE
  5
7A89
  8
1
  6
CONTINUOUS
 10
1108.914385
 20
2949.3317430000002
 30
0.0
 11
1108.914385
 21
2799.3317430000002
 31
0.0
  0
LINE
  5
7A8A
  8
2
  6
CENTER
 10
1413.9143849999989
 20
3184.3317430000002
 30
0.0
 11
1653.914385
 21
3184.3317430000002
 31
0.0
  0
LINE
  5
7A8B
  8
2
  6
CENTER
 10
1533.914385
 20
3064.3317430000002
 30
0.0
 11
1533.914385
 21
3304.3317430000002
 31
0.0
  0
CIRCLE
  5
7A8C
  8
1
  6
CONTINUOUS
 10
1533.914385
 20
3184.3317430000002
 30
0.0
 40
120.0
  0
LINE
  5
7A8D
  8
1
  6
CONTINUOUS
 10
1695.914385
 20
3004.3317430000002
 30
0.0
 11
1695.914385
 21
3046.8317430000002
 31
0.0
  0
LINE
  5
7A8E
  8
1
  6
CONTINUOUS
 10
1695.914385
 20
3046.8317430000002
 30
0.0
 11
1686.6143850000001
 21
3056.7317429999998
 31
0.0
  0
LINE
  5
7A8F
  8
1
  6
CONTINUOUS
 10
1758.9143849999989
 20
2949.3317430000002
 30
0.0
 11
1758.9143849999989
 21
3004.3317430000002
 31
0.0
  0
LINE
  5
7A90
  8
2
  6
CENTER
 10
2908.914385
 20
8650.8189749999983
 30
0.0
 11
2908.914385
 21
6954.4325469999994
 31
0.0
  0
CIRCLE
  5
7A91
  8
1
  6
CONTINUOUS
 10
2908.914385
 20
4349.3317429999988
 30
0.0
 40
278.0
  0
LINE
  5
7A92
  8
2
  6
CENTER
 10
1515.288096
 20
4349.3317429999988
 30
0.0
 11
3888.9890729999988
 21
4349.3317429999988
 31
0.0
  0
LINE
  5
7A93
  8
1
  6
CONTINUOUS
 10
3683.914385
 20
4295.3317429999997
 30
0.0
 11
3683.914385
 21
3015.3317430000002
 31
0.0
  0
LINE
  5
7A94
  8
1
  6
CONTINUOUS
 10
3733.914385
 20
4345.3317429999997
 30
0.0
 11
3733.914385
 21
2959.3317430000002
 31
0.0
  0
LINE
  5
7A95
  8
1
  6
CONTINUOUS
 10
3658.914385
 20
2949.3317430000002
 30
0.0
 11
3658.914385
 21
2799.3317430000002
 31
0.0
  0
LINE
  5
7A96
  8
1
  6
CONTINUOUS
 10
3641.914385
 20
4295.3317429999997
 30
0.0
 11
3733.914385
 21
4295.3317429999997
 31
0.0
  0
LINE
  5
7A97
  8
1
  6
CONTINUOUS
 10
5473.5465299999996
 20
4071.3317430000002
 30
0.0
 11
5473.5465299999996
 21
4627.3317429999997
 31
0.0
  0
LINE
  5
7A98
  8
1
  6
CONTINUOUS
 10
5373.5465299999987
 20
4071.3317430000002
 30
0.0
 11
5373.5465299999987
 21
4627.3317429999997
 31
0.0
  0
LINE
  5
7A99
  8
1
  6
CONTINUOUS
 10
5543.5465299999996
 20
3084.3317430000002
 30
0.0
 11
5543.5465299999996
 21
4727.3317429999988
 31
0.0
  0
LINE
  5
7A9A
  8
1
  6
CONTINUOUS
 10
5303.5465299999996
 20
3084.3317430000002
 30
0.0
 11
5303.5465299999996
 21
4727.3317429999988
 31
0.0
  0
LINE
  5
7A9B
  8
1
  6
CONTINUOUS
 10
5668.5465299999996
 20
3015.3317430000002
 30
0.0
 11
5668.5465299999996
 21
5178.3317429999997
 31
0.0
  0
LINE
  5
7A9C
  8
1
  6
CONTINUOUS
 10
5303.5465299999996
 20
3084.3317430000002
 30
0.0
 11
5543.5465299999996
 21
3084.3317430000002
 31
0.0
  0
LINE
  5
7A9D
  8
1
  6
CONTINUOUS
 10
5373.5465299999987
 20
3424.3317430000002
 30
0.0
 11
5473.5465299999996
 21
3424.3317430000002
 31
0.0
  0
LINE
  5
7A9E
  8
1
  6
CONTINUOUS
 10
5373.5465299999987
 20
3184.3317430000002
 30
0.0
 11
5473.5465299999996
 21
3184.3317430000002
 31
0.0
  0
LINE
  5
7A9F
  8
1
  6
CONTINUOUS
 10
6696.5465299999987
 20
2949.3317430000002
 30
0.0
 11
5416.5465299999987
 21
2949.3317430000002
 31
0.0
  0
LINE
  5
7AA0
  8
1
  6
CONTINUOUS
 10
5373.5465299999987
 20
3184.3317430000002
 30
0.0
 11
5373.5465299999987
 21
3424.3317430000002
 31
0.0
  0
LINE
  5
7AA1
  8
1
  6
CONTINUOUS
 10
5416.5465299999987
 20
2799.3317430000002
 30
0.0
 11
5416.5465299999987
 21
2949.3317430000002
 31
0.0
  0
LINE
  5
7AA2
  8
1
  6
CONTINUOUS
 10
5473.5465299999996
 20
3184.3317430000002
 30
0.0
 11
5473.5465299999996
 21
3424.3317430000002
 31
0.0
  0
LINE
  5
7AA3
  8
1
  6
CONTINUOUS
 10
5473.5465299999996
 20
3331.8317430000002
 30
0.0
 11
5668.5465299999996
 21
3331.8317430000002
 31
0.0
  0
LINE
  5
7AA4
  8
1
  6
CONTINUOUS
 10
5473.5465299999996
 20
3276.8317430000002
 30
0.0
 11
5668.5465299999996
 21
3276.8317430000002
 31
0.0
  0
LINE
  5
7AA5
  8
1
  6
CONTINUOUS
 10
5373.5465299999987
 20
4071.3317430000002
 30
0.0
 11
5473.5465299999996
 21
4071.3317430000002
 31
0.0
  0
LINE
  5
7AA6
  8
1
  6
CONTINUOUS
 10
5473.5465299999996
 20
4321.8317429999988
 30
0.0
 11
5668.5465299999996
 21
4321.8317429999988
 31
0.0
  0
LINE
  5
7AA7
  8
1
  6
CONTINUOUS
 10
5473.5465299999996
 20
4376.8317429999988
 30
0.0
 11
5668.5465299999996
 21
4376.8317429999988
 31
0.0
  0
LINE
  5
7AA8
  8
1
  6
CONTINUOUS
 10
5303.5465299999996
 20
4727.3317429999988
 30
0.0
 11
5543.5465299999996
 21
4727.3317429999988
 31
0.0
  0
LINE
  5
7AA9
  8
1
  6
CONTINUOUS
 10
5373.5465299999987
 20
4627.3317429999997
 30
0.0
 11
5473.5465299999996
 21
4627.3317429999997
 31
0.0
  0
LINE
  5
7AAA
  8
1
  6
CONTINUOUS
 10
6721.5465299999987
 20
3674.3317430000002
 30
0.0
 11
6721.5465299999987
 21
5024.3317429999997
 31
0.0
  0
LINE
  5
7AAB
  8
1
  6
CONTINUOUS
 10
6618.5465299999996
 20
3015.3317430000002
 30
0.0
 11
6618.5465299999996
 21
5178.3317429999997
 31
0.0
  0
LINE
  5
7AAC
  8
1
  6
CONTINUOUS
 10
6696.5465299999987
 20
2949.3317430000002
 30
0.0
 11
6618.5465299999996
 21
2949.3317430000002
 31
0.0
  0
LINE
  5
7AAD
  8
1
  6
CONTINUOUS
 10
6696.5465299999987
 20
2799.3317430000002
 30
0.0
 11
6696.5465299999987
 21
2949.3317430000002
 31
0.0
  0
LINE
  5
7AAE
  8
1
  6
CONTINUOUS
 10
6618.5465299999996
 20
3724.3317430000002
 30
0.0
 11
6721.5465299999987
 21
3724.3317430000002
 31
0.0
  0
LINE
  5
7AAF
  8
1
  6
CONTINUOUS
 10
6618.5465299999996
 20
4974.3317429999997
 30
0.0
 11
6721.5465299999987
 21
4974.3317429999997
 31
0.0
  0
LINE
  5
7AB0
  8
1
  6
CONTINUOUS
 10
3286.914385
 20
7356.4052709999987
 30
0.0
 11
1213.914385
 21
7356.4052709999987
 31
0.0
  0
LINE
  5
7AB1
  8
1
  6
CONTINUOUS
 10
3286.914385
 20
7116.4052709999987
 30
0.0
 11
1213.914385
 21
7116.4052709999987
 31
0.0
  0
LINE
  5
7AB2
  8
1
  6
CONTINUOUS
 10
3583.9143849999991
 20
8534.4052709999996
 30
0.0
 11
2233.9143849999991
 21
8534.4052709999996
 31
0.0
  0
LINE
  5
7AB3
  8
1
  6
CONTINUOUS
 10
3733.914385
 20
7481.4052709999987
 30
0.0
 11
1826.4143849999989
 21
7481.4052709999987
 31
0.0
  0
LINE
  5
7AB4
  8
1
  6
CONTINUOUS
 10
3733.914385
 20
8431.4052709999996
 30
0.0
 11
1826.4143849999989
 21
8431.4052709999996
 31
0.0
  0
LINE
  5
7AB5
  8
1
  6
CONTINUOUS
 10
3186.914385
 20
7229.4052709999996
 30
0.0
 11
3658.914385
 21
7229.4052709999996
 31
0.0
  0
LINE
  5
7AB6
  8
1
  6
CONTINUOUS
 10
1653.914385
 20
7229.4052709999996
 30
0.0
 11
2630.914385
 21
7229.4052709999996
 31
0.0
  0
LINE
  5
7AB7
  8
1
  6
CONTINUOUS
 10
2283.914385
 20
8509.4052709999996
 30
0.0
 11
1108.914385
 21
8509.4052709999996
 31
0.0
  0
LINE
  5
7AB8
  8
1
  6
CONTINUOUS
 10
1108.914385
 20
8509.4052709999996
 30
0.0
 11
1108.914385
 21
7229.4052709999996
 31
0.0
  0
LINE
  5
7AB9
  8
1
  6
CONTINUOUS
 10
1108.914385
 20
7229.4052709999996
 30
0.0
 11
1413.9143849999989
 21
7229.4052709999996
 31
0.0
  0
LINE
  5
7ABA
  8
1
  6
CONTINUOUS
 10
1334.8143849999999
 20
7400.9052709999987
 30
0.0
 11
1733.0143849999999
 21
7400.9052709999987
 31
0.0
  0
LINE
  5
7ABB
  8
1
  6
CONTINUOUS
 10
1334.8143849999999
 20
8000.4052709999987
 30
0.0
 11
1733.0143849999999
 21
8000.4052709999987
 31
0.0
  0
LINE
  5
7ABC
  8
1
  6
CONTINUOUS
 10
1334.8143849999999
 20
7400.9052709999987
 30
0.0
 11
1334.8143849999999
 21
8000.4052709999987
 31
0.0
  0
LINE
  5
7ABD
  8
1
  6
CONTINUOUS
 10
1213.914385
 20
7116.4052709999987
 30
0.0
 11
1213.914385
 21
7356.4052709999987
 31
0.0
  0
LINE
  5
7ABE
  8
1
  6
CONTINUOUS
 10
1826.4143849999989
 20
7481.4052709999987
 30
0.0
 11
1826.4143849999989
 21
8431.4052709999996
 31
0.0
  0
LINE
  5
7ABF
  8
1
  6
CONTINUOUS
 10
1733.0143849999999
 20
7400.9052709999987
 30
0.0
 11
1733.0143849999999
 21
8000.4052709999987
 31
0.0
  0
LINE
  5
7AC0
  8
1
  6
CONTINUOUS
 10
1413.9143849999989
 20
7186.4052709999987
 30
0.0
 11
1653.914385
 21
7186.4052709999987
 31
0.0
  0
LINE
  5
7AC1
  8
1
  6
CONTINUOUS
 10
1413.9143849999989
 20
7286.4052709999987
 30
0.0
 11
1653.914385
 21
7286.4052709999987
 31
0.0
  0
LINE
  5
7AC2
  8
1
  6
CONTINUOUS
 10
1653.914385
 20
7186.4052709999987
 30
0.0
 11
1653.914385
 21
7286.4052709999987
 31
0.0
  0
LINE
  5
7AC3
  8
1
  6
CONTINUOUS
 10
1413.9143849999989
 20
7186.4052709999987
 30
0.0
 11
1413.9143849999989
 21
7286.4052709999987
 31
0.0
  0
LINE
  5
7AC4
  8
1
  6
CONTINUOUS
 10
1506.414385
 20
7286.4052709999987
 30
0.0
 11
1506.414385
 21
7400.9052709999987
 31
0.0
  0
LINE
  5
7AC5
  8
1
  6
CONTINUOUS
 10
1561.414385
 20
7286.4052709999987
 30
0.0
 11
1561.414385
 21
7400.9052709999987
 31
0.0
  0
LINE
  5
7AC6
  8
1
  6
CONTINUOUS
 10
2283.914385
 20
8431.4052709999996
 30
0.0
 11
2283.914385
 21
8534.4052709999996
 31
0.0
  0
LINE
  5
7AC7
  8
1
  6
CONTINUOUS
 10
2630.914385
 20
7186.4052709999987
 30
0.0
 11
3186.914385
 21
7186.4052709999987
 31
0.0
  0
LINE
  5
7AC8
  8
1
  6
CONTINUOUS
 10
2630.914385
 20
7286.4052709999987
 30
0.0
 11
3186.914385
 21
7286.4052709999987
 31
0.0
  0
LINE
  5
7AC9
  8
1
  6
CONTINUOUS
 10
2630.914385
 20
7186.4052709999987
 30
0.0
 11
2630.914385
 21
7286.4052709999987
 31
0.0
  0
LINE
  5
7ACA
  8
1
  6
CONTINUOUS
 10
2881.414385
 20
7286.4052709999987
 30
0.0
 11
2881.414385
 21
7481.4052709999987
 31
0.0
  0
LINE
  5
7ACB
  8
1
  6
CONTINUOUS
 10
3186.914385
 20
7186.4052709999987
 30
0.0
 11
3186.914385
 21
7286.4052709999987
 31
0.0
  0
LINE
  5
7ACC
  8
1
  6
CONTINUOUS
 10
2936.414385
 20
7286.4052709999987
 30
0.0
 11
2936.414385
 21
7481.4052709999987
 31
0.0
  0
LINE
  5
7ACD
  8
1
  6
CONTINUOUS
 10
3533.914385
 20
8431.4052709999996
 30
0.0
 11
3533.914385
 21
8534.4052709999996
 31
0.0
  0
LINE
  5
7ACE
  8
1
  6
CONTINUOUS
 10
3733.914385
 20
7431.4052709999996
 30
0.0
 11
3733.914385
 21
8481.4052709999996
 31
0.0
  0
LINE
  5
7ACF
  8
1
  6
CONTINUOUS
 10
3658.914385
 20
8431.4052709999996
 30
0.0
 11
3658.914385
 21
8509.4052709999996
 31
0.0
  0
LINE
  5
7AD0
  8
1
  6
CONTINUOUS
 10
3683.914385
 20
7481.4052709999987
 30
0.0
 11
3683.914385
 21
8431.4052709999996
 31
0.0
  0
LINE
  5
7AD1
  8
1
  6
CONTINUOUS
 10
3286.914385
 20
7116.4052709999987
 30
0.0
 11
3286.914385
 21
7356.4052709999987
 31
0.0
  0
LINE
  5
7AD2
  8
1
  6
CONTINUOUS
 10
3658.914385
 20
7229.4052709999996
 30
0.0
 11
3658.914385
 21
7481.4052709999987
 31
0.0
  0
LINE
  5
7AD3
  8
1
  6
CONTINUOUS
 10
3658.914385
 20
8509.4052709999996
 30
0.0
 11
3533.914385
 21
8509.4052709999996
 31
0.0
  0
LINE
  5
7AD4
  8
2
  6
CENTER
 10
6143.5465299999996
 20
5399.107289999999
 30
0.0
 11
6143.5465299999996
 21
2568.9978959999999
 31
0.0
  0
LINE
  5
7AD5
  8
2
  6
CENTER
 10
1028.9992109999989
 20
7956.4052709999996
 30
0.0
 11
3842.9705439999989
 21
7956.4052709999996
 31
0.0
  0
LINE
  5
7AD6
  8
2
  6
CENTER
 10
2908.914385
 20
5395.8881490000012
 30
0.0
 11
2908.914385
 21
2587.3630130000001
 31
0.0
  0
LINE
  5
7AD7
  8
2
  6
CENTER
 10
5212.3464629999999
 20
4349.3317429999988
 30
0.0
 11
6769.8612860000003
 21
4349.3317429999988
 31
0.0
  0
LINE
  5
7AD8
  8
4
  6
CONTINUOUS
 10
7400.0
 20
2000.0
 30
0.0
 11
7400.0
 21
1200.0
 31
0.0
  0
LINE
  5
7AD9
  8
4
  6
CONTINUOUS
 10
4600.0
 20
2000.0
 30
0.0
 11
4600.0
 21
1200.0
 31
0.0
  0
LINE
  5
7ADA
  8
4
  6
CONTINUOUS
 10
2600.0
 20
2000.0
 30
0.0
 11
2600.0
 21
1200.0
 31
0.0
  0
LINE
  5
7ADD
  8
4
  6
CONTINUOUS
 10
2600.0
 20
1200.0
 30
0.0
 11
7400.0
 21
1200.0
 31
0.0
  0
LINE
  5
7ADE
  8
4
  6
CONTINUOUS
 10
2600.0
 20
1600.0
 30
0.0
 11
7400.0
 21
1600.0
 31
0.0
  0
TEXT
  5
7ADF
  8
4
  6
CONTINUOUS
 10
2754.008323
 20
1726.1721030000001
 30
0.0
 40
200.0
  1
機器名称
  0
TEXT
  5
7AE0
  8
4
  6
CONTINUOUS
 10
2745.032424
 20
1286.580627
 30
0.0
 40
200.0
  1
機器型番
  0
TEXT
  5
7AE1
  8
4
  6
CONTINUOUS
 10
4710.7149820000004
 20
1690.2870760000001
 30
0.0
 40
200.0
  1
ミツヤ多翼送風機
  0
TEXT
  5
7AE2
  8
4
  6
CONTINUOUS
 10
4746.6179819999998
 20
1268.6383370000001
 30
0.0
 40
200.0
  1
MFE#8-4
  0
TEXT
  5
7AE4
  8
4
  6
CONTINUOUS
 10
3619.1430620000001
 20
9533.715365
 30
0.0
 40
216.0
  1
床置ベット
  0
TEXT
  5
7AE5
  8
4
  6
CONTINUOUS
 10
1264.6703729999999
 20
10135.523905
 30
0.0
 40
288.0
  1
ベルト駆動式片吸込両持排煙ファン
  0
LINE
  5
7AE6
  8
4
  6
CONTINUOUS
 10
1000.0
 20
9877.6350170000005
 30
0.0
 11
7400.0
 21
9877.6350170000005
 31
0.0
  0
LINE
  5
7AE7
  8
4
  6
CONTINUOUS
 10
1000.0
 20
10677.635017000001
 30
0.0
 11
7400.0
 21
10677.635017000001
 31
0.0
  0
LINE
  5
7AE8
  8
4
  6
CONTINUOUS
 10
2600.0
 20
2000.0
 30
0.0
 11
7400.0
 21
2000.0
 31
0.0
  0
LINE
  5
7AE9
  8
4
  6
CONTINUOUS
 10
1000.0
 20
10677.635017000001
 30
0.0
 11
1000.0
 21
9877.6350170000005
 31
0.0
  0
TEXT
  5
7AEA
  8
4
  6
CONTINUOUS
 10
1587.5766160000001
 20
9529.2779099999989
 30
0.0
 40
216.0
  1
左回転右横向
  0
TEXT
  5
7AEB
  8
4
  6
CONTINUOUS
 10
5875.8782369999999
 20
10824.244326
 30
0.0
 40
224.0
  1
No.
  0
TEXT
  5
7AEC
  8
4
  6
CONTINUOUS
 10
5245.1842500000012
 20
9533.715365
 30
0.0
 40
216.0
  1
縮尺：1/40
  0
LINE
  5
7AED
  8
4
  6
CONTINUOUS
 10
7400.0
 20
10677.635017000001
 30
0.0
 11
7400.0
 21
9877.6350170000005
 31
0.0
  0
LINE
  5
7AEF
  8
4
  6
CONTINUOUS
 10
5762.4696889999996
 20
10725.054333
 30
0.0
 11
5762.4696889999996
 21
11146.609046
 31
0.0
  0
LINE
  5
7AF0
  8
4
  6
CONTINUOUS
 10
5762.4696889999996
 20
11146.609046
 30
0.0
 11
7400.0
 21
11146.609046
 31
0.0
  0
LINE
  5
7AF1
  8
4
  6
CONTINUOUS
 10
7400.0
 20
11146.609046
 30
0.0
 11
7400.0
 21
10725.054333
 31
0.0
  0
LINE
  5
7AF2
  8
4
  6
CONTINUOUS
 10
7400.0
 20
10725.054333
 30
0.0
 11
5762.4696889999996
 21
10725.054333
 31
0.0
  0
DIMENSION
  5
7B0A
  8
3
  6
CONTINUOUS
  2
*D1
 10
4007.3244520000012
 20
3015.3317430000002
 30
0.0
 11
4007.3244519999998
 21
3622.693088
 31
0.0
 70
   128
 13
3733.914385
 23
4295.3317429999997
 33
0.0
 14
3733.914385
 24
3015.3317430000002
 34
0.0
 50
90.0
1001
ACAD
1000
DSTYLE
1002
{
1070
   287
1070
     3
1070
   287
1070
     3
1070
    40
1040
40.0
1070
   143
1040
0.039
1070
   172
1070
     1
1070
   271
1070
     0
1070
   279
1070
     0
1070
   288
1070
     1
1002
}
  0
DIMENSION
  5
7B17
  8
3
  6
CONTINUOUS
  2
*D2
 10
4268.335379000001
 20
3015.3317430000002
 30
0.0
 11
4268.3353790000001
 21
3630.3652619999998
 31
0.0
 70
   128
 13
3888.9890729999988
 23
4349.3317429999988
 33
0.0
 14
3733.914385
 24
3015.3317430000002
 34
0.0
 50
90.0
1001
ACAD
1000
DSTYLE
1002
{
1070
   287
1070
     3
1070
   287
1070
     3
1070
    40
1040
40.0
1070
   143
1040
0.039
1070
   172
1070
     1
1070
   271
1070
     0
1070
   279
1070
     0
1070
   288
1070
     1
1002
}
  0
DIMENSION
  5
7B24
  8
3
  6
CONTINUOUS
  2
*D3
 10
4526.5091789999997
 20
4349.3317429999988
 30
0.0
 11
4526.5091789999997
 21
4757.2855680000002
 31
0.0
 70
   128
 13
2882.0668850000002
 23
5246.5874009999998
 33
0.0
 14
3888.9890729999988
 24
4349.3317429999988
 34
0.0
 50
90.0
1001
ACAD
1000
DSTYLE
1002
{
1070
   287
1070
     3
1070
   287
1070
     3
1070
    40
1040
40.0
1070
   143
1040
0.039
1070
   172
1070
     1
1070
   271
1070
     0
1070
   279
1070
     0
1070
   288
1070
     1
1002
}
  0
DIMENSION
  5
7B30
  8
3
  6
CONTINUOUS
  2
*D4
 10
4526.5091789999997
 20
2799.3317430000002
 30
0.0
 11
4426.5091789999988
 21
3574.3317430000002
 31
0.0
 70
     0
 13
3888.9890729999988
 23
4349.3317429999988
 33
0.0
 14
3658.914385
 24
2799.3317430000002
 34
0.0
 50
90.0
1001
ACAD
1000
DSTYLE
1002
{
1070
   287
1070
     4
1070
   287
1070
     4
1070
    40
1040
40.0
1070
    75
1070
     1
1070
   143
1040
0.039
1070
   172
1070
     1
1070
   271
1070
     0
1070
   279
1070
     1
1070
   288
1070
     1
1002
}
  0
DIMENSION
  5
7B3D
  8
3
  6
CONTINUOUS
  2
*D5
 10
2908.914385
 20
2412.7435449999998
 30
0.0
 11
2038.2841069999999
 21
2412.7435449999998
 31
0.0
 70
   128
 13
1108.914385
 23
2799.3317430000002
 33
0.0
 14
2908.914385
 24
2587.3630130000001
 34
0.0
1001
ACAD
1000
DSTYLE
1002
{
1070
   287
1070
     3
1070
   287
1070
     3
1070
    40
1040
40.0
1070
   143
1040
0.039
1070
   172
1070
     1
1070
   271
1070
     0
1070
   279
1070
     0
1070
   288
1070
     1
1002
}
  0
DIMENSION
  5
7B49
  8
3
  6
CONTINUOUS
  2
*D6
 10
3658.914385
 20
2412.7435449999998
 30
0.0
 11
3283.914385
 21
2512.7435449999998
 31
0.0
 70
     0
 13
2908.914385
 23
2587.3630130000001
 33
0.0
 14
3658.914385
 24
2799.3317430000002
 34
0.0
1001
ACAD
1000
DSTYLE
1002
{
1070
   287
1070
     4
1070
   287
1070
     4
1070
    40
1040
40.0
1070
    75
1070
     1
1070
   143
1040
0.039
1070
   172
1070
     1
1070
   271
1070
     0
1070
   279
1070
     1
1070
   288
1070
     1
1002
}
  0
DIMENSION
  5
7B56
  8
3
  6
CONTINUOUS
  2
*D7
 10
2908.914385
 20
5483.568929
 30
0.0
 11
3341.640112
 21
5483.568929
 31
0.0
 70
   128
 13
3733.914385
 23
4345.3317429999997
 33
0.0
 14
2908.914385
 24
5395.8881490000012
 34
0.0
1001
ACAD
1000
DSTYLE
1002
{
1070
   287
1070
     3
1070
   287
1070
     3
1070
    40
1040
40.0
1070
   143
1040
0.039
1070
   172
1070
     1
1070
   271
1070
     0
1070
   279
1070
     0
1070
   288
1070
     1
1002
}
  0
DIMENSION
  5
7B6F
  8
3
  6
CONTINUOUS
  2
*D8
 10
4810.8777520000012
 20
2799.3317430000002
 30
0.0
 11
4810.8777520000003
 21
4031.002207
 31
0.0
 70
   128
 13
2882.0668850000002
 23
5246.5874009999998
 33
0.0
 14
3658.914385
 24
2799.3317430000002
 34
0.0
 50
90.0
1001
ACAD
1000
DSTYLE
1002
{
1070
   287
1070
     3
1070
   287
1070
     3
1070
    40
1040
40.0
1070
   143
1040
0.039
1070
   172
1070
     1
1070
   271
1070
     0
1070
   279
1070
     0
1070
   288
1070
     1
1002
}
  0
DIMENSION
  5
7B7C
  8
3
  6
CONTINUOUS
  2
*D9
 10
5668.5465299999996
 20
5388.8363100000006
 30
0.0
 11
6153.7293639999998
 21
5388.8363100000006
 31
0.0
 70
   128
 13
6618.5465299999996
 23
5178.3317429999997
 33
0.0
 14
5668.5465299999996
 24
5178.3317429999997
 34
0.0
1001
ACAD
1000
DSTYLE
1002
{
1070
   287
1070
     3
1070
   287
1070
     3
1070
    40
1040
40.0
1070
   143
1040
0.039
1070
   172
1070
     1
1070
   271
1070
     0
1070
   279
1070
     0
1070
   288
1070
     1
1002
}
  0
DIMENSION
  5
7B89
  8
3
  6
CONTINUOUS
  2
*D10
 10
7014.7342520000011
 20
3724.3317430000002
 30
0.0
 11
7014.7342520000002
 21
4338.8831809999992
 31
0.0
 70
   128
 13
6721.5465299999987
 23
4974.3317429999997
 33
0.0
 14
6721.5465299999987
 24
3724.3317430000002
 34
0.0
 50
90.0
1001
ACAD
1000
DSTYLE
1002
{
1070
   287
1070
     3
1070
   287
1070
     3
1070
     3
1000
φ<>
1070
    40
1040
40.0
1070
   143
1040
0.039
1070
   172
1070
     1
1070
   271
1070
     0
1070
   279
1070
     0
1070
   288
1070
     1
1002
}
  0
DIMENSION
  5
7B96
  8
3
  6
CONTINUOUS
  2
*D11
 10
6143.5465299999996
 20
5649.3509999999997
 30
0.0
 11
6417.8322440000002
 21
5649.3509999999997
 31
0.0
 70
   128
 13
6721.5465299999987
 23
5024.3317429999997
 33
0.0
 14
6143.5465299999996
 24
5574.8381209999989
 34
0.0
1001
ACAD
1000
DSTYLE
1002
{
1070
   287
1070
     3
1070
   287
1070
     3
1070
    40
1040
40.0
1070
   143
1040
0.039
1070
   172
1070
     1
1070
   271
1070
     0
1070
   279
1070
     0
1070
   288
1070
     1
1002
}
  0
DIMENSION
  5
7BA2
  8
3
  6
CONTINUOUS
  2
*D12
 10
5303.5465299999996
 20
5649.3509999999997
 30
0.0
 11
5723.5465299999996
 21
5849.3509999999997
 31
0.0
 70
     0
  1
MAX\P890
 13
6143.5465299999996
 23
5574.8381209999989
 33
0.0
 14
5303.5465299999996
 24
4727.3317429999988
 34
0.0
1001
ACAD
1000
DSTYLE
1002
{
1070
   287
1070
     4
1070
   287
1070
     4
1070
    40
1040
40.0
1070
    75
1070
     1
1070
   143
1040
0.039
1070
   172
1070
     1
1070
   271
1070
     0
1070
   279
1070
     1
1070
   288
1070
     1
1002
}
  0
DIMENSION
  5
7BAF
  8
3
  6
CONTINUOUS
  2
*D13
 10
6143.5465299999996
 20
2459.487881999999
 30
0.0
 11
5790.3695390000003
 21
2459.487881999999
 31
0.0
 70
   128
 13
5416.5465299999987
 23
2799.3317430000002
 33
0.0
 14
6143.5465299999996
 24
2568.9978959999999
 34
0.0
1001
ACAD
1000
DSTYLE
1002
{
1070
   287
1070
     3
1070
   287
1070
     3
1070
    40
1040
40.0
1070
   143
1040
0.039
1070
   172
1070
     1
1070
   271
1070
     0
1070
   279
1070
     0
1070
   288
1070
     1
1002
}
  0
DIMENSION
  5
7BBB
  8
3
  6
CONTINUOUS
  2
*D14
 10
6696.5465299999987
 20
2459.487881999999
 30
0.0
 11
6420.0465299999987
 21
2559.487881999999
 31
0.0
 70
     0
 13
6143.5465299999996
 23
2568.9978959999999
 33
0.0
 14
6696.5465299999987
 24
2799.3317430000002
 34
0.0
1001
ACAD
1000
DSTYLE
1002
{
1070
   287
1070
     4
1070
   287
1070
     4
1070
    40
1040
40.0
1070
    75
1070
     1
1070
   143
1040
0.039
1070
   172
1070
     1
1070
   271
1070
     0
1070
   279
1070
     1
1070
   288
1070
     1
1002
}
  0
DIMENSION
  5
7BDD
  8
3
  6
CONTINUOUS
  2
*D15
 10
3658.914385
 20
6820.1714110000003
 30
0.0
 11
2377.9465839999989
 21
6820.1714110000003
 31
0.0
 70
   128
 13
1108.914385
 23
7229.4052709999996
 33
0.0
 14
3658.914385
 24
7229.4052709999996
 34
0.0
1001
ACAD
1000
DSTYLE
1002
{
1070
   287
1070
     3
1070
   287
1070
     3
1070
    40
1040
40.0
1070
   143
1040
0.039
1070
   172
1070
     1
1070
   271
1070
     0
1070
   279
1070
     0
1070
   288
1070
     1
1002
}
  0
DIMENSION
  5
7BEA
  8
3
  6
CONTINUOUS
  2
*D16
 10
4107.8554490000006
 20
7229.4052709999996
 30
0.0
 11
4107.8554490000006
 21
7822.7582570000004
 31
0.0
 70
   128
 13
3658.914385
 23
8509.4052709999996
 33
0.0
 14
3658.914385
 24
7229.4052709999996
 34
0.0
 50
90.0
1001
ACAD
1000
DSTYLE
1002
{
1070
   287
1070
     3
1070
   287
1070
     3
1070
    40
1040
40.0
1070
   143
1040
0.039
1070
   172
1070
     1
1070
   271
1070
     0
1070
   279
1070
     0
1070
   288
1070
     1
1002
}
  0
DIMENSION
  5
7C00
  8
3
  6
CONTINUOUS
  2
*D17
 10
1829.914385
 20
5483.568929
 30
0.0
 11
2369.414385
 21
5583.5689290000009
 31
0.0
 70
     0
 13
2908.914385
 23
5395.8881490000012
 33
0.0
 14
1829.914385
 24
4349.3317429999988
 34
0.0
1001
ACAD
1000
DSTYLE
1002
{
1070
   287
1070
     4
1070
   287
1070
     4
1070
    40
1040
40.0
1070
    75
1070
     1
1070
   143
1040
0.039
1070
   172
1070
     1
1070
   271
1070
     0
1070
   279
1070
     1
1070
   288
1070
     1
1002
}
  0
DIMENSION
  5
7C83
  8
3
  2
*D18
 10
1108.914385
 20
5764.0976160714281
 30
0.0
 11
2410.5491301811048
 21
5764.0976160714281
 31
0.0
 70
   128
 13
3733.914385
 23
4345.3317429999997
 33
0.0
 14
1108.914385
 24
2949.3317430000002
 34
0.0
1001
ACAD
1000
DSTYLE
1002
{
1070
   287
1070
     3
1070
   287
1070
     3
1070
    40
1040
40.0
1070
   143
1040
0.039
1070
   172
1070
     1
1070
   271
1070
     0
1070
   279
1070
     0
1070
   288
1070
     1
1002
}
  0
ENDSEC
  0
EOF
