  0
SECTION
  2
HEADER
  9
$ACADVER
  1
AC1009
  9
$INSBASE
 10
0.0
 20
0.0
 30
0.0
  9
$EXTMIN
 10
1000.0
 20
1200.0
 30
0.0
  9
$EXTMAX
 10
7400.0
 20
11146.609046
 30
0.0
  9
$LIMMIN
 10
0.0
 20
0.0
  9
$LIMMAX
 10
297.0
 20
210.0
  9
$ORTHOMODE
 70
     0
  9
$REGENMODE
 70
     1
  9
$FILLMODE
 70
     0
  9
$QTEXTMODE
 70
     0
  9
$MIRRTEXT
 70
     1
  9
$DRAGMODE
 70
     2
  9
$LTSCALE
 40
100.0
  9
$OSMODE
 70
    37
  9
$ATTMODE
 70
     1
  9
$TEXTSIZE
 40
180.0
  9
$TRACEWID
 40
0.05
  9
$TEXTSTYLE
  7
STANDARD
  9
$CLAYER
  8
3
  9
$CELTYPE
  6
BYLAYER
  9
$CECOLOR
 62
   256
  9
$DIMSCALE
 40
40.0
  9
$DIMASZ
 40
2.0
  9
$DIMEXO
 40
0.5
  9
$DIMDLI
 40
10.0
  9
$DIMRND
 40
0.0
  9
$DIMDLE
 40
0.0
  9
$DIMEXE
 40
1.0
  9
$DIMTP
 40
1.0
  9
$DIMTM
 40
1.0
  9
$DIMTXT
 40
3.0
  9
$DIMCEN
 40
0.0
  9
$DIMTSZ
 40
0.0
  9
$DIMTOL
 70
     0
  9
$DIMLIM
 70
     0
  9
$DIMTIH
 70
     0
  9
$DIMTOH
 70
     0
  9
$DIMSE1
 70
     0
  9
$DIMSE2
 70
     0
  9
$DIMTAD
 70
     1
  9
$DIMZIN
 70
     8
  9
$DIMBLK
  1

  9
$DIMASO
 70
     1
  9
$DIMSHO
 70
     1
  9
$DIMPOST
  1

  9
$DIMAPOST
  1

  9
$DIMALT
 70
     0
  9
$DIMALTD
 70
     2
  9
$DIMALTF
 40
0.039
  9
$DIMLFAC
 40
1.0
  9
$DIMTOFL
 70
     1
  9
$DIMTVP
 40
0.0
  9
$DIMTIX
 70
     0
  9
$DIMSOXD
 70
     0
  9
$DIMSAH
 70
     1
  9
$DIMBLK1
  1
OPEN
  9
$DIMBLK2
  1
OPEN
  9
$DIMSTYLE
  2
IGA
  9
$DIMCLRD
 70
     0
  9
$DIMCLRE
 70
     0
  9
$DIMCLRT
 70
     0
  9
$DIMTFAC
 40
10.0
  9
$DIMGAP
 40
1.0
  9
$LUNITS
 70
     2
  9
$LUPREC
 70
     3
  9
$SKETCHINC
 40
0.1
  9
$FILLETRAD
 40
50.0
  9
$AUNITS
 70
     0
  9
$AUPREC
 70
     0
  9
$MENU
  1
acad
  9
$ELEVATION
 40
0.0
  9
$PELEVATION
 40
0.0
  9
$THICKNESS
 40
0.0
  9
$LIMCHECK
 70
     0
  9
$BLIPMODE
 70
     0
  9
$CHAMFERA
 40
0.5
  9
$CHAMFERB
 40
0.5
  9
$SKPOLY
 70
     0
  9
$TDCREATE
 40
2450757.4643251151
  9
$TDUPDATE
 40
2454953.844357823
  9
$TDINDWG
 40
0.0048262963
  9
$TDUSRTIMER
 40
0.0048262963
  9
$USRTIMER
 70
     1
  9
$ANGBASE
 50
0.0
  9
$ANGDIR
 70
     0
  9
$PDMODE
 70
     0
  9
$PDSIZE
 40
0.0
  9
$PLINEWID
 40
0.0
  9
$COORDS
 70
     1
  9
$SPLFRAME
 70
     0
  9
$SPLINETYPE
 70
     6
  9
$SPLINESEGS
 70
     8
  9
$ATTDIA
 70
     0
  9
$ATTREQ
 70
     1
  9
$HANDLING
 70
 10241
  9
$HANDSEED
  5
7E5D
  9
$SURFTAB1
 70
     6
  9
$SURFTAB2
 70
     6
  9
$SURFTYPE
 70
     6
  9
$SURFU
 70
     6
  9
$SURFV
 70
     6
  9
$UCSNAME
  2

  9
$UCSORG
 10
0.0
 20
0.0
 30
0.0
  9
$UCSXDIR
 10
1.0
 20
0.0
 30
0.0
  9
$UCSYDIR
 10
0.0
 20
1.0
 30
0.0
  9
$PUCSNAME
  2

  9
$PUCSORG
 10
0.0
 20
0.0
 30
0.0
  9
$PUCSXDIR
 10
1.0
 20
0.0
 30
0.0
  9
$PUCSYDIR
 10
0.0
 20
1.0
 30
0.0
  9
$USERI1
 70
     0
  9
$USERI2
 70
     0
  9
$USERI3
 70
     0
  9
$USERI4
 70
     0
  9
$USERI5
 70
     0
  9
$USERR1
 40
0.0
  9
$USERR2
 40
0.0
  9
$USERR3
 40
0.0
  9
$USERR4
 40
0.0
  9
$USERR5
 40
0.0
  9
$WORLDVIEW
 70
     1
  9
$SHADEDGE
 70
     3
  9
$SHADEDIF
 70
    70
  9
$TILEMODE
 70
     1
  9
$MAXACTVP
 70
    16
  9
$PLIMCHECK
 70
     0
  9
$PEXTMIN
 10
1.0000000000000000E+020
 20
1.0000000000000000E+020
 30
1.0000000000000000E+020
  9
$PEXTMAX
 10
-1.0000000000000000E+020
 20
-1.0000000000000000E+020
 30
-1.0000000000000000E+020
  9
$PLIMMIN
 10
0.0
 20
0.0
  9
$PLIMMAX
 10
12.0
 20
9.0
  9
$UNITMODE
 70
     0
  9
$VISRETAIN
 70
     0
  9
$PLINEGEN
 70
     0
  9
$PSLTSCALE
 70
     1
  0
ENDSEC
  0
SECTION
  2
TABLES
  0
TABLE
  2
VPORT
 70
     2
  0
VPORT
  2
*ACTIVE
 70
     0
 10
0.0
 20
0.0
 11
1.0
 21
1.0
 12
10429.226986027379
 22
6386.9308961068973
 13
0.0
 23
0.0
 14
10.0
 24
10.0
 15
10.0
 25
10.0
 16
0.0
 26
0.0
 36
1.0
 17
0.0
 27
0.0
 37
0.0
 40
14046.829360524451
 41
1.5051150895140659
 42
50.0
 43
0.0
 44
0.0
 50
0.0
 51
0.0
 71
     0
 72
   100
 73
     1
 74
     0
 75
     0
 76
     0
 77
     0
 78
     0
  0
ENDTAB
  0
TABLE
  2
LTYPE
 70
     2
  0
LTYPE
  2
CONTINUOUS
 70
     0
  3
Solid line
 72
    65
 73
     0
 40
0.0
  0
LTYPE
  2
CENTER
 70
     0
  3
____ _ ____ _ ____ _ ____ _ ____ _ ____ _ ____ 
 72
    65
 73
     4
 40
2.0
 49
1.25
 49
-0.25
 49
0.25
 49
-0.25
  0
ENDTAB
  0
TABLE
  2
LAYER
 70
     6
  0
LAYER
  2
0
 70
     0
 62
     7
  6
CONTINUOUS
  0
LAYER
  2
3
 70
     0
 62
     2
  6
CONTINUOUS
  0
LAYER
  2
2
 70
     0
 62
     3
  6
CENTER
  0
LAYER
  2
1
 70
     0
 62
     4
  6
CONTINUOUS
  0
LAYER
  2
4
 70
     0
 62
     7
  6
CONTINUOUS
  0
LAYER
  2
DEFPOINTS
 70
     0
 62
     7
  6
CONTINUOUS
  0
ENDTAB
  0
TABLE
  2
STYLE
 70
     1
  0
STYLE
  2
STANDARD
 70
     0
 40
0.0
 41
1.0
 50
0.0
 71
     0
 42
180.0
  3
simplex.shx
  4
extfont.shx
  0
ENDTAB
  0
TABLE
  2
VIEW
 70
     0
  0
ENDTAB
  0
TABLE
  2
UCS
 70
     0
  0
ENDTAB
  0
TABLE
  2
APPID
 70
     1
  0
APPID
  2
ACAD
 70
     0
  0
ENDTAB
  0
TABLE
  2
DIMSTYLE
 70
     1
  0
DIMSTYLE
  2
IGA
 70
     0
  3

  4

  5

  6
OPEN
  7
OPEN
 40
2.0
 41
2.0
 42
0.5
 43
10.0
 44
1.0
 45
0.0
 46
0.0
 47
1.0
 48
1.0
140
3.0
141
0.0
142
0.0
143
0.03937
144
1.0
145
0.0
146
10.0
147
1.0
 71
     0
 72
     0
 73
     0
 74
     0
 75
     0
 76
     0
 77
     1
 78
     8
170
     0
171
     2
172
     0
173
     1
174
     0
175
     0
176
     0
177
     0
178
     0
  0
ENDTAB
  0
ENDSEC
  0
SECTION
  2
BLOCKS
  0
BLOCK
  8
0
  2
$MODEL_SPACE
 70
     0
 10
0.0
 20
0.0
 30
0.0
  3
$MODEL_SPACE
  1

  0
ENDBLK
  5
1B
  8
0
  0
BLOCK
 67
     1
  8
0
  2
$PAPER_SPACE
 70
     0
 10
0.0
 20
0.0
 30
0.0
  3
$PAPER_SPACE
  1

  0
ENDBLK
  5
18
 67
     1
  8
0
  0
BLOCK
  8
0
  2
_OPEN
 70
     0
 10
0.0
 20
0.0
 30
0.0
  3
_OPEN
  1

  0
LINE
  5
7B8D
  8
0
  6
BYBLOCK
 62
     0
 10
-1.0
 20
0.166667
 30
0.0
 11
0.0
 21
0.0
 31
0.0
  0
LINE
  5
7B8E
  8
0
  6
BYBLOCK
 62
     0
 10
0.0
 20
0.0
 30
0.0
 11
-1.0
 21
-0.166667
 31
0.0
  0
LINE
  5
7B8F
  8
0
  6
BYBLOCK
 62
     0
 10
0.0
 20
0.0
 30
0.0
 11
-1.0
 21
0.0
 31
0.0
  0
ENDBLK
  5
7B90
  8
0
  0
BLOCK
  8
0
  2
*D1
 70
     1
 10
0.0
 20
0.0
 30
0.0
  3
*D1
  1

  0
LINE
  5
7DB5
  8
3
  6
CONTINUOUS
 62
     0
 10
4090.5002279999999
 20
4989.5667909999993
 30
0.0
 11
4090.5002279999999
 21
5147.7272290000001
 31
0.0
  0
LINE
  5
7DB6
  8
3
  6
CONTINUOUS
 62
     0
 10
2810.5002279999999
 20
4989.5667909999993
 30
0.0
 11
2810.5002279999999
 21
5147.7272290000001
 31
0.0
  0
LINE
  5
7DB7
  8
3
  6
CONTINUOUS
 62
     0
 10
4010.5002279999999
 20
5107.7272290000001
 30
0.0
 11
2890.5002279999999
 21
5107.7272290000001
 31
0.0
  0
INSERT
  5
7DB8
  8
3
  6
CONTINUOUS
 62
     0
  2
_OPEN
 10
4090.5002279999999
 20
5107.7272290000001
 30
0.0
 41
80.0
 42
80.0
 43
80.0
  0
INSERT
  5
7DB9
  8
3
  6
CONTINUOUS
 62
     0
  2
_OPEN
 10
2810.5002279999999
 20
5107.7272290000001
 30
0.0
 41
80.0
 42
80.0
 43
80.0
 50
180.0
  0
TEXT
  8
3
  40
120
  5
7E4B
  62
0
  72
0
  71
0
 10
3149.91
 20
4995.33
 30
0.000000
  1
1280
  0
POINT
  5
7DBB
  8
DEFPOINTS
  6
CONTINUOUS
 62
     0
 10
4090.5002279999999
 20
4969.5667910000002
 30
0.0
  0
POINT
  5
7DBC
  8
DEFPOINTS
  6
CONTINUOUS
 62
     0
 10
2810.5002279999999
 20
4969.5667910000002
 30
0.0
  0
POINT
  5
7DBD
  8
DEFPOINTS
  6
CONTINUOUS
 62
     0
 10
2810.5002279999999
 20
5107.7272290000001
 30
0.0
  0
ENDBLK
  5
7B9D
  8
0
  0
BLOCK
  8
0
  2
*D2
 70
     1
 10
0.0
 20
0.0
 30
0.0
  3
*D2
  1

  0
LINE
  5
7DBE
  8
3
  6
CONTINUOUS
 62
     0
 10
4090.5002279999999
 20
4989.5667909999993
 30
0.0
 11
4090.5002279999999
 21
5399.117240999999
 31
0.0
  0
LINE
  5
7DBF
  8
3
  6
CONTINUOUS
 62
     0
 10
2756.5002279999999
 20
5136.357465
 30
0.0
 11
2756.5002279999999
 21
5399.117240999999
 31
0.0
  0
LINE
  5
7DC0
  8
3
  6
CONTINUOUS
 62
     0
 10
4010.5002279999999
 20
5359.117240999999
 30
0.0
 11
2836.5002279999999
 21
5359.117240999999
 31
0.0
  0
INSERT
  5
7DC1
  8
3
  6
CONTINUOUS
 62
     0
  2
_OPEN
 10
4090.5002279999999
 20
5359.117240999999
 30
0.0
 41
80.0
 42
80.0
 43
80.0
  0
INSERT
  5
7DC2
  8
3
  6
CONTINUOUS
 62
     0
  2
_OPEN
 10
2756.5002279999999
 20
5359.117240999999
 30
0.0
 41
80.0
 42
80.0
 43
80.0
 50
180.0
  0
TEXT
  8
3
  40
120
  5
7E4C
  62
0
  72
0
  71
0
 10
3141.80
 20
5246.72
 30
0.000000
  1
1334
  0
POINT
  5
7DC4
  8
DEFPOINTS
  6
CONTINUOUS
 62
     0
 10
4090.5002279999999
 20
4969.5667910000002
 30
0.0
  0
POINT
  5
7DC5
  8
DEFPOINTS
  6
CONTINUOUS
 62
     0
 10
2756.5002279999999
 20
5116.357465
 30
0.0
  0
POINT
  5
7DC6
  8
DEFPOINTS
  6
CONTINUOUS
 62
     0
 10
2756.5002279999999
 20
5359.117240999999
 30
0.0
  0
ENDBLK
  5
7BAA
  8
0
  0
BLOCK
  8
0
  2
*D3
 70
     1
 10
0.0
 20
0.0
 30
0.0
  3
*D3
  1

  0
LINE
  5
7DC7
  8
3
  6
CONTINUOUS
 62
     0
 10
1859.244571
 20
4137.7192909999994
 30
0.0
 11
1859.244571
 21
5399.117240999999
 31
0.0
  0
LINE
  5
7DC8
  8
3
  6
CONTINUOUS
 62
     0
 10
2676.5002279999999
 20
5359.117240999999
 30
0.0
 11
1939.244571
 21
5359.117240999999
 31
0.0
  0
INSERT
  5
7DC9
  8
3
  6
CONTINUOUS
 62
     0
  2
_OPEN
 10
2756.5002279999999
 20
5359.117240999999
 30
0.0
 41
80.0
 42
80.0
 43
80.0
  0
INSERT
  5
7DCA
  8
3
  6
CONTINUOUS
 62
     0
  2
_OPEN
 10
1859.244571
 20
5359.117240999999
 30
0.0
 41
80.0
 42
80.0
 43
80.0
 50
180.0
  0
TEXT
  8
3
  40
120
  5
7E4D
  62
0
  72
0
  71
0
 10
2067.87
 20
5246.72
 30
0.000000
  1
897
  0
POINT
  5
7DCC
  8
DEFPOINTS
  6
CONTINUOUS
 62
     0
 10
2756.5002279999999
 20
5116.357465
 30
0.0
  0
POINT
  5
7DCD
  8
DEFPOINTS
  6
CONTINUOUS
 62
     0
 10
1859.244571
 20
4117.7192909999994
 30
0.0
  0
POINT
  5
7DCE
  8
DEFPOINTS
  6
CONTINUOUS
 62
     0
 10
1859.244571
 20
5359.117240999999
 30
0.0
  0
ENDBLK
  5
7BB6
  8
0
  0
BLOCK
  8
0
  2
*D4
 70
     1
 10
0.0
 20
0.0
 30
0.0
  3
*D4
  1

  0
LINE
  5
7DCF
  8
3
  6
CONTINUOUS
 62
     0
 10
2740.5002279999999
 20
4969.5667910000002
 30
0.0
 11
1572.896448
 21
4969.5667910000002
 31
0.0
  0
LINE
  5
7DD0
  8
3
  6
CONTINUOUS
 62
     0
 10
1674.7439859999999
 20
4144.5667909999993
 30
0.0
 11
1572.896448
 21
4144.5667909999993
 31
0.0
  0
LINE
  5
7DD1
  8
3
  6
CONTINUOUS
 62
     0
 10
1612.896448
 20
4889.5667910000002
 30
0.0
 11
1612.896448
 21
4224.5667909999993
 31
0.0
  0
INSERT
  5
7DD2
  8
3
  6
CONTINUOUS
 62
     0
  2
_OPEN
 10
1612.896448
 20
4969.5667910000002
 30
0.0
 41
80.0
 42
80.0
 43
80.0
 50
90.0
  0
INSERT
  5
7DD3
  8
3
  6
CONTINUOUS
 62
     0
  2
_OPEN
 10
1612.896448
 20
4144.5667909999993
 30
0.0
 41
80.0
 42
80.0
 43
80.0
 50
270.0
  0
TEXT
  8
3
  40
120
  5
7E4E
  62
0
  72
0
  71
0
 10
1272.90
 20
4327.67
 30
0.000000
  1
825
  0
POINT
  5
7DD5
  8
DEFPOINTS
  6
CONTINUOUS
 62
     0
 10
2760.5002279999999
 20
4969.5667910000002
 30
0.0
  0
POINT
  5
7DD6
  8
DEFPOINTS
  6
CONTINUOUS
 62
     0
 10
1694.743985999999
 20
4144.5667909999993
 30
0.0
  0
POINT
  5
7DD7
  8
DEFPOINTS
  6
CONTINUOUS
 62
     0
 10
1612.896448
 20
4144.5667909999993
 30
0.0
  0
ENDBLK
  5
7BC3
  8
0
  0
BLOCK
  8
0
  2
*D5
 70
     1
 10
0.0
 20
0.0
 30
0.0
  3
*D5
  1

  0
LINE
  5
7DD8
  8
3
  6
CONTINUOUS
 62
     0
 10
1986.5002280000001
 20
3034.5667910000002
 30
0.0
 11
1572.896448
 21
3034.5667910000002
 31
0.0
  0
LINE
  5
7DD9
  8
3
  6
CONTINUOUS
 62
     0
 10
1612.896448
 20
4064.5667909999979
 30
0.0
 11
1612.896448
 21
3114.5667910000002
 31
0.0
  0
INSERT
  5
7DDA
  8
3
  6
CONTINUOUS
 62
     0
  2
_OPEN
 10
1612.896448
 20
4144.5667909999993
 30
0.0
 41
80.0
 42
80.0
 43
80.0
 50
90.0
  0
INSERT
  5
7DDB
  8
3
  6
CONTINUOUS
 62
     0
  2
_OPEN
 10
1612.896448
 20
3034.5667910000002
 30
0.0
 41
80.0
 42
80.0
 43
80.0
 50
270.0
  0
TEXT
  8
3
  40
120
  5
7E4F
  62
0
  72
0
  71
0
 10
1272.90
 20
3377.17
 30
0.000000
  1
1110
  0
POINT
  5
7DDD
  8
DEFPOINTS
  6
CONTINUOUS
 62
     0
 10
1694.743985999999
 20
4144.5667909999993
 30
0.0
  0
POINT
  5
7DDE
  8
DEFPOINTS
  6
CONTINUOUS
 62
     0
 10
2006.5002280000001
 20
3034.5667910000002
 30
0.0
  0
POINT
  5
7DDF
  8
DEFPOINTS
  6
CONTINUOUS
 62
     0
 10
1612.896448
 20
3034.5667910000002
 30
0.0
  0
ENDBLK
  5
7BCF
  8
0
  0
BLOCK
  8
0
  2
*D6
 70
     1
 10
0.0
 20
0.0
 30
0.0
  3
*D6
  1

  0
LINE
  5
7DE0
  8
3
  6
CONTINUOUS
 62
     0
 10
2006.5002280000001
 20
3014.5667910000002
 30
0.0
 11
2006.5002280000001
 21
2699.7953269999998
 31
0.0
  0
LINE
  5
7DE1
  8
3
  6
CONTINUOUS
 62
     0
 10
2756.5002279999999
 20
2908.674379
 30
0.0
 11
2756.5002279999999
 21
2699.7953269999998
 31
0.0
  0
LINE
  5
7DE2
  8
3
  6
CONTINUOUS
 62
     0
 10
2086.500227999999
 20
2739.7953269999989
 30
0.0
 11
2676.5002279999999
 21
2739.7953269999989
 31
0.0
  0
INSERT
  5
7DE3
  8
3
  6
CONTINUOUS
 62
     0
  2
_OPEN
 10
2006.5002280000001
 20
2739.7953269999989
 30
0.0
 41
80.0
 42
80.0
 43
80.0
 50
180.0
  0
INSERT
  5
7DE4
  8
3
  6
CONTINUOUS
 62
     0
  2
_OPEN
 10
2756.5002279999999
 20
2739.7953269999989
 30
0.0
 41
80.0
 42
80.0
 43
80.0
  0
TEXT
  8
3
  40
120
  5
7E50
  62
0
  72
0
  71
0
 10
2135.63
 20
2627.40
 30
0.000000
  1
750
  0
POINT
  5
7DE6
  8
DEFPOINTS
  6
CONTINUOUS
 62
     0
 10
2006.5002280000001
 20
3034.5667910000002
 30
0.0
  0
POINT
  5
7DE7
  8
DEFPOINTS
  6
CONTINUOUS
 62
     0
 10
2756.5002279999999
 20
2928.674379
 30
0.0
  0
POINT
  5
7DE8
  8
DEFPOINTS
  6
CONTINUOUS
 62
     0
 10
2756.5002279999999
 20
2739.7953269999989
 30
0.0
  0
ENDBLK
  5
7BDC
  8
0
  0
BLOCK
  8
0
  2
*D7
 70
     1
 10
0.0
 20
0.0
 30
0.0
  3
*D7
  1

  0
LINE
  5
7DE9
  8
3
  6
CONTINUOUS
 62
     0
 10
4556.500227999999
 20
3014.5667910000002
 30
0.0
 11
4556.500227999999
 21
2699.7953269999998
 31
0.0
  0
LINE
  5
7DEA
  8
3
  6
CONTINUOUS
 62
     0
 10
2836.5002279999999
 20
2739.7953269999989
 30
0.0
 11
4476.500227999999
 21
2739.7953269999989
 31
0.0
  0
INSERT
  5
7DEB
  8
3
  6
CONTINUOUS
 62
     0
  2
_OPEN
 10
2756.5002279999999
 20
2739.7953269999989
 30
0.0
 41
80.0
 42
80.0
 43
80.0
 50
180.0
  0
INSERT
  5
7DEC
  8
3
  6
CONTINUOUS
 62
     0
  2
_OPEN
 10
4556.500227999999
 20
2739.7953269999989
 30
0.0
 41
80.0
 42
80.0
 43
80.0
  0
TEXT
  8
3
  40
120
  5
7E51
  62
0
  72
0
  71
0
 10
3416.50
 20
2627.40
 30
0.000000
  1
1800
  0
POINT
  5
7DEE
  8
DEFPOINTS
  6
CONTINUOUS
 62
     0
 10
2756.5002279999999
 20
2928.674379
 30
0.0
  0
POINT
  5
7DEF
  8
DEFPOINTS
  6
CONTINUOUS
 62
     0
 10
4556.500227999999
 20
3034.5667910000002
 30
0.0
  0
POINT
  5
7DF0
  8
DEFPOINTS
  6
CONTINUOUS
 62
     0
 10
4556.500227999999
 20
2739.7953269999989
 30
0.0
  0
ENDBLK
  5
7C9B
  8
0
  0
BLOCK
  8
0
  2
*D8
 70
     1
 10
0.0
 20
0.0
 30
0.0
  3
*D8
  1

  0
LINE
  5
7DF1
  8
3
  6
CONTINUOUS
 62
     0
 10
2720.5002279999999
 20
4969.5667910000002
 30
0.0
 11
1264.5558010000011
 21
4969.5667910000002
 31
0.0
  0
LINE
  5
7DF2
  8
3
  6
CONTINUOUS
 62
     0
 10
1986.5002280000001
 20
3034.5667910000002
 30
0.0
 11
1264.555801
 21
3034.5667910000002
 31
0.0
  0
LINE
  5
7DF3
  8
3
  6
CONTINUOUS
 62
     0
 10
1304.5558010000011
 20
4889.5667910000002
 30
0.0
 11
1304.555801
 21
3114.5667910000002
 31
0.0
  0
INSERT
  5
7DF4
  8
3
  6
CONTINUOUS
 62
     0
  2
_OPEN
 10
1304.5558010000011
 20
4969.5667910000002
 30
0.0
 41
80.0
 42
80.0
 43
80.0
 50
90.0
  0
INSERT
  5
7DF5
  8
3
  6
CONTINUOUS
 62
     0
  2
_OPEN
 10
1304.555801
 20
3034.5667910000002
 30
0.0
 41
80.0
 42
80.0
 43
80.0
 50
270.0
  0
TEXT
  8
3
  40
120
  5
7E52
  62
0
  72
0
  71
0
 10
964.556
 20
3751.91
 30
0.000000
  1
1935
  0
POINT
  5
7DF7
  8
DEFPOINTS
  6
CONTINUOUS
 62
     0
 10
2740.5002279999999
 20
4969.5667910000002
 30
0.0
  0
POINT
  5
7DF8
  8
DEFPOINTS
  6
CONTINUOUS
 62
     0
 10
2006.5002280000001
 20
3034.5667910000002
 30
0.0
  0
POINT
  5
7DF9
  8
DEFPOINTS
  6
CONTINUOUS
 62
     0
 10
1304.555801
 20
3034.5667910000002
 30
0.0
  0
ENDBLK
  5
7BF5
  8
0
  0
BLOCK
  8
0
  2
*D9
 70
     1
 10
0.0
 20
0.0
 30
0.0
  3
*D9
  1

  0
LINE
  5
7DFA
  8
3
  6
CONTINUOUS
 62
     0
 10
5767.7353700000003
 20
4989.5667909999993
 30
0.0
 11
5767.7353700000003
 21
5180.1646259999989
 31
0.0
  0
LINE
  5
7DFB
  8
3
  6
CONTINUOUS
 62
     0
 10
6717.7353699999994
 20
4989.5667909999993
 30
0.0
 11
6717.7353699999994
 21
5180.1646259999989
 31
0.0
  0
LINE
  5
7DFC
  8
3
  6
CONTINUOUS
 62
     0
 10
5847.7353700000003
 20
5140.1646259999998
 30
0.0
 11
6637.7353700000003
 21
5140.1646259999998
 31
0.0
  0
INSERT
  5
7DFD
  8
3
  6
CONTINUOUS
 62
     0
  2
_OPEN
 10
5767.7353700000003
 20
5140.1646259999998
 30
0.0
 41
80.0
 42
80.0
 43
80.0
 50
180.0
  0
INSERT
  5
7DFE
  8
3
  6
CONTINUOUS
 62
     0
  2
_OPEN
 10
6717.7353699999994
 20
5140.1646259999998
 30
0.0
 41
80.0
 42
80.0
 43
80.0
  0
TEXT
  8
3
  40
120
  5
7E53
  62
0
  72
0
  71
0
 10
6001.71
 20
5027.76
 30
0.000000
  1
950
  0
POINT
  5
7E00
  8
DEFPOINTS
  6
CONTINUOUS
 62
     0
 10
5767.7353700000003
 20
4969.5667910000002
 30
0.0
  0
POINT
  5
7E01
  8
DEFPOINTS
  6
CONTINUOUS
 62
     0
 10
6717.7353699999994
 20
4969.5667910000002
 30
0.0
  0
POINT
  5
7E02
  8
DEFPOINTS
  6
CONTINUOUS
 62
     0
 10
6717.7353699999994
 20
5140.1646259999998
 30
0.0
  0
ENDBLK
  5
7C02
  8
0
  0
BLOCK
  8
0
  2
*D10
 70
     1
 10
0.0
 20
0.0
 30
0.0
  3
*D10
  1

  0
LINE
  5
7E03
  8
3
  6
CONTINUOUS
 62
     0
 10
6840.7353700000003
 20
4769.5667909999993
 30
0.0
 11
7182.385236000001
 21
4769.5667909999993
 31
0.0
  0
LINE
  5
7E04
  8
3
  6
CONTINUOUS
 62
     0
 10
6840.7353700000003
 20
3519.5667909999988
 30
0.0
 11
7182.385236000001
 21
3519.5667909999988
 31
0.0
  0
LINE
  5
7E05
  8
3
  6
CONTINUOUS
 62
     0
 10
7142.385236000001
 20
4689.5667909999993
 30
0.0
 11
7142.385236000001
 21
3599.5667910000002
 31
0.0
  0
INSERT
  5
7E06
  8
3
  6
CONTINUOUS
 62
     0
  2
_OPEN
 10
7142.385236000001
 20
4769.5667909999993
 30
0.0
 41
80.0
 42
80.0
 43
80.0
 50
90.0
  0
INSERT
  5
7E07
  8
3
  6
CONTINUOUS
 62
     0
  2
_OPEN
 10
7142.385236000001
 20
3519.5667909999988
 30
0.0
 41
80.0
 42
80.0
 43
80.0
 50
270.0
  0
TEXT
  8
3
  40
120
  5
7E54
  62
0
  72
0
  71
0
 10
6802.39
 20
3930.31
 30
0.000000
  1
φ1250
  0
POINT
  5
7E09
  8
DEFPOINTS
  6
CONTINUOUS
 62
     0
 10
6820.7353700000003
 20
4769.5667909999993
 30
0.0
  0
POINT
  5
7E0A
  8
DEFPOINTS
  6
CONTINUOUS
 62
     0
 10
6820.7353700000003
 20
3519.5667909999988
 30
0.0
  0
POINT
  5
7E0B
  8
DEFPOINTS
  6
CONTINUOUS
 62
     0
 10
7142.385236000001
 20
3519.5667909999988
 30
0.0
  0
ENDBLK
  5
7CC3
  8
0
  0
BLOCK
  8
0
  2
*D11
 70
     1
 10
0.0
 20
0.0
 30
0.0
  3
*D11
  1

  0
LINE
  5
7E0C
  8
3
  6
CONTINUOUS
 62
     0
 10
6820.7353700000003
 20
4839.5667909999993
 30
0.0
 11
6820.7353700000003
 21
5439.6640180000013
 31
0.0
  0
LINE
  5
7E0D
  8
3
  6
CONTINUOUS
 62
     0
 10
6242.7353700000012
 20
5353.9170109999995
 30
0.0
 11
6242.7353700000012
 21
5439.6640180000013
 31
0.0
  0
LINE
  5
7E0E
  8
3
  6
CONTINUOUS
 62
     0
 10
6900.7353700000012
 20
5399.6640180000013
 30
0.0
 11
6980.7353700000012
 21
5399.6640180000013
 31
0.0
  0
LINE
  5
7E0F
  8
3
  6
CONTINUOUS
 62
     0
 10
6162.7353700000003
 20
5399.6640180000013
 30
0.0
 11
6082.7353700000003
 21
5399.6640180000013
 31
0.0
  0
LINE
  5
7E10
  8
3
  6
CONTINUOUS
 62
     0
 10
6820.7353700000003
 20
5399.6640180000013
 30
0.0
 11
6242.7353700000012
 21
5399.6640180000013
 31
0.0
  0
INSERT
  5
7E11
  8
3
  6
CONTINUOUS
 62
     0
  2
_OPEN
 10
6820.7353700000003
 20
5399.6640180000013
 30
0.0
 41
80.0
 42
80.0
 43
80.0
 50
180.0
  0
INSERT
  5
7E12
  8
3
  6
CONTINUOUS
 62
     0
  2
_OPEN
 10
6242.7353700000012
 20
5399.6640180000013
 30
0.0
 41
80.0
 42
80.0
 43
80.0
  0
TEXT
  8
3
  40
120
  5
7E55
  62
0
  72
0
  71
0
 10
6277.02
 20
5287.26
 30
0.000000
  1
578
  0
POINT
  5
7E14
  8
DEFPOINTS
  6
CONTINUOUS
 62
     0
 10
6820.7353700000003
 20
4819.5667909999993
 30
0.0
  0
POINT
  5
7E15
  8
DEFPOINTS
  6
CONTINUOUS
 62
     0
 10
6242.7353700000012
 20
5333.9170109999995
 30
0.0
  0
POINT
  5
7E16
  8
DEFPOINTS
  6
CONTINUOUS
 62
     0
 10
6242.7353700000012
 20
5399.6640180000013
 30
0.0
  0
ENDBLK
  5
7C57
  8
0
  0
BLOCK
  8
0
  2
*D12
 70
     1
 10
0.0
 20
0.0
 30
0.0
  3
*D12
  1

  0
LINE
  5
7E17
  8
3
  6
CONTINUOUS
 62
     0
 10
5402.7353700000012
 20
4542.5667909999993
 30
0.0
 11
5402.7353700000012
 21
5439.6640180000013
 31
0.0
  0
LINE
  5
7E18
  8
3
  6
CONTINUOUS
 62
     0
 10
6162.7353700000003
 20
5399.6640180000013
 30
0.0
 11
5482.7353700000003
 21
5399.6640180000013
 31
0.0
  0
INSERT
  5
7E19
  8
3
  6
CONTINUOUS
 62
     0
  2
_OPEN
 10
6242.7353700000012
 20
5399.6640180000013
 30
0.0
 41
80.0
 42
80.0
 43
80.0
  0
INSERT
  5
7E1A
  8
3
  6
CONTINUOUS
 62
     0
  2
_OPEN
 10
5402.7353700000012
 20
5399.6640180000013
 30
0.0
 41
80.0
 42
80.0
 43
80.0
 50
180.0
  0
TEXT
  8
3
  40
120
  5
7E56
  62
0
  72
0
  71
0
 10
5582.74
 20
5387.26
 30
0.000000
  1
MAX
  0
TEXT
  8
3
  40
120
  5
7E57
  62
0
  72
0
  71
0
 10
5582.74
 20
5231.26
 30
0.000000
  1
890
  0
POINT
  5
7E1C
  8
DEFPOINTS
  6
CONTINUOUS
 62
     0
 10
6242.7353700000012
 20
5333.9170109999995
 30
0.0
  0
POINT
  5
7E1D
  8
DEFPOINTS
  6
CONTINUOUS
 62
     0
 10
5402.7353700000012
 20
4522.5667909999993
 30
0.0
  0
POINT
  5
7E1E
  8
DEFPOINTS
  6
CONTINUOUS
 62
     0
 10
5402.7353700000012
 20
5399.6640180000013
 30
0.0
  0
ENDBLK
  5
7CB8
  8
0
  0
BLOCK
  8
0
  2
*D13
 70
     1
 10
0.0
 20
0.0
 30
0.0
  3
*D13
  1

  0
LINE
  5
7E1F
  8
3
  6
CONTINUOUS
 62
     0
 10
5515.7353700000003
 20
3014.5667910000002
 30
0.0
 11
5515.7353700000003
 21
2707.9047070000001
 31
0.0
  0
LINE
  5
7E20
  8
3
  6
CONTINUOUS
 62
     0
 10
6242.7353700000012
 20
2837.7594370000002
 30
0.0
 11
6242.7353700000012
 21
2707.9047070000001
 31
0.0
  0
LINE
  5
7E21
  8
3
  6
CONTINUOUS
 62
     0
 10
5595.7353700000003
 20
2747.9047070000001
 30
0.0
 11
6162.7353700000003
 21
2747.9047070000001
 31
0.0
  0
INSERT
  5
7E22
  8
3
  6
CONTINUOUS
 62
     0
  2
_OPEN
 10
5515.7353700000003
 20
2747.9047070000001
 30
0.0
 41
80.0
 42
80.0
 43
80.0
 50
180.0
  0
INSERT
  5
7E23
  8
3
  6
CONTINUOUS
 62
     0
  2
_OPEN
 10
6242.7353700000012
 20
2747.9047070000001
 30
0.0
 41
80.0
 42
80.0
 43
80.0
  0
TEXT
  8
3
  40
120
  5
7E58
  62
0
  72
0
  71
0
 10
5677.14
 20
2635.50
 30
0.000000
  1
727
  0
POINT
  5
7E25
  8
DEFPOINTS
  6
CONTINUOUS
 62
     0
 10
5515.7353700000003
 20
3034.5667910000002
 30
0.0
  0
POINT
  5
7E26
  8
DEFPOINTS
  6
CONTINUOUS
 62
     0
 10
6242.7353700000012
 20
2857.7594370000002
 30
0.0
  0
POINT
  5
7E27
  8
DEFPOINTS
  6
CONTINUOUS
 62
     0
 10
6242.7353700000012
 20
2747.9047070000001
 30
0.0
  0
ENDBLK
  5
7C35
  8
0
  0
BLOCK
  8
0
  2
*D14
 70
     1
 10
0.0
 20
0.0
 30
0.0
  3
*D14
  1

  0
LINE
  5
7E28
  8
3
  6
CONTINUOUS
 62
     0
 10
6795.7353700000003
 20
3014.5667910000002
 30
0.0
 11
6795.7353700000003
 21
2707.9047070000001
 31
0.0
  0
LINE
  5
7E29
  8
3
  6
CONTINUOUS
 62
     0
 10
6322.7353700000003
 20
2747.9047070000001
 30
0.0
 11
6715.7353700000003
 21
2747.9047070000001
 31
0.0
  0
INSERT
  5
7E2A
  8
3
  6
CONTINUOUS
 62
     0
  2
_OPEN
 10
6242.7353700000012
 20
2747.9047070000001
 30
0.0
 41
80.0
 42
80.0
 43
80.0
 50
180.0
  0
INSERT
  5
7E2B
  8
3
  6
CONTINUOUS
 62
     0
  2
_OPEN
 10
6795.7353700000003
 20
2747.9047070000001
 30
0.0
 41
80.0
 42
80.0
 43
80.0
  0
TEXT
  8
3
  40
120
  5
7E59
  62
0
  72
0
  71
0
 10
6279.24
 20
2635.50
 30
0.000000
  1
553
  0
POINT
  5
7E2D
  8
DEFPOINTS
  6
CONTINUOUS
 62
     0
 10
6242.7353700000012
 20
2857.7594370000002
 30
0.0
  0
POINT
  5
7E2E
  8
DEFPOINTS
  6
CONTINUOUS
 62
     0
 10
6795.7353700000003
 20
3034.5667910000002
 30
0.0
  0
POINT
  5
7E2F
  8
DEFPOINTS
  6
CONTINUOUS
 62
     0
 10
6795.7353700000003
 20
2747.9047070000001
 30
0.0
  0
ENDBLK
  5
7C41
  8
0
  0
BLOCK
  8
0
  2
*D15
 70
     1
 10
0.0
 20
0.0
 30
0.0
  3
*D15
  1

  0
LINE
  5
7E30
  8
3
  6
CONTINUOUS
 62
     0
 10
2006.5002280000001
 20
7385.3020799999986
 30
0.0
 11
2006.5002280000001
 21
6934.7385810000014
 31
0.0
  0
LINE
  5
7E31
  8
3
  6
CONTINUOUS
 62
     0
 10
4556.500227999999
 20
7385.3020799999986
 30
0.0
 11
4556.500227999999
 21
6934.7385810000014
 31
0.0
  0
LINE
  5
7E32
  8
3
  6
CONTINUOUS
 62
     0
 10
2086.500227999999
 20
6974.7385810000014
 30
0.0
 11
4476.500227999999
 21
6974.7385810000014
 31
0.0
  0
INSERT
  5
7E33
  8
3
  6
CONTINUOUS
 62
     0
  2
_OPEN
 10
2006.5002280000001
 20
6974.7385810000014
 30
0.0
 41
80.0
 42
80.0
 43
80.0
 50
180.0
  0
INSERT
  5
7E34
  8
3
  6
CONTINUOUS
 62
     0
  2
_OPEN
 10
4556.500227999999
 20
6974.7385810000014
 30
0.0
 41
80.0
 42
80.0
 43
80.0
  0
TEXT
  8
3
  40
120
  5
7E5A
  62
0
  72
0
  71
0
 10
2874.03
 20
6862.34
 30
0.000000
  1
2550
  0
POINT
  5
7E36
  8
DEFPOINTS
  6
CONTINUOUS
 62
     0
 10
2006.5002280000001
 20
7405.3020800000004
 30
0.0
  0
POINT
  5
7E37
  8
DEFPOINTS
  6
CONTINUOUS
 62
     0
 10
4556.500227999999
 20
7405.3020800000004
 30
0.0
  0
POINT
  5
7E38
  8
DEFPOINTS
  6
CONTINUOUS
 62
     0
 10
4556.500227999999
 20
6974.7385810000014
 30
0.0
  0
ENDBLK
  5
7C91
  8
0
  0
BLOCK
  8
0
  2
*D16
 70
     1
 10
0.0
 20
0.0
 30
0.0
  3
*D16
  1

  0
LINE
  5
7E39
  8
3
  6
CONTINUOUS
 62
     0
 10
4576.500227999999
 20
8685.3020799999995
 30
0.0
 11
4998.5874950000016
 21
8685.3020799999995
 31
0.0
  0
LINE
  5
7E3A
  8
3
  6
CONTINUOUS
 62
     0
 10
4571.5002279999999
 20
7405.3020800000004
 30
0.0
 11
4998.5874950000016
 21
7405.3020800000004
 31
0.0
  0
LINE
  5
7E3B
  8
3
  6
CONTINUOUS
 62
     0
 10
4958.5874950000016
 20
8605.3020799999995
 30
0.0
 11
4958.5874950000016
 21
7485.3020800000004
 31
0.0
  0
INSERT
  5
7E3C
  8
3
  6
CONTINUOUS
 62
     0
  2
_OPEN
 10
4958.5874950000016
 20
8685.3020799999995
 30
0.0
 41
80.0
 42
80.0
 43
80.0
 50
90.0
  0
INSERT
  5
7E3D
  8
3
  6
CONTINUOUS
 62
     0
  2
_OPEN
 10
4958.5874950000016
 20
7405.3020800000004
 30
0.0
 41
80.0
 42
80.0
 43
80.0
 50
270.0
  0
TEXT
  8
3
  40
120
  5
7E5B
  62
0
  72
0
  71
0
 10
4618.59
 20
7792.23
 30
0.000000
  1
1280
  0
POINT
  5
7E3F
  8
DEFPOINTS
  6
CONTINUOUS
 62
     0
 10
4556.500227999999
 20
8685.3020799999995
 30
0.0
  0
POINT
  5
7E40
  8
DEFPOINTS
  6
CONTINUOUS
 62
     0
 10
4551.5002279999999
 20
7405.3020800000004
 30
0.0
  0
POINT
  5
7E41
  8
DEFPOINTS
  6
CONTINUOUS
 62
     0
 10
4958.5874950000016
 20
7405.3020800000004
 30
0.0
  0
ENDBLK
  5
7C71
  8
0
  0
BLOCK
  8
0
  2
*D17
 70
     1
 10
0.0
 20
0.0
 30
0.0
  3
*D17
  1

  0
LINE
  5
7E42
  8
3
 62
     0
 10
1859.244570999999
 20
4157.7192909999994
 30
0.0
 11
1859.244570999999
 21
5666.4939414771543
 31
0.0
  0
LINE
  5
7E43
  8
3
 62
     0
 10
4556.500227999999
 20
3204.5667910000002
 30
0.0
 11
4556.500227999999
 21
5666.4939414771543
 31
0.0
  0
LINE
  5
7E44
  8
3
 62
     0
 10
1939.244571
 20
5626.4939414771543
 30
0.0
 11
4476.500227999999
 21
5626.4939414771543
 31
0.0
  0
INSERT
  5
7E45
  8
3
 62
     0
  2
_OPEN
 10
1859.244570999999
 20
5626.4939414771543
 30
0.0
 41
80.0
 42
80.0
 43
80.0
 50
180.0
  0
INSERT
  5
7E46
  8
3
 62
     0
  2
_OPEN
 10
4556.500227999999
 20
5626.4939414771543
 30
0.0
 41
80.0
 42
80.0
 43
80.0
  0
TEXT
  8
3
  40
120
  5
7E5C
  62
0
  72
0
  71
0
 10
3021.86
 20
5514.09
 30
0.000000
  1
2697
  0
POINT
  5
7E48
  8
DEFPOINTS
 62
     0
 10
1859.244570999999
 20
4137.7192909999994
 30
0.0
  0
POINT
  5
7E49
  8
DEFPOINTS
 62
     0
 10
4556.500227999999
 20
3184.5667910000002
 30
0.0
  0
POINT
  5
7E4A
  8
DEFPOINTS
 62
     0
 10
4556.500227999999
 20
5626.4939414771543
 30
0.0
  0
ENDBLK
  5
7CAD
  8
0
  0
ENDSEC
  0
SECTION
  2
ENTITIES
  0
LINE
  5
7AB5
  8
1
  6
CONTINUOUS
 10
4049.2002280000002
 20
3215.5667910000002
 30
0.0
 11
2615.1002279999998
 21
3793.9667909999989
 31
0.0
  0
LINE
  5
7AB6
  8
1
  6
CONTINUOUS
 10
4086.6002279999998
 20
3308.2667909999991
 30
0.0
 11
2652.5002279999999
 21
3886.7667909999991
 31
0.0
  0
LINE
  5
7AB7
  8
1
  6
CONTINUOUS
 10
4253.4002280000004
 20
3602.766791
 30
0.0
 11
2965.900228
 21
4459.266791
 31
0.0
  0
LINE
  5
7AB8
  8
1
  6
CONTINUOUS
 10
4198.0002279999999
 20
3519.4667909999998
 30
0.0
 11
2910.5002279999999
 21
4376.0667909999993
 31
0.0
  0
LINE
  5
7AB9
  8
1
  6
CONTINUOUS
 10
3381.5002279999999
 20
8685.3020799999995
 30
0.0
 11
4556.500227999999
 21
8685.3020799999995
 31
0.0
  0
LINE
  5
7ABA
  8
1
  6
CONTINUOUS
 10
4011.5002279999999
 20
7405.3020800000004
 30
0.0
 11
3034.5002279999999
 21
7405.3020800000004
 31
0.0
  0
LINE
  5
7ABB
  8
1
  6
CONTINUOUS
 10
2810.5002279999999
 20
8607.3020799999995
 30
0.0
 11
4090.5002279999999
 21
7657.3020800000004
 31
0.0
  0
LINE
  5
7ABC
  8
1
  6
CONTINUOUS
 10
4090.5002279999999
 20
8607.3020799999995
 30
0.0
 11
2810.5002279999999
 21
7657.3020800000004
 31
0.0
  0
LINE
  5
7ABD
  8
1
  6
CONTINUOUS
 10
2760.5002279999999
 20
4969.5667910000002
 30
0.0
 11
4146.500227999999
 21
4969.5667910000002
 31
0.0
  0
POLYLINE
  5
7ABE
  8
1
  6
CONTINUOUS
 66
     1
 10
0.0
 20
0.0
 30
0.0
  0
VERTEX
  5
7DAE
  8
1
  6
CONTINUOUS
 10
4090.5002279999999
 20
4969.5667910000002
 30
0.0
  0
VERTEX
  5
7DAF
  8
1
  6
CONTINUOUS
 10
4017.5002279999999
 20
4144.5667909999993
 30
0.0
 42
-0.4
  0
VERTEX
  5
7DB0
  8
1
  6
CONTINUOUS
 10
2847.5002279999999
 20
3062.0667910000002
 30
0.0
 42
-0.4
  0
VERTEX
  5
7DB1
  8
1
  6
CONTINUOUS
 10
1859.400228
 20
4135.8667909999986
 30
0.0
 42
-0.4
  0
VERTEX
  5
7DB2
  8
1
  6
CONTINUOUS
 10
2679.5002279999999
 20
4890.5667909999993
 30
0.0
  0
VERTEX
  5
7DB3
  8
1
  6
CONTINUOUS
 10
2810.5002279999999
 20
4877.5667909999993
 30
0.0
 42
-0.4
  0
SEQEND
  5
7DB4
  8
1
  6
CONTINUOUS
  0
LINE
  5
7AC6
  8
1
  6
CONTINUOUS
 10
2006.5002280000001
 20
3034.5667910000002
 30
0.0
 11
4556.500227999999
 21
3034.5667910000002
 31
0.0
  0
LINE
  5
7AC7
  8
1
  6
CONTINUOUS
 10
2810.5002279999999
 20
4919.5667910000002
 30
0.0
 11
4090.5002279999999
 21
4919.5667910000002
 31
0.0
  0
LINE
  5
7AC8
  8
1
  6
CONTINUOUS
 10
2006.5002280000001
 20
3184.5667910000002
 30
0.0
 11
4556.500227999999
 21
3184.5667910000002
 31
0.0
  0
ARC
  5
7AC9
  8
1
  6
CONTINUOUS
 10
4131.5002279999999
 20
3419.5667909999988
 30
0.0
 40
199.0
 50
320.10000000000002
 51
219.90000000000001
  0
LINE
  5
7ACA
  8
1
  6
CONTINUOUS
 10
3906.5002279999999
 20
3239.5667910000002
 30
0.0
 11
4356.5002279999999
 21
3239.5667910000002
 31
0.0
  0
LINE
  5
7ACB
  8
1
  6
CONTINUOUS
 10
4330.6002280000002
 20
7576.8020800000004
 30
0.0
 11
3932.400228
 21
7576.8020800000004
 31
0.0
  0
LINE
  5
7ACC
  8
1
  6
CONTINUOUS
 10
1856.0002280000001
 20
8607.3020799999995
 30
0.0
 11
4090.5002279999999
 21
8607.3020799999995
 31
0.0
  0
LINE
  5
7ACD
  8
1
  6
CONTINUOUS
 10
1856.0002280000001
 20
7657.3020800000004
 30
0.0
 11
4090.5002279999999
 21
7657.3020800000004
 31
0.0
  0
LINE
  5
7ACE
  8
1
  6
CONTINUOUS
 10
2378.5002279999999
 20
7292.3020800000004
 30
0.0
 11
4451.500227999999
 21
7292.3020800000004
 31
0.0
  0
LINE
  5
7ACF
  8
1
  6
CONTINUOUS
 10
2378.5002279999999
 20
7532.3020800000004
 30
0.0
 11
4451.500227999999
 21
7532.3020800000004
 31
0.0
  0
ARC
  5
7AD0
  8
1
  6
CONTINUOUS
 10
2756.5002279999999
 20
4144.5667909999993
 30
0.0
 40
378.0
 50
56.399999999999991
 51
248.0
  0
CIRCLE
  5
7AD1
  8
1
  6
CONTINUOUS
 10
2756.5002279999999
 20
4144.5667909999993
 30
0.0
 40
625.0
  0
CIRCLE
  5
7AD2
  8
1
  6
CONTINUOUS
 10
2756.5002279999999
 20
4144.5667909999993
 30
0.0
 40
675.0
  0
CIRCLE
  5
7AD3
  8
1
  6
CONTINUOUS
 10
2756.5002279999999
 20
4144.5667909999993
 30
0.0
 40
278.0
  0
LINE
  5
7AD4
  8
2
  6
CENTER
 10
1694.743985999999
 20
4144.5667909999993
 30
0.0
 11
4203.6770159999987
 21
4144.5667909999993
 31
0.0
  0
LINE
  5
7AD5
  8
1
  6
CONTINUOUS
 10
2006.5002280000001
 20
3184.5667910000002
 30
0.0
 11
2006.5002280000001
 21
3034.5667910000002
 31
0.0
  0
LINE
  5
7AD6
  8
2
  6
CENTER
 10
2756.5002279999999
 20
2928.674379
 30
0.0
 11
2756.5002279999999
 21
5116.357465
 31
0.0
  0
LINE
  5
7AD7
  8
1
  6
CONTINUOUS
 10
3906.5002279999999
 20
3184.5667910000002
 30
0.0
 11
3906.5002279999999
 21
3239.5667910000002
 31
0.0
  0
LINE
  5
7AD8
  8
1
  6
CONTINUOUS
 10
2810.5002279999999
 20
4877.5667909999993
 30
0.0
 11
2810.5002279999999
 21
4969.5667910000002
 31
0.0
  0
LINE
  5
7AD9
  8
1
  6
CONTINUOUS
 10
2081.5002279999999
 20
8710.3020799999995
 30
0.0
 11
3431.5002279999999
 21
8710.3020799999995
 31
0.0
  0
LINE
  5
7ADA
  8
1
  6
CONTINUOUS
 10
3034.5002279999999
 20
7462.3020799999986
 30
0.0
 11
2478.5002279999999
 21
7462.3020799999986
 31
0.0
  0
LINE
  5
7ADB
  8
1
  6
CONTINUOUS
 10
3034.5002279999999
 20
7362.3020799999986
 30
0.0
 11
2478.5002279999999
 21
7362.3020799999986
 31
0.0
  0
LINE
  5
7ADC
  8
1
  6
CONTINUOUS
 10
2006.5002280000001
 20
8607.3020799999995
 30
0.0
 11
2006.5002280000001
 21
8685.3020799999995
 31
0.0
  0
LINE
  5
7ADD
  8
1
  6
CONTINUOUS
 10
2131.5002279999999
 20
8607.3020799999995
 30
0.0
 11
2131.5002279999999
 21
8710.3020799999995
 31
0.0
  0
LINE
  5
7ADE
  8
1
  6
CONTINUOUS
 10
2478.5002279999999
 20
7405.3020800000004
 30
0.0
 11
2006.5002280000001
 21
7405.3020800000004
 31
0.0
  0
LINE
  5
7ADF
  8
1
  6
CONTINUOUS
 10
1856.0002280000001
 20
7657.3020800000004
 30
0.0
 11
1856.0002280000001
 21
8607.3020799999995
 31
0.0
  0
LINE
  5
7AE0
  8
1
  6
CONTINUOUS
 10
2006.5002280000001
 20
7405.3020800000004
 30
0.0
 11
2006.5002280000001
 21
7657.3020800000004
 31
0.0
  0
LINE
  5
7AE1
  8
1
  6
CONTINUOUS
 10
2378.5002279999999
 20
7292.3020800000004
 30
0.0
 11
2378.5002279999999
 21
7532.3020800000004
 31
0.0
  0
LINE
  5
7AE2
  8
1
  6
CONTINUOUS
 10
2729.0002279999999
 20
7462.3020799999986
 30
0.0
 11
2729.0002279999999
 21
7657.3020800000004
 31
0.0
  0
LINE
  5
7AE3
  8
1
  6
CONTINUOUS
 10
2478.5002279999999
 20
7362.3020799999986
 30
0.0
 11
2478.5002279999999
 21
7462.3020799999986
 31
0.0
  0
LINE
  5
7AE4
  8
1
  6
CONTINUOUS
 10
2006.5002280000001
 20
8685.3020799999995
 30
0.0
 11
2131.5002279999999
 21
8685.3020799999995
 31
0.0
  0
LINE
  5
7AE5
  8
1
  6
CONTINUOUS
 10
3381.5002279999999
 20
8607.3020799999995
 30
0.0
 11
3381.5002279999999
 21
8710.3020799999995
 31
0.0
  0
LINE
  5
7AE6
  8
1
  6
CONTINUOUS
 10
2810.5002279999999
 20
7657.3020800000004
 30
0.0
 11
2810.5002279999999
 21
8607.3020799999995
 31
0.0
  0
LINE
  5
7AE7
  8
1
  6
CONTINUOUS
 10
2784.0002279999999
 20
7462.3020799999986
 30
0.0
 11
2784.0002279999999
 21
7657.3020800000004
 31
0.0
  0
LINE
  5
7AE8
  8
1
  6
CONTINUOUS
 10
3034.5002279999999
 20
7362.3020799999986
 30
0.0
 11
3034.5002279999999
 21
7462.3020799999986
 31
0.0
  0
LINE
  5
7AE9
  8
1
  6
CONTINUOUS
 10
3932.400228
 20
7576.8020800000004
 30
0.0
 11
3932.400228
 21
7657.3020800000004
 31
0.0
  0
LINE
  5
7AEA
  8
1
  6
CONTINUOUS
 10
5717.7353700000003
 20
4969.5667910000002
 30
0.0
 11
6767.7353700000003
 21
4969.5667910000002
 31
0.0
  0
LINE
  5
7AEB
  8
1
  6
CONTINUOUS
 10
6795.7353700000003
 20
3184.5667910000002
 30
0.0
 11
5515.7353700000003
 21
3184.5667910000002
 31
0.0
  0
LINE
  5
7AEC
  8
1
  6
CONTINUOUS
 10
6795.7353700000003
 20
3034.5667910000002
 30
0.0
 11
5515.7353700000003
 21
3034.5667910000002
 31
0.0
  0
LINE
  5
7AED
  8
1
  6
CONTINUOUS
 10
5767.7353700000003
 20
4919.5667910000002
 30
0.0
 11
6717.7353699999994
 21
4919.5667910000002
 31
0.0
  0
ARC
  5
7B02
  8
1
  6
CONTINUOUS
 10
4131.5002279999999
 20
3419.5667909999988
 30
0.0
 40
220.0
 50
248.0
 51
56.399999999999991
  0
LINE
  5
7B03
  8
1
  6
CONTINUOUS
 10
4293.5002279999999
 20
3239.5667910000002
 30
0.0
 11
4233.500227999999
 21
3239.5667910000002
 31
0.0
  0
LINE
  5
7B04
  8
1
  6
CONTINUOUS
 10
3969.5002279999999
 20
3282.0667910000002
 30
0.0
 11
3978.8002280000001
 21
3291.9667909999998
 31
0.0
  0
LINE
  5
7B05
  8
1
  6
CONTINUOUS
 10
3969.5002279999999
 20
3239.5667910000002
 30
0.0
 11
3969.5002279999999
 21
3282.0667910000002
 31
0.0
  0
CIRCLE
  5
7B06
  8
1
  6
CONTINUOUS
 10
4131.5002279999999
 20
3419.5667909999988
 30
0.0
 40
120.0
  0
LINE
  5
7B07
  8
2
  6
CENTER
 10
4131.5002279999999
 20
3299.5667910000002
 30
0.0
 11
4131.5002279999999
 21
3539.5667910000002
 31
0.0
  0
LINE
  5
7B08
  8
2
  6
CENTER
 10
4251.5002279999999
 20
3419.5667909999988
 30
0.0
 11
4011.5002279999999
 21
3419.5667909999988
 31
0.0
  0
LINE
  5
7B09
  8
1
  6
CONTINUOUS
 10
4556.500227999999
 20
3184.5667910000002
 30
0.0
 11
4556.500227999999
 21
3034.5667910000002
 31
0.0
  0
LINE
  5
7B0A
  8
1
  6
CONTINUOUS
 10
4293.5002279999999
 20
3282.0667910000002
 30
0.0
 11
4284.2002279999988
 21
3291.9667909999998
 31
0.0
  0
LINE
  5
7B0B
  8
1
  6
CONTINUOUS
 10
4293.5002279999999
 20
3239.5667910000002
 30
0.0
 11
4293.5002279999999
 21
3282.0667910000002
 31
0.0
  0
LINE
  5
7B0C
  8
1
  6
CONTINUOUS
 10
4356.5002279999999
 20
3184.5667910000002
 30
0.0
 11
4356.5002279999999
 21
3239.5667910000002
 31
0.0
  0
LINE
  5
7B1F
  8
1
  6
CONTINUOUS
 10
5642.7353700000003
 20
3199.5667910000002
 30
0.0
 11
5642.7353700000003
 21
4522.5667909999993
 31
0.0
  0
LINE
  5
7B20
  8
1
  6
CONTINUOUS
 10
5402.7353700000012
 20
3199.5667910000002
 30
0.0
 11
5402.7353700000012
 21
4522.5667909999993
 31
0.0
  0
LINE
  5
7B21
  8
1
  6
CONTINUOUS
 10
5767.7353700000003
 20
3184.5667910000002
 30
0.0
 11
5767.7353700000003
 21
4969.5667910000002
 31
0.0
  0
LINE
  5
7B22
  8
1
  6
CONTINUOUS
 10
5402.7353700000012
 20
3199.5667910000002
 30
0.0
 11
5642.7353700000003
 21
3199.5667910000002
 31
0.0
  0
LINE
  5
7B23
  8
1
  6
CONTINUOUS
 10
5472.7353700000003
 20
3539.5667910000002
 30
0.0
 11
5572.7353700000003
 21
3539.5667910000002
 31
0.0
  0
LINE
  5
7B24
  8
1
  6
CONTINUOUS
 10
5472.7353700000003
 20
3299.5667910000002
 30
0.0
 11
5572.7353700000003
 21
3299.5667910000002
 31
0.0
  0
LINE
  5
7B25
  8
1
  6
CONTINUOUS
 10
5472.7353700000003
 20
3299.5667910000002
 30
0.0
 11
5472.7353700000003
 21
3539.5667910000002
 31
0.0
  0
LINE
  5
7B26
  8
1
  6
CONTINUOUS
 10
5572.7353700000003
 20
3299.5667910000002
 30
0.0
 11
5572.7353700000003
 21
3539.5667910000002
 31
0.0
  0
LINE
  5
7B27
  8
1
  6
CONTINUOUS
 10
5572.7353700000003
 20
3447.0667909999988
 30
0.0
 11
5767.7353700000003
 21
3447.0667909999988
 31
0.0
  0
LINE
  5
7B28
  8
1
  6
CONTINUOUS
 10
5572.7353700000003
 20
3392.0667909999988
 30
0.0
 11
5767.7353700000003
 21
3392.0667909999988
 31
0.0
  0
LINE
  5
7B29
  8
1
  6
CONTINUOUS
 10
5515.7353700000003
 20
3034.5667910000002
 30
0.0
 11
5515.7353700000003
 21
3184.5667910000002
 31
0.0
  0
LINE
  5
7B2A
  8
1
  6
CONTINUOUS
 10
5472.7353700000003
 20
3866.5667909999988
 30
0.0
 11
5572.7353700000003
 21
3866.5667909999988
 31
0.0
  0
LINE
  5
7B2B
  8
1
  6
CONTINUOUS
 10
5472.7353700000003
 20
4422.5667909999993
 30
0.0
 11
5572.7353700000003
 21
4422.5667909999993
 31
0.0
  0
LINE
  5
7B2C
  8
1
  6
CONTINUOUS
 10
5472.7353700000003
 20
3866.5667909999988
 30
0.0
 11
5472.7353700000003
 21
4422.5667909999993
 31
0.0
  0
LINE
  5
7B2D
  8
1
  6
CONTINUOUS
 10
5572.7353700000003
 20
3866.5667909999988
 30
0.0
 11
5572.7353700000003
 21
4422.5667909999993
 31
0.0
  0
LINE
  5
7B2E
  8
1
  6
CONTINUOUS
 10
5572.7353700000003
 20
4117.0667909999993
 30
0.0
 11
5767.7353700000003
 21
4117.0667909999993
 31
0.0
  0
LINE
  5
7B2F
  8
1
  6
CONTINUOUS
 10
5572.7353700000003
 20
4172.0667909999993
 30
0.0
 11
5767.7353700000003
 21
4172.0667909999993
 31
0.0
  0
LINE
  5
7B30
  8
1
  6
CONTINUOUS
 10
5402.7353700000012
 20
4522.5667909999993
 30
0.0
 11
5642.7353700000003
 21
4522.5667909999993
 31
0.0
  0
LINE
  5
7B31
  8
1
  6
CONTINUOUS
 10
6820.7353700000003
 20
3469.5667910000002
 30
0.0
 11
6820.7353700000003
 21
4819.5667909999993
 31
0.0
  0
LINE
  5
7B32
  8
1
  6
CONTINUOUS
 10
6717.7353699999994
 20
3184.5667910000002
 30
0.0
 11
6717.7353699999994
 21
4969.5667910000002
 31
0.0
  0
LINE
  5
7B33
  8
1
  6
CONTINUOUS
 10
6717.7353699999994
 20
3519.5667909999988
 30
0.0
 11
6820.7353700000003
 21
3519.5667909999988
 31
0.0
  0
LINE
  5
7B34
  8
1
  6
CONTINUOUS
 10
6795.7353700000003
 20
3034.5667910000002
 30
0.0
 11
6795.7353700000003
 21
3184.5667910000002
 31
0.0
  0
LINE
  5
7B35
  8
1
  6
CONTINUOUS
 10
6717.7353699999994
 20
4769.5667909999993
 30
0.0
 11
6820.7353700000003
 21
4769.5667909999993
 31
0.0
  0
LINE
  5
7B41
  8
1
  6
CONTINUOUS
 10
4556.500227999999
 20
8685.3020799999995
 30
0.0
 11
4556.500227999999
 21
7405.3020800000004
 31
0.0
  0
LINE
  5
7B42
  8
1
  6
CONTINUOUS
 10
4090.5002279999999
 20
7657.3020800000004
 30
0.0
 11
4090.5002279999999
 21
8607.3020799999995
 31
0.0
  0
LINE
  5
7B43
  8
1
  6
CONTINUOUS
 10
4330.6002280000002
 20
7576.8020800000004
 30
0.0
 11
4330.6002280000002
 21
8176.3020799999986
 31
0.0
  0
LINE
  5
7B44
  8
1
  6
CONTINUOUS
 10
4556.500227999999
 20
7405.3020800000004
 30
0.0
 11
4251.5002279999999
 21
7405.3020800000004
 31
0.0
  0
LINE
  5
7B45
  8
1
  6
CONTINUOUS
 10
4104.0002279999999
 20
7462.3020799999986
 30
0.0
 11
4104.0002279999999
 21
7576.8020800000004
 31
0.0
  0
LINE
  5
7B46
  8
1
  6
CONTINUOUS
 10
4159.0002279999999
 20
7462.3020799999986
 30
0.0
 11
4159.0002279999999
 21
7576.8020800000004
 31
0.0
  0
LINE
  5
7B47
  8
1
  6
CONTINUOUS
 10
4251.5002279999999
 20
7362.3020799999986
 30
0.0
 11
4251.5002279999999
 21
7462.3020799999986
 31
0.0
  0
LINE
  5
7B48
  8
1
  6
CONTINUOUS
 10
4011.5002279999999
 20
7362.3020799999986
 30
0.0
 11
4011.5002279999999
 21
7462.3020799999986
 31
0.0
  0
LINE
  5
7B49
  8
1
  6
CONTINUOUS
 10
4251.5002279999999
 20
7462.3020799999986
 30
0.0
 11
4011.5002279999999
 21
7462.3020799999986
 31
0.0
  0
LINE
  5
7B4A
  8
1
  6
CONTINUOUS
 10
4251.5002279999999
 20
7362.3020799999986
 30
0.0
 11
4011.5002279999999
 21
7362.3020799999986
 31
0.0
  0
LINE
  5
7B4B
  8
1
  6
CONTINUOUS
 10
4451.500227999999
 20
7292.3020800000004
 30
0.0
 11
4451.500227999999
 21
7532.3020800000004
 31
0.0
  0
LINE
  5
7B4C
  8
1
  6
CONTINUOUS
 10
4330.6002280000002
 20
8176.3020799999986
 30
0.0
 11
4090.5002279999999
 21
8176.3020799999986
 31
0.0
  0
LINE
  5
7B68
  8
2
  6
CENTER
 10
1760.239431
 20
8132.3020800000004
 30
0.0
 11
4705.8723880000007
 21
8132.3020800000004
 31
0.0
  0
LINE
  5
7B69
  8
2
  6
CENTER
 10
6242.7353700000012
 20
5333.9170109999995
 30
0.0
 11
6242.7353700000012
 21
5328.8097680000001
 31
0.0
  0
LINE
  5
7B6A
  8
2
  6
CENTER
 10
2756.5002279999999
 20
7135.0643360000013
 30
0.0
 11
2756.5002279999999
 21
8876.8645169999982
 31
0.0
  0
LINE
  5
7B6B
  8
2
  6
CENTER
 10
5264.6223490000002
 20
4144.5667909999993
 30
0.0
 11
6898.9583919999995
 21
4144.5667909999993
 31
0.0
  0
LINE
  5
7B6C
  8
4
  6
CONTINUOUS
 10
7400.0
 20
2000.0
 30
0.0
 11
7400.0
 21
1200.0
 31
0.0
  0
LINE
  5
7B6D
  8
4
  6
CONTINUOUS
 10
4600.0
 20
2000.0
 30
0.0
 11
4600.0
 21
1200.0
 31
0.0
  0
LINE
  5
7B6E
  8
4
  6
CONTINUOUS
 10
2600.0
 20
2000.0
 30
0.0
 11
2600.0
 21
1200.0
 31
0.0
  0
LINE
  5
7B71
  8
4
  6
CONTINUOUS
 10
2600.0
 20
1200.0
 30
0.0
 11
7400.0
 21
1200.0
 31
0.0
  0
LINE
  5
7B72
  8
4
  6
CONTINUOUS
 10
2600.0
 20
1600.0
 30
0.0
 11
7400.0
 21
1600.0
 31
0.0
  0
TEXT
  5
7B73
  8
4
  6
CONTINUOUS
 10
2754.008323
 20
1726.1721030000001
 30
0.0
 40
200.0
  1
機器名称
  0
TEXT
  5
7B74
  8
4
  6
CONTINUOUS
 10
2745.032424
 20
1286.580627
 30
0.0
 40
200.0
  1
機器型番
  0
TEXT
  5
7B75
  8
4
  6
CONTINUOUS
 10
4710.7149820000004
 20
1690.2870760000001
 30
0.0
 40
200.0
  1
ミツヤ多翼送風機
  0
TEXT
  5
7B76
  8
4
  6
CONTINUOUS
 10
4746.6179819999998
 20
1268.6383370000001
 30
0.0
 40
200.0
  1
MFE#8-4
  0
TEXT
  5
7B78
  8
4
  6
CONTINUOUS
 10
3619.1430620000001
 20
9533.715365
 30
0.0
 40
216.0
  1
床置ベット
  0
TEXT
  5
7B79
  8
4
  6
CONTINUOUS
 10
1264.6703729999999
 20
10135.523905
 30
0.0
 40
288.0
  1
ベルト駆動式片吸込両持排煙ファン
  0
LINE
  5
7B7A
  8
4
  6
CONTINUOUS
 10
1000.0
 20
9877.6350170000005
 30
0.0
 11
7400.0
 21
9877.6350170000005
 31
0.0
  0
LINE
  5
7B7B
  8
4
  6
CONTINUOUS
 10
1000.0
 20
10677.635017000001
 30
0.0
 11
7400.0
 21
10677.635017000001
 31
0.0
  0
LINE
  5
7B7C
  8
4
  6
CONTINUOUS
 10
2600.0
 20
2000.0
 30
0.0
 11
7400.0
 21
2000.0
 31
0.0
  0
LINE
  5
7B7D
  8
4
  6
CONTINUOUS
 10
1000.0
 20
10677.635017000001
 30
0.0
 11
1000.0
 21
9877.6350170000005
 31
0.0
  0
TEXT
  5
7B7E
  8
4
  6
CONTINUOUS
 10
1875.7077329999991
 20
9529.2779099999989
 30
0.0
 40
216.0
  1
左回転上向
  0
TEXT
  5
7B7F
  8
4
  6
CONTINUOUS
 10
5875.8782369999999
 20
10824.244326
 30
0.0
 40
224.0
  1
No.
  0
TEXT
  5
7B80
  8
4
  6
CONTINUOUS
 10
5245.1842500000012
 20
9533.715365
 30
0.0
 40
216.0
  1
縮尺：1/40
  0
LINE
  5
7B81
  8
4
  6
CONTINUOUS
 10
7400.0
 20
10677.635017000001
 30
0.0
 11
7400.0
 21
9877.6350170000005
 31
0.0
  0
LINE
  5
7B83
  8
4
  6
CONTINUOUS
 10
5762.4696889999996
 20
10725.054333
 30
0.0
 11
5762.4696889999996
 21
11146.609046
 31
0.0
  0
LINE
  5
7B84
  8
4
  6
CONTINUOUS
 10
5762.4696889999996
 20
11146.609046
 30
0.0
 11
7400.0
 21
11146.609046
 31
0.0
  0
LINE
  5
7B85
  8
4
  6
CONTINUOUS
 10
7400.0
 20
11146.609046
 30
0.0
 11
7400.0
 21
10725.054333
 31
0.0
  0
LINE
  5
7B86
  8
4
  6
CONTINUOUS
 10
7400.0
 20
10725.054333
 30
0.0
 11
5762.4696889999996
 21
10725.054333
 31
0.0
  0
DIMENSION
  5
7B9E
  8
3
  6
CONTINUOUS
  2
*D1
 10
2810.5002279999999
 20
5107.7272290000001
 30
0.0
 11
3389.912319
 21
5107.7272290000001
 31
0.0
 70
   128
 13
4090.5002279999999
 23
4969.5667910000002
 33
0.0
 14
2810.5002279999999
 24
4969.5667910000002
 34
0.0
1001
ACAD
1000
DSTYLE
1002
{
1070
   287
1070
     3
1070
   287
1070
     3
1070
    40
1040
40.0
1070
   143
1040
0.039
1070
   172
1070
     1
1070
   271
1070
     0
1070
   279
1070
     0
1070
   288
1070
     1
1002
}
  0
DIMENSION
  5
7BAB
  8
3
  6
CONTINUOUS
  2
*D2
 10
2756.5002279999999
 20
5359.117240999999
 30
0.0
 11
3381.7980640000001
 21
5359.117240999999
 31
0.0
 70
   128
 13
4090.5002279999999
 23
4969.5667910000002
 33
0.0
 14
2756.5002279999999
 24
5116.357465
 34
0.0
1001
ACAD
1000
DSTYLE
1002
{
1070
   287
1070
     3
1070
   287
1070
     3
1070
    40
1040
40.0
1070
   143
1040
0.039
1070
   172
1070
     1
1070
   271
1070
     0
1070
   279
1070
     0
1070
   288
1070
     1
1002
}
  0
DIMENSION
  5
7BB7
  8
3
  6
CONTINUOUS
  2
*D3
 10
1859.244571
 20
5359.117240999999
 30
0.0
 11
2307.8723995
 21
5459.1172409999999
 31
0.0
 70
     0
 13
2756.5002279999999
 23
5116.357465
 33
0.0
 14
1859.244571
 24
4117.7192909999994
 34
0.0
1001
ACAD
1000
DSTYLE
1002
{
1070
   287
1070
     4
1070
   287
1070
     4
1070
    40
1040
40.0
1070
    75
1070
     1
1070
   143
1040
0.039
1070
   172
1070
     1
1070
   271
1070
     0
1070
   279
1070
     1
1070
   288
1070
     1
1002
}
  0
DIMENSION
  5
7BC4
  8
3
  6
CONTINUOUS
  2
*D4
 10
1612.896448
 20
4144.5667909999993
 30
0.0
 11
1612.896448
 21
4540.0723159999989
 31
0.0
 70
   128
 13
2760.5002279999999
 23
4969.5667910000002
 33
0.0
 14
1694.743985999999
 24
4144.5667909999993
 34
0.0
 50
90.0
1001
ACAD
1000
DSTYLE
1002
{
1070
   287
1070
     3
1070
   287
1070
     3
1070
    40
1040
40.0
1070
   143
1040
0.039
1070
   172
1070
     1
1070
   271
1070
     0
1070
   279
1070
     0
1070
   288
1070
     1
1002
}
  0
DIMENSION
  5
7BD0
  8
3
  6
CONTINUOUS
  2
*D5
 10
1612.896448
 20
3034.5667910000002
 30
0.0
 11
1512.8964479999991
 21
3589.5667910000002
 31
0.0
 70
     0
 13
1694.743985999999
 23
4144.5667909999993
 33
0.0
 14
2006.5002280000001
 24
3034.5667910000002
 34
0.0
 50
90.0
1001
ACAD
1000
DSTYLE
1002
{
1070
   287
1070
     4
1070
   287
1070
     4
1070
    40
1040
40.0
1070
    75
1070
     1
1070
   143
1040
0.039
1070
   172
1070
     1
1070
   271
1070
     0
1070
   279
1070
     1
1070
   288
1070
     1
1002
}
  0
DIMENSION
  5
7BDD
  8
3
  6
CONTINUOUS
  2
*D6
 10
2756.5002279999999
 20
2739.7953269999989
 30
0.0
 11
2375.6338580000001
 21
2739.7953269999989
 31
0.0
 70
   128
 13
2006.5002280000001
 23
3034.5667910000002
 33
0.0
 14
2756.5002279999999
 24
2928.674379
 34
0.0
1001
ACAD
1000
DSTYLE
1002
{
1070
   287
1070
     3
1070
   287
1070
     3
1070
    40
1040
40.0
1070
   143
1040
0.039
1070
   172
1070
     1
1070
   271
1070
     0
1070
   279
1070
     0
1070
   288
1070
     1
1002
}
  0
DIMENSION
  5
7BE9
  8
3
  6
CONTINUOUS
  2
*D7
 10
4556.500227999999
 20
2739.7953269999989
 30
0.0
 11
3656.5002279999999
 21
2839.7953269999998
 31
0.0
 70
     0
 13
2756.5002279999999
 23
2928.674379
 33
0.0
 14
4556.500227999999
 24
3034.5667910000002
 34
0.0
1001
ACAD
1000
DSTYLE
1002
{
1070
   287
1070
     4
1070
   287
1070
     4
1070
    40
1040
40.0
1070
    75
1070
     1
1070
   143
1040
0.039
1070
   172
1070
     1
1070
   271
1070
     0
1070
   279
1070
     1
1070
   288
1070
     1
1002
}
  0
DIMENSION
  5
7BF6
  8
3
  6
CONTINUOUS
  2
*D8
 10
1304.555801
 20
3034.5667910000002
 30
0.0
 11
1304.555801
 21
3964.3080549999991
 31
0.0
 70
   128
 13
2740.5002279999999
 23
4969.5667910000002
 33
0.0
 14
2006.5002280000001
 24
3034.5667910000002
 34
0.0
 50
90.0
1001
ACAD
1000
DSTYLE
1002
{
1070
   287
1070
     3
1070
   287
1070
     3
1070
    40
1040
40.0
1070
   143
1040
0.039
1070
   172
1070
     1
1070
   271
1070
     0
1070
   279
1070
     0
1070
   288
1070
     1
1002
}
  0
DIMENSION
  5
7C03
  8
3
  6
CONTINUOUS
  2
*D9
 10
6717.7353699999994
 20
5140.1646259999998
 30
0.0
 11
6241.7059660000004
 21
5140.1646259999998
 31
0.0
 70
   128
 13
5767.7353700000003
 23
4969.5667910000002
 33
0.0
 14
6717.7353699999994
 24
4969.5667910000002
 34
0.0
1001
ACAD
1000
DSTYLE
1002
{
1070
   287
1070
     3
1070
   287
1070
     3
1070
    40
1040
40.0
1070
   143
1040
0.039
1070
   172
1070
     1
1070
   271
1070
     0
1070
   279
1070
     0
1070
   288
1070
     1
1002
}
  0
DIMENSION
  5
7C10
  8
3
  6
CONTINUOUS
  2
*D10
 10
7142.385236000001
 20
3519.5667909999988
 30
0.0
 11
7142.3852359999992
 21
4142.7138930000001
 31
0.0
 70
   128
 13
6820.7353700000003
 23
4769.5667909999993
 33
0.0
 14
6820.7353700000003
 24
3519.5667909999988
 34
0.0
 50
90.0
1001
ACAD
1000
DSTYLE
1002
{
1070
   287
1070
     3
1070
   287
1070
     3
1070
     3
1000
φ<>
1070
    40
1040
40.0
1070
   143
1040
0.039
1070
   172
1070
     1
1070
   271
1070
     0
1070
   279
1070
     0
1070
   288
1070
     1
1002
}
  0
DIMENSION
  5
7C1D
  8
3
  6
CONTINUOUS
  2
*D11
 10
6242.7353700000012
 20
5399.6640180000013
 30
0.0
 11
6517.0210839999991
 21
5399.6640180000013
 31
0.0
 70
   128
 13
6820.7353700000003
 23
4819.5667909999993
 33
0.0
 14
6242.7353700000012
 24
5333.9170109999995
 34
0.0
1001
ACAD
1000
DSTYLE
1002
{
1070
   287
1070
     3
1070
   287
1070
     3
1070
    40
1040
40.0
1070
   143
1040
0.039
1070
   172
1070
     1
1070
   271
1070
     0
1070
   279
1070
     0
1070
   288
1070
     1
1002
}
  0
DIMENSION
  5
7C29
  8
3
  6
CONTINUOUS
  2
*D12
 10
5402.7353700000012
 20
5399.6640180000013
 30
0.0
 11
5822.7353700000003
 21
5599.6640180000013
 31
0.0
 70
     0
  1
MAX\P890
 13
6242.7353700000012
 23
5333.9170109999995
 33
0.0
 14
5402.7353700000012
 24
4522.5667909999993
 34
0.0
1001
ACAD
1000
DSTYLE
1002
{
1070
   287
1070
     4
1070
   287
1070
     4
1070
    40
1040
40.0
1070
    75
1070
     1
1070
   143
1040
0.039
1070
   172
1070
     1
1070
   271
1070
     0
1070
   279
1070
     1
1070
   288
1070
     1
1002
}
  0
DIMENSION
  5
7C36
  8
3
  6
CONTINUOUS
  2
*D13
 10
6242.7353700000012
 20
2747.9047070000001
 30
0.0
 11
5917.1368560000001
 21
2747.9047070000001
 31
0.0
 70
   128
 13
5515.7353700000003
 23
3034.5667910000002
 33
0.0
 14
6242.7353700000012
 24
2857.7594370000002
 34
0.0
1001
ACAD
1000
DSTYLE
1002
{
1070
   287
1070
     3
1070
   287
1070
     3
1070
    40
1040
40.0
1070
   143
1040
0.039
1070
   172
1070
     1
1070
   271
1070
     0
1070
   279
1070
     0
1070
   288
1070
     1
1002
}
  0
DIMENSION
  5
7C42
  8
3
  6
CONTINUOUS
  2
*D14
 10
6795.7353700000003
 20
2747.9047070000001
 30
0.0
 11
6519.2353700000003
 21
2847.9047070000001
 31
0.0
 70
     0
 13
6242.7353700000012
 23
2857.7594370000002
 33
0.0
 14
6795.7353700000003
 24
3034.5667910000002
 34
0.0
1001
ACAD
1000
DSTYLE
1002
{
1070
   287
1070
     4
1070
   287
1070
     4
1070
    40
1040
40.0
1070
    75
1070
     1
1070
   143
1040
0.039
1070
   172
1070
     1
1070
   271
1070
     0
1070
   279
1070
     1
1070
   288
1070
     1
1002
}
  0
LINE
  5
7C58
  8
2
  6
CENTER
 10
6242.7353700000012
 20
5152.4702150000012
 30
0.0
 11
6242.7353700000012
 21
2857.7594370000002
 31
0.0
  0
DIMENSION
  5
7C65
  8
3
  6
CONTINUOUS
  2
*D15
 10
4556.500227999999
 20
6974.7385810000014
 30
0.0
 11
3114.02855
 21
6974.7385810000014
 31
0.0
 70
   128
 13
2006.5002280000001
 23
7405.3020800000004
 33
0.0
 14
4556.500227999999
 24
7405.3020800000004
 34
0.0
1001
ACAD
1000
DSTYLE
1002
{
1070
   287
1070
     3
1070
   287
1070
     3
1070
    40
1040
40.0
1070
   143
1040
0.039
1070
   172
1070
     1
1070
   271
1070
     0
1070
   279
1070
     0
1070
   288
1070
     1
1002
}
  0
DIMENSION
  5
7C72
  8
3
  6
CONTINUOUS
  2
*D16
 10
4958.5874950000016
 20
7405.3020800000004
 30
0.0
 11
4958.5874949999998
 21
8004.6267719999987
 31
0.0
 70
   128
 13
4556.500227999999
 23
8685.3020799999995
 33
0.0
 14
4551.5002279999999
 24
7405.3020800000004
 34
0.0
 50
90.0
1001
ACAD
1000
DSTYLE
1002
{
1070
   287
1070
     3
1070
   287
1070
     3
1070
    40
1040
40.0
1070
   143
1040
0.039
1070
   172
1070
     1
1070
   271
1070
     0
1070
   279
1070
     0
1070
   288
1070
     1
1002
}
  0
DIMENSION
  5
7CAE
  8
3
  2
*D17
 10
4556.500227999999
 20
5626.4939414771543
 30
0.0
 11
3261.8638654264801
 21
5626.4939414771543
 31
0.0
 70
   128
 13
1859.244570999999
 23
4137.7192909999994
 33
0.0
 14
4556.500227999999
 24
3184.5667910000002
 34
0.0
1001
ACAD
1000
DSTYLE
1002
{
1070
   287
1070
     3
1070
   287
1070
     3
1070
    40
1040
40.0
1070
   143
1040
0.039
1070
   172
1070
     1
1070
   271
1070
     0
1070
   279
1070
     0
1070
   288
1070
     1
1002
}
  0
ENDSEC
  0
EOF
