  0
SECTION
  2
HEADER
  9
$ACADVER
  1
AC1009
  9
$INSBASE
 10
0.0
 20
0.0
 30
0.0
  9
$EXTMIN
 10
1000.0
 20
1200.0
 30
0.0
  9
$EXTMAX
 10
7400.0
 20
11146.609046
 30
0.0
  9
$LIMMIN
 10
0.0
 20
0.0
  9
$LIMMAX
 10
297.0
 20
210.0
  9
$ORTHOMODE
 70
     0
  9
$REGENMODE
 70
     1
  9
$FILLMODE
 70
     0
  9
$QTEXTMODE
 70
     0
  9
$MIRRTEXT
 70
     1
  9
$DRAGMODE
 70
     2
  9
$LTSCALE
 40
100.0
  9
$OSMODE
 70
    37
  9
$ATTMODE
 70
     1
  9
$TEXTSIZE
 40
180.0
  9
$TRACEWID
 40
0.05
  9
$TEXTSTYLE
  7
STANDARD
  9
$CLAYER
  8
3
  9
$CELTYPE
  6
BYLAYER
  9
$CECOLOR
 62
   256
  9
$DIMSCALE
 40
40.0
  9
$DIMASZ
 40
2.0
  9
$DIMEXO
 40
0.5
  9
$DIMDLI
 40
10.0
  9
$DIMRND
 40
0.0
  9
$DIMDLE
 40
0.0
  9
$DIMEXE
 40
1.0
  9
$DIMTP
 40
1.0
  9
$DIMTM
 40
1.0
  9
$DIMTXT
 40
3.0
  9
$DIMCEN
 40
0.0
  9
$DIMTSZ
 40
0.0
  9
$DIMTOL
 70
     0
  9
$DIMLIM
 70
     0
  9
$DIMTIH
 70
     0
  9
$DIMTOH
 70
     0
  9
$DIMSE1
 70
     0
  9
$DIMSE2
 70
     0
  9
$DIMTAD
 70
     1
  9
$DIMZIN
 70
     8
  9
$DIMBLK
  1

  9
$DIMASO
 70
     1
  9
$DIMSHO
 70
     1
  9
$DIMPOST
  1

  9
$DIMAPOST
  1

  9
$DIMALT
 70
     0
  9
$DIMALTD
 70
     2
  9
$DIMALTF
 40
0.039
  9
$DIMLFAC
 40
1.0
  9
$DIMTOFL
 70
     1
  9
$DIMTVP
 40
0.0
  9
$DIMTIX
 70
     0
  9
$DIMSOXD
 70
     0
  9
$DIMSAH
 70
     1
  9
$DIMBLK1
  1
OPEN
  9
$DIMBLK2
  1
OPEN
  9
$DIMSTYLE
  2
IGA
  9
$DIMCLRD
 70
     0
  9
$DIMCLRE
 70
     0
  9
$DIMCLRT
 70
     0
  9
$DIMTFAC
 40
10.0
  9
$DIMGAP
 40
1.0
  9
$LUNITS
 70
     2
  9
$LUPREC
 70
     3
  9
$SKETCHINC
 40
0.1
  9
$FILLETRAD
 40
50.0
  9
$AUNITS
 70
     0
  9
$AUPREC
 70
     0
  9
$MENU
  1
acad
  9
$ELEVATION
 40
0.0
  9
$PELEVATION
 40
0.0
  9
$THICKNESS
 40
0.0
  9
$LIMCHECK
 70
     0
  9
$BLIPMODE
 70
     0
  9
$CHAMFERA
 40
0.5
  9
$CHAMFERB
 40
0.5
  9
$SKPOLY
 70
     0
  9
$TDCREATE
 40
2450757.4459084491
  9
$TDUPDATE
 40
2454953.844291273
  9
$TDINDWG
 40
0.0041539583
  9
$TDUSRTIMER
 40
0.0041539583
  9
$USRTIMER
 70
     1
  9
$ANGBASE
 50
0.0
  9
$ANGDIR
 70
     0
  9
$PDMODE
 70
     0
  9
$PDSIZE
 40
0.0
  9
$PLINEWID
 40
0.0
  9
$COORDS
 70
     1
  9
$SPLFRAME
 70
     0
  9
$SPLINETYPE
 70
     6
  9
$SPLINESEGS
 70
     8
  9
$ATTDIA
 70
     0
  9
$ATTREQ
 70
     1
  9
$HANDLING
 70
 10241
  9
$HANDSEED
  5
7E93
  9
$SURFTAB1
 70
     6
  9
$SURFTAB2
 70
     6
  9
$SURFTYPE
 70
     6
  9
$SURFU
 70
     6
  9
$SURFV
 70
     6
  9
$UCSNAME
  2

  9
$UCSORG
 10
0.0
 20
0.0
 30
0.0
  9
$UCSXDIR
 10
1.0
 20
0.0
 30
0.0
  9
$UCSYDIR
 10
0.0
 20
1.0
 30
0.0
  9
$PUCSNAME
  2

  9
$PUCSORG
 10
0.0
 20
0.0
 30
0.0
  9
$PUCSXDIR
 10
1.0
 20
0.0
 30
0.0
  9
$PUCSYDIR
 10
0.0
 20
1.0
 30
0.0
  9
$USERI1
 70
     0
  9
$USERI2
 70
     0
  9
$USERI3
 70
     0
  9
$USERI4
 70
     0
  9
$USERI5
 70
     0
  9
$USERR1
 40
0.0
  9
$USERR2
 40
0.0
  9
$USERR3
 40
0.0
  9
$USERR4
 40
0.0
  9
$USERR5
 40
0.0
  9
$WORLDVIEW
 70
     1
  9
$SHADEDGE
 70
     3
  9
$SHADEDIF
 70
    70
  9
$TILEMODE
 70
     1
  9
$MAXACTVP
 70
    16
  9
$PLIMCHECK
 70
     0
  9
$PEXTMIN
 10
1.0000000000000000E+020
 20
1.0000000000000000E+020
 30
1.0000000000000000E+020
  9
$PEXTMAX
 10
-1.0000000000000000E+020
 20
-1.0000000000000000E+020
 30
-1.0000000000000000E+020
  9
$PLIMMIN
 10
0.0
 20
0.0
  9
$PLIMMAX
 10
12.0
 20
9.0
  9
$UNITMODE
 70
     0
  9
$VISRETAIN
 70
     0
  9
$PLINEGEN
 70
     0
  9
$PSLTSCALE
 70
     1
  0
ENDSEC
  0
SECTION
  2
TABLES
  0
TABLE
  2
VPORT
 70
     2
  0
VPORT
  2
*ACTIVE
 70
     0
 10
0.0
 20
0.0
 11
1.0
 21
1.0
 12
10245.062382419639
 22
6129.100465300513
 13
0.0
 23
0.0
 14
10.0
 24
10.0
 15
10.0
 25
10.0
 16
0.0
 26
0.0
 36
1.0
 17
0.0
 27
0.0
 37
0.0
 40
14046.829360524451
 41
1.5051150895140659
 42
50.0
 43
0.0
 44
0.0
 50
0.0
 51
0.0
 71
     0
 72
   100
 73
     1
 74
     0
 75
     0
 76
     0
 77
     0
 78
     0
  0
ENDTAB
  0
TABLE
  2
LTYPE
 70
     2
  0
LTYPE
  2
CONTINUOUS
 70
     0
  3
Solid line
 72
    65
 73
     0
 40
0.0
  0
LTYPE
  2
CENTER
 70
     0
  3
____ _ ____ _ ____ _ ____ _ ____ _ ____ _ ____ 
 72
    65
 73
     4
 40
2.0
 49
1.25
 49
-0.25
 49
0.25
 49
-0.25
  0
ENDTAB
  0
TABLE
  2
LAYER
 70
     6
  0
LAYER
  2
0
 70
     0
 62
     7
  6
CONTINUOUS
  0
LAYER
  2
3
 70
     0
 62
     2
  6
CONTINUOUS
  0
LAYER
  2
2
 70
     0
 62
     3
  6
CENTER
  0
LAYER
  2
1
 70
     0
 62
     4
  6
CONTINUOUS
  0
LAYER
  2
4
 70
     0
 62
     7
  6
CONTINUOUS
  0
LAYER
  2
DEFPOINTS
 70
     0
 62
     7
  6
CONTINUOUS
  0
ENDTAB
  0
TABLE
  2
STYLE
 70
     1
  0
STYLE
  2
STANDARD
 70
     0
 40
0.0
 41
1.0
 50
0.0
 71
     0
 42
180.0
  3
simplex.shx
  4
extfont.shx
  0
ENDTAB
  0
TABLE
  2
VIEW
 70
     0
  0
ENDTAB
  0
TABLE
  2
UCS
 70
     0
  0
ENDTAB
  0
TABLE
  2
APPID
 70
     1
  0
APPID
  2
ACAD
 70
     0
  0
ENDTAB
  0
TABLE
  2
DIMSTYLE
 70
     1
  0
DIMSTYLE
  2
IGA
 70
     0
  3

  4

  5

  6
OPEN
  7
OPEN
 40
2.0
 41
2.0
 42
0.5
 43
10.0
 44
1.0
 45
0.0
 46
0.0
 47
1.0
 48
1.0
140
3.0
141
0.0
142
0.0
143
0.03937
144
1.0
145
0.0
146
10.0
147
1.0
 71
     0
 72
     0
 73
     0
 74
     0
 75
     0
 76
     0
 77
     1
 78
     8
170
     0
171
     2
172
     0
173
     1
174
     0
175
     0
176
     0
177
     0
178
     0
  0
ENDTAB
  0
ENDSEC
  0
SECTION
  2
BLOCKS
  0
BLOCK
  8
0
  2
$MODEL_SPACE
 70
     0
 10
0.0
 20
0.0
 30
0.0
  3
$MODEL_SPACE
  1

  0
ENDBLK
  5
1B
  8
0
  0
BLOCK
 67
     1
  8
0
  2
$PAPER_SPACE
 70
     0
 10
0.0
 20
0.0
 30
0.0
  3
$PAPER_SPACE
  1

  0
ENDBLK
  5
18
 67
     1
  8
0
  0
BLOCK
  8
0
  2
_OPEN
 70
     0
 10
0.0
 20
0.0
 30
0.0
  3
_OPEN
  1

  0
LINE
  5
7B89
  8
0
  6
BYBLOCK
 62
     0
 10
-1.0
 20
0.166667
 30
0.0
 11
0.0
 21
0.0
 31
0.0
  0
LINE
  5
7B8A
  8
0
  6
BYBLOCK
 62
     0
 10
0.0
 20
0.0
 30
0.0
 11
-1.0
 21
-0.166667
 31
0.0
  0
LINE
  5
7B8B
  8
0
  6
BYBLOCK
 62
     0
 10
0.0
 20
0.0
 30
0.0
 11
-1.0
 21
0.0
 31
0.0
  0
ENDBLK
  5
7B8C
  8
0
  0
BLOCK
  8
0
  2
*D1
 70
     1
 10
0.0
 20
0.0
 30
0.0
  3
*D1
  1

  0
LINE
  5
7DED
  8
3
  6
CONTINUOUS
 62
     0
 10
2085.8787579999989
 20
5182.4272529999998
 30
0.0
 11
1792.4720000000009
 21
5182.4272530000007
 31
0.0
  0
LINE
  5
7DEE
  8
3
  6
CONTINUOUS
 62
     0
 10
2085.8787579999989
 20
3902.4272529999998
 30
0.0
 11
1792.472
 21
3902.4272529999998
 31
0.0
  0
LINE
  5
7DEF
  8
3
  6
CONTINUOUS
 62
     0
 10
1832.472
 20
5102.4272530000007
 30
0.0
 11
1832.472
 21
3982.4272529999998
 31
0.0
  0
INSERT
  5
7DF0
  8
3
  6
CONTINUOUS
 62
     0
  2
_OPEN
 10
1832.472
 20
5182.4272530000007
 30
0.0
 41
80.0
 42
80.0
 43
80.0
 50
90.0
  0
INSERT
  5
7DF1
  8
3
  6
CONTINUOUS
 62
     0
  2
_OPEN
 10
1832.472
 20
3902.4272529999998
 30
0.0
 41
80.0
 42
80.0
 43
80.0
 50
270.0
  0
TEXT
  8
3
  40
120
  5
7E81
  62
0
  72
0
  71
0
 10
1492.47
 20
4285.52
 30
0.000000
  1
1280
  0
POINT
  5
7DF3
  8
DEFPOINTS
  6
CONTINUOUS
 62
     0
 10
2105.8787579999989
 20
5182.4272529999998
 30
0.0
  0
POINT
  5
7DF4
  8
DEFPOINTS
  6
CONTINUOUS
 62
     0
 10
2105.8787579999989
 20
3902.4272529999998
 30
0.0
  0
POINT
  5
7DF5
  8
DEFPOINTS
  6
CONTINUOUS
 62
     0
 10
1832.472
 20
3902.4272529999998
 30
0.0
  0
ENDBLK
  5
7B99
  8
0
  0
BLOCK
  8
0
  2
*D2
 70
     1
 10
0.0
 20
0.0
 30
0.0
  3
*D2
  1

  0
LINE
  5
7DF6
  8
3
  6
CONTINUOUS
 62
     0
 10
2085.8787579999989
 20
5182.4272529999998
 30
0.0
 11
1495.3356100000001
 21
5182.4272530000007
 31
0.0
  0
LINE
  5
7DF7
  8
3
  6
CONTINUOUS
 62
     0
 10
1951.0134489999989
 20
3848.4272529999998
 30
0.0
 11
1495.3356100000001
 21
3848.4272529999998
 31
0.0
  0
LINE
  5
7DF8
  8
3
  6
CONTINUOUS
 62
     0
 10
1535.3356100000001
 20
5102.4272530000007
 30
0.0
 11
1535.3356100000001
 21
3928.4272529999998
 31
0.0
  0
INSERT
  5
7DF9
  8
3
  6
CONTINUOUS
 62
     0
  2
_OPEN
 10
1535.3356100000001
 20
5182.4272530000007
 30
0.0
 41
80.0
 42
80.0
 43
80.0
 50
90.0
  0
INSERT
  5
7DFA
  8
3
  6
CONTINUOUS
 62
     0
  2
_OPEN
 10
1535.3356100000001
 20
3848.4272529999998
 30
0.0
 41
80.0
 42
80.0
 43
80.0
 50
270.0
  0
TEXT
  8
3
  40
120
  5
7E82
  62
0
  72
0
  71
0
 10
1195.34
 20
4305.31
 30
0.000000
  1
1334
  0
POINT
  5
7DFC
  8
DEFPOINTS
  6
CONTINUOUS
 62
     0
 10
2105.8787579999989
 20
5182.4272529999998
 30
0.0
  0
POINT
  5
7DFD
  8
DEFPOINTS
  6
CONTINUOUS
 62
     0
 10
1971.0134489999989
 20
3848.4272529999998
 30
0.0
  0
POINT
  5
7DFE
  8
DEFPOINTS
  6
CONTINUOUS
 62
     0
 10
1535.3356100000001
 20
3848.4272529999998
 30
0.0
  0
ENDBLK
  5
7BA6
  8
0
  0
BLOCK
  8
0
  2
*D3
 70
     1
 10
0.0
 20
0.0
 30
0.0
  3
*D3
  1

  0
LINE
  5
7DFF
  8
3
  6
CONTINUOUS
 62
     0
 10
2160.8787579999989
 20
2923.4272529999998
 30
0.0
 11
1495.335609999999
 21
2923.4272529999998
 31
0.0
  0
LINE
  5
7E00
  8
3
  6
CONTINUOUS
 62
     0
 10
1535.3356100000001
 20
3768.4272529999998
 30
0.0
 11
1535.335609999999
 21
3003.4272529999998
 31
0.0
  0
INSERT
  5
7E01
  8
3
  6
CONTINUOUS
 62
     0
  2
_OPEN
 10
1535.3356100000001
 20
3848.4272529999998
 30
0.0
 41
80.0
 42
80.0
 43
80.0
 50
90.0
  0
INSERT
  5
7E02
  8
3
  6
CONTINUOUS
 62
     0
  2
_OPEN
 10
1535.335609999999
 20
2923.4272529999998
 30
0.0
 41
80.0
 42
80.0
 43
80.0
 50
270.0
  0
TEXT
  8
3
  40
120
  5
7E83
  62
0
  72
0
  71
0
 10
1195.34
 20
3173.53
 30
0.000000
  1
925
  0
POINT
  5
7E04
  8
DEFPOINTS
  6
CONTINUOUS
 62
     0
 10
1971.0134489999989
 20
3848.4272529999998
 30
0.0
  0
POINT
  5
7E05
  8
DEFPOINTS
  6
CONTINUOUS
 62
     0
 10
2180.8787579999989
 20
2923.4272529999998
 30
0.0
  0
POINT
  5
7E06
  8
DEFPOINTS
  6
CONTINUOUS
 62
     0
 10
1535.335609999999
 20
2923.4272529999998
 30
0.0
  0
ENDBLK
  5
7BC2
  8
0
  0
BLOCK
  8
0
  2
*D4
 70
     1
 10
0.0
 20
0.0
 30
0.0
  3
*D4
  1

  0
LINE
  5
7E07
  8
3
  6
CONTINUOUS
 62
     0
 10
2085.8787579999989
 20
5238.4272529999998
 30
0.0
 11
1158.581008000001
 21
5238.4272530000007
 31
0.0
  0
LINE
  5
7E08
  8
3
  6
CONTINUOUS
 62
     0
 10
2160.8787579999989
 20
2923.4272529999998
 30
0.0
 11
1158.5810080000001
 21
2923.4272529999998
 31
0.0
  0
LINE
  5
7E09
  8
3
  6
CONTINUOUS
 62
     0
 10
1198.581008000001
 20
5158.4272530000007
 30
0.0
 11
1198.5810080000001
 21
3003.4272529999998
 31
0.0
  0
INSERT
  5
7E0A
  8
3
  6
CONTINUOUS
 62
     0
  2
_OPEN
 10
1198.581008000001
 20
5238.4272530000007
 30
0.0
 41
80.0
 42
80.0
 43
80.0
 50
90.0
  0
INSERT
  5
7E0B
  8
3
  6
CONTINUOUS
 62
     0
  2
_OPEN
 10
1198.5810080000001
 20
2923.4272529999998
 30
0.0
 41
80.0
 42
80.0
 43
80.0
 50
270.0
  0
TEXT
  8
3
  40
120
  5
7E84
  62
0
  72
0
  71
0
 10
858.581
 20
3840.08
 30
0.000000
  1
2315
  0
POINT
  5
7E0D
  8
DEFPOINTS
  6
CONTINUOUS
 62
     0
 10
2105.8787579999989
 20
5238.4272529999998
 30
0.0
  0
POINT
  5
7E0E
  8
DEFPOINTS
  6
CONTINUOUS
 62
     0
 10
2180.8787579999989
 20
2923.4272529999998
 30
0.0
  0
POINT
  5
7E0F
  8
DEFPOINTS
  6
CONTINUOUS
 62
     0
 10
1198.5810080000001
 20
2923.4272529999998
 30
0.0
  0
ENDBLK
  5
7BCF
  8
0
  0
BLOCK
  8
0
  2
*D5
 70
     1
 10
0.0
 20
0.0
 30
0.0
  3
*D5
  1

  0
LINE
  5
7E10
  8
3
  6
CONTINUOUS
 62
     0
 10
2180.8787579999989
 20
2903.4272529999998
 30
0.0
 11
2180.8787579999989
 21
2577.1811419999999
 31
0.0
  0
LINE
  5
7E11
  8
3
  6
CONTINUOUS
 62
     0
 10
2930.8787579999998
 20
2660.7487169999999
 30
0.0
 11
2930.8787579999998
 21
2577.1811419999999
 31
0.0
  0
LINE
  5
7E12
  8
3
  6
CONTINUOUS
 62
     0
 10
2260.8787579999998
 20
2617.1811419999999
 30
0.0
 11
2850.8787579999998
 21
2617.1811419999999
 31
0.0
  0
INSERT
  5
7E13
  8
3
  6
CONTINUOUS
 62
     0
  2
_OPEN
 10
2180.8787579999989
 20
2617.1811419999999
 30
0.0
 41
80.0
 42
80.0
 43
80.0
 50
180.0
  0
INSERT
  5
7E14
  8
3
  6
CONTINUOUS
 62
     0
  2
_OPEN
 10
2930.8787579999998
 20
2617.1811419999999
 30
0.0
 41
80.0
 42
80.0
 43
80.0
  0
TEXT
  8
3
  40
120
  5
7E85
  62
0
  72
0
  71
0
 10
2335.31
 20
2504.78
 30
0.000000
  1
750
  0
POINT
  5
7E16
  8
DEFPOINTS
  6
CONTINUOUS
 62
     0
 10
2180.8787579999989
 20
2923.4272529999998
 30
0.0
  0
POINT
  5
7E17
  8
DEFPOINTS
  6
CONTINUOUS
 62
     0
 10
2930.8787579999998
 20
2680.7487169999999
 30
0.0
  0
POINT
  5
7E18
  8
DEFPOINTS
  6
CONTINUOUS
 62
     0
 10
2930.8787579999998
 20
2617.1811419999999
 30
0.0
  0
ENDBLK
  5
7BDC
  8
0
  0
BLOCK
  8
0
  2
*D6
 70
     1
 10
0.0
 20
0.0
 30
0.0
  3
*D6
  1

  0
LINE
  5
7E19
  8
3
  6
CONTINUOUS
 62
     0
 10
4730.8787579999998
 20
2903.4272529999998
 30
0.0
 11
4730.8787579999998
 21
2577.1811419999999
 31
0.0
  0
LINE
  5
7E1A
  8
3
  6
CONTINUOUS
 62
     0
 10
3010.8787579999998
 20
2617.1811419999999
 30
0.0
 11
4650.8787579999998
 21
2617.1811419999999
 31
0.0
  0
INSERT
  5
7E1B
  8
3
  6
CONTINUOUS
 62
     0
  2
_OPEN
 10
2930.8787579999998
 20
2617.1811419999999
 30
0.0
 41
80.0
 42
80.0
 43
80.0
 50
180.0
  0
INSERT
  5
7E1C
  8
3
  6
CONTINUOUS
 62
     0
  2
_OPEN
 10
4730.8787579999998
 20
2617.1811419999999
 30
0.0
 41
80.0
 42
80.0
 43
80.0
  0
TEXT
  8
3
  40
120
  5
7E86
  62
0
  72
0
  71
0
 10
3590.88
 20
2504.78
 30
0.000000
  1
1800
  0
POINT
  5
7E1E
  8
DEFPOINTS
  6
CONTINUOUS
 62
     0
 10
2930.8787579999998
 20
2680.7487169999999
 30
0.0
  0
POINT
  5
7E1F
  8
DEFPOINTS
  6
CONTINUOUS
 62
     0
 10
4730.8787579999998
 20
2923.4272529999998
 30
0.0
  0
POINT
  5
7E20
  8
DEFPOINTS
  6
CONTINUOUS
 62
     0
 10
4730.8787579999998
 20
2617.1811419999999
 30
0.0
  0
ENDBLK
  5
7CC8
  8
0
  0
BLOCK
  8
0
  2
*D7
 70
     1
 10
0.0
 20
0.0
 30
0.0
  3
*D7
  1

  0
LINE
  5
7E21
  8
3
  6
CONTINUOUS
 62
     0
 10
2105.8787579999989
 20
5258.4272529999998
 30
0.0
 11
2105.8787579999989
 21
5458.484786
 31
0.0
  0
LINE
  5
7E22
  8
3
  6
CONTINUOUS
 62
     0
 10
2930.8787579999998
 20
5288.0274399999998
 30
0.0
 11
2930.8787579999998
 21
5458.484786
 31
0.0
  0
LINE
  5
7E23
  8
3
  6
CONTINUOUS
 62
     0
 10
2185.8787579999989
 20
5418.484786
 30
0.0
 11
2850.8787579999998
 21
5418.484786
 31
0.0
  0
INSERT
  5
7E24
  8
3
  6
CONTINUOUS
 62
     0
  2
_OPEN
 10
2105.8787579999989
 20
5418.484786
 30
0.0
 41
80.0
 42
80.0
 43
80.0
 50
180.0
  0
INSERT
  5
7E25
  8
3
  6
CONTINUOUS
 62
     0
  2
_OPEN
 10
2930.8787579999998
 20
5418.484786
 30
0.0
 41
80.0
 42
80.0
 43
80.0
  0
TEXT
  8
3
  40
120
  5
7E87
  62
0
  72
0
  71
0
 10
2275.89
 20
5306.08
 30
0.000000
  1
825
  0
POINT
  5
7E27
  8
DEFPOINTS
  6
CONTINUOUS
 62
     0
 10
2105.8787579999989
 20
5238.4272529999998
 30
0.0
  0
POINT
  5
7E28
  8
DEFPOINTS
  6
CONTINUOUS
 62
     0
 10
2930.8787579999998
 20
5268.0274399999998
 30
0.0
  0
POINT
  5
7E29
  8
DEFPOINTS
  6
CONTINUOUS
 62
     0
 10
2930.8787579999998
 20
5418.484786
 30
0.0
  0
ENDBLK
  5
7BF5
  8
0
  0
BLOCK
  8
0
  2
*D8
 70
     1
 10
0.0
 20
0.0
 30
0.0
  3
*D8
  1

  0
LINE
  5
7E2A
  8
3
  6
CONTINUOUS
 62
     0
 10
5835.362779
 20
5202.4272529999989
 30
0.0
 11
5835.362779
 21
5428.7889990000003
 31
0.0
  0
LINE
  5
7E2B
  8
3
  6
CONTINUOUS
 62
     0
 10
6785.362779
 20
5202.4272529999989
 30
0.0
 11
6785.362779
 21
5428.7889990000003
 31
0.0
  0
LINE
  5
7E2C
  8
3
  6
CONTINUOUS
 62
     0
 10
5915.362779
 20
5388.7889990000003
 30
0.0
 11
6705.362779000001
 21
5388.7889990000003
 31
0.0
  0
INSERT
  5
7E2D
  8
3
  6
CONTINUOUS
 62
     0
  2
_OPEN
 10
5835.362779
 20
5388.7889990000003
 30
0.0
 41
80.0
 42
80.0
 43
80.0
 50
180.0
  0
INSERT
  5
7E2E
  8
3
  6
CONTINUOUS
 62
     0
  2
_OPEN
 10
6785.362779
 20
5388.7889990000003
 30
0.0
 41
80.0
 42
80.0
 43
80.0
  0
TEXT
  8
3
  40
120
  5
7E88
  62
0
  72
0
  71
0
 10
6089.14
 20
5276.39
 30
0.000000
  1
950
  0
POINT
  5
7E30
  8
DEFPOINTS
  6
CONTINUOUS
 62
     0
 10
5835.362779
 20
5182.4272529999998
 30
0.0
  0
POINT
  5
7E31
  8
DEFPOINTS
  6
CONTINUOUS
 62
     0
 10
6785.362779
 20
5182.4272529999998
 30
0.0
  0
POINT
  5
7E32
  8
DEFPOINTS
  6
CONTINUOUS
 62
     0
 10
6785.362779
 20
5388.7889990000003
 30
0.0
  0
ENDBLK
  5
7C0E
  8
0
  0
BLOCK
  8
0
  2
*D9
 70
     1
 10
0.0
 20
0.0
 30
0.0
  3
*D9
  1

  0
LINE
  5
7E33
  8
3
  6
CONTINUOUS
 62
     0
 10
6908.362779
 20
4473.4272529999989
 30
0.0
 11
7240.7360870000011
 21
4473.4272529999989
 31
0.0
  0
LINE
  5
7E34
  8
3
  6
CONTINUOUS
 62
     0
 10
6908.362779
 20
3223.4272529999998
 30
0.0
 11
7240.7360870000011
 21
3223.4272529999998
 31
0.0
  0
LINE
  5
7E35
  8
3
  6
CONTINUOUS
 62
     0
 10
7200.7360870000011
 20
4393.4272529999998
 30
0.0
 11
7200.7360870000011
 21
3303.4272529999989
 31
0.0
  0
INSERT
  5
7E36
  8
3
  6
CONTINUOUS
 62
     0
  2
_OPEN
 10
7200.7360870000011
 20
4473.4272529999989
 30
0.0
 41
80.0
 42
80.0
 43
80.0
 50
90.0
  0
INSERT
  5
7E37
  8
3
  6
CONTINUOUS
 62
     0
  2
_OPEN
 10
7200.7360870000011
 20
3223.4272529999998
 30
0.0
 41
80.0
 42
80.0
 43
80.0
 50
270.0
  0
TEXT
  8
3
  40
120
  5
7E89
  62
0
  72
0
  71
0
 10
6860.74
 20
3622.31
 30
0.000000
  1
φ1250
  0
POINT
  5
7E39
  8
DEFPOINTS
  6
CONTINUOUS
 62
     0
 10
6888.362779000001
 20
4473.4272529999989
 30
0.0
  0
POINT
  5
7E3A
  8
DEFPOINTS
  6
CONTINUOUS
 62
     0
 10
6888.362779000001
 20
3223.4272529999998
 30
0.0
  0
POINT
  5
7E3B
  8
DEFPOINTS
  6
CONTINUOUS
 62
     0
 10
7200.7360870000011
 20
3223.4272529999998
 30
0.0
  0
ENDBLK
  5
7CF1
  8
0
  0
BLOCK
  8
0
  2
*D10
 70
     1
 10
0.0
 20
0.0
 30
0.0
  3
*D10
  1

  0
LINE
  5
7E3C
  8
3
  6
CONTINUOUS
 62
     0
 10
6888.362779000001
 20
4543.4272529999989
 30
0.0
 11
6888.362779000001
 21
5686.1525630000006
 31
0.0
  0
LINE
  5
7E3D
  8
3
  6
CONTINUOUS
 62
     0
 10
6310.362779
 20
5604.1772810000011
 30
0.0
 11
6310.362779
 21
5686.1525630000006
 31
0.0
  0
LINE
  5
7E3E
  8
3
  6
CONTINUOUS
 62
     0
 10
6808.362779000001
 20
5646.1525630000006
 30
0.0
 11
6390.362779
 21
5646.1525630000006
 31
0.0
  0
INSERT
  5
7E3F
  8
3
  6
CONTINUOUS
 62
     0
  2
_OPEN
 10
6888.362779000001
 20
5646.1525630000006
 30
0.0
 41
80.0
 42
80.0
 43
80.0
  0
INSERT
  5
7E40
  8
3
  6
CONTINUOUS
 62
     0
  2
_OPEN
 10
6310.362779
 20
5646.1525630000006
 30
0.0
 41
80.0
 42
80.0
 43
80.0
 50
180.0
  0
TEXT
  8
3
  40
120
  5
7E8A
  62
0
  72
0
  71
0
 10
6344.65
 20
5533.75
 30
0.000000
  1
578
  0
POINT
  5
7E42
  8
DEFPOINTS
  6
CONTINUOUS
 62
     0
 10
6888.362779000001
 20
4523.4272529999998
 30
0.0
  0
POINT
  5
7E43
  8
DEFPOINTS
  6
CONTINUOUS
 62
     0
 10
6310.362779
 20
5584.1772810000002
 30
0.0
  0
POINT
  5
7E44
  8
DEFPOINTS
  6
CONTINUOUS
 62
     0
 10
6310.362779
 20
5646.1525630000006
 30
0.0
  0
ENDBLK
  5
7C63
  8
0
  0
BLOCK
  8
0
  2
*D11
 70
     1
 10
0.0
 20
0.0
 30
0.0
  3
*D11
  1

  0
LINE
  5
7E45
  8
3
  6
CONTINUOUS
 62
     0
 10
5470.362779
 20
4246.4272529999998
 30
0.0
 11
5470.362779
 21
5686.1525630000006
 31
0.0
  0
LINE
  5
7E46
  8
3
  6
CONTINUOUS
 62
     0
 10
6230.362779
 20
5646.1525630000006
 30
0.0
 11
5550.362779
 21
5646.1525630000006
 31
0.0
  0
INSERT
  5
7E47
  8
3
  6
CONTINUOUS
 62
     0
  2
_OPEN
 10
6310.362779
 20
5646.1525630000006
 30
0.0
 41
80.0
 42
80.0
 43
80.0
  0
INSERT
  5
7E48
  8
3
  6
CONTINUOUS
 62
     0
  2
_OPEN
 10
5470.362779
 20
5646.1525630000006
 30
0.0
 41
80.0
 42
80.0
 43
80.0
 50
180.0
  0
TEXT
  8
3
  40
120
  5
7E8B
  62
0
  72
0
  71
0
 10
5650.36
 20
5633.75
 30
0.000000
  1
MAX
  0
TEXT
  8
3
  40
120
  5
7E8C
  62
0
  72
0
  71
0
 10
5650.36
 20
5477.75
 30
0.000000
  1
890
  0
POINT
  5
7E4A
  8
DEFPOINTS
  6
CONTINUOUS
 62
     0
 10
6310.362779
 20
5584.1772810000002
 30
0.0
  0
POINT
  5
7E4B
  8
DEFPOINTS
  6
CONTINUOUS
 62
     0
 10
5470.362779
 20
4226.4272529999989
 30
0.0
  0
POINT
  5
7E4C
  8
DEFPOINTS
  6
CONTINUOUS
 62
     0
 10
5470.362779
 20
5646.1525630000006
 30
0.0
  0
ENDBLK
  5
7CFB
  8
0
  0
BLOCK
  8
0
  2
*D12
 70
     1
 10
0.0
 20
0.0
 30
0.0
  3
*D12
  1

  0
LINE
  5
7E4D
  8
3
  6
CONTINUOUS
 62
     0
 10
5583.362779
 20
2903.4272529999998
 30
0.0
 11
5583.362779
 21
2537.5867370000001
 31
0.0
  0
LINE
  5
7E4E
  8
3
  6
CONTINUOUS
 62
     0
 10
6310.362779
 20
2730.4264669999998
 30
0.0
 11
6310.362779
 21
2537.5867370000001
 31
0.0
  0
LINE
  5
7E4F
  8
3
  6
CONTINUOUS
 62
     0
 10
5663.3627789999991
 20
2577.5867370000001
 30
0.0
 11
6230.362779
 21
2577.5867370000001
 31
0.0
  0
INSERT
  5
7E50
  8
3
  6
CONTINUOUS
 62
     0
  2
_OPEN
 10
5583.362779
 20
2577.5867370000001
 30
0.0
 41
80.0
 42
80.0
 43
80.0
 50
180.0
  0
INSERT
  5
7E51
  8
3
  6
CONTINUOUS
 62
     0
  2
_OPEN
 10
6310.362779
 20
2577.5867370000001
 30
0.0
 41
80.0
 42
80.0
 43
80.0
  0
TEXT
  8
3
  40
120
  5
7E8D
  62
0
  72
0
  71
0
 10
5732.57
 20
2465.19
 30
0.000000
  1
727
  0
POINT
  5
7E53
  8
DEFPOINTS
  6
CONTINUOUS
 62
     0
 10
5583.362779
 20
2923.4272529999998
 30
0.0
  0
POINT
  5
7E54
  8
DEFPOINTS
  6
CONTINUOUS
 62
     0
 10
6310.362779
 20
2750.4264669999998
 30
0.0
  0
POINT
  5
7E55
  8
DEFPOINTS
  6
CONTINUOUS
 62
     0
 10
6310.362779
 20
2577.5867370000001
 30
0.0
  0
ENDBLK
  5
7C41
  8
0
  0
BLOCK
  8
0
  2
*D13
 70
     1
 10
0.0
 20
0.0
 30
0.0
  3
*D13
  1

  0
LINE
  5
7E56
  8
3
  6
CONTINUOUS
 62
     0
 10
6863.362779
 20
2903.4272529999998
 30
0.0
 11
6863.362779
 21
2537.5867370000001
 31
0.0
  0
LINE
  5
7E57
  8
3
  6
CONTINUOUS
 62
     0
 10
6390.362779
 20
2577.5867370000001
 30
0.0
 11
6783.362779
 21
2577.5867370000001
 31
0.0
  0
INSERT
  5
7E58
  8
3
  6
CONTINUOUS
 62
     0
  2
_OPEN
 10
6310.362779
 20
2577.5867370000001
 30
0.0
 41
80.0
 42
80.0
 43
80.0
 50
180.0
  0
INSERT
  5
7E59
  8
3
  6
CONTINUOUS
 62
     0
  2
_OPEN
 10
6863.362779
 20
2577.5867370000001
 30
0.0
 41
80.0
 42
80.0
 43
80.0
  0
TEXT
  8
3
  40
120
  5
7E8E
  62
0
  72
0
  71
0
 10
6346.86
 20
2465.19
 30
0.000000
  1
553
  0
POINT
  5
7E5B
  8
DEFPOINTS
  6
CONTINUOUS
 62
     0
 10
6310.362779
 20
2750.4264669999998
 30
0.0
  0
POINT
  5
7E5C
  8
DEFPOINTS
  6
CONTINUOUS
 62
     0
 10
6863.362779
 20
2923.4272529999998
 30
0.0
  0
POINT
  5
7E5D
  8
DEFPOINTS
  6
CONTINUOUS
 62
     0
 10
6863.362779
 20
2577.5867370000001
 30
0.0
  0
ENDBLK
  5
7C4D
  8
0
  0
BLOCK
  8
0
  2
*D14
 70
     1
 10
0.0
 20
0.0
 30
0.0
  3
*D14
  1

  0
LINE
  5
7E5E
  8
3
  6
CONTINUOUS
 62
     0
 10
2180.8787579999989
 20
7375.2655030000014
 30
0.0
 11
2180.8787579999989
 21
6937.7641739999999
 31
0.0
  0
LINE
  5
7E5F
  8
3
  6
CONTINUOUS
 62
     0
 10
4730.8787579999998
 20
7375.2655030000014
 30
0.0
 11
4730.8787579999998
 21
6937.7641739999999
 31
0.0
  0
LINE
  5
7E60
  8
3
  6
CONTINUOUS
 62
     0
 10
2260.8787579999998
 20
6977.7641739999999
 30
0.0
 11
4650.8787579999998
 21
6977.7641739999999
 31
0.0
  0
INSERT
  5
7E61
  8
3
  6
CONTINUOUS
 62
     0
  2
_OPEN
 10
2180.8787579999989
 20
6977.7641739999999
 30
0.0
 41
80.0
 42
80.0
 43
80.0
 50
180.0
  0
INSERT
  5
7E62
  8
3
  6
CONTINUOUS
 62
     0
  2
_OPEN
 10
4730.8787579999998
 20
6977.7641739999999
 30
0.0
 41
80.0
 42
80.0
 43
80.0
  0
TEXT
  8
3
  40
120
  5
7E8F
  62
0
  72
0
  71
0
 10
3127.68
 20
6865.36
 30
0.000000
  1
2550
  0
POINT
  5
7E64
  8
DEFPOINTS
  6
CONTINUOUS
 62
     0
 10
2180.8787579999989
 20
7395.2655029999996
 30
0.0
  0
POINT
  5
7E65
  8
DEFPOINTS
  6
CONTINUOUS
 62
     0
 10
4730.8787579999998
 20
7395.2655029999996
 30
0.0
  0
POINT
  5
7E66
  8
DEFPOINTS
  6
CONTINUOUS
 62
     0
 10
4730.8787579999998
 20
6977.7641739999999
 30
0.0
  0
ENDBLK
  5
7CA8
  8
0
  0
BLOCK
  8
0
  2
*D15
 70
     1
 10
0.0
 20
0.0
 30
0.0
  3
*D15
  1

  0
LINE
  5
7E67
  8
3
  6
CONTINUOUS
 62
     0
 10
4750.8787579999989
 20
8675.2655030000024
 30
0.0
 11
5124.7589017681967
 21
8675.2655030000024
 31
0.0
  0
LINE
  5
7E68
  8
3
  6
CONTINUOUS
 62
     0
 10
4750.8787579999989
 20
7395.2655029999996
 30
0.0
 11
5124.7589017681967
 21
7395.2655029999996
 31
0.0
  0
LINE
  5
7E69
  8
3
  6
CONTINUOUS
 62
     0
 10
5084.7589017681967
 20
8595.2655030000005
 30
0.0
 11
5084.7589017681967
 21
7475.2655030000014
 31
0.0
  0
INSERT
  5
7E6A
  8
3
  6
CONTINUOUS
 62
     0
  2
_OPEN
 10
5084.7589017681967
 20
8675.2655030000024
 30
0.0
 41
80.0
 42
80.0
 43
80.0
 50
90.0
  0
INSERT
  5
7E6B
  8
3
  6
CONTINUOUS
 62
     0
  2
_OPEN
 10
5084.7589017681967
 20
7395.2655029999996
 30
0.0
 41
80.0
 42
80.0
 43
80.0
 50
270.0
  0
TEXT
  8
3
  40
120
  5
7E90
  62
0
  72
0
  71
0
 10
4744.76
 20
7755.22
 30
0.000000
  1
1280
  0
POINT
  5
7E6D
  8
DEFPOINTS
  6
CONTINUOUS
 62
     0
 10
4730.8787579999998
 20
8675.2655030000024
 30
0.0
  0
POINT
  5
7E6E
  8
DEFPOINTS
  6
CONTINUOUS
 62
     0
 10
4730.8787579999998
 20
7395.2655029999996
 30
0.0
  0
POINT
  5
7E6F
  8
DEFPOINTS
  6
CONTINUOUS
 62
     0
 10
5084.7589017681967
 20
7395.2655029999996
 30
0.0
  0
ENDBLK
  5
7CBE
  8
0
  0
BLOCK
  8
0
  2
*D16
 70
     1
 10
0.0
 20
0.0
 30
0.0
  3
*D16
  1

  0
LINE
  5
7E70
  8
3
  6
CONTINUOUS
 62
     0
 10
4009.8787579999998
 20
3868.4272529999998
 30
0.0
 11
4009.8787579999998
 21
5458.484786
 31
0.0
  0
LINE
  5
7E71
  8
3
  6
CONTINUOUS
 62
     0
 10
3010.8787579999998
 20
5418.484786
 30
0.0
 11
3929.8787579999998
 21
5418.484786
 31
0.0
  0
INSERT
  5
7E72
  8
3
  6
CONTINUOUS
 62
     0
  2
_OPEN
 10
2930.8787579999998
 20
5418.484786
 30
0.0
 41
80.0
 42
80.0
 43
80.0
 50
180.0
  0
INSERT
  5
7E73
  8
3
  6
CONTINUOUS
 62
     0
  2
_OPEN
 10
4009.8787579999998
 20
5418.484786
 30
0.0
 41
80.0
 42
80.0
 43
80.0
  0
TEXT
  8
3
  40
120
  5
7E91
  62
0
  72
0
  71
0
 10
3230.38
 20
5306.08
 30
0.000000
  1
1079
  0
POINT
  5
7E75
  8
DEFPOINTS
  6
CONTINUOUS
 62
     0
 10
2930.8787579999998
 20
5268.0274399999998
 30
0.0
  0
POINT
  5
7E76
  8
DEFPOINTS
  6
CONTINUOUS
 62
     0
 10
4009.8787579999998
 20
3848.4272529999998
 30
0.0
  0
POINT
  5
7E77
  8
DEFPOINTS
  6
CONTINUOUS
 62
     0
 10
4009.8787579999998
 20
5418.484786
 30
0.0
  0
ENDBLK
  5
7CD9
  8
0
  0
BLOCK
  8
0
  2
*D17
 70
     1
 10
0.0
 20
0.0
 30
0.0
  3
*D17
  1

  0
LINE
  5
7E78
  8
3
 62
     0
 10
2105.8787579999989
 20
5258.4272529999998
 30
0.0
 11
2105.8787579999989
 21
5748.0068586747029
 31
0.0
  0
LINE
  5
7E79
  8
3
 62
     0
 10
4730.8787579999998
 20
3093.4272529999998
 30
0.0
 11
4730.8787579999998
 21
5748.0068586747029
 31
0.0
  0
LINE
  5
7E7A
  8
3
 62
     0
 10
2185.8787579999989
 20
5708.0068586747029
 30
0.0
 11
4650.8787579999998
 21
5708.0068586747029
 31
0.0
  0
INSERT
  5
7E7B
  8
3
 62
     0
  2
_OPEN
 10
2105.8787579999989
 20
5708.0068586747029
 30
0.0
 41
80.0
 42
80.0
 43
80.0
 50
180.0
  0
INSERT
  5
7E7C
  8
3
 62
     0
  2
_OPEN
 10
4730.8787579999998
 20
5708.0068586747029
 30
0.0
 41
80.0
 42
80.0
 43
80.0
  0
TEXT
  8
3
  40
120
  5
7E92
  62
0
  72
0
  71
0
 10
3098.59
 20
5595.61
 30
0.000000
  1
2625
  0
POINT
  5
7E7E
  8
DEFPOINTS
 62
     0
 10
2105.8787579999989
 20
5238.4272529999998
 30
0.0
  0
POINT
  5
7E7F
  8
DEFPOINTS
 62
     0
 10
4730.8787579999998
 20
3073.4272529999998
 30
0.0
  0
POINT
  5
7E80
  8
DEFPOINTS
 62
     0
 10
4730.8787579999998
 20
5708.0068586747029
 30
0.0
  0
ENDBLK
  5
7CE5
  8
0
  0
ENDSEC
  0
SECTION
  2
ENTITIES
  0
LINE
  5
7AB3
  8
1
  6
CONTINUOUS
 10
2831.0787579999992
 20
3483.827252999999
 30
0.0
 11
4247.7787579999986
 21
3096.227253
 31
0.0
  0
LINE
  5
7AB4
  8
1
  6
CONTINUOUS
 10
2857.4787580000002
 20
3580.3272529999999
 30
0.0
 11
4274.178758
 21
3192.727253
 31
0.0
  0
LINE
  5
7AB5
  8
1
  6
CONTINUOUS
 10
3105.8787579999998
 20
4183.4272529999998
 30
0.0
 11
4407.7787580000004
 21
3503.4272529999998
 31
0.0
  0
LINE
  5
7AB6
  8
1
  6
CONTINUOUS
 10
3059.5787579999992
 20
4094.8272529999999
 30
0.0
 11
4361.4787580000002
 21
3414.8272529999999
 31
0.0
  0
LINE
  5
7AB7
  8
1
  6
CONTINUOUS
 10
4185.8787579999998
 20
7395.2655029999996
 30
0.0
 11
3208.8787579999998
 21
7395.2655029999996
 31
0.0
  0
LINE
  5
7AB8
  8
1
  6
CONTINUOUS
 10
2552.8787579999998
 20
7522.2655030000014
 30
0.0
 11
4625.8787579999989
 21
7522.2655030000014
 31
0.0
  0
LINE
  5
7AB9
  8
1
  6
CONTINUOUS
 10
2552.8787579999998
 20
7282.2655030000014
 30
0.0
 11
4625.8787579999989
 21
7282.2655030000014
 31
0.0
  0
LINE
  5
7ABA
  8
1
  6
CONTINUOUS
 10
2255.8787579999989
 20
8700.2655030000024
 30
0.0
 11
3605.8787579999998
 21
8700.2655030000024
 31
0.0
  0
LINE
  5
7ABB
  8
1
  6
CONTINUOUS
 10
2105.8787579999989
 20
7647.2655030000014
 30
0.0
 11
4013.3787579999989
 21
7647.2655030000014
 31
0.0
  0
LINE
  5
7ABC
  8
1
  6
CONTINUOUS
 10
2105.8787579999989
 20
8597.2655030000005
 30
0.0
 11
4013.3787579999989
 21
8597.2655030000005
 31
0.0
  0
CIRCLE
  5
7ABD
  8
1
  6
CONTINUOUS
 10
2930.8787579999998
 20
3848.4272529999998
 30
0.0
 40
675.0
  0
CIRCLE
  5
7ABE
  8
1
  6
CONTINUOUS
 10
2930.8787579999998
 20
3848.4272529999998
 30
0.0
 40
625.0
  0
LINE
  5
7ABF
  8
1
  6
CONTINUOUS
 10
2180.8787579999989
 20
3073.4272529999998
 30
0.0
 11
4730.8787579999998
 21
3073.4272529999998
 31
0.0
  0
LINE
  5
7AC0
  8
1
  6
CONTINUOUS
 10
2180.8787579999989
 20
2923.4272529999998
 30
0.0
 11
4730.8787579999998
 21
2923.4272529999998
 31
0.0
  0
POLYLINE
  5
7AC1
  8
1
  6
CONTINUOUS
 66
     1
 10
0.0
 20
0.0
 30
0.0
  0
VERTEX
  5
7DE6
  8
1
  6
CONTINUOUS
 10
2105.8787579999989
 20
5182.4272529999998
 30
0.0
  0
VERTEX
  5
7DE7
  8
1
  6
CONTINUOUS
 10
2930.8787579999998
 20
5109.4272529999989
 30
0.0
 42
-0.4
  0
VERTEX
  5
7DE8
  8
1
  6
CONTINUOUS
 10
4013.3787579999989
 20
3939.4272529999998
 30
0.0
 42
-0.4
  0
VERTEX
  5
7DE9
  8
1
  6
CONTINUOUS
 10
2939.5787579999992
 20
2951.3272529999999
 30
0.0
 42
-0.4
  0
VERTEX
  5
7DEA
  8
1
  6
CONTINUOUS
 10
2184.8787579999989
 20
3771.4272529999998
 30
0.0
  0
VERTEX
  5
7DEB
  8
1
  6
CONTINUOUS
 10
2197.8787579999989
 20
3902.4272529999998
 30
0.0
 42
-0.4
  0
SEQEND
  5
7DEC
  8
1
  6
CONTINUOUS
  0
LINE
  5
7AC9
  8
1
  6
CONTINUOUS
 10
2155.8787579999989
 20
3902.4272529999998
 30
0.0
 11
2155.8787579999989
 21
5182.4272529999998
 31
0.0
  0
LINE
  5
7ACA
  8
1
  6
CONTINUOUS
 10
2105.8787579999989
 20
3852.4272529999998
 30
0.0
 11
2105.8787579999989
 21
5238.4272529999998
 31
0.0
  0
LINE
  5
7ACB
  8
1
  6
CONTINUOUS
 10
2180.8787579999989
 20
3073.4272529999998
 30
0.0
 11
2180.8787579999989
 21
2923.4272529999998
 31
0.0
  0
LINE
  5
7ACC
  8
1
  6
CONTINUOUS
 10
2197.8787579999989
 20
3902.4272529999998
 30
0.0
 11
2105.8787579999989
 21
3902.4272529999998
 31
0.0
  0
ARC
  5
7ACD
  8
1
  6
CONTINUOUS
 10
2930.8787579999998
 20
3848.4272529999998
 30
0.0
 40
378.0
 50
62.399999999999999
 51
254.69999999999999
  0
LINE
  5
7ACE
  8
2
  6
CENTER
 10
6992.7406229999997
 20
3848.4272529999998
 30
0.0
 11
5368.3713760000001
 21
3848.4272529999998
 31
0.0
  0
CIRCLE
  5
7ACF
  8
1
  6
CONTINUOUS
 10
2930.8787579999998
 20
3848.4272529999998
 30
0.0
 40
278.0
  0
LINE
  5
7AD0
  8
2
  6
CENTER
 10
2930.8787579999998
 20
2680.7487169999999
 30
0.0
 11
2930.8787579999998
 21
5268.0274399999998
 31
0.0
  0
LINE
  5
7AD1
  8
1
  6
CONTINUOUS
 10
2652.8787579999989
 20
7395.2655029999996
 30
0.0
 11
2180.8787579999989
 21
7395.2655029999996
 31
0.0
  0
LINE
  5
7AD2
  8
1
  6
CONTINUOUS
 10
2180.8787579999989
 20
8675.2655030000024
 30
0.0
 11
2305.8787579999989
 21
8675.2655030000024
 31
0.0
  0
LINE
  5
7AD3
  8
1
  6
CONTINUOUS
 10
2180.8787579999989
 20
8597.2655030000005
 30
0.0
 11
2180.8787579999989
 21
8675.2655030000024
 31
0.0
  0
LINE
  5
7AD4
  8
1
  6
CONTINUOUS
 10
2105.8787579999989
 20
7597.2655030000014
 30
0.0
 11
2105.8787579999989
 21
8647.2655030000005
 31
0.0
  0
LINE
  5
7AD5
  8
1
  6
CONTINUOUS
 10
2155.8787579999989
 20
7647.2655030000014
 30
0.0
 11
2155.8787579999989
 21
8597.2655030000005
 31
0.0
  0
LINE
  5
7AD6
  8
1
  6
CONTINUOUS
 10
2180.8787579999989
 20
7395.2655029999996
 30
0.0
 11
2180.8787579999989
 21
7647.2655030000014
 31
0.0
  0
LINE
  5
7AD7
  8
1
  6
CONTINUOUS
 10
2305.8787579999989
 20
8597.2655030000005
 30
0.0
 11
2305.8787579999989
 21
8700.2655030000024
 31
0.0
  0
LINE
  5
7AD8
  8
1
  6
CONTINUOUS
 10
3208.8787579999998
 20
7352.2655030000014
 30
0.0
 11
2652.8787579999989
 21
7352.2655030000014
 31
0.0
  0
LINE
  5
7AD9
  8
1
  6
CONTINUOUS
 10
3208.8787579999998
 20
7452.2655030000014
 30
0.0
 11
2652.8787579999989
 21
7452.2655030000014
 31
0.0
  0
LINE
  5
7ADA
  8
1
  6
CONTINUOUS
 10
2552.8787579999998
 20
7282.2655030000014
 30
0.0
 11
2552.8787579999998
 21
7522.2655030000014
 31
0.0
  0
LINE
  5
7ADB
  8
1
  6
CONTINUOUS
 10
2652.8787579999989
 20
7352.2655030000014
 30
0.0
 11
2652.8787579999989
 21
7452.2655030000014
 31
0.0
  0
LINE
  5
7ADC
  8
1
  6
CONTINUOUS
 10
2903.3787579999998
 20
7452.2655030000014
 30
0.0
 11
2903.3787579999998
 21
7647.2655030000014
 31
0.0
  0
LINE
  5
7ADD
  8
1
  6
CONTINUOUS
 10
2958.3787579999998
 20
7452.2655030000014
 30
0.0
 11
2958.3787579999998
 21
7647.2655030000014
 31
0.0
  0
LINE
  5
7ADE
  8
1
  6
CONTINUOUS
 10
3208.8787579999998
 20
7352.2655030000014
 30
0.0
 11
3208.8787579999998
 21
7452.2655030000014
 31
0.0
  0
ARC
  5
7AED
  8
1
  6
CONTINUOUS
 10
4305.8787579999998
 20
3308.4272529999998
 30
0.0
 40
220.0
 50
254.69999999999999
 51
62.399999999999999
  0
ARC
  5
7AEE
  8
1
  6
CONTINUOUS
 10
4305.8787579999998
 20
3308.4272529999998
 30
0.0
 40
199.0
 50
320.10000000000002
 51
219.90000000000001
  0
LINE
  5
7AEF
  8
2
  6
CENTER
 10
4425.8787579999989
 20
3308.4272529999998
 30
0.0
 11
4185.8787579999998
 21
3308.4272529999998
 31
0.0
  0
CIRCLE
  5
7AF0
  8
1
  6
CONTINUOUS
 10
4305.8787579999998
 20
3308.4272529999998
 30
0.0
 40
120.0
  0
LINE
  5
7AF1
  8
1
  6
CONTINUOUS
 10
4080.8787579999989
 20
3128.4272529999998
 30
0.0
 11
4530.8787579999998
 21
3128.4272529999998
 31
0.0
  0
LINE
  5
7AF2
  8
2
  6
CENTER
 10
4305.8787579999998
 20
3188.4272529999998
 30
0.0
 11
4305.8787579999998
 21
3428.4272529999998
 31
0.0
  0
LINE
  5
7AF3
  8
1
  6
CONTINUOUS
 10
4080.8787579999989
 20
3073.4272529999998
 30
0.0
 11
4080.8787579999989
 21
3128.4272529999998
 31
0.0
  0
LINE
  5
7AF4
  8
1
  6
CONTINUOUS
 10
4143.8787579999989
 20
3128.4272529999998
 30
0.0
 11
4143.8787579999989
 21
3170.9272529999998
 31
0.0
  0
LINE
  5
7AF5
  8
1
  6
CONTINUOUS
 10
4143.8787579999989
 20
3170.9272529999998
 30
0.0
 11
4153.178758
 21
3180.8272529999999
 31
0.0
  0
LINE
  5
7AF6
  8
1
  6
CONTINUOUS
 10
4530.8787579999998
 20
3073.4272529999998
 30
0.0
 11
4530.8787579999998
 21
3128.4272529999998
 31
0.0
  0
LINE
  5
7AF7
  8
1
  6
CONTINUOUS
 10
4467.8787579999998
 20
3128.4272529999998
 30
0.0
 11
4467.8787579999998
 21
3170.9272529999998
 31
0.0
  0
LINE
  5
7AF8
  8
1
  6
CONTINUOUS
 10
4467.8787579999998
 20
3128.4272529999998
 30
0.0
 11
4407.8787579999989
 21
3128.4272529999998
 31
0.0
  0
LINE
  5
7AF9
  8
1
  6
CONTINUOUS
 10
4467.8787579999998
 20
3170.9272529999998
 30
0.0
 11
4458.5787579999987
 21
3180.8272529999999
 31
0.0
  0
LINE
  5
7AFA
  8
1
  6
CONTINUOUS
 10
4730.8787579999998
 20
3073.4272529999998
 30
0.0
 11
4730.8787579999998
 21
2923.4272529999998
 31
0.0
  0
LINE
  5
7B13
  8
1
  6
CONTINUOUS
 10
6863.362779
 20
2923.4272529999998
 30
0.0
 11
5583.362779
 21
2923.4272529999998
 31
0.0
  0
LINE
  5
7B14
  8
1
  6
CONTINUOUS
 10
6863.362779
 20
3073.4272529999998
 30
0.0
 11
5583.362779
 21
3073.4272529999998
 31
0.0
  0
LINE
  5
7B15
  8
1
  6
CONTINUOUS
 10
5835.362779
 20
5182.4272529999998
 30
0.0
 11
6785.362779
 21
5182.4272529999998
 31
0.0
  0
LINE
  5
7B16
  8
1
  6
CONTINUOUS
 10
5835.362779
 20
3902.4272529999998
 30
0.0
 11
6785.362779
 21
3902.4272529999998
 31
0.0
  0
LINE
  5
7B17
  8
1
  6
CONTINUOUS
 10
5835.362779
 20
3902.4272529999998
 30
0.0
 11
6785.362779
 21
5182.4272529999998
 31
0.0
  0
LINE
  5
7B18
  8
1
  6
CONTINUOUS
 10
5835.362779
 20
5182.4272529999998
 30
0.0
 11
6785.362779
 21
3902.4272529999998
 31
0.0
  0
LINE
  5
7B19
  8
1
  6
CONTINUOUS
 10
5835.362779
 20
3073.4272529999998
 30
0.0
 11
5835.362779
 21
5182.4272529999998
 31
0.0
  0
LINE
  5
7B1A
  8
1
  6
CONTINUOUS
 10
5640.362779
 20
3875.9272529999998
 30
0.0
 11
5835.362779
 21
3875.9272529999998
 31
0.0
  0
LINE
  5
7B1B
  8
1
  6
CONTINUOUS
 10
5640.362779
 20
3820.9272529999998
 30
0.0
 11
5835.362779
 21
3820.9272529999998
 31
0.0
  0
LINE
  5
7B1C
  8
1
  6
CONTINUOUS
 10
5640.362779
 20
3280.9272529999998
 30
0.0
 11
5835.362779
 21
3280.9272529999998
 31
0.0
  0
LINE
  5
7B1D
  8
1
  6
CONTINUOUS
 10
5640.362779
 20
3335.9272529999998
 30
0.0
 11
5835.362779
 21
3335.9272529999998
 31
0.0
  0
LINE
  5
7B1E
  8
1
  6
CONTINUOUS
 10
5470.362779
 20
3088.4272529999998
 30
0.0
 11
5470.362779
 21
4226.4272529999989
 31
0.0
  0
LINE
  5
7B1F
  8
1
  6
CONTINUOUS
 10
5710.362779
 20
3088.4272529999998
 30
0.0
 11
5710.362779
 21
4226.4272529999989
 31
0.0
  0
LINE
  5
7B20
  8
1
  6
CONTINUOUS
 10
5583.362779
 20
2923.4272529999998
 30
0.0
 11
5583.362779
 21
3073.4272529999998
 31
0.0
  0
LINE
  5
7B21
  8
1
  6
CONTINUOUS
 10
5540.362779
 20
3188.4272529999998
 30
0.0
 11
5640.362779
 21
3188.4272529999998
 31
0.0
  0
LINE
  5
7B22
  8
1
  6
CONTINUOUS
 10
5540.362779
 20
3428.4272529999998
 30
0.0
 11
5640.362779
 21
3428.4272529999998
 31
0.0
  0
LINE
  5
7B23
  8
1
  6
CONTINUOUS
 10
5470.362779
 20
3088.4272529999998
 30
0.0
 11
5710.362779
 21
3088.4272529999998
 31
0.0
  0
LINE
  5
7B24
  8
1
  6
CONTINUOUS
 10
5640.362779
 20
3188.4272529999998
 30
0.0
 11
5640.362779
 21
3428.4272529999998
 31
0.0
  0
LINE
  5
7B25
  8
1
  6
CONTINUOUS
 10
5540.362779
 20
3188.4272529999998
 30
0.0
 11
5540.362779
 21
3428.4272529999998
 31
0.0
  0
LINE
  5
7B26
  8
1
  6
CONTINUOUS
 10
5540.362779
 20
4126.4272529999998
 30
0.0
 11
5640.362779
 21
4126.4272529999998
 31
0.0
  0
LINE
  5
7B27
  8
1
  6
CONTINUOUS
 10
5540.362779
 20
3570.4272529999998
 30
0.0
 11
5640.362779
 21
3570.4272529999998
 31
0.0
  0
LINE
  5
7B28
  8
1
  6
CONTINUOUS
 10
5470.362779
 20
4226.4272529999989
 30
0.0
 11
5710.362779
 21
4226.4272529999989
 31
0.0
  0
LINE
  5
7B29
  8
1
  6
CONTINUOUS
 10
5540.362779
 20
3570.4272529999998
 30
0.0
 11
5540.362779
 21
4126.4272529999998
 31
0.0
  0
LINE
  5
7B2A
  8
1
  6
CONTINUOUS
 10
5640.362779
 20
3570.4272529999998
 30
0.0
 11
5640.362779
 21
4126.4272529999998
 31
0.0
  0
LINE
  5
7B2B
  8
1
  6
CONTINUOUS
 10
6785.362779
 20
3073.4272529999998
 30
0.0
 11
6785.362779
 21
5182.4272529999998
 31
0.0
  0
LINE
  5
7B2C
  8
1
  6
CONTINUOUS
 10
6888.362779000001
 20
3173.4272529999998
 30
0.0
 11
6888.362779000001
 21
4523.4272529999998
 31
0.0
  0
LINE
  5
7B2D
  8
1
  6
CONTINUOUS
 10
6863.362779
 20
2923.4272529999998
 30
0.0
 11
6863.362779
 21
3073.4272529999998
 31
0.0
  0
LINE
  5
7B2E
  8
1
  6
CONTINUOUS
 10
6785.362779
 20
3223.4272529999998
 30
0.0
 11
6888.362779000001
 21
3223.4272529999998
 31
0.0
  0
LINE
  5
7B2F
  8
1
  6
CONTINUOUS
 10
6785.362779
 20
4473.4272529999989
 30
0.0
 11
6888.362779000001
 21
4473.4272529999989
 31
0.0
  0
LINE
  5
7B36
  8
1
  6
CONTINUOUS
 10
3555.8787579999998
 20
8597.2655030000005
 30
0.0
 11
3555.8787579999998
 21
8700.2655030000024
 31
0.0
  0
LINE
  5
7B37
  8
1
  6
CONTINUOUS
 10
4730.8787579999998
 20
8675.2655030000024
 30
0.0
 11
4730.8787579999998
 21
7395.2655029999996
 31
0.0
  0
LINE
  5
7B38
  8
1
  6
CONTINUOUS
 10
4013.3787579999989
 20
7647.2655030000014
 30
0.0
 11
4013.3787579999989
 21
8597.2655030000005
 31
0.0
  0
LINE
  5
7B39
  8
1
  6
CONTINUOUS
 10
4504.9787580000002
 20
7566.7655029999996
 30
0.0
 11
4504.9787580000002
 21
8166.2655030000014
 31
0.0
  0
LINE
  5
7B3A
  8
1
  6
CONTINUOUS
 10
4106.7787579999986
 20
7566.7655029999996
 30
0.0
 11
4106.7787579999986
 21
8166.2655030000014
 31
0.0
  0
LINE
  5
7B3B
  8
1
  6
CONTINUOUS
 10
4425.8787579999989
 20
7352.2655030000014
 30
0.0
 11
4185.8787579999998
 21
7352.2655030000014
 31
0.0
  0
LINE
  5
7B3C
  8
1
  6
CONTINUOUS
 10
4425.8787579999989
 20
7452.2655030000014
 30
0.0
 11
4185.8787579999998
 21
7452.2655030000014
 31
0.0
  0
LINE
  5
7B3D
  8
1
  6
CONTINUOUS
 10
4504.9787580000002
 20
7566.7655029999996
 30
0.0
 11
4106.7787579999986
 21
7566.7655029999996
 31
0.0
  0
LINE
  5
7B3E
  8
1
  6
CONTINUOUS
 10
4185.8787579999998
 20
7352.2655030000014
 30
0.0
 11
4185.8787579999998
 21
7452.2655030000014
 31
0.0
  0
LINE
  5
7B3F
  8
1
  6
CONTINUOUS
 10
4333.3787579999998
 20
7452.2655030000014
 30
0.0
 11
4333.3787579999998
 21
7566.7655029999996
 31
0.0
  0
LINE
  5
7B40
  8
1
  6
CONTINUOUS
 10
4278.3787579999998
 20
7452.2655030000014
 30
0.0
 11
4278.3787579999998
 21
7566.7655029999996
 31
0.0
  0
LINE
  5
7B41
  8
1
  6
CONTINUOUS
 10
4625.8787579999989
 20
7282.2655030000014
 30
0.0
 11
4625.8787579999989
 21
7522.2655030000014
 31
0.0
  0
LINE
  5
7B42
  8
1
  6
CONTINUOUS
 10
4425.8787579999989
 20
7352.2655030000014
 30
0.0
 11
4425.8787579999989
 21
7452.2655030000014
 31
0.0
  0
LINE
  5
7B43
  8
1
  6
CONTINUOUS
 10
4730.8787579999998
 20
7395.2655029999996
 30
0.0
 11
4425.8787579999989
 21
7395.2655029999996
 31
0.0
  0
LINE
  5
7B44
  8
1
  6
CONTINUOUS
 10
4504.9787580000002
 20
8166.2655030000014
 30
0.0
 11
4106.7787579999986
 21
8166.2655030000014
 31
0.0
  0
LINE
  5
7B45
  8
1
  6
CONTINUOUS
 10
3555.8787579999998
 20
8675.2655030000024
 30
0.0
 11
4730.8787579999998
 21
8675.2655030000024
 31
0.0
  0
LINE
  5
7B64
  8
2
  6
CENTER
 10
4833.1254590000008
 20
8122.2655030000014
 30
0.0
 11
1940.1041640000001
 21
8122.2655030000014
 31
0.0
  0
LINE
  5
7B65
  8
2
  6
CENTER
 10
6310.362779
 20
5408.5862010000001
 30
0.0
 11
6310.362779
 21
2750.4264669999998
 31
0.0
  0
LINE
  5
7B66
  8
2
  6
CENTER
 10
2930.8787579999998
 20
7106.3428489999988
 30
0.0
 11
2930.8787579999998
 21
8847.8412700000008
 31
0.0
  0
LINE
  5
7B67
  8
2
  6
CENTER
 10
4250.8699130000005
 20
3848.4272529999998
 30
0.0
 11
1971.0134489999989
 21
3848.4272529999998
 31
0.0
  0
LINE
  5
7B68
  8
4
  6
CONTINUOUS
 10
7400.0
 20
2000.0
 30
0.0
 11
7400.0
 21
1200.0
 31
0.0
  0
LINE
  5
7B69
  8
4
  6
CONTINUOUS
 10
4600.0
 20
2000.0
 30
0.0
 11
4600.0
 21
1200.0
 31
0.0
  0
LINE
  5
7B6A
  8
4
  6
CONTINUOUS
 10
2600.0
 20
2000.0
 30
0.0
 11
2600.0
 21
1200.0
 31
0.0
  0
LINE
  5
7B6D
  8
4
  6
CONTINUOUS
 10
2600.0
 20
1200.0
 30
0.0
 11
7400.0
 21
1200.0
 31
0.0
  0
LINE
  5
7B6E
  8
4
  6
CONTINUOUS
 10
2600.0
 20
1600.0
 30
0.0
 11
7400.0
 21
1600.0
 31
0.0
  0
TEXT
  5
7B6F
  8
4
  6
CONTINUOUS
 10
2754.008323
 20
1726.1721030000001
 30
0.0
 40
200.0
  1
機器名称
  0
TEXT
  5
7B70
  8
4
  6
CONTINUOUS
 10
2745.032424
 20
1286.580627
 30
0.0
 40
200.0
  1
機器型番
  0
TEXT
  5
7B71
  8
4
  6
CONTINUOUS
 10
4710.7149820000004
 20
1690.2870760000001
 30
0.0
 40
200.0
  1
ミツヤ多翼送風機
  0
TEXT
  5
7B72
  8
4
  6
CONTINUOUS
 10
4746.6179819999998
 20
1268.6383370000001
 30
0.0
 40
200.0
  1
MFE#8-4
  0
TEXT
  5
7B74
  8
4
  6
CONTINUOUS
 10
3619.1430620000001
 20
9533.715365
 30
0.0
 40
216.0
  1
床置ベット
  0
TEXT
  5
7B75
  8
4
  6
CONTINUOUS
 10
1264.6703729999999
 20
10135.523905
 30
0.0
 40
288.0
  1
ベルト駆動式片吸込両持排煙ファン
  0
LINE
  5
7B76
  8
4
  6
CONTINUOUS
 10
1000.0
 20
9877.6350170000005
 30
0.0
 11
7400.0
 21
9877.6350170000005
 31
0.0
  0
LINE
  5
7B77
  8
4
  6
CONTINUOUS
 10
1000.0
 20
10677.635017000001
 30
0.0
 11
7400.0
 21
10677.635017000001
 31
0.0
  0
LINE
  5
7B78
  8
4
  6
CONTINUOUS
 10
2600.0
 20
2000.0
 30
0.0
 11
7400.0
 21
2000.0
 31
0.0
  0
LINE
  5
7B79
  8
4
  6
CONTINUOUS
 10
1000.0
 20
10677.635017000001
 30
0.0
 11
1000.0
 21
9877.6350170000005
 31
0.0
  0
TEXT
  5
7B7A
  8
4
  6
CONTINUOUS
 10
1683.620314
 20
9529.2779099999989
 30
0.0
 40
216.0
  1
左回転左横向
  0
TEXT
  5
7B7B
  8
4
  6
CONTINUOUS
 10
5875.8782369999999
 20
10824.244326
 30
0.0
 40
224.0
  1
No.
  0
TEXT
  5
7B7C
  8
4
  6
CONTINUOUS
 10
5245.1842500000012
 20
9533.715365
 30
0.0
 40
216.0
  1
縮尺：1/40
  0
LINE
  5
7B7D
  8
4
  6
CONTINUOUS
 10
7400.0
 20
10677.635017000001
 30
0.0
 11
7400.0
 21
9877.6350170000005
 31
0.0
  0
LINE
  5
7B7F
  8
4
  6
CONTINUOUS
 10
5762.4696889999996
 20
10725.054333
 30
0.0
 11
5762.4696889999996
 21
11146.609046
 31
0.0
  0
LINE
  5
7B80
  8
4
  6
CONTINUOUS
 10
5762.4696889999996
 20
11146.609046
 30
0.0
 11
7400.0
 21
11146.609046
 31
0.0
  0
LINE
  5
7B81
  8
4
  6
CONTINUOUS
 10
7400.0
 20
11146.609046
 30
0.0
 11
7400.0
 21
10725.054333
 31
0.0
  0
LINE
  5
7B82
  8
4
  6
CONTINUOUS
 10
7400.0
 20
10725.054333
 30
0.0
 11
5762.4696889999996
 21
10725.054333
 31
0.0
  0
DIMENSION
  5
7B9A
  8
3
  6
CONTINUOUS
  2
*D1
 10
1832.472
 20
3902.4272529999998
 30
0.0
 11
1832.472
 21
4497.9150289999998
 31
0.0
 70
   128
 13
2105.8787579999989
 23
5182.4272529999998
 33
0.0
 14
2105.8787579999989
 24
3902.4272529999998
 34
0.0
 50
90.0
1001
ACAD
1000
DSTYLE
1002
{
1070
   287
1070
     3
1070
   287
1070
     3
1070
    40
1040
40.0
1070
   143
1040
0.039
1070
   172
1070
     1
1070
   271
1070
     0
1070
   279
1070
     0
1070
   288
1070
     1
1002
}
  0
DIMENSION
  5
7BA7
  8
3
  6
CONTINUOUS
  2
*D2
 10
1535.3356100000001
 20
3848.4272529999998
 30
0.0
 11
1535.335609999999
 21
4517.7122310000004
 31
0.0
 70
   128
 13
2105.8787579999989
 23
5182.4272529999998
 33
0.0
 14
1971.0134489999989
 24
3848.4272529999998
 34
0.0
 50
90.0
1001
ACAD
1000
DSTYLE
1002
{
1070
   287
1070
     3
1070
   287
1070
     3
1070
    40
1040
40.0
1070
   143
1040
0.039
1070
   172
1070
     1
1070
   271
1070
     0
1070
   279
1070
     0
1070
   288
1070
     1
1002
}
  0
DIMENSION
  5
7BC3
  8
3
  6
CONTINUOUS
  2
*D3
 10
1535.335609999999
 20
2923.4272529999998
 30
0.0
 11
1435.335609999999
 21
3385.9272529999998
 31
0.0
 70
     0
 13
1971.0134489999989
 23
3848.4272529999998
 33
0.0
 14
2180.8787579999989
 24
2923.4272529999998
 34
0.0
 50
90.0
1001
ACAD
1000
DSTYLE
1002
{
1070
   287
1070
     4
1070
   287
1070
     4
1070
    40
1040
40.0
1070
    75
1070
     1
1070
   143
1040
0.039
1070
   172
1070
     1
1070
   271
1070
     0
1070
   279
1070
     1
1070
   288
1070
     1
1002
}
  0
DIMENSION
  5
7BD0
  8
3
  6
CONTINUOUS
  2
*D4
 10
1198.5810080000001
 20
2923.4272529999998
 30
0.0
 11
1198.5810080000001
 21
4052.4780600000008
 31
0.0
 70
   128
 13
2105.8787579999989
 23
5238.4272529999998
 33
0.0
 14
2180.8787579999989
 24
2923.4272529999998
 34
0.0
 50
90.0
1001
ACAD
1000
DSTYLE
1002
{
1070
   287
1070
     3
1070
   287
1070
     3
1070
    40
1040
40.0
1070
   143
1040
0.039
1070
   172
1070
     1
1070
   271
1070
     0
1070
   279
1070
     0
1070
   288
1070
     1
1002
}
  0
DIMENSION
  5
7BDD
  8
3
  6
CONTINUOUS
  2
*D5
 10
2930.8787579999998
 20
2617.1811419999999
 30
0.0
 11
2575.312977
 21
2617.1811419999999
 31
0.0
 70
   128
 13
2180.8787579999989
 23
2923.4272529999998
 33
0.0
 14
2930.8787579999998
 24
2680.7487169999999
 34
0.0
1001
ACAD
1000
DSTYLE
1002
{
1070
   287
1070
     3
1070
   287
1070
     3
1070
    40
1040
40.0
1070
   143
1040
0.039
1070
   172
1070
     1
1070
   271
1070
     0
1070
   279
1070
     0
1070
   288
1070
     1
1002
}
  0
DIMENSION
  5
7BE9
  8
3
  6
CONTINUOUS
  2
*D6
 10
4730.8787579999998
 20
2617.1811419999999
 30
0.0
 11
3830.8787579999998
 21
2717.1811419999999
 31
0.0
 70
     0
 13
2930.8787579999998
 23
2680.7487169999999
 33
0.0
 14
4730.8787579999998
 24
2923.4272529999998
 34
0.0
1001
ACAD
1000
DSTYLE
1002
{
1070
   287
1070
     4
1070
   287
1070
     4
1070
    40
1040
40.0
1070
    75
1070
     1
1070
   143
1040
0.039
1070
   172
1070
     1
1070
   271
1070
     0
1070
   279
1070
     1
1070
   288
1070
     1
1002
}
  0
DIMENSION
  5
7BF6
  8
3
  6
CONTINUOUS
  2
*D7
 10
2930.8787579999998
 20
5418.484786
 30
0.0
 11
2515.8857079999989
 21
5418.484786
 31
0.0
 70
   128
 13
2105.8787579999989
 23
5238.4272529999998
 33
0.0
 14
2930.8787579999998
 24
5268.0274399999998
 34
0.0
1001
ACAD
1000
DSTYLE
1002
{
1070
   287
1070
     3
1070
   287
1070
     3
1070
    40
1040
40.0
1070
   143
1040
0.039
1070
   172
1070
     1
1070
   271
1070
     0
1070
   279
1070
     0
1070
   288
1070
     1
1002
}
  0
DIMENSION
  5
7C0F
  8
3
  6
CONTINUOUS
  2
*D8
 10
6785.362779
 20
5388.7889990000003
 30
0.0
 11
6329.1360210000003
 21
5388.7889990000003
 31
0.0
 70
   128
 13
5835.362779
 23
5182.4272529999998
 33
0.0
 14
6785.362779
 24
5182.4272529999998
 34
0.0
1001
ACAD
1000
DSTYLE
1002
{
1070
   287
1070
     3
1070
   287
1070
     3
1070
    40
1040
40.0
1070
   143
1040
0.039
1070
   172
1070
     1
1070
   271
1070
     0
1070
   279
1070
     0
1070
   288
1070
     1
1002
}
  0
DIMENSION
  5
7C1C
  8
3
  6
CONTINUOUS
  2
*D9
 10
7200.7360870000011
 20
3223.4272529999998
 30
0.0
 11
7200.7360870000002
 21
3834.7088680000002
 31
0.0
 70
   128
 13
6888.362779000001
 23
4473.4272529999989
 33
0.0
 14
6888.362779000001
 24
3223.4272529999998
 34
0.0
 50
90.0
1001
ACAD
1000
DSTYLE
1002
{
1070
   287
1070
     3
1070
   287
1070
     3
1070
     3
1000
φ<>
1070
    40
1040
40.0
1070
   143
1040
0.039
1070
   172
1070
     1
1070
   271
1070
     0
1070
   279
1070
     0
1070
   288
1070
     1
1002
}
  0
DIMENSION
  5
7C29
  8
3
  6
CONTINUOUS
  2
*D10
 10
6310.362779
 20
5646.1525630000006
 30
0.0
 11
6584.6484939999991
 21
5646.1525630000006
 31
0.0
 70
   128
 13
6888.362779000001
 23
4523.4272529999998
 33
0.0
 14
6310.362779
 24
5584.1772810000002
 34
0.0
1001
ACAD
1000
DSTYLE
1002
{
1070
   287
1070
     3
1070
   287
1070
     3
1070
    40
1040
40.0
1070
   143
1040
0.039
1070
   172
1070
     1
1070
   271
1070
     0
1070
   279
1070
     0
1070
   288
1070
     1
1002
}
  0
DIMENSION
  5
7C35
  8
3
  6
CONTINUOUS
  2
*D11
 10
5470.362779
 20
5646.1525630000006
 30
0.0
 11
5890.362779
 21
5846.1525629999996
 31
0.0
 70
     0
  1
MAX\P890
 13
6310.362779
 23
5584.1772810000002
 33
0.0
 14
5470.362779
 24
4226.4272529999989
 34
0.0
1001
ACAD
1000
DSTYLE
1002
{
1070
   287
1070
     4
1070
   287
1070
     4
1070
    40
1040
40.0
1070
    75
1070
     1
1070
   143
1040
0.039
1070
   172
1070
     1
1070
   271
1070
     0
1070
   279
1070
     1
1070
   288
1070
     1
1002
}
  0
DIMENSION
  5
7C42
  8
3
  6
CONTINUOUS
  2
*D12
 10
6310.362779
 20
2577.5867370000001
 30
0.0
 11
5972.5723619999999
 21
2577.5867370000001
 31
0.0
 70
   128
 13
5583.362779
 23
2923.4272529999998
 33
0.0
 14
6310.362779
 24
2750.4264669999998
 34
0.0
1001
ACAD
1000
DSTYLE
1002
{
1070
   287
1070
     3
1070
   287
1070
     3
1070
    40
1040
40.0
1070
   143
1040
0.039
1070
   172
1070
     1
1070
   271
1070
     0
1070
   279
1070
     0
1070
   288
1070
     1
1002
}
  0
DIMENSION
  5
7C4E
  8
3
  6
CONTINUOUS
  2
*D13
 10
6863.362779
 20
2577.5867370000001
 30
0.0
 11
6586.862779
 21
2677.5867370000001
 31
0.0
 70
     0
 13
6310.362779
 23
2750.4264669999998
 33
0.0
 14
6863.362779
 24
2923.4272529999998
 34
0.0
1001
ACAD
1000
DSTYLE
1002
{
1070
   287
1070
     4
1070
   287
1070
     4
1070
    40
1040
40.0
1070
    75
1070
     1
1070
   143
1040
0.039
1070
   172
1070
     1
1070
   271
1070
     0
1070
   279
1070
     1
1070
   288
1070
     1
1002
}
  0
DIMENSION
  5
7C70
  8
3
  6
CONTINUOUS
  2
*D14
 10
4730.8787579999998
 20
6977.7641739999999
 30
0.0
 11
3367.6766689999999
 21
6977.7641739999999
 31
0.0
 70
   128
 13
2180.8787579999989
 23
7395.2655029999996
 33
0.0
 14
4730.8787579999998
 24
7395.2655029999996
 34
0.0
1001
ACAD
1000
DSTYLE
1002
{
1070
   287
1070
     3
1070
   287
1070
     3
1070
    40
1040
40.0
1070
   143
1040
0.039
1070
   172
1070
     1
1070
   271
1070
     0
1070
   279
1070
     0
1070
   288
1070
     1
1002
}
  0
DIMENSION
  5
7C7D
  8
3
  6
CONTINUOUS
  2
*D15
 10
5084.7589017681967
 20
7395.2655029999996
 30
0.0
 11
5084.7589017681958
 21
7967.6241229999996
 31
0.0
 70
   128
 13
4730.8787579999998
 23
8675.2655030000024
 33
0.0
 14
4730.8787579999998
 24
7395.2655029999996
 34
0.0
 50
90.0
1001
ACAD
1000
DSTYLE
1002
{
1070
   287
1070
     3
1070
   287
1070
     3
1070
    40
1040
40.0
1070
   143
1040
0.039
1070
   172
1070
     1
1070
   271
1070
     0
1070
   279
1070
     0
1070
   288
1070
     1
1002
}
  0
DIMENSION
  5
7C93
  8
3
  6
CONTINUOUS
  2
*D16
 10
4009.8787579999998
 20
5418.484786
 30
0.0
 11
3470.3787579999989
 21
5518.484786
 31
0.0
 70
     0
 13
2930.8787579999998
 23
5268.0274399999998
 33
0.0
 14
4009.8787579999998
 24
3848.4272529999998
 34
0.0
1001
ACAD
1000
DSTYLE
1002
{
1070
   287
1070
     4
1070
   287
1070
     4
1070
    40
1040
40.0
1070
    75
1070
     1
1070
   143
1040
0.039
1070
   172
1070
     1
1070
   271
1070
     0
1070
   279
1070
     1
1070
   288
1070
     1
1002
}
  0
DIMENSION
  5
7CE6
  8
3
  2
*D17
 10
4730.8787579999998
 20
5708.0068586747029
 30
0.0
 11
3338.5900843360869
 21
5708.0068586747029
 31
0.0
 70
   128
 13
2105.8787579999989
 23
5238.4272529999998
 33
0.0
 14
4730.8787579999998
 24
3073.4272529999998
 34
0.0
1001
ACAD
1000
DSTYLE
1002
{
1070
   287
1070
     3
1070
   287
1070
     3
1070
    40
1040
40.0
1070
   143
1040
0.039
1070
   172
1070
     1
1070
   271
1070
     0
1070
   279
1070
     0
1070
   288
1070
     1
1002
}
  0
ENDSEC
  0
EOF
