  0
SECTION
  2
HEADER
  9
$ACADVER
  1
AC1009
  9
$INSBASE
 10
0.0
 20
0.0
 30
0.0
  9
$EXTMIN
 10
1000.0
 20
1200.0
 30
0.0
  9
$EXTMAX
 10
7400.0
 20
11146.609046
 30
0.0
  9
$LIMMIN
 10
0.0
 20
0.0
  9
$LIMMAX
 10
297.0
 20
210.0
  9
$ORTHOMODE
 70
     0
  9
$REGENMODE
 70
     1
  9
$FILLMODE
 70
     0
  9
$QTEXTMODE
 70
     0
  9
$MIRRTEXT
 70
     1
  9
$DRAGMODE
 70
     2
  9
$LTSCALE
 40
100.0
  9
$OSMODE
 70
    37
  9
$ATTMODE
 70
     1
  9
$TEXTSIZE
 40
180.0
  9
$TRACEWID
 40
0.05
  9
$TEXTSTYLE
  7
STANDARD
  9
$CLAYER
  8
3
  9
$CELTYPE
  6
BYLAYER
  9
$CECOLOR
 62
   256
  9
$DIMSCALE
 40
40.0
  9
$DIMASZ
 40
2.0
  9
$DIMEXO
 40
0.5
  9
$DIMDLI
 40
10.0
  9
$DIMRND
 40
0.0
  9
$DIMDLE
 40
0.0
  9
$DIMEXE
 40
1.0
  9
$DIMTP
 40
1.0
  9
$DIMTM
 40
1.0
  9
$DIMTXT
 40
3.0
  9
$DIMCEN
 40
0.0
  9
$DIMTSZ
 40
0.0
  9
$DIMTOL
 70
     0
  9
$DIMLIM
 70
     0
  9
$DIMTIH
 70
     0
  9
$DIMTOH
 70
     0
  9
$DIMSE1
 70
     0
  9
$DIMSE2
 70
     0
  9
$DIMTAD
 70
     1
  9
$DIMZIN
 70
     8
  9
$DIMBLK
  1

  9
$DIMASO
 70
     1
  9
$DIMSHO
 70
     1
  9
$DIMPOST
  1

  9
$DIMAPOST
  1

  9
$DIMALT
 70
     0
  9
$DIMALTD
 70
     2
  9
$DIMALTF
 40
0.039
  9
$DIMLFAC
 40
1.0
  9
$DIMTOFL
 70
     1
  9
$DIMTVP
 40
0.0
  9
$DIMTIX
 70
     0
  9
$DIMSOXD
 70
     0
  9
$DIMSAH
 70
     1
  9
$DIMBLK1
  1
OPEN
  9
$DIMBLK2
  1
OPEN
  9
$DIMSTYLE
  2
IGA
  9
$DIMCLRD
 70
     0
  9
$DIMCLRE
 70
     0
  9
$DIMCLRT
 70
     0
  9
$DIMTFAC
 40
10.0
  9
$DIMGAP
 40
1.0
  9
$LUNITS
 70
     2
  9
$LUPREC
 70
     3
  9
$SKETCHINC
 40
0.1
  9
$FILLETRAD
 40
50.0
  9
$AUNITS
 70
     0
  9
$AUPREC
 70
     0
  9
$MENU
  1
acad
  9
$ELEVATION
 40
0.0
  9
$PELEVATION
 40
0.0
  9
$THICKNESS
 40
0.0
  9
$LIMCHECK
 70
     0
  9
$BLIPMODE
 70
     0
  9
$CHAMFERA
 40
0.5
  9
$CHAMFERB
 40
0.5
  9
$SKPOLY
 70
     0
  9
$TDCREATE
 40
2450757.4292490729
  9
$TDUPDATE
 40
2454953.8442319562
  9
$TDINDWG
 40
0.0168795949
  9
$TDUSRTIMER
 40
0.0168795949
  9
$USRTIMER
 70
     1
  9
$ANGBASE
 50
0.0
  9
$ANGDIR
 70
     0
  9
$PDMODE
 70
     0
  9
$PDSIZE
 40
0.0
  9
$PLINEWID
 40
0.0
  9
$COORDS
 70
     1
  9
$SPLFRAME
 70
     0
  9
$SPLINETYPE
 70
     6
  9
$SPLINESEGS
 70
     8
  9
$ATTDIA
 70
     0
  9
$ATTREQ
 70
     1
  9
$HANDLING
 70
 10241
  9
$HANDSEED
  5
8005
  9
$SURFTAB1
 70
     6
  9
$SURFTAB2
 70
     6
  9
$SURFTYPE
 70
     6
  9
$SURFU
 70
     6
  9
$SURFV
 70
     6
  9
$UCSNAME
  2

  9
$UCSORG
 10
0.0
 20
0.0
 30
0.0
  9
$UCSXDIR
 10
1.0
 20
0.0
 30
0.0
  9
$UCSYDIR
 10
0.0
 20
1.0
 30
0.0
  9
$PUCSNAME
  2

  9
$PUCSORG
 10
0.0
 20
0.0
 30
0.0
  9
$PUCSXDIR
 10
1.0
 20
0.0
 30
0.0
  9
$PUCSYDIR
 10
0.0
 20
1.0
 30
0.0
  9
$USERI1
 70
     0
  9
$USERI2
 70
     0
  9
$USERI3
 70
     0
  9
$USERI4
 70
     0
  9
$USERI5
 70
     0
  9
$USERR1
 40
0.0
  9
$USERR2
 40
0.0
  9
$USERR3
 40
0.0
  9
$USERR4
 40
0.0
  9
$USERR5
 40
0.0
  9
$WORLDVIEW
 70
     1
  9
$SHADEDGE
 70
     3
  9
$SHADEDIF
 70
    70
  9
$TILEMODE
 70
     1
  9
$MAXACTVP
 70
    16
  9
$PLIMCHECK
 70
     0
  9
$PEXTMIN
 10
1.0000000000000000E+020
 20
1.0000000000000000E+020
 30
1.0000000000000000E+020
  9
$PEXTMAX
 10
-1.0000000000000000E+020
 20
-1.0000000000000000E+020
 30
-1.0000000000000000E+020
  9
$PLIMMIN
 10
0.0
 20
0.0
  9
$PLIMMAX
 10
12.0
 20
9.0
  9
$UNITMODE
 70
     0
  9
$VISRETAIN
 70
     0
  9
$PLINEGEN
 70
     0
  9
$PSLTSCALE
 70
     1
  0
ENDSEC
  0
SECTION
  2
TABLES
  0
TABLE
  2
VPORT
 70
     2
  0
VPORT
  2
*ACTIVE
 70
     0
 10
0.0
 20
0.0
 11
1.0
 21
1.0
 12
10742.30677770285
 22
6902.5917255174154
 13
0.0
 23
0.0
 14
10.0
 24
10.0
 15
10.0
 25
10.0
 16
0.0
 26
0.0
 36
1.0
 17
0.0
 27
0.0
 37
0.0
 40
14046.829360524451
 41
1.5051150895140659
 42
50.0
 43
0.0
 44
0.0
 50
0.0
 51
0.0
 71
     0
 72
   100
 73
     1
 74
     0
 75
     0
 76
     0
 77
     0
 78
     0
  0
ENDTAB
  0
TABLE
  2
LTYPE
 70
     2
  0
LTYPE
  2
CONTINUOUS
 70
     0
  3
Solid line
 72
    65
 73
     0
 40
0.0
  0
LTYPE
  2
CENTER
 70
     0
  3
____ _ ____ _ ____ _ ____ _ ____ _ ____ _ ____ 
 72
    65
 73
     4
 40
2.0
 49
1.25
 49
-0.25
 49
0.25
 49
-0.25
  0
ENDTAB
  0
TABLE
  2
LAYER
 70
     6
  0
LAYER
  2
0
 70
     0
 62
     7
  6
CONTINUOUS
  0
LAYER
  2
3
 70
     0
 62
     2
  6
CONTINUOUS
  0
LAYER
  2
2
 70
     0
 62
     3
  6
CENTER
  0
LAYER
  2
1
 70
     0
 62
     4
  6
CONTINUOUS
  0
LAYER
  2
4
 70
     0
 62
     7
  6
CONTINUOUS
  0
LAYER
  2
DEFPOINTS
 70
     0
 62
     7
  6
CONTINUOUS
  0
ENDTAB
  0
TABLE
  2
STYLE
 70
     1
  0
STYLE
  2
STANDARD
 70
     0
 40
0.0
 41
1.0
 50
0.0
 71
     0
 42
180.0
  3
simplex.shx
  4
extfont.shx
  0
ENDTAB
  0
TABLE
  2
VIEW
 70
     0
  0
ENDTAB
  0
TABLE
  2
UCS
 70
     0
  0
ENDTAB
  0
TABLE
  2
APPID
 70
     1
  0
APPID
  2
ACAD
 70
     0
  0
ENDTAB
  0
TABLE
  2
DIMSTYLE
 70
     1
  0
DIMSTYLE
  2
IGA
 70
     0
  3

  4

  5

  6
OPEN
  7
OPEN
 40
2.0
 41
2.0
 42
0.5
 43
10.0
 44
1.0
 45
0.0
 46
0.0
 47
1.0
 48
1.0
140
3.0
141
0.0
142
0.0
143
0.03937
144
1.0
145
0.0
146
10.0
147
1.0
 71
     0
 72
     0
 73
     0
 74
     0
 75
     0
 76
     0
 77
     1
 78
     8
170
     0
171
     2
172
     0
173
     1
174
     0
175
     0
176
     0
177
     0
178
     0
  0
ENDTAB
  0
ENDSEC
  0
SECTION
  2
BLOCKS
  0
BLOCK
  8
0
  2
$MODEL_SPACE
 70
     0
 10
0.0
 20
0.0
 30
0.0
  3
$MODEL_SPACE
  1

  0
ENDBLK
  5
1B
  8
0
  0
BLOCK
 67
     1
  8
0
  2
$PAPER_SPACE
 70
     0
 10
0.0
 20
0.0
 30
0.0
  3
$PAPER_SPACE
  1

  0
ENDBLK
  5
18
 67
     1
  8
0
  0
BLOCK
  8
0
  2
_OPEN
 70
     0
 10
0.0
 20
0.0
 30
0.0
  3
_OPEN
  1

  0
LINE
  5
7B8F
  8
0
  6
BYBLOCK
 62
     0
 10
-1.0
 20
0.166667
 30
0.0
 11
0.0
 21
0.0
 31
0.0
  0
LINE
  5
7B90
  8
0
  6
BYBLOCK
 62
     0
 10
0.0
 20
0.0
 30
0.0
 11
-1.0
 21
-0.166667
 31
0.0
  0
LINE
  5
7B91
  8
0
  6
BYBLOCK
 62
     0
 10
0.0
 20
0.0
 30
0.0
 11
-1.0
 21
0.0
 31
0.0
  0
ENDBLK
  5
7B92
  8
0
  0
BLOCK
  8
0
  2
*D1
 70
     1
 10
0.0
 20
0.0
 30
0.0
  3
*D1
  1

  0
LINE
  5
7F50
  8
3
  6
CONTINUOUS
 62
     0
 10
2203.3276329999999
 20
4403.5017379999999
 30
0.0
 11
1990.1418260000009
 21
4403.5017379999999
 31
0.0
  0
LINE
  5
7F51
  8
3
  6
CONTINUOUS
 62
     0
 10
2203.3276329999999
 20
3253.5017379999999
 30
0.0
 11
1990.141826
 21
3253.5017379999999
 31
0.0
  0
LINE
  5
7F52
  8
3
  6
CONTINUOUS
 62
     0
 10
2030.141826
 20
4323.5017379999999
 30
0.0
 11
2030.141826
 21
3333.501737999999
 31
0.0
  0
INSERT
  5
7F53
  8
3
  6
CONTINUOUS
 62
     0
  2
_OPEN
 10
2030.141826
 20
4403.5017379999999
 30
0.0
 41
80.0
 42
80.0
 43
80.0
 50
90.0
  0
INSERT
  5
7F54
  8
3
  6
CONTINUOUS
 62
     0
  2
_OPEN
 10
2030.141826
 20
3253.5017379999999
 30
0.0
 41
80.0
 42
80.0
 43
80.0
 50
270.0
  0
TEXT
  8
3
  40
120
  5
7FF2
  62
0
  72
0
  71
0
 10
1690.14
 20
3640.31
 30
0.000000
  1
1150
  0
POINT
  5
7F56
  8
DEFPOINTS
  6
CONTINUOUS
 62
     0
 10
2223.327632999999
 20
4403.5017379999999
 30
0.0
  0
POINT
  5
7F57
  8
DEFPOINTS
  6
CONTINUOUS
 62
     0
 10
2223.327632999999
 20
3253.5017379999999
 30
0.0
  0
POINT
  5
7F58
  8
DEFPOINTS
  6
CONTINUOUS
 62
     0
 10
2030.141826
 20
3253.5017379999999
 30
0.0
  0
ENDBLK
  5
7B9F
  8
0
  0
BLOCK
  8
0
  2
*D2
 70
     1
 10
0.0
 20
0.0
 30
0.0
  3
*D2
  1

  0
LINE
  5
7F59
  8
3
  6
CONTINUOUS
 62
     0
 10
2094.8312219999989
 20
4451.5017379999999
 30
0.0
 11
1766.8779350000009
 21
4451.5017380000008
 31
0.0
  0
LINE
  5
7F5A
  8
3
  6
CONTINUOUS
 62
     0
 10
2203.3276329999999
 20
3253.5017379999999
 30
0.0
 11
1766.8779350000009
 21
3253.5017379999999
 31
0.0
  0
LINE
  5
7F5B
  8
3
  6
CONTINUOUS
 62
     0
 10
1806.8779350000009
 20
4371.5017379999999
 30
0.0
 11
1806.877935
 21
3333.501737999999
 31
0.0
  0
INSERT
  5
7F5C
  8
3
  6
CONTINUOUS
 62
     0
  2
_OPEN
 10
1806.8779350000009
 20
4451.5017380000008
 30
0.0
 41
80.0
 42
80.0
 43
80.0
 50
90.0
  0
INSERT
  5
7F5D
  8
3
  6
CONTINUOUS
 62
     0
  2
_OPEN
 10
1806.877935
 20
3253.5017379999999
 30
0.0
 41
80.0
 42
80.0
 43
80.0
 50
270.0
  0
TEXT
  8
3
  40
120
  5
7FF3
  62
0
  72
0
  71
0
 10
1466.88
 20
3640.31
 30
0.000000
  1
1198
  0
POINT
  5
7F5F
  8
DEFPOINTS
  6
CONTINUOUS
 62
     0
 10
2114.8312219999989
 20
4451.5017379999999
 30
0.0
  0
POINT
  5
7F60
  8
DEFPOINTS
  6
CONTINUOUS
 62
     0
 10
2223.327632999999
 20
3253.5017379999999
 30
0.0
  0
POINT
  5
7F61
  8
DEFPOINTS
  6
CONTINUOUS
 62
     0
 10
1806.877935
 20
3253.5017379999999
 30
0.0
  0
ENDBLK
  5
7BAC
  8
0
  0
BLOCK
  8
0
  2
*D3
 70
     1
 10
0.0
 20
0.0
 30
0.0
  3
*D3
  1

  0
LINE
  5
7F62
  8
3
  6
CONTINUOUS
 62
     0
 10
2074.8312219999989
 20
4451.5017379999999
 30
0.0
 11
1504.918439
 21
4451.5017380000008
 31
0.0
  0
LINE
  5
7F63
  8
3
  6
CONTINUOUS
 62
     0
 10
2303.327632999999
 20
3096.5017379999999
 30
0.0
 11
1504.918439
 21
3096.5017379999999
 31
0.0
  0
LINE
  5
7F64
  8
3
  6
CONTINUOUS
 62
     0
 10
1544.918439
 20
4371.5017379999999
 30
0.0
 11
1544.918439
 21
3176.5017379999999
 31
0.0
  0
INSERT
  5
7F65
  8
3
  6
CONTINUOUS
 62
     0
  2
_OPEN
 10
1544.918439
 20
4451.5017380000008
 30
0.0
 41
80.0
 42
80.0
 43
80.0
 50
90.0
  0
INSERT
  5
7F66
  8
3
  6
CONTINUOUS
 62
     0
  2
_OPEN
 10
1544.918439
 20
3096.5017379999999
 30
0.0
 41
80.0
 42
80.0
 43
80.0
 50
270.0
  0
TEXT
  8
3
  40
120
  5
7FF4
  62
0
  72
0
  71
0
 10
1204.92
 20
3561.60
 30
0.000000
  1
1355
  0
POINT
  5
7F68
  8
DEFPOINTS
  6
CONTINUOUS
 62
     0
 10
2094.8312219999989
 20
4451.5017379999999
 30
0.0
  0
POINT
  5
7F69
  8
DEFPOINTS
  6
CONTINUOUS
 62
     0
 10
2323.327632999999
 20
3096.5017379999999
 30
0.0
  0
POINT
  5
7F6A
  8
DEFPOINTS
  6
CONTINUOUS
 62
     0
 10
1544.918439
 20
3096.5017379999999
 30
0.0
  0
ENDBLK
  5
7D19
  8
0
  0
BLOCK
  8
0
  2
*D4
 70
     1
 10
0.0
 20
0.0
 30
0.0
  3
*D4
  1

  0
LINE
  5
7F6B
  8
3
  6
CONTINUOUS
 62
     0
 10
2323.327632999999
 20
2896.501737999999
 30
0.0
 11
2323.327632999999
 21
2586.1832219999992
 31
0.0
  0
LINE
  5
7F6C
  8
3
  6
CONTINUOUS
 62
     0
 10
2983.3276329999999
 20
2743.960141
 30
0.0
 11
2983.3276329999999
 21
2586.1832219999992
 31
0.0
  0
LINE
  5
7F6D
  8
3
  6
CONTINUOUS
 62
     0
 10
2403.327632999999
 20
2626.1832219999992
 30
0.0
 11
2903.327632999999
 21
2626.1832219999992
 31
0.0
  0
INSERT
  5
7F6E
  8
3
  6
CONTINUOUS
 62
     0
  2
_OPEN
 10
2323.327632999999
 20
2626.1832219999992
 30
0.0
 41
80.0
 42
80.0
 43
80.0
 50
180.0
  0
INSERT
  5
7F6F
  8
3
  6
CONTINUOUS
 62
     0
  2
_OPEN
 10
2983.3276329999999
 20
2626.1832219999992
 30
0.0
 41
80.0
 42
80.0
 43
80.0
  0
TEXT
  8
3
  40
120
  5
7FF5
  62
0
  72
0
  71
0
 10
2428.68
 20
2513.78
 30
0.000000
  1
660
  0
POINT
  5
7F71
  8
DEFPOINTS
  6
CONTINUOUS
 62
     0
 10
2323.327632999999
 20
2916.5017379999999
 30
0.0
  0
POINT
  5
7F72
  8
DEFPOINTS
  6
CONTINUOUS
 62
     0
 10
2983.3276329999999
 20
2763.960141
 30
0.0
  0
POINT
  5
7F73
  8
DEFPOINTS
  6
CONTINUOUS
 62
     0
 10
2983.3276329999999
 20
2626.1832219999992
 30
0.0
  0
ENDBLK
  5
7BEF
  8
0
  0
BLOCK
  8
0
  2
*D5
 70
     1
 10
0.0
 20
0.0
 30
0.0
  3
*D5
  1

  0
LINE
  5
7F74
  8
3
  6
CONTINUOUS
 62
     0
 10
4683.3276329999999
 20
2896.501737999999
 30
0.0
 11
4683.3276329999999
 21
2586.1832219999992
 31
0.0
  0
LINE
  5
7F75
  8
3
  6
CONTINUOUS
 62
     0
 10
3063.3276329999999
 20
2626.1832219999992
 30
0.0
 11
4603.3276329999999
 21
2626.1832219999992
 31
0.0
  0
INSERT
  5
7F76
  8
3
  6
CONTINUOUS
 62
     0
  2
_OPEN
 10
2983.3276329999999
 20
2626.1832219999992
 30
0.0
 41
80.0
 42
80.0
 43
80.0
 50
180.0
  0
INSERT
  5
7F77
  8
3
  6
CONTINUOUS
 62
     0
  2
_OPEN
 10
4683.3276329999999
 20
2626.1832219999992
 30
0.0
 41
80.0
 42
80.0
 43
80.0
  0
TEXT
  8
3
  40
120
  5
7FF6
  62
0
  72
0
  71
0
 10
3593.33
 20
2513.78
 30
0.000000
  1
1700
  0
POINT
  5
7F79
  8
DEFPOINTS
  6
CONTINUOUS
 62
     0
 10
2983.3276329999999
 20
2763.960141
 30
0.0
  0
POINT
  5
7F7A
  8
DEFPOINTS
  6
CONTINUOUS
 62
     0
 10
4683.3276329999999
 20
2916.5017379999999
 30
0.0
  0
POINT
  5
7F7B
  8
DEFPOINTS
  6
CONTINUOUS
 62
     0
 10
4683.3276329999999
 20
2626.1832219999992
 30
0.0
  0
ENDBLK
  5
7BFB
  8
0
  0
BLOCK
  8
0
  2
*D6
 70
     1
 10
0.0
 20
0.0
 30
0.0
  3
*D6
  1

  0
LINE
  5
7F7C
  8
3
  6
CONTINUOUS
 62
     0
 10
2223.327632999999
 20
4476.5017379999999
 30
0.0
 11
2223.327632999999
 21
5558.7440070000011
 31
0.0
  0
LINE
  5
7F7D
  8
3
  6
CONTINUOUS
 62
     0
 10
2983.3276329999999
 20
5447.2023070000014
 30
0.0
 11
2983.3276329999999
 21
5558.7440070000011
 31
0.0
  0
LINE
  5
7F7E
  8
3
  6
CONTINUOUS
 62
     0
 10
2303.327632999999
 20
5518.7440070000002
 30
0.0
 11
2903.327632999999
 21
5518.7440070000002
 31
0.0
  0
INSERT
  5
7F7F
  8
3
  6
CONTINUOUS
 62
     0
  2
_OPEN
 10
2223.327632999999
 20
5518.7440070000002
 30
0.0
 41
80.0
 42
80.0
 43
80.0
 50
180.0
  0
INSERT
  5
7F80
  8
3
  6
CONTINUOUS
 62
     0
  2
_OPEN
 10
2983.3276329999999
 20
5518.7440070000002
 30
0.0
 41
80.0
 42
80.0
 43
80.0
  0
TEXT
  8
3
  40
120
  5
7FF7
  62
0
  72
0
  71
0
 10
2369.14
 20
5406.34
 30
0.000000
  1
760
  0
POINT
  5
7F82
  8
DEFPOINTS
  6
CONTINUOUS
 62
     0
 10
2223.327632999999
 20
4456.5017379999999
 30
0.0
  0
POINT
  5
7F83
  8
DEFPOINTS
  6
CONTINUOUS
 62
     0
 10
2983.3276329999999
 20
5427.2023069999996
 30
0.0
  0
POINT
  5
7F84
  8
DEFPOINTS
  6
CONTINUOUS
 62
     0
 10
2983.3276329999999
 20
5518.7440070000002
 30
0.0
  0
ENDBLK
  5
7C08
  8
0
  0
BLOCK
  8
0
  2
*D7
 70
     1
 10
0.0
 20
0.0
 30
0.0
  3
*D7
  1

  0
LINE
  5
7F85
  8
3
  6
CONTINUOUS
 62
     0
 10
6048.2978620000004
 20
5279.7017379999998
 30
0.0
 11
6048.2978620000004
 21
5479.0942969999987
 31
0.0
  0
LINE
  5
7F86
  8
3
  6
CONTINUOUS
 62
     0
 10
6898.2978620000013
 20
5279.7017379999998
 30
0.0
 11
6898.2978620000013
 21
5479.0942969999987
 31
0.0
  0
LINE
  5
7F87
  8
3
  6
CONTINUOUS
 62
     0
 10
6128.2978620000004
 20
5439.0942969999996
 30
0.0
 11
6818.2978620000004
 21
5439.0942969999996
 31
0.0
  0
INSERT
  5
7F88
  8
3
  6
CONTINUOUS
 62
     0
  2
_OPEN
 10
6048.2978620000004
 20
5439.0942969999996
 30
0.0
 41
80.0
 42
80.0
 43
80.0
 50
180.0
  0
INSERT
  5
7F89
  8
3
  6
CONTINUOUS
 62
     0
  2
_OPEN
 10
6898.2978620000013
 20
5439.0942969999996
 30
0.0
 41
80.0
 42
80.0
 43
80.0
  0
TEXT
  8
3
  40
120
  5
7FF8
  62
0
  72
0
  71
0
 10
6240.07
 20
5326.69
 30
0.000000
  1
850
  0
POINT
  5
7F8B
  8
DEFPOINTS
  6
CONTINUOUS
 62
     0
 10
6048.2978620000004
 20
5259.7017380000007
 30
0.0
  0
POINT
  5
7F8C
  8
DEFPOINTS
  6
CONTINUOUS
 62
     0
 10
6898.2978620000013
 20
5259.7017380000007
 30
0.0
  0
POINT
  5
7F8D
  8
DEFPOINTS
  6
CONTINUOUS
 62
     0
 10
6898.2978620000013
 20
5439.0942969999996
 30
0.0
  0
ENDBLK
  5
7C21
  8
0
  0
BLOCK
  8
0
  2
*D8
 70
     1
 10
0.0
 20
0.0
 30
0.0
  3
*D8
  1

  0
LINE
  5
7F8E
  8
3
  6
CONTINUOUS
 62
     0
 10
7021.2978620000004
 20
5011.501737999999
 30
0.0
 11
7359.4480480000011
 21
5011.501737999999
 31
0.0
  0
LINE
  5
7F8F
  8
3
  6
CONTINUOUS
 62
     0
 10
7021.2978620000004
 20
3891.5017379999999
 30
0.0
 11
7359.4480480000011
 21
3891.5017379999999
 31
0.0
  0
LINE
  5
7F90
  8
3
  6
CONTINUOUS
 62
     0
 10
7319.4480480000011
 20
4931.5017379999999
 30
0.0
 11
7319.4480480000011
 21
3971.5017379999999
 31
0.0
  0
INSERT
  5
7F91
  8
3
  6
CONTINUOUS
 62
     0
  2
_OPEN
 10
7319.4480480000011
 20
5011.501737999999
 30
0.0
 41
80.0
 42
80.0
 43
80.0
 50
90.0
  0
INSERT
  5
7F92
  8
3
  6
CONTINUOUS
 62
     0
  2
_OPEN
 10
7319.4480480000011
 20
3891.5017379999999
 30
0.0
 41
80.0
 42
80.0
 43
80.0
 50
270.0
  0
TEXT
  8
3
  40
120
  5
7FF9
  62
0
  72
0
  71
0
 10
6979.45
 20
4239.79
 30
0.000000
  1
φ1120
  0
POINT
  5
7F94
  8
DEFPOINTS
  6
CONTINUOUS
 62
     0
 10
7001.2978620000004
 20
5011.501737999999
 30
0.0
  0
POINT
  5
7F95
  8
DEFPOINTS
  6
CONTINUOUS
 62
     0
 10
7001.2978620000004
 20
3891.5017379999999
 30
0.0
  0
POINT
  5
7F96
  8
DEFPOINTS
  6
CONTINUOUS
 62
     0
 10
7319.4480480000011
 20
3891.5017379999999
 30
0.0
  0
ENDBLK
  5
7D7E
  8
0
  0
BLOCK
  8
0
  2
*D9
 70
     1
 10
0.0
 20
0.0
 30
0.0
  3
*D9
  1

  0
LINE
  5
7D6A
  8
0
  6
BYBLOCK
 62
     0
 10
7001.2978620000004
 20
5081.5017379999999
 30
0.0
 11
7001.2978620000004
 21
5752.8610768325898
 31
0.0
  0
LINE
  5
7D6B
  8
0
  6
BYBLOCK
 62
     0
 10
6473.2978619999994
 20
5645.8053090000003
 30
0.0
 11
6473.2978619999994
 21
5752.8610768325898
 31
0.0
  0
LINE
  5
7D6C
  8
0
  6
BYBLOCK
 62
     0
 10
6921.2978620000004
 20
5712.8610768325898
 30
0.0
 11
6553.2978619999994
 21
5712.8610768325898
 31
0.0
  0
TEXT
  5
7D6D
  8
3
 62
     0
 10
6583.0121477142848
 20
5761.8274351249956
 30
0.0
 40
120.0
  1
528
  0
INSERT
  5
7D6E
  8
0
  6
BYBLOCK
 62
     0
  2
_OPEN
 10
7001.2978620000004
 20
5712.8610768325898
 30
0.0
 41
80.0
 42
80.0
 43
80.0
  0
INSERT
  5
7D6F
  8
0
  6
BYBLOCK
 62
     0
  2
_OPEN
 10
6473.2978619999994
 20
5712.8610768325898
 30
0.0
 41
80.0
 42
80.0
 43
80.0
 50
180.0
  0
POINT
  5
7D70
  8
DEFPOINTS
  6
BYBLOCK
 62
     0
 10
7001.2978620000004
 20
5061.5017379999999
 30
0.0
  0
POINT
  5
7D71
  8
DEFPOINTS
  6
BYBLOCK
 62
     0
 10
6473.2978619999994
 20
5625.8053090000003
 30
0.0
  0
POINT
  5
7D72
  8
DEFPOINTS
  6
BYBLOCK
 62
     0
 10
6473.2978619999994
 20
5712.8610768325898
 30
0.0
  0
ENDBLK
  5
7D73
  8
0
  0
BLOCK
  8
0
  2
*D10
 70
     1
 10
0.0
 20
0.0
 30
0.0
  3
*D10
  1

  0
LINE
  5
7F97
  8
3
  6
CONTINUOUS
 62
     0
 10
5733.2978620000004
 20
4849.5017379999999
 30
0.0
 11
5733.2978620000004
 21
5752.8610768325898
 31
0.0
  0
LINE
  5
7F98
  8
3
  6
CONTINUOUS
 62
     0
 10
6393.2978619999994
 20
5712.8610768325898
 30
0.0
 11
5813.2978619999994
 21
5712.8610768325898
 31
0.0
  0
INSERT
  5
7F99
  8
3
  6
CONTINUOUS
 62
     0
  2
_OPEN
 10
6473.2978619999994
 20
5712.8610768325898
 30
0.0
 41
80.0
 42
80.0
 43
80.0
  0
INSERT
  5
7F9A
  8
3
  6
CONTINUOUS
 62
     0
  2
_OPEN
 10
5733.2978620000004
 20
5712.8610768325898
 30
0.0
 41
80.0
 42
80.0
 43
80.0
 50
180.0
  0
TEXT
  8
3
  40
120
  5
7FFA
  62
0
  72
0
  71
0
 10
5863.30
 20
5700.46
 30
0.000000
  1
MAX
  0
TEXT
  8
3
  40
120
  5
7FFB
  62
0
  72
0
  71
0
 10
5863.30
 20
5544.46
 30
0.000000
  1
850
  0
POINT
  5
7F9C
  8
DEFPOINTS
  6
CONTINUOUS
 62
     0
 10
6473.2978619999994
 20
5625.8053090000003
 30
0.0
  0
POINT
  5
7F9D
  8
DEFPOINTS
  6
CONTINUOUS
 62
     0
 10
5733.2978620000004
 20
4829.5017379999999
 30
0.0
  0
POINT
  5
7F9E
  8
DEFPOINTS
  6
CONTINUOUS
 62
     0
 10
5733.2978620000004
 20
5712.8610768325898
 30
0.0
  0
ENDBLK
  5
7D68
  8
0
  0
BLOCK
  8
0
  2
*D11
 70
     1
 10
0.0
 20
0.0
 30
0.0
  3
*D11
  1

  0
LINE
  5
7F9F
  8
3
  6
CONTINUOUS
 62
     0
 10
5786.2978619999994
 20
2896.501737999999
 30
0.0
 11
5786.2978619999994
 21
2605.545752
 31
0.0
  0
LINE
  5
7FA0
  8
3
  6
CONTINUOUS
 62
     0
 10
6473.2978619999994
 20
2760.2664519999989
 30
0.0
 11
6473.2978619999994
 21
2605.545752
 31
0.0
  0
LINE
  5
7FA1
  8
3
  6
CONTINUOUS
 62
     0
 10
5866.2978619999994
 20
2645.545752
 30
0.0
 11
6393.2978619999994
 21
2645.545752
 31
0.0
  0
INSERT
  5
7FA2
  8
3
  6
CONTINUOUS
 62
     0
  2
_OPEN
 10
5786.2978619999994
 20
2645.545752
 30
0.0
 41
80.0
 42
80.0
 43
80.0
 50
180.0
  0
INSERT
  5
7FA3
  8
3
  6
CONTINUOUS
 62
     0
  2
_OPEN
 10
6473.2978619999994
 20
2645.545752
 30
0.0
 41
80.0
 42
80.0
 43
80.0
  0
TEXT
  8
3
  40
120
  5
7FFC
  62
0
  72
0
  71
0
 10
5902.68
 20
2533.15
 30
0.000000
  1
687
  0
POINT
  5
7FA5
  8
DEFPOINTS
  6
CONTINUOUS
 62
     0
 10
5786.2978619999994
 20
2916.5017379999999
 30
0.0
  0
POINT
  5
7FA6
  8
DEFPOINTS
  6
CONTINUOUS
 62
     0
 10
6473.2978619999994
 20
2780.2664519999998
 30
0.0
  0
POINT
  5
7FA7
  8
DEFPOINTS
  6
CONTINUOUS
 62
     0
 10
6473.2978619999994
 20
2645.545752
 30
0.0
  0
ENDBLK
  5
7C56
  8
0
  0
BLOCK
  8
0
  2
*D12
 70
     1
 10
0.0
 20
0.0
 30
0.0
  3
*D12
  1

  0
LINE
  5
7FA8
  8
3
  6
CONTINUOUS
 62
     0
 10
6966.2978620000013
 20
2896.501737999999
 30
0.0
 11
6966.2978620000013
 21
2605.545752
 31
0.0
  0
LINE
  5
7FA9
  8
3
  6
CONTINUOUS
 62
     0
 10
6553.2978619999994
 20
2645.545752
 30
0.0
 11
6886.2978620000013
 21
2645.545752
 31
0.0
  0
TEXT
  8
3
  40
120
  5
7FFD
  62
0
  72
0
  71
0
 10
6481.25
 20
2532.63
 30
0.000000
  1
493
  0
INSERT
  5
7FAB
  8
3
  6
CONTINUOUS
 62
     0
  2
_OPEN
 10
6473.2978619999994
 20
2645.545752
 30
0.0
 41
80.0
 42
80.0
 43
80.0
 50
180.0
  0
INSERT
  5
7FAC
  8
3
  6
CONTINUOUS
 62
     0
  2
_OPEN
 10
6966.2978620000013
 20
2645.545752
 30
0.0
 41
80.0
 42
80.0
 43
80.0
  0
POINT
  5
7FAD
  8
DEFPOINTS
  6
CONTINUOUS
 62
     0
 10
6473.2978619999994
 20
2780.2664519999998
 30
0.0
  0
POINT
  5
7FAE
  8
DEFPOINTS
  6
CONTINUOUS
 62
     0
 10
6966.2978620000013
 20
2916.5017379999999
 30
0.0
  0
POINT
  5
7FAF
  8
DEFPOINTS
  6
CONTINUOUS
 62
     0
 10
6966.2978620000013
 20
2645.545752
 30
0.0
  0
ENDBLK
  5
7CB2
  8
0
  0
BLOCK
  8
0
  2
*D13
 70
     1
 10
0.0
 20
0.0
 30
0.0
  3
*D13
  1

  0
LINE
  5
7FB0
  8
3
  6
CONTINUOUS
 62
     0
 10
2323.327632999999
 20
7215.8891905517958
 30
0.0
 11
2323.327632999999
 21
6824.9284085517966
 31
0.0
  0
LINE
  5
7FB1
  8
3
  6
CONTINUOUS
 62
     0
 10
4683.3276329999999
 20
7215.8891905517958
 30
0.0
 11
4683.3276329999999
 21
6824.9284085517966
 31
0.0
  0
LINE
  5
7FB2
  8
3
  6
CONTINUOUS
 62
     0
 10
2403.327632999999
 20
6864.9284085517957
 30
0.0
 11
4603.3276329999999
 21
6864.9284085517957
 31
0.0
  0
INSERT
  5
7FB3
  8
3
  6
CONTINUOUS
 62
     0
  2
_OPEN
 10
2323.327632999999
 20
6864.9284085517957
 30
0.0
 41
80.0
 42
80.0
 43
80.0
 50
180.0
  0
INSERT
  5
7FB4
  8
3
  6
CONTINUOUS
 62
     0
  2
_OPEN
 10
4683.3276329999999
 20
6864.9284085517957
 30
0.0
 41
80.0
 42
80.0
 43
80.0
  0
TEXT
  8
3
  40
120
  5
7FFE
  62
0
  72
0
  71
0
 10
3183.17
 20
6752.53
 30
0.000000
  1
2360
  0
POINT
  5
7FB6
  8
DEFPOINTS
  6
CONTINUOUS
 62
     0
 10
2323.327632999999
 20
7235.8891905517958
 30
0.0
  0
POINT
  5
7FB7
  8
DEFPOINTS
  6
CONTINUOUS
 62
     0
 10
4683.3276329999999
 20
7235.8891905517958
 30
0.0
  0
POINT
  5
7FB8
  8
DEFPOINTS
  6
CONTINUOUS
 62
     0
 10
4683.3276329999999
 20
6864.9284085517957
 30
0.0
  0
ENDBLK
  5
7C71
  8
0
  0
BLOCK
  8
0
  2
*D14
 70
     1
 10
0.0
 20
0.0
 30
0.0
  3
*D14
  1

  0
LINE
  5
7FB9
  8
3
  6
CONTINUOUS
 62
     0
 10
4703.327632999999
 20
8415.8891905517958
 30
0.0
 11
5092.5418480000008
 21
8415.8891905517958
 31
0.0
  0
LINE
  5
7FBA
  8
3
  6
CONTINUOUS
 62
     0
 10
4703.327632999999
 20
7235.8891905517958
 30
0.0
 11
5092.5418480000008
 21
7235.8891905517958
 31
0.0
  0
LINE
  5
7FBB
  8
3
  6
CONTINUOUS
 62
     0
 10
5052.5418479999998
 20
8335.8891905517958
 30
0.0
 11
5052.5418479999998
 21
7315.8891905517958
 31
0.0
  0
INSERT
  5
7FBC
  8
3
  6
CONTINUOUS
 62
     0
  2
_OPEN
 10
5052.5418479999998
 20
8415.8891905517958
 30
0.0
 41
80.0
 42
80.0
 43
80.0
 50
90.0
  0
INSERT
  5
7FBD
  8
3
  6
CONTINUOUS
 62
     0
  2
_OPEN
 10
5052.5418479999998
 20
7235.8891905517958
 30
0.0
 41
80.0
 42
80.0
 43
80.0
 50
270.0
  0
TEXT
  8
3
  40
120
  5
7FFF
  62
0
  72
0
  71
0
 10
4712.54
 20
7598.32
 30
0.000000
  1
1180
  0
POINT
  5
7FBF
  8
DEFPOINTS
  6
CONTINUOUS
 62
     0
 10
4683.3276329999999
 20
8415.8891905517958
 30
0.0
  0
POINT
  5
7FC0
  8
DEFPOINTS
  6
CONTINUOUS
 62
     0
 10
4683.3276329999999
 20
7235.8891905517958
 30
0.0
  0
POINT
  5
7FC1
  8
DEFPOINTS
  6
CONTINUOUS
 62
     0
 10
5052.5418479999998
 20
7235.8891905517958
 30
0.0
  0
ENDBLK
  5
7C7E
  8
0
  0
BLOCK
  8
0
  2
*D15
 70
     1
 10
0.0
 20
0.0
 30
0.0
  3
*D15
  1

  0
LINE
  5
7FC2
  8
3
  6
CONTINUOUS
 62
     0
 10
2963.3276329999999
 20
5256.5017379999999
 30
0.0
 11
1504.918439
 21
5256.5017379999999
 31
0.0
  0
LINE
  5
7FC3
  8
3
  6
CONTINUOUS
 62
     0
 10
1544.9184389999989
 20
4531.5017380000008
 30
0.0
 11
1544.918439
 21
5176.5017380000008
 31
0.0
  0
INSERT
  5
7FC4
  8
3
  6
CONTINUOUS
 62
     0
  2
_OPEN
 10
1544.9184389999989
 20
4451.5017380000008
 30
0.0
 41
80.0
 42
80.0
 43
80.0
 50
270.0
  0
INSERT
  5
7FC5
  8
3
  6
CONTINUOUS
 62
     0
  2
_OPEN
 10
1544.918439
 20
5256.5017379999999
 30
0.0
 41
80.0
 42
80.0
 43
80.0
 50
90.0
  0
TEXT
  8
3
  40
120
  5
8000
  62
0
  72
0
  71
0
 10
1204.92
 20
4641.60
 30
0.000000
  1
805
  0
POINT
  5
7FC7
  8
DEFPOINTS
  6
CONTINUOUS
 62
     0
 10
2094.8312219999989
 20
4451.5017379999999
 30
0.0
  0
POINT
  5
7FC8
  8
DEFPOINTS
  6
CONTINUOUS
 62
     0
 10
2983.3276329999999
 20
5256.5017379999999
 30
0.0
  0
POINT
  5
7FC9
  8
DEFPOINTS
  6
CONTINUOUS
 62
     0
 10
1544.918439
 20
5256.5017379999999
 30
0.0
  0
ENDBLK
  5
7D98
  8
0
  0
BLOCK
  8
0
  2
*D16
 70
     1
 10
0.0
 20
0.0
 30
0.0
  3
*D16
  1

  0
LINE
  5
7FCA
  8
3
  6
CONTINUOUS
 62
     0
 10
2963.3276329999999
 20
5256.5017379999999
 30
0.0
 11
1130.2489858013021
 21
5256.5017379999999
 31
0.0
  0
LINE
  5
7FCB
  8
3
  6
CONTINUOUS
 62
     0
 10
2303.327632999999
 20
2916.5017379999999
 30
0.0
 11
1130.2489858013009
 21
2916.5017379999999
 31
0.0
  0
LINE
  5
7FCC
  8
3
  6
CONTINUOUS
 62
     0
 10
1170.2489858013021
 20
5176.5017380000008
 30
0.0
 11
1170.2489858013009
 21
2996.5017379999999
 31
0.0
  0
INSERT
  5
7FCD
  8
3
  6
CONTINUOUS
 62
     0
  2
_OPEN
 10
1170.2489858013021
 20
5256.5017379999999
 30
0.0
 41
80.0
 42
80.0
 43
80.0
 50
90.0
  0
INSERT
  5
7FCE
  8
3
  6
CONTINUOUS
 62
     0
  2
_OPEN
 10
1170.2489858013009
 20
2916.5017379999999
 30
0.0
 41
80.0
 42
80.0
 43
80.0
 50
270.0
  0
TEXT
  8
3
  40
120
  5
8001
  62
0
  72
0
  71
0
 10
830.249
 20
3982.05
 30
0.000000
  1
2340
  0
POINT
  5
7FD0
  8
DEFPOINTS
  6
CONTINUOUS
 62
     0
 10
2983.3276329999999
 20
5256.5017379999999
 30
0.0
  0
POINT
  5
7FD1
  8
DEFPOINTS
  6
CONTINUOUS
 62
     0
 10
2323.327632999999
 20
2916.5017379999999
 30
0.0
  0
POINT
  5
7FD2
  8
DEFPOINTS
  6
CONTINUOUS
 62
     0
 10
1170.2489858013009
 20
2916.5017379999999
 30
0.0
  0
ENDBLK
  5
7E1F
  8
0
  0
BLOCK
  8
0
  2
*D17
 70
     1
 10
0.0
 20
0.0
 30
0.0
  3
*D17
  1

  0
LINE
  5
7FD3
  8
3
  6
CONTINUOUS
 62
     0
 10
3952.3276329999999
 20
4471.501737999999
 30
0.0
 11
3952.3276329999999
 21
5558.7440070000011
 31
0.0
  0
LINE
  5
7FD4
  8
3
  6
CONTINUOUS
 62
     0
 10
3063.3276329999999
 20
5518.7440070000002
 30
0.0
 11
3872.327632999999
 21
5518.7440070000002
 31
0.0
  0
INSERT
  5
7FD5
  8
3
  6
CONTINUOUS
 62
     0
  2
_OPEN
 10
2983.3276329999999
 20
5518.7440070000002
 30
0.0
 41
80.0
 42
80.0
 43
80.0
 50
180.0
  0
INSERT
  5
7FD6
  8
3
  6
CONTINUOUS
 62
     0
  2
_OPEN
 10
3952.3276329999999
 20
5518.7440070000002
 30
0.0
 41
80.0
 42
80.0
 43
80.0
  0
TEXT
  8
3
  40
120
  5
8002
  62
0
  72
0
  71
0
 10
3227.83
 20
5406.34
 30
0.000000
  1
969
  0
POINT
  5
7FD8
  8
DEFPOINTS
  6
CONTINUOUS
 62
     0
 10
2983.3276329999999
 20
5427.2023069999996
 30
0.0
  0
POINT
  5
7FD9
  8
DEFPOINTS
  6
CONTINUOUS
 62
     0
 10
3952.3276329999999
 20
4451.5017379999999
 30
0.0
  0
POINT
  5
7FDA
  8
DEFPOINTS
  6
CONTINUOUS
 62
     0
 10
3952.3276329999999
 20
5518.7440070000002
 30
0.0
  0
ENDBLK
  5
7D31
  8
0
  0
BLOCK
  8
0
  2
*D18
 70
     1
 10
0.0
 20
0.0
 30
0.0
  3
*D18
  1

  0
LINE
  5
7FDB
  8
3
 62
     0
 10
2223.327632999999
 20
4476.5017379999999
 30
0.0
 11
2223.327632999999
 21
5810.1149542924068
 31
0.0
  0
LINE
  5
7FDC
  8
3
 62
     0
 10
4683.3276329999999
 20
3241.5017379999999
 30
0.0
 11
4683.3276329999999
 21
5810.1149542924068
 31
0.0
  0
LINE
  5
7FDD
  8
3
 62
     0
 10
2303.327632999999
 20
5770.1149542924068
 30
0.0
 11
4603.3276329999999
 21
5770.1149542924068
 31
0.0
  0
INSERT
  5
7FDE
  8
3
 62
     0
  2
_OPEN
 10
2223.327632999999
 20
5770.1149542924068
 30
0.0
 41
80.0
 42
80.0
 43
80.0
 50
180.0
  0
INSERT
  5
7FDF
  8
3
 62
     0
  2
_OPEN
 10
4683.3276329999999
 20
5770.1149542924068
 30
0.0
 41
80.0
 42
80.0
 43
80.0
  0
TEXT
  8
3
  40
120
  5
8003
  62
0
  72
0
  71
0
 10
3194.31
 20
5657.71
 30
0.000000
  1
2460
  0
POINT
  5
7FE1
  8
DEFPOINTS
 62
     0
 10
2223.327632999999
 20
4456.5017379999999
 30
0.0
  0
POINT
  5
7FE2
  8
DEFPOINTS
 62
     0
 10
4683.3276329999999
 20
3221.5017379999999
 30
0.0
  0
POINT
  5
7FE3
  8
DEFPOINTS
 62
     0
 10
4683.3276329999999
 20
5770.1149542924068
 30
0.0
  0
ENDBLK
  5
7D3D
  8
0
  0
BLOCK
  8
0
  2
*D19
 70
     1
 10
0.0
 20
0.0
 30
0.0
  3
*D19
  1

  0
LINE
  5
7E49
  8
0
  6
BYBLOCK
 62
     0
 10
2303.327632999999
 20
2981.5017379999999
 30
0.0
 11
1504.918439
 21
2981.5017379999999
 31
0.0
  0
LINE
  5
7E4A
  8
0
  6
BYBLOCK
 62
     0
 10
1544.918439
 20
3176.5017379999999
 30
0.0
 11
1544.918439
 21
3256.5017379999999
 31
0.0
  0
LINE
  5
7E4B
  8
0
  6
BYBLOCK
 62
     0
 10
1544.918439
 20
2901.5017379999999
 30
0.0
 11
1544.918439
 21
2821.5017379999999
 31
0.0
  0
TEXT
  5
7E4C
  8
3
 62
     0
 10
1424.9184389999989
 20
2960.012011632035
 30
0.0
 40
120.0
  1
(115)
 50
90.0
  0
LINE
  5
7E4D
  8
0
  6
BYBLOCK
 62
     0
 10
1544.918439
 20
3096.5017379999999
 30
0.0
 11
1544.918439
 21
2981.5017379999999
 31
0.0
  0
INSERT
  5
7E4E
  8
0
  6
BYBLOCK
 62
     0
  2
_OPEN
 10
1544.918439
 20
3096.5017379999999
 30
0.0
 41
80.0
 42
80.0
 43
80.0
 50
270.0
  0
INSERT
  5
7E4F
  8
0
  6
BYBLOCK
 62
     0
  2
_DOT
 10
1544.918439
 20
2981.5017379999999
 30
0.0
 41
80.0
 42
80.0
 43
80.0
 50
90.0
  0
POINT
  5
7E50
  8
DEFPOINTS
  6
BYBLOCK
 62
     0
 10
2323.327632999999
 20
3096.5017379999999
 30
0.0
  0
POINT
  5
7E51
  8
DEFPOINTS
  6
BYBLOCK
 62
     0
 10
2323.327632999999
 20
2981.5017379999999
 30
0.0
  0
POINT
  5
7E52
  8
DEFPOINTS
  6
BYBLOCK
 62
     0
 10
1544.918439
 20
2981.5017379999999
 30
0.0
  0
ENDBLK
  5
7E53
  8
0
  0
BLOCK
  8
0
  2
*D20
 70
     1
 10
0.0
 20
0.0
 30
0.0
  3
*D20
  1

  0
LINE
  5
7FE4
  8
3
 62
     0
 10
2303.327632999999
 20
2981.5017379999999
 30
0.0
 11
1504.918439
 21
2981.5017379999999
 31
0.0
  0
LINE
  5
7FE5
  8
3
 62
     0
 10
2303.327632999999
 20
2916.5017379999999
 30
0.0
 11
1504.918439
 21
2916.5017379999999
 31
0.0
  0
LINE
  5
7FE6
  8
3
 62
     0
 10
1544.918439
 20
3061.5017379999999
 30
0.0
 11
1544.918439
 21
3141.5017379999999
 31
0.0
  0
LINE
  5
7FE7
  8
3
 62
     0
 10
1544.918439
 20
2836.5017379999999
 30
0.0
 11
1544.9184389999989
 21
2482.2160237142848
 31
0.0
  0
LINE
  5
7FE8
  8
3
 62
     0
 10
1544.918439
 20
2981.5017379999999
 30
0.0
 11
1544.918439
 21
2916.5017379999999
 31
0.0
  0
INSERT
  5
7FE9
  8
3
 62
     0
  2
_DOT
 10
1544.918439
 20
2981.5017379999999
 30
0.0
 41
80.0
 42
80.0
 43
80.0
 50
270.0
  0
INSERT
  5
7FEA
  8
3
 62
     0
  2
_OPEN
 10
1544.918439
 20
2916.5017379999999
 30
0.0
 41
80.0
 42
80.0
 43
80.0
 50
90.0
  0
TEXT
  8
3
  40
120
  5
8004
  62
0
  72
0
  71
0
 10
1204.92
 20
2406.96
 30
0.000000
  1
65
  0
POINT
  5
7FEC
  8
DEFPOINTS
 62
     0
 10
2323.327632999999
 20
2981.5017379999999
 30
0.0
  0
POINT
  5
7FED
  8
DEFPOINTS
 62
     0
 10
2323.327632999999
 20
2916.5017379999999
 30
0.0
  0
POINT
  5
7FEE
  8
DEFPOINTS
 62
     0
 10
1544.918439
 20
2916.5017379999999
 30
0.0
  0
ENDBLK
  5
7E60
  8
0
  0
BLOCK
  8
0
  2
_DOT
 70
     0
 10
0.0
 20
0.0
 30
0.0
  3
_DOT
  1

  0
POLYLINE
  5
7E42
  8
0
  6
BYBLOCK
 62
     0
 66
     1
 10
0.0
 20
0.0
 30
0.0
 70
     1
 40
0.5
 41
0.5
  0
VERTEX
  5
7FEF
  8
0
  6
BYBLOCK
 62
     0
 10
-0.25
 20
0.0
 30
0.0
 42
1.0
  0
VERTEX
  5
7FF0
  8
0
  6
BYBLOCK
 62
     0
 10
0.25
 20
0.0
 30
0.0
 42
1.0
  0
SEQEND
  5
7FF1
  8
0
  6
BYBLOCK
 62
     0
  0
LINE
  5
7E46
  8
0
  6
BYBLOCK
 62
     0
 10
-0.5
 20
0.0
 30
0.0
 11
-1.0
 21
0.0
 31
0.0
  0
ENDBLK
  5
7E47
  8
0
  0
ENDSEC
  0
SECTION
  2
ENTITIES
  0
LINE
  5
7AB6
  8
1
  6
CONTINUOUS
 10
2323.327632999999
 20
2981.5017379999999
 30
0.0
 11
4683.3276329999999
 21
2981.5017379999999
 31
0.0
  0
LINE
  5
7AB7
  8
1
  6
CONTINUOUS
 10
2323.327632999999
 20
2916.5017379999999
 30
0.0
 11
4683.3276329999999
 21
2916.5017379999999
 31
0.0
  0
LINE
  5
7AB8
  8
1
  6
CONTINUOUS
 10
2223.327632999999
 20
3253.5017379999999
 30
0.0
 11
2983.3276329999999
 21
3318.5017379999999
 31
0.0
  0
ARC
  5
7AB9
  8
1
  6
CONTINUOUS
 10
3051.8276329999999
 20
4520.0017379999999
 30
0.0
 40
739.10000000000002
 50
95.099999999999994
 51
180.0
  0
LINE
  5
7ABA
  8
1
  6
CONTINUOUS
 10
2323.327632999999
 20
3096.5017379999999
 30
0.0
 11
4683.3276329999999
 21
3096.5017379999999
 31
0.0
  0
LINE
  5
7ABB
  8
1
  6
CONTINUOUS
 10
2323.327632999999
 20
3221.5017379999999
 30
0.0
 11
4683.3276329999999
 21
3221.5017379999999
 31
0.0
  0
CIRCLE
  5
7ABC
  8
1
  6
CONTINUOUS
 10
2983.3276329999999
 20
4451.5017379999999
 30
0.0
 40
560.0
  0
CIRCLE
  5
7ABD
  8
1
  6
CONTINUOUS
 10
2983.3276329999999
 20
4451.5017379999999
 30
0.0
 40
610.0
  0
LINE
  5
7ABE
  8
1
  6
CONTINUOUS
 10
2223.327632999999
 20
4456.5017379999999
 30
0.0
 11
2223.327632999999
 21
3200.501737999999
 31
0.0
  0
LINE
  5
7ABF
  8
1
  6
CONTINUOUS
 10
2263.327632999999
 20
4403.5017379999999
 30
0.0
 11
2263.327632999999
 21
3256.9017379999991
 31
0.0
  0
LINE
  5
7AC0
  8
1
  6
CONTINUOUS
 10
2323.327632999999
 20
2981.5017379999999
 30
0.0
 11
2323.327632999999
 21
2916.5017379999999
 31
0.0
  0
LINE
  5
7AC1
  8
1
  6
CONTINUOUS
 10
2323.327632999999
 20
3221.5017379999999
 30
0.0
 11
2323.327632999999
 21
3096.5017379999999
 31
0.0
  0
LINE
  5
7AC2
  8
1
  6
CONTINUOUS
 10
2324.1276329999992
 20
4403.5017379999999
 30
0.0
 11
2223.327632999999
 21
4403.5017379999999
 31
0.0
  0
ARC
  5
7AC3
  8
1
  6
CONTINUOUS
 10
2914.827632999999
 20
4520.0017379999999
 30
0.0
 40
602.10000000000002
 50
180.0
 51
191.1999999999999
  0
ARC
  5
7AC4
  8
1
  6
CONTINUOUS
 10
2901.3276329999999
 20
4369.5017379999999
 30
0.0
 40
1054.2
 50
274.5
 51
0.0
  0
ARC
  5
7AC5
  8
1
  6
CONTINUOUS
 10
3065.3276329999999
 20
4369.5017379999999
 30
0.0
 40
890.20000000000005
 50
0.0
 51
95.099999999999994
  0
LINE
  5
7AC6
  8
1
  6
CONTINUOUS
 10
4437.4276330000002
 20
3546.7017380000002
 30
0.0
 11
3166.5276329999988
 21
4660.6017380000003
 31
0.0
  0
LINE
  5
7AC7
  8
1
  6
CONTINUOUS
 10
4503.3276329999999
 20
3621.901738
 30
0.0
 11
3232.4276329999989
 21
4735.8017380000001
 31
0.0
  0
LINE
  5
7AC8
  8
1
  6
CONTINUOUS
 10
4246.5276329999988
 20
3267.001737999999
 30
0.0
 11
2791.227633
 21
4126.0017379999999
 31
0.0
  0
LINE
  5
7AC9
  8
1
  6
CONTINUOUS
 10
4297.3276329999999
 20
3353.2017380000002
 30
0.0
 11
2842.0276329999988
 21
4212.1017380000003
 31
0.0
  0
LINE
  5
7ACA
  8
2
  6
CENTER
 10
2983.3276329999999
 20
8568.7772965517961
 30
0.0
 11
2983.3276329999999
 21
7077.2418615517972
 31
0.0
  0
ARC
  5
7ACB
  8
1
  6
CONTINUOUS
 10
2983.3276329999999
 20
4451.5017379999999
 30
0.0
 40
378.0
 50
48.79999999999999
 51
239.5
  0
CIRCLE
  5
7ACC
  8
1
  6
CONTINUOUS
 10
2983.3276329999999
 20
4451.5017379999999
 30
0.0
 40
278.0
  0
LINE
  5
7ACD
  8
2
  6
CENTER
 10
7097.2603340000014
 20
4451.5017379999999
 30
0.0
 11
5606.0119720000012
 21
4451.5017379999999
 31
0.0
  0
LINE
  5
7ACE
  8
2
  6
CENTER
 10
4478.3276329999999
 20
3456.5017379999999
 30
0.0
 11
4238.327632999999
 21
3456.5017379999999
 31
0.0
  0
ARC
  5
7ACF
  8
1
  6
CONTINUOUS
 10
4358.3276329999999
 20
3456.5017379999999
 30
0.0
 40
220.0
 50
239.5
 51
48.79999999999999
  0
CIRCLE
  5
7AD0
  8
1
  6
CONTINUOUS
 10
4358.3276329999999
 20
3456.5017379999999
 30
0.0
 40
120.0
  0
LINE
  5
7AD1
  8
1
  6
CONTINUOUS
 10
4583.327632999999
 20
3221.5017379999999
 30
0.0
 11
4133.327632999999
 21
3221.5017379999999
 31
0.0
  0
ARC
  5
7AD2
  8
1
  6
CONTINUOUS
 10
4358.3276329999999
 20
3456.5017379999999
 30
0.0
 40
199.0
 50
320.10000000000002
 51
219.90000000000001
  0
LINE
  5
7AD3
  8
1
  6
CONTINUOUS
 10
4583.327632999999
 20
3276.5017379999999
 30
0.0
 11
4133.327632999999
 21
3276.5017379999999
 31
0.0
  0
LINE
  5
7AD4
  8
2
  6
CENTER
 10
4358.3276329999999
 20
3336.501737999999
 30
0.0
 11
4358.3276329999999
 21
3576.5017379999999
 31
0.0
  0
LINE
  5
7AD5
  8
1
  6
CONTINUOUS
 10
4133.327632999999
 20
3221.5017379999999
 30
0.0
 11
4133.327632999999
 21
3276.5017379999999
 31
0.0
  0
LINE
  5
7AD6
  8
1
  6
CONTINUOUS
 10
4196.3276329999999
 20
3319.0017379999999
 30
0.0
 11
4205.6276330000001
 21
3328.901738
 31
0.0
  0
LINE
  5
7AD7
  8
1
  6
CONTINUOUS
 10
4196.3276329999999
 20
3276.5017379999999
 30
0.0
 11
4196.3276329999999
 21
3319.0017379999999
 31
0.0
  0
LINE
  5
7AD8
  8
1
  6
CONTINUOUS
 10
4583.327632999999
 20
3221.5017379999999
 30
0.0
 11
4583.327632999999
 21
3276.5017379999999
 31
0.0
  0
LINE
  5
7AD9
  8
1
  6
CONTINUOUS
 10
4520.327632999999
 20
3319.0017379999999
 30
0.0
 11
4511.0276329999997
 21
3328.901738
 31
0.0
  0
LINE
  5
7ADA
  8
1
  6
CONTINUOUS
 10
4520.327632999999
 20
3276.5017379999999
 30
0.0
 11
4520.327632999999
 21
3319.0017379999999
 31
0.0
  0
LINE
  5
7ADB
  8
1
  6
CONTINUOUS
 10
4683.3276329999999
 20
2981.5017379999999
 30
0.0
 11
4683.3276329999999
 21
2916.5017379999999
 31
0.0
  0
LINE
  5
7ADC
  8
1
  6
CONTINUOUS
 10
4683.3276329999999
 20
3221.5017379999999
 30
0.0
 11
4683.3276329999999
 21
3096.5017379999999
 31
0.0
  0
LINE
  5
7ADD
  8
1
  6
CONTINUOUS
 10
3734.96922
 20
8450.8891905517958
 30
0.0
 11
2514.96922
 21
8450.8891905517958
 31
0.0
  0
LINE
  5
7ADE
  8
1
  6
CONTINUOUS
 10
3955.5276329999988
 20
7497.8891905517949
 30
0.0
 11
2223.327632999999
 21
7497.8891905517949
 31
0.0
  0
LINE
  5
7ADF
  8
1
  6
CONTINUOUS
 10
3955.5276329999988
 20
8347.8891905517958
 30
0.0
 11
2223.327632999999
 21
8347.8891905517958
 31
0.0
  0
LINE
  5
7AE0
  8
1
  6
CONTINUOUS
 10
4683.3276329999999
 20
7235.8891905517958
 30
0.0
 11
2323.327632999999
 21
7235.8891905517958
 31
0.0
  0
LINE
  5
7AE1
  8
1
  6
CONTINUOUS
 10
2223.327632999999
 20
7447.8891905517949
 30
0.0
 11
2223.327632999999
 21
8397.8891905517958
 31
0.0
  0
LINE
  5
7AE2
  8
1
  6
CONTINUOUS
 10
2323.327632999999
 20
7497.8891905517949
 30
0.0
 11
2323.327632999999
 21
7235.8891905517958
 31
0.0
  0
LINE
  5
7AE3
  8
1
  6
CONTINUOUS
 10
2423.327632999999
 20
8450.8891905517958
 30
0.0
 11
2423.327632999999
 21
8347.8891905517958
 31
0.0
  0
LINE
  5
7AE4
  8
1
  6
CONTINUOUS
 10
2323.327632999999
 20
8415.8891905517958
 30
0.0
 11
2323.327632999999
 21
8347.8891905517958
 31
0.0
  0
LINE
  5
7AE5
  8
1
  6
CONTINUOUS
 10
2423.327632999999
 20
8415.8891905517958
 30
0.0
 11
2323.327632999999
 21
8415.8891905517958
 31
0.0
  0
LINE
  5
7AE6
  8
1
  6
CONTINUOUS
 10
4578.327632999999
 20
7422.8891905517958
 30
0.0
 11
2605.327632999999
 21
7422.8891905517958
 31
0.0
  0
LINE
  5
7AE7
  8
1
  6
CONTINUOUS
 10
4578.327632999999
 20
7182.8891905517958
 30
0.0
 11
2605.327632999999
 21
7182.8891905517958
 31
0.0
  0
LINE
  5
7AE8
  8
1
  6
CONTINUOUS
 10
4683.3276329999999
 20
8415.8891905517958
 30
0.0
 11
3543.3276329999999
 21
8415.8891905517958
 31
0.0
  0
LINE
  5
7AE9
  8
1
  6
CONTINUOUS
 10
2705.3276329999999
 20
7352.8891905517958
 30
0.0
 11
3261.3276329999999
 21
7352.8891905517958
 31
0.0
  0
LINE
  5
7AEA
  8
1
  6
CONTINUOUS
 10
2705.3276329999999
 20
7252.8891905517967
 30
0.0
 11
3261.3276329999999
 21
7252.8891905517967
 31
0.0
  0
LINE
  5
7AEB
  8
1
  6
CONTINUOUS
 10
2605.327632999999
 20
7182.8891905517958
 30
0.0
 11
2605.327632999999
 21
7422.8891905517958
 31
0.0
  0
LINE
  5
7AEC
  8
1
  6
CONTINUOUS
 10
2705.3276329999999
 20
7252.8891905517967
 30
0.0
 11
2705.3276329999999
 21
7352.8891905517958
 31
0.0
  0
LINE
  5
7AED
  8
1
  6
CONTINUOUS
 10
3010.827632999999
 20
7497.8891905517949
 30
0.0
 11
3010.827632999999
 21
7352.8891905517958
 31
0.0
  0
LINE
  5
7AEE
  8
1
  6
CONTINUOUS
 10
2955.8276329999999
 20
7497.8891905517949
 30
0.0
 11
2955.8276329999999
 21
7352.8891905517958
 31
0.0
  0
LINE
  5
7AEF
  8
1
  6
CONTINUOUS
 10
3261.3276329999999
 20
7252.8891905517967
 30
0.0
 11
3261.3276329999999
 21
7352.8891905517958
 31
0.0
  0
LINE
  5
7AF0
  8
1
  6
CONTINUOUS
 10
3543.3276329999999
 20
8450.8891905517958
 30
0.0
 11
3543.3276329999999
 21
8347.8891905517958
 31
0.0
  0
LINE
  5
7AF1
  8
1
  6
CONTINUOUS
 10
3955.5276329999988
 20
7497.8891905517949
 30
0.0
 11
3955.5276329999988
 21
8347.8891905517958
 31
0.0
  0
LINE
  5
7AF2
  8
1
  6
CONTINUOUS
 10
4683.3276329999999
 20
8415.8891905517958
 30
0.0
 11
4683.3276329999999
 21
7235.8891905517958
 31
0.0
  0
LINE
  5
7AF3
  8
1
  6
CONTINUOUS
 10
4238.327632999999
 20
7252.8891905517967
 30
0.0
 11
4478.3276329999999
 21
7252.8891905517967
 31
0.0
  0
LINE
  5
7AF4
  8
1
  6
CONTINUOUS
 10
4238.327632999999
 20
7352.8891905517958
 30
0.0
 11
4478.3276329999999
 21
7352.8891905517958
 31
0.0
  0
LINE
  5
7AF5
  8
1
  6
CONTINUOUS
 10
4557.4276330000002
 20
8071.0891905517974
 30
0.0
 11
4159.2276329999986
 21
8071.0891905517974
 31
0.0
  0
LINE
  5
7AF6
  8
1
  6
CONTINUOUS
 10
4557.4276330000002
 20
7471.5891905517956
 30
0.0
 11
4159.2276329999986
 21
7471.5891905517956
 31
0.0
  0
LINE
  5
7AF7
  8
1
  6
CONTINUOUS
 10
4238.327632999999
 20
7252.8891905517967
 30
0.0
 11
4238.327632999999
 21
7352.8891905517958
 31
0.0
  0
LINE
  5
7AF8
  8
1
  6
CONTINUOUS
 10
4159.2276329999986
 20
7471.5891905517956
 30
0.0
 11
4159.2276329999986
 21
8071.0891905517974
 31
0.0
  0
LINE
  5
7AF9
  8
1
  6
CONTINUOUS
 10
4330.8276329999999
 20
7352.8891905517958
 30
0.0
 11
4330.8276329999999
 21
7471.5891905517956
 31
0.0
  0
LINE
  5
7AFA
  8
1
  6
CONTINUOUS
 10
4578.327632999999
 20
7182.8891905517958
 30
0.0
 11
4578.327632999999
 21
7422.8891905517958
 31
0.0
  0
LINE
  5
7AFB
  8
1
  6
CONTINUOUS
 10
4478.3276329999999
 20
7252.8891905517967
 30
0.0
 11
4478.3276329999999
 21
7352.8891905517958
 31
0.0
  0
LINE
  5
7AFC
  8
1
  6
CONTINUOUS
 10
4385.8276329999999
 20
7352.8891905517958
 30
0.0
 11
4385.8276329999999
 21
7471.5891905517956
 31
0.0
  0
LINE
  5
7AFD
  8
1
  6
CONTINUOUS
 10
4557.4276330000002
 20
7471.5891905517956
 30
0.0
 11
4557.4276330000002
 21
8071.0891905517974
 31
0.0
  0
LINE
  5
7AFE
  8
1
  6
CONTINUOUS
 10
6048.2978620000004
 20
4403.5017379999999
 30
0.0
 11
6898.2978620000013
 21
4403.5017379999999
 31
0.0
  0
LINE
  5
7AFF
  8
1
  6
CONTINUOUS
 10
6966.2978620000013
 20
3221.5017379999999
 30
0.0
 11
5786.2978619999994
 21
3221.5017379999999
 31
0.0
  0
LINE
  5
7B00
  8
1
  6
CONTINUOUS
 10
6966.2978620000013
 20
3096.5017379999999
 30
0.0
 11
5786.2978619999994
 21
3096.5017379999999
 31
0.0
  0
LINE
  5
7B01
  8
1
  6
CONTINUOUS
 10
6048.2978620000004
 20
5259.7017380000007
 30
0.0
 11
6898.2978620000013
 21
5259.7017380000007
 31
0.0
  0
LINE
  5
7B02
  8
1
  6
CONTINUOUS
 10
6048.2978620000004
 20
3253.5017379999999
 30
0.0
 11
6898.2978620000013
 21
3253.5017379999999
 31
0.0
  0
LINE
  5
7B03
  8
1
  6
CONTINUOUS
 10
6048.2978620000004
 20
4403.5017379999999
 30
0.0
 11
6898.2978620000013
 21
3253.5017379999999
 31
0.0
  0
LINE
  5
7B04
  8
1
  6
CONTINUOUS
 10
6898.2978620000013
 20
4403.5017379999999
 30
0.0
 11
6048.2978620000004
 21
3253.5017379999999
 31
0.0
  0
LINE
  5
7B05
  8
1
  6
CONTINUOUS
 10
6966.2978620000013
 20
2916.5017379999999
 30
0.0
 11
5786.2978619999994
 21
2916.5017379999999
 31
0.0
  0
LINE
  5
7B06
  8
1
  6
CONTINUOUS
 10
6966.2978620000013
 20
2981.5017379999999
 30
0.0
 11
5786.2978619999994
 21
2981.5017379999999
 31
0.0
  0
LINE
  5
7B30
  8
1
  6
CONTINUOUS
 10
6048.2978620000004
 20
3221.5017379999999
 30
0.0
 11
6048.2978620000004
 21
5259.7017380000007
 31
0.0
  0
LINE
  5
7B31
  8
1
  6
CONTINUOUS
 10
5733.2978620000004
 20
3236.501737999999
 30
0.0
 11
5733.2978620000004
 21
4829.5017379999999
 31
0.0
  0
LINE
  5
7B32
  8
1
  6
CONTINUOUS
 10
5973.2978619999994
 20
3236.501737999999
 30
0.0
 11
5973.2978619999994
 21
4829.5017379999999
 31
0.0
  0
LINE
  5
7B33
  8
1
  6
CONTINUOUS
 10
5803.2978619999994
 20
4729.501737999999
 30
0.0
 11
5803.2978619999994
 21
4173.5017379999999
 31
0.0
  0
LINE
  5
7B34
  8
1
  6
CONTINUOUS
 10
5903.2978619999994
 20
4729.501737999999
 30
0.0
 11
5903.2978619999994
 21
4173.5017379999999
 31
0.0
  0
LINE
  5
7B35
  8
1
  6
CONTINUOUS
 10
5903.2978619999994
 20
3484.0017379999999
 30
0.0
 11
6048.2978620000004
 21
3484.0017379999999
 31
0.0
  0
LINE
  5
7B36
  8
1
  6
CONTINUOUS
 10
5903.2978619999994
 20
3429.0017379999999
 30
0.0
 11
6048.2978620000004
 21
3429.0017379999999
 31
0.0
  0
LINE
  5
7B37
  8
1
  6
CONTINUOUS
 10
5803.2978619999994
 20
3576.5017379999999
 30
0.0
 11
5803.2978619999994
 21
3336.501737999999
 31
0.0
  0
LINE
  5
7B38
  8
1
  6
CONTINUOUS
 10
5903.2978619999994
 20
3576.5017379999999
 30
0.0
 11
5903.2978619999994
 21
3336.501737999999
 31
0.0
  0
LINE
  5
7B39
  8
1
  6
CONTINUOUS
 10
5786.2978619999994
 20
3096.5017379999999
 30
0.0
 11
5786.2978619999994
 21
3221.5017379999999
 31
0.0
  0
LINE
  5
7B3A
  8
1
  6
CONTINUOUS
 10
5803.2978619999994
 20
3336.501737999999
 30
0.0
 11
5903.2978619999994
 21
3336.501737999999
 31
0.0
  0
LINE
  5
7B3B
  8
1
  6
CONTINUOUS
 10
5733.2978620000004
 20
3236.501737999999
 30
0.0
 11
5973.2978619999994
 21
3236.501737999999
 31
0.0
  0
LINE
  5
7B3C
  8
1
  6
CONTINUOUS
 10
5786.2978619999994
 20
2916.5017379999999
 30
0.0
 11
5786.2978619999994
 21
2981.5017379999999
 31
0.0
  0
LINE
  5
7B3D
  8
1
  6
CONTINUOUS
 10
5803.2978619999994
 20
3576.5017379999999
 30
0.0
 11
5903.2978619999994
 21
3576.5017379999999
 31
0.0
  0
LINE
  5
7B3E
  8
1
  6
CONTINUOUS
 10
5803.2978619999994
 20
4173.5017379999999
 30
0.0
 11
5903.2978619999994
 21
4173.5017379999999
 31
0.0
  0
LINE
  5
7B3F
  8
1
  6
CONTINUOUS
 10
5903.2978619999994
 20
4479.0017379999999
 30
0.0
 11
6048.2978620000004
 21
4479.0017379999999
 31
0.0
  0
LINE
  5
7B40
  8
1
  6
CONTINUOUS
 10
5903.2978619999994
 20
4424.0017379999999
 30
0.0
 11
6048.2978620000004
 21
4424.0017379999999
 31
0.0
  0
LINE
  5
7B41
  8
1
  6
CONTINUOUS
 10
5733.2978620000004
 20
4829.5017379999999
 30
0.0
 11
5973.2978619999994
 21
4829.5017379999999
 31
0.0
  0
LINE
  5
7B42
  8
1
  6
CONTINUOUS
 10
5803.2978619999994
 20
4729.501737999999
 30
0.0
 11
5903.2978619999994
 21
4729.501737999999
 31
0.0
  0
LINE
  5
7B64
  8
1
  6
CONTINUOUS
 10
6898.2978620000013
 20
3221.5017379999999
 30
0.0
 11
6898.2978620000013
 21
5259.7017380000007
 31
0.0
  0
LINE
  5
7B65
  8
1
  6
CONTINUOUS
 10
7001.2978620000004
 20
3841.5017379999999
 30
0.0
 11
7001.2978620000004
 21
5061.5017379999999
 31
0.0
  0
LINE
  5
7B66
  8
1
  6
CONTINUOUS
 10
6966.2978620000013
 20
3096.5017379999999
 30
0.0
 11
6966.2978620000013
 21
3221.5017379999999
 31
0.0
  0
LINE
  5
7B67
  8
1
  6
CONTINUOUS
 10
6966.2978620000013
 20
2916.5017379999999
 30
0.0
 11
6966.2978620000013
 21
2981.5017379999999
 31
0.0
  0
LINE
  5
7B68
  8
1
  6
CONTINUOUS
 10
6898.2978620000013
 20
3891.5017379999999
 30
0.0
 11
7001.2978620000004
 21
3891.5017379999999
 31
0.0
  0
LINE
  5
7B69
  8
1
  6
CONTINUOUS
 10
6898.2978620000013
 20
5011.501737999999
 30
0.0
 11
7001.2978620000004
 21
5011.501737999999
 31
0.0
  0
LINE
  5
7B6A
  8
2
  6
CENTER
 10
2089.9897309999992
 20
7922.8891905517958
 30
0.0
 11
4780.9790909999992
 21
7922.8891905517958
 31
0.0
  0
LINE
  5
7B6B
  8
2
  6
CENTER
 10
6473.2978619999994
 20
5625.8053090000003
 30
0.0
 11
6473.2978619999994
 21
5624.0103920000001
 31
0.0
  0
LINE
  5
7B6C
  8
2
  6
CENTER
 10
2983.3276329999999
 20
5427.2023069999996
 30
0.0
 11
2983.3276329999999
 21
2763.960141
 31
0.0
  0
LINE
  5
7B6D
  8
2
  6
CENTER
 10
4112.366931999999
 20
4451.5017379999999
 30
0.0
 11
2114.8312219999989
 21
4451.5017379999999
 31
0.0
  0
LINE
  5
7B6E
  8
4
  6
CONTINUOUS
 10
7400.0
 20
2000.0
 30
0.0
 11
7400.0
 21
1200.0
 31
0.0
  0
LINE
  5
7B6F
  8
4
  6
CONTINUOUS
 10
4600.0
 20
2000.0
 30
0.0
 11
4600.0
 21
1200.0
 31
0.0
  0
LINE
  5
7B70
  8
4
  6
CONTINUOUS
 10
2600.0
 20
2000.0
 30
0.0
 11
2600.0
 21
1200.0
 31
0.0
  0
LINE
  5
7B73
  8
4
  6
CONTINUOUS
 10
2600.0
 20
1200.0
 30
0.0
 11
7400.0
 21
1200.0
 31
0.0
  0
LINE
  5
7B74
  8
4
  6
CONTINUOUS
 10
2600.0
 20
1600.0
 30
0.0
 11
7400.0
 21
1600.0
 31
0.0
  0
TEXT
  5
7B75
  8
4
  6
CONTINUOUS
 10
2754.008323
 20
1726.1721030000001
 30
0.0
 40
200.0
  1
機器名称
  0
TEXT
  5
7B76
  8
4
  6
CONTINUOUS
 10
2745.032424
 20
1286.580627
 30
0.0
 40
200.0
  1
機器型番
  0
TEXT
  5
7B77
  8
4
  6
CONTINUOUS
 10
4710.7149820000004
 20
1690.2870760000001
 30
0.0
 40
200.0
  1
ミツヤ多翼送風機
  0
TEXT
  5
7B78
  8
4
  6
CONTINUOUS
 10
4746.6179819999998
 20
1268.6383370000001
 30
0.0
 40
200.0
  1
MFE#7-4
  0
TEXT
  5
7B7A
  8
4
  6
CONTINUOUS
 10
3100.507059
 20
9533.715365
 30
0.0
 40
216.0
  1
床置防振ベット
  0
TEXT
  5
7B7B
  8
4
  6
CONTINUOUS
 10
1264.6703729999999
 20
10135.523905
 30
0.0
 40
288.0
  1
ベルト駆動式片吸込両持排煙ファン
  0
LINE
  5
7B7C
  8
4
  6
CONTINUOUS
 10
1000.0
 20
9877.6350170000005
 30
0.0
 11
7400.0
 21
9877.6350170000005
 31
0.0
  0
LINE
  5
7B7D
  8
4
  6
CONTINUOUS
 10
1000.0
 20
10677.635017000001
 30
0.0
 11
7400.0
 21
10677.635017000001
 31
0.0
  0
LINE
  5
7B7E
  8
4
  6
CONTINUOUS
 10
2600.0
 20
2000.0
 30
0.0
 11
7400.0
 21
2000.0
 31
0.0
  0
LINE
  5
7B7F
  8
4
  6
CONTINUOUS
 10
1000.0
 20
10677.635017000001
 30
0.0
 11
1000.0
 21
9877.6350170000005
 31
0.0
  0
TEXT
  5
7B80
  8
4
  6
CONTINUOUS
 10
1357.0717299999999
 20
9529.2779099999989
 30
0.0
 40
216.0
  1
右回転左横向
  0
TEXT
  5
7B81
  8
4
  6
CONTINUOUS
 10
5875.8782369999999
 20
10824.244326
 30
0.0
 40
224.0
  1
No.
  0
TEXT
  5
7B82
  8
4
  6
CONTINUOUS
 10
5245.1842500000012
 20
9533.715365
 30
0.0
 40
216.0
  1
縮尺：1/40
  0
LINE
  5
7B83
  8
4
  6
CONTINUOUS
 10
7400.0
 20
10677.635017000001
 30
0.0
 11
7400.0
 21
9877.6350170000005
 31
0.0
  0
LINE
  5
7B85
  8
4
  6
CONTINUOUS
 10
5762.4696889999996
 20
10725.054333
 30
0.0
 11
5762.4696889999996
 21
11146.609046
 31
0.0
  0
LINE
  5
7B86
  8
4
  6
CONTINUOUS
 10
5762.4696889999996
 20
11146.609046
 30
0.0
 11
7400.0
 21
11146.609046
 31
0.0
  0
LINE
  5
7B87
  8
4
  6
CONTINUOUS
 10
7400.0
 20
11146.609046
 30
0.0
 11
7400.0
 21
10725.054333
 31
0.0
  0
LINE
  5
7B88
  8
4
  6
CONTINUOUS
 10
7400.0
 20
10725.054333
 30
0.0
 11
5762.4696889999996
 21
10725.054333
 31
0.0
  0
DIMENSION
  5
7BA0
  8
3
  6
CONTINUOUS
  2
*D1
 10
2030.141826
 20
3253.5017379999999
 30
0.0
 11
2030.141826
 21
3852.7078059999999
 31
0.0
 70
   128
 13
2223.327632999999
 23
4403.5017379999999
 33
0.0
 14
2223.327632999999
 24
3253.5017379999999
 34
0.0
 50
90.0
1001
ACAD
1000
DSTYLE
1002
{
1070
   287
1070
     3
1070
   287
1070
     3
1070
    40
1040
40.0
1070
   143
1040
0.039
1070
   172
1070
     1
1070
   271
1070
     0
1070
   279
1070
     0
1070
   288
1070
     1
1002
}
  0
DIMENSION
  5
7BAD
  8
3
  6
CONTINUOUS
  2
*D2
 10
1806.877935
 20
3253.5017379999999
 30
0.0
 11
1806.877935
 21
3852.7078059999999
 31
0.0
 70
   128
 13
2114.8312219999989
 23
4451.5017379999999
 33
0.0
 14
2223.327632999999
 24
3253.5017379999999
 34
0.0
 50
90.0
1001
ACAD
1000
DSTYLE
1002
{
1070
   287
1070
     3
1070
   287
1070
     3
1070
    40
1040
40.0
1070
   143
1040
0.039
1070
   172
1070
     1
1070
   271
1070
     0
1070
   279
1070
     0
1070
   288
1070
     1
1002
}
  0
DIMENSION
  5
7BC6
  8
3
  6
CONTINUOUS
  2
*D3
 10
1544.918439
 20
3096.5017379999999
 30
0.0
 11
1444.9184389999989
 21
3774.0017380000008
 31
0.0
 70
     0
 13
2094.8312219999989
 23
4451.5017379999999
 33
0.0
 14
2323.327632999999
 24
3096.5017379999999
 34
0.0
 50
90.0
1001
ACAD
1000
DSTYLE
1002
{
1070
   287
1070
     3
1070
   287
1070
     3
1070
    40
1040
40.0
1070
   143
1040
0.039
1070
   172
1070
     1
1070
   271
1070
     0
1070
   279
1070
     0
1070
   288
1070
     1
1002
}
  0
DIMENSION
  5
7BF0
  8
3
  6
CONTINUOUS
  2
*D4
 10
2983.3276329999999
 20
2626.1832219999992
 30
0.0
 11
2668.6800549999998
 21
2626.1832219999992
 31
0.0
 70
   128
 13
2323.327632999999
 23
2916.5017379999999
 33
0.0
 14
2983.3276329999999
 24
2763.960141
 34
0.0
1001
ACAD
1000
DSTYLE
1002
{
1070
   287
1070
     3
1070
   287
1070
     3
1070
    40
1040
40.0
1070
   143
1040
0.039
1070
   172
1070
     1
1070
   271
1070
     0
1070
   279
1070
     0
1070
   288
1070
     1
1002
}
  0
DIMENSION
  5
7BFC
  8
3
  6
CONTINUOUS
  2
*D5
 10
4683.3276329999999
 20
2626.1832219999992
 30
0.0
 11
3833.327632999999
 21
2726.1832219999992
 31
0.0
 70
     0
 13
2983.3276329999999
 23
2763.960141
 33
0.0
 14
4683.3276329999999
 24
2916.5017379999999
 34
0.0
1001
ACAD
1000
DSTYLE
1002
{
1070
   287
1070
     4
1070
   287
1070
     4
1070
    40
1040
40.0
1070
    75
1070
     1
1070
   143
1040
0.039
1070
   172
1070
     1
1070
   271
1070
     0
1070
   279
1070
     1
1070
   288
1070
     1
1002
}
  0
DIMENSION
  5
7C09
  8
3
  6
CONTINUOUS
  2
*D6
 10
2983.3276329999999
 20
5518.7440070000002
 30
0.0
 11
2609.143012
 21
5518.7440070000002
 31
0.0
 70
   128
 13
2223.327632999999
 23
4456.5017379999999
 33
0.0
 14
2983.3276329999999
 24
5427.2023069999996
 34
0.0
1001
ACAD
1000
DSTYLE
1002
{
1070
   287
1070
     3
1070
   287
1070
     3
1070
    40
1040
40.0
1070
   143
1040
0.039
1070
   172
1070
     1
1070
   271
1070
     0
1070
   279
1070
     0
1070
   288
1070
     1
1002
}
  0
DIMENSION
  5
7C22
  8
3
  6
CONTINUOUS
  2
*D7
 10
6898.2978620000013
 20
5439.0942969999996
 30
0.0
 11
6480.0722750000014
 21
5439.0942969999996
 31
0.0
 70
   128
 13
6048.2978620000004
 23
5259.7017380000007
 33
0.0
 14
6898.2978620000013
 24
5259.7017380000007
 34
0.0
1001
ACAD
1000
DSTYLE
1002
{
1070
   287
1070
     3
1070
   287
1070
     3
1070
    40
1040
40.0
1070
   143
1040
0.039
1070
   172
1070
     1
1070
   271
1070
     0
1070
   279
1070
     0
1070
   288
1070
     1
1002
}
  0
DIMENSION
  5
7C2F
  8
3
  6
CONTINUOUS
  2
*D8
 10
7319.4480480000011
 20
3891.5017379999999
 30
0.0
 11
7319.4480480000011
 21
4452.1862969999993
 31
0.0
 70
   128
 13
7001.2978620000004
 23
5011.501737999999
 33
0.0
 14
7001.2978620000004
 24
3891.5017379999999
 34
0.0
 50
90.0
1001
ACAD
1000
DSTYLE
1002
{
1070
   287
1070
     3
1070
   287
1070
     3
1070
     3
1000
φ<>
1070
    40
1040
40.0
1070
   143
1040
0.039
1070
   172
1070
     1
1070
   271
1070
     0
1070
   279
1070
     0
1070
   288
1070
     1
1002
}
  0
DIMENSION
  5
7C3E
  8
3
  6
CONTINUOUS
  2
*D9
 10
6473.2978619999994
 20
5712.8610768325898
 30
0.0
 11
6737.2978620000004
 21
5821.8274351249966
 31
0.0
 70
   128
 13
7001.2978620000004
 23
5061.5017379999999
 33
0.0
 14
6473.2978619999994
 24
5625.8053090000003
 34
0.0
1001
ACAD
1000
DSTYLE
1002
{
1070
   288
1070
     1
1070
   172
1070
     1
1070
    40
1040
40.0
1070
   271
1070
     0
1070
   143
1040
0.039
1002
}
  0
DIMENSION
  5
7C4A
  8
3
  6
CONTINUOUS
  2
*D10
 10
5733.2978620000004
 20
5712.8610768325898
 30
0.0
 11
6103.2978619999994
 21
5912.8610768325898
 31
0.0
 70
     0
  1
MAX\P850
 13
6473.2978619999994
 23
5625.8053090000003
 33
0.0
 14
5733.2978620000004
 24
4829.5017379999999
 34
0.0
1001
ACAD
1000
DSTYLE
1002
{
1070
   287
1070
     4
1070
   287
1070
     4
1070
    40
1040
40.0
1070
    75
1070
     1
1070
   143
1040
0.039
1070
   172
1070
     1
1070
   271
1070
     0
1070
   279
1070
     1
1070
   288
1070
     1
1002
}
  0
DIMENSION
  5
7C57
  8
3
  6
CONTINUOUS
  2
*D11
 10
6473.2978619999994
 20
2645.545752
 30
0.0
 11
6142.676101
 21
2645.545752
 31
0.0
 70
   128
 13
5786.2978619999994
 23
2916.5017379999999
 33
0.0
 14
6473.2978619999994
 24
2780.2664519999998
 34
0.0
1001
ACAD
1000
DSTYLE
1002
{
1070
   287
1070
     3
1070
   287
1070
     3
1070
    40
1040
40.0
1070
   143
1040
0.039
1070
   172
1070
     1
1070
   271
1070
     0
1070
   279
1070
     0
1070
   288
1070
     1
1002
}
  0
DIMENSION
  5
7C65
  8
3
  6
CONTINUOUS
  2
*D12
 10
6966.2978620000013
 20
2645.545752
 30
0.0
 11
6721.2474290000009
 21
2645.0286579999988
 31
0.0
 70
   128
 13
6473.2978619999994
 23
2780.2664519999998
 33
0.0
 14
6966.2978620000013
 24
2916.5017379999999
 34
0.0
1001
ACAD
1000
DSTYLE
1002
{
1070
   287
1070
     4
1070
   287
1070
     4
1070
    40
1040
40.0
1070
    75
1070
     1
1070
   143
1040
0.039
1070
   172
1070
     1
1070
   271
1070
     0
1070
   279
1070
     1
1070
   288
1070
     1
1002
}
  0
DIMENSION
  5
7C72
  8
3
  6
CONTINUOUS
  2
*D13
 10
4683.3276329999999
 20
6864.9284085517957
 30
0.0
 11
3423.1653449999999
 21
6864.9284085517957
 31
0.0
 70
   128
 13
2323.327632999999
 23
7235.8891905517958
 33
0.0
 14
4683.3276329999999
 24
7235.8891905517958
 34
0.0
1001
ACAD
1000
DSTYLE
1002
{
1070
   287
1070
     3
1070
   287
1070
     3
1070
    40
1040
40.0
1070
   143
1040
0.039
1070
   172
1070
     1
1070
   271
1070
     0
1070
   279
1070
     0
1070
   288
1070
     1
1002
}
  0
DIMENSION
  5
7C7F
  8
3
  6
CONTINUOUS
  2
*D14
 10
5052.5418479999998
 20
7235.8891905517958
 30
0.0
 11
5052.5418479999998
 21
7810.7152525517977
 31
0.0
 70
   128
 13
4683.3276329999999
 23
8415.8891905517958
 33
0.0
 14
4683.3276329999999
 24
7235.8891905517958
 34
0.0
 50
90.0
1001
ACAD
1000
DSTYLE
1002
{
1070
   287
1070
     3
1070
   287
1070
     3
1070
    40
1040
40.0
1070
   143
1040
0.039
1070
   172
1070
     1
1070
   271
1070
     0
1070
   279
1070
     0
1070
   288
1070
     1
1002
}
  0
LINE
  5
7C97
  8
2
  6
CENTER
 10
6473.2978619999994
 20
5454.8203189999986
 30
0.0
 11
6473.2978619999994
 21
2780.2664519999998
 31
0.0
  0
DIMENSION
  5
7CC3
  8
3
  6
CONTINUOUS
  2
*D15
 10
1544.918439
 20
5256.5017379999999
 30
0.0
 11
1444.9184389999989
 21
4854.0017379999999
 31
0.0
 70
     0
 13
2094.8312219999989
 23
4451.5017379999999
 33
0.0
 14
2983.3276329999999
 24
5256.5017379999999
 34
0.0
 50
90.0
1001
ACAD
1000
DSTYLE
1002
{
1070
   287
1070
     4
1070
   287
1070
     4
1070
    40
1040
40.0
1070
    75
1070
     1
1070
   143
1040
0.039
1070
   172
1070
     1
1070
   271
1070
     0
1070
   279
1070
     1
1070
   288
1070
     1
1002
}
  0
DIMENSION
  5
7CEA
  8
3
  6
CONTINUOUS
  2
*D16
 10
1170.2489858013009
 20
2916.5017379999999
 30
0.0
 11
1170.2489858013009
 21
4194.4515110000002
 31
0.0
 70
   128
 13
2983.3276329999999
 23
5256.5017379999999
 33
0.0
 14
2323.327632999999
 24
2916.5017379999999
 34
0.0
 50
90.0
1001
ACAD
1000
DSTYLE
1002
{
1070
   287
1070
     3
1070
   287
1070
     3
1070
    40
1040
40.0
1070
   143
1040
0.039
1070
   172
1070
     1
1070
   271
1070
     0
1070
   279
1070
     0
1070
   288
1070
     1
1002
}
  0
DIMENSION
  5
7CF6
  8
3
  6
CONTINUOUS
  2
*D17
 10
3952.3276329999999
 20
5518.7440070000002
 30
0.0
 11
3467.8276329999999
 21
5618.7440070000002
 31
0.0
 70
     0
 13
2983.3276329999999
 23
5427.2023069999996
 33
0.0
 14
3952.3276329999999
 24
4451.5017379999999
 34
0.0
1001
ACAD
1000
DSTYLE
1002
{
1070
   287
1070
     4
1070
   287
1070
     4
1070
    40
1040
40.0
1070
    75
1070
     1
1070
   143
1040
0.039
1070
   172
1070
     1
1070
   271
1070
     0
1070
   279
1070
     1
1070
   288
1070
     1
1002
}
  0
DIMENSION
  5
7D3E
  8
3
  2
*D18
 10
4683.3276329999999
 20
5770.1149542924068
 30
0.0
 11
3434.3066542982988
 21
5770.1149542924068
 31
0.0
 70
   128
 13
2223.327632999999
 23
4456.5017379999999
 33
0.0
 14
4683.3276329999999
 24
3221.5017379999999
 34
0.0
1001
ACAD
1000
DSTYLE
1002
{
1070
   287
1070
     3
1070
   287
1070
     3
1070
    40
1040
40.0
1070
   143
1040
0.039
1070
   172
1070
     1
1070
   271
1070
     0
1070
   279
1070
     0
1070
   288
1070
     1
1002
}
  0
DIMENSION
  5
7DC8
  8
3
  2
*D19
 10
1544.918439
 20
2981.5017379999999
 30
0.0
 11
1384.918439
 21
3168.5834402034629
 31
0.0
 70
   128
  1
(<>)
 13
2323.327632999999
 23
3096.5017379999999
 33
0.0
 14
2323.327632999999
 24
2981.5017379999999
 34
0.0
 50
90.0
1001
ACAD
1000
DSTYLE
1002
{
1070
   288
1070
     1
1070
   172
1070
     1
1070
    75
1070
     1
1070
    40
1040
40.0
1070
   271
1070
     0
1070
     7
1000
_DOT
1070
   143
1040
0.039
1002
}
  0
DIMENSION
  5
7DD8
  8
3
  2
*D20
 10
1544.918439
 20
2916.5017379999999
 30
0.0
 11
1444.9184389999989
 21
2619.358880857143
 31
0.0
 70
     0
 13
2323.327632999999
 23
2981.5017379999999
 33
0.0
 14
2323.327632999999
 24
2916.5017379999999
 34
0.0
 50
90.0
1001
ACAD
1000
DSTYLE
1002
{
1070
   287
1070
     3
1070
   287
1070
     3
1070
    40
1040
40.0
1070
   143
1040
0.039
1070
   172
1070
     1
1070
   271
1070
     0
1070
   279
1070
     0
1070
   288
1070
     1
1070
     6
1000
DOT
1002
}
  0
ENDSEC
  0
EOF
