  0
SECTION
  2
HEADER
  9
$ACADVER
  1
AC1009
  9
$INSBASE
 10
0.0
 20
0.0
 30
0.0
  9
$EXTMIN
 10
1000.0
 20
1200.0
 30
0.0
  9
$EXTMAX
 10
7400.0
 20
11146.609046
 30
0.0
  9
$LIMMIN
 10
0.0
 20
0.0
  9
$LIMMAX
 10
297.0
 20
210.0
  9
$ORTHOMODE
 70
     0
  9
$REGENMODE
 70
     1
  9
$FILLMODE
 70
     0
  9
$QTEXTMODE
 70
     0
  9
$MIRRTEXT
 70
     1
  9
$DRAGMODE
 70
     2
  9
$LTSCALE
 40
100.0
  9
$OSMODE
 70
    37
  9
$ATTMODE
 70
     1
  9
$TEXTSIZE
 40
180.0
  9
$TRACEWID
 40
0.05
  9
$TEXTSTYLE
  7
STANDARD
  9
$CLAYER
  8
3
  9
$CELTYPE
  6
BYLAYER
  9
$CECOLOR
 62
   256
  9
$DIMSCALE
 40
40.0
  9
$DIMASZ
 40
2.0
  9
$DIMEXO
 40
0.5
  9
$DIMDLI
 40
10.0
  9
$DIMRND
 40
0.0
  9
$DIMDLE
 40
0.0
  9
$DIMEXE
 40
1.0
  9
$DIMTP
 40
1.0
  9
$DIMTM
 40
1.0
  9
$DIMTXT
 40
3.0
  9
$DIMCEN
 40
0.0
  9
$DIMTSZ
 40
0.0
  9
$DIMTOL
 70
     0
  9
$DIMLIM
 70
     0
  9
$DIMTIH
 70
     0
  9
$DIMTOH
 70
     0
  9
$DIMSE1
 70
     0
  9
$DIMSE2
 70
     0
  9
$DIMTAD
 70
     1
  9
$DIMZIN
 70
     8
  9
$DIMBLK
  1

  9
$DIMASO
 70
     1
  9
$DIMSHO
 70
     1
  9
$DIMPOST
  1

  9
$DIMAPOST
  1

  9
$DIMALT
 70
     0
  9
$DIMALTD
 70
     2
  9
$DIMALTF
 40
0.039
  9
$DIMLFAC
 40
1.0
  9
$DIMTOFL
 70
     1
  9
$DIMTVP
 40
0.0
  9
$DIMTIX
 70
     0
  9
$DIMSOXD
 70
     0
  9
$DIMSAH
 70
     1
  9
$DIMBLK1
  1
OPEN
  9
$DIMBLK2
  1
OPEN
  9
$DIMSTYLE
  2
IGA
  9
$DIMCLRD
 70
     0
  9
$DIMCLRE
 70
     0
  9
$DIMCLRT
 70
     0
  9
$DIMTFAC
 40
10.0
  9
$DIMGAP
 40
1.0
  9
$LUNITS
 70
     2
  9
$LUPREC
 70
     3
  9
$SKETCHINC
 40
0.1
  9
$FILLETRAD
 40
50.0
  9
$AUNITS
 70
     0
  9
$AUPREC
 70
     0
  9
$MENU
  1
acad
  9
$ELEVATION
 40
0.0
  9
$PELEVATION
 40
0.0
  9
$THICKNESS
 40
0.0
  9
$LIMCHECK
 70
     0
  9
$BLIPMODE
 70
     0
  9
$CHAMFERA
 40
0.5
  9
$CHAMFERB
 40
0.5
  9
$SKPOLY
 70
     0
  9
$TDCREATE
 40
2450753.6116499999
  9
$TDUPDATE
 40
2454953.8433526969
  9
$TDINDWG
 40
0.0074597454
  9
$TDUSRTIMER
 40
0.0074597454
  9
$USRTIMER
 70
     1
  9
$ANGBASE
 50
0.0
  9
$ANGDIR
 70
     0
  9
$PDMODE
 70
     0
  9
$PDSIZE
 40
0.0
  9
$PLINEWID
 40
0.0
  9
$COORDS
 70
     1
  9
$SPLFRAME
 70
     0
  9
$SPLINETYPE
 70
     6
  9
$SPLINESEGS
 70
     8
  9
$ATTDIA
 70
     0
  9
$ATTREQ
 70
     1
  9
$HANDLING
 70
 10241
  9
$HANDSEED
  5
7E8D
  9
$SURFTAB1
 70
     6
  9
$SURFTAB2
 70
     6
  9
$SURFTYPE
 70
     6
  9
$SURFU
 70
     6
  9
$SURFV
 70
     6
  9
$UCSNAME
  2

  9
$UCSORG
 10
0.0
 20
0.0
 30
0.0
  9
$UCSXDIR
 10
1.0
 20
0.0
 30
0.0
  9
$UCSYDIR
 10
0.0
 20
1.0
 30
0.0
  9
$PUCSNAME
  2

  9
$PUCSORG
 10
0.0
 20
0.0
 30
0.0
  9
$PUCSXDIR
 10
1.0
 20
0.0
 30
0.0
  9
$PUCSYDIR
 10
0.0
 20
1.0
 30
0.0
  9
$USERI1
 70
     0
  9
$USERI2
 70
     0
  9
$USERI3
 70
     0
  9
$USERI4
 70
     0
  9
$USERI5
 70
     0
  9
$USERR1
 40
0.0
  9
$USERR2
 40
0.0
  9
$USERR3
 40
0.0
  9
$USERR4
 40
0.0
  9
$USERR5
 40
0.0
  9
$WORLDVIEW
 70
     1
  9
$SHADEDGE
 70
     3
  9
$SHADEDIF
 70
    70
  9
$TILEMODE
 70
     1
  9
$MAXACTVP
 70
    16
  9
$PLIMCHECK
 70
     0
  9
$PEXTMIN
 10
1.0000000000000000E+020
 20
1.0000000000000000E+020
 30
1.0000000000000000E+020
  9
$PEXTMAX
 10
-1.0000000000000000E+020
 20
-1.0000000000000000E+020
 30
-1.0000000000000000E+020
  9
$PLIMMIN
 10
0.0
 20
0.0
  9
$PLIMMAX
 10
12.0
 20
9.0
  9
$UNITMODE
 70
     0
  9
$VISRETAIN
 70
     0
  9
$PLINEGEN
 70
     0
  9
$PSLTSCALE
 70
     1
  0
ENDSEC
  0
SECTION
  2
TABLES
  0
TABLE
  2
VPORT
 70
     2
  0
VPORT
  2
*ACTIVE
 70
     0
 10
0.0
 20
0.0
 11
1.0
 21
1.0
 12
10116.14714512663
 22
6073.851098771378
 13
0.0
 23
0.0
 14
10.0
 24
10.0
 15
10.0
 25
10.0
 16
0.0
 26
0.0
 36
1.0
 17
0.0
 27
0.0
 37
0.0
 40
14046.829360524451
 41
1.5051150895140659
 42
50.0
 43
0.0
 44
0.0
 50
0.0
 51
0.0
 71
     0
 72
   100
 73
     1
 74
     0
 75
     0
 76
     0
 77
     0
 78
     0
  0
ENDTAB
  0
TABLE
  2
LTYPE
 70
     2
  0
LTYPE
  2
CONTINUOUS
 70
     0
  3
Solid line
 72
    65
 73
     0
 40
0.0
  0
LTYPE
  2
CENTER
 70
     0
  3
____ _ ____ _ ____ _ ____ _ ____ _ ____ _ ____ 
 72
    65
 73
     4
 40
2.0
 49
1.25
 49
-0.25
 49
0.25
 49
-0.25
  0
ENDTAB
  0
TABLE
  2
LAYER
 70
     6
  0
LAYER
  2
0
 70
     0
 62
     7
  6
CONTINUOUS
  0
LAYER
  2
3
 70
     0
 62
     2
  6
CONTINUOUS
  0
LAYER
  2
2
 70
     0
 62
     3
  6
CENTER
  0
LAYER
  2
1
 70
     0
 62
     4
  6
CONTINUOUS
  0
LAYER
  2
4
 70
     0
 62
     7
  6
CONTINUOUS
  0
LAYER
  2
DEFPOINTS
 70
     0
 62
     7
  6
CONTINUOUS
  0
ENDTAB
  0
TABLE
  2
STYLE
 70
     1
  0
STYLE
  2
STANDARD
 70
     0
 40
0.0
 41
1.0
 50
0.0
 71
     0
 42
180.0
  3
simplex.shx
  4
extfont.shx
  0
ENDTAB
  0
TABLE
  2
VIEW
 70
     0
  0
ENDTAB
  0
TABLE
  2
UCS
 70
     0
  0
ENDTAB
  0
TABLE
  2
APPID
 70
     1
  0
APPID
  2
ACAD
 70
     0
  0
ENDTAB
  0
TABLE
  2
DIMSTYLE
 70
     1
  0
DIMSTYLE
  2
IGA
 70
     0
  3

  4

  5

  6
OPEN
  7
OPEN
 40
2.0
 41
2.0
 42
0.5
 43
10.0
 44
1.0
 45
0.0
 46
0.0
 47
1.0
 48
1.0
140
3.0
141
0.0
142
0.0
143
0.03937
144
1.0
145
0.0
146
10.0
147
1.0
 71
     0
 72
     0
 73
     0
 74
     0
 75
     0
 76
     0
 77
     1
 78
     8
170
     0
171
     2
172
     0
173
     1
174
     0
175
     0
176
     0
177
     0
178
     0
  0
ENDTAB
  0
ENDSEC
  0
SECTION
  2
BLOCKS
  0
BLOCK
  8
0
  2
$MODEL_SPACE
 70
     0
 10
0.0
 20
0.0
 30
0.0
  3
$MODEL_SPACE
  1

  0
ENDBLK
  5
1B
  8
0
  0
BLOCK
 67
     1
  8
0
  2
$PAPER_SPACE
 70
     0
 10
0.0
 20
0.0
 30
0.0
  3
$PAPER_SPACE
  1

  0
ENDBLK
  5
18
 67
     1
  8
0
  0
BLOCK
  8
0
  2
_OPEN
 70
     0
 10
0.0
 20
0.0
 30
0.0
  3
_OPEN
  1

  0
LINE
  5
7AE9
  8
0
  6
BYBLOCK
 62
     0
 10
-1.0
 20
0.166667
 30
0.0
 11
0.0
 21
0.0
 31
0.0
  0
LINE
  5
7AEA
  8
0
  6
BYBLOCK
 62
     0
 10
0.0
 20
0.0
 30
0.0
 11
-1.0
 21
-0.166667
 31
0.0
  0
LINE
  5
7AEB
  8
0
  6
BYBLOCK
 62
     0
 10
0.0
 20
0.0
 30
0.0
 11
-1.0
 21
0.0
 31
0.0
  0
ENDBLK
  5
7AEC
  8
0
  0
BLOCK
  8
0
  2
*D1
 70
     1
 10
0.0
 20
0.0
 30
0.0
  3
*D1
  1

  0
LINE
  5
7DEF
  8
3
  6
CONTINUOUS
 62
     0
 10
3853.380545121769
 20
5043.5801579999998
 30
0.0
 11
4196.0224951217688
 21
5043.5801579999998
 31
0.0
  0
LINE
  5
7DF0
  8
3
  6
CONTINUOUS
 62
     0
 10
3853.380545121769
 20
3893.5801579999988
 30
0.0
 11
4196.0224951217688
 21
3893.5801579999988
 31
0.0
  0
LINE
  5
7DF1
  8
3
  6
CONTINUOUS
 62
     0
 10
4156.0224951217697
 20
4963.5801579999998
 30
0.0
 11
4156.0224951217697
 21
3973.5801580000002
 31
0.0
  0
INSERT
  5
7DF2
  8
3
  6
CONTINUOUS
 62
     0
  2
_OPEN
 10
4156.0224951217697
 20
5043.5801579999998
 30
0.0
 41
80.0
 42
80.0
 43
80.0
 50
90.0
  0
INSERT
  5
7DF3
  8
3
  6
CONTINUOUS
 62
     0
  2
_OPEN
 10
4156.0224951217697
 20
3893.5801579999988
 30
0.0
 41
80.0
 42
80.0
 43
80.0
 50
270.0
  0
TEXT
  8
3
  40
120
  5
7E7C
  62
0
  72
0
  71
0
 10
3816.02
 20
4255.75
 30
0.000000
  1
1150
  0
POINT
  5
7DF5
  8
DEFPOINTS
  6
CONTINUOUS
 62
     0
 10
3833.380545121769
 20
5043.5801579999998
 30
0.0
  0
POINT
  5
7DF6
  8
DEFPOINTS
  6
CONTINUOUS
 62
     0
 10
3833.380545121769
 20
3893.5801579999988
 30
0.0
  0
POINT
  5
7DF7
  8
DEFPOINTS
  6
CONTINUOUS
 62
     0
 10
4156.0224951217697
 20
3893.5801579999988
 30
0.0
  0
ENDBLK
  5
7AF9
  8
0
  0
BLOCK
  8
0
  2
*D2
 70
     1
 10
0.0
 20
0.0
 30
0.0
  3
*D2
  1

  0
LINE
  5
7DF8
  8
3
  6
CONTINUOUS
 62
     0
 10
3853.380545121769
 20
5043.5801579999998
 30
0.0
 11
4465.5302741217702
 21
5043.5801579999998
 31
0.0
  0
LINE
  5
7DF9
  8
3
  6
CONTINUOUS
 62
     0
 10
4006.198766121769
 20
3845.5801580000002
 30
0.0
 11
4465.5302741217702
 21
3845.5801580000002
 31
0.0
  0
LINE
  5
7DFA
  8
3
  6
CONTINUOUS
 62
     0
 10
4425.5302741217702
 20
4963.5801579999998
 30
0.0
 11
4425.5302741217702
 21
3925.5801579999988
 31
0.0
  0
INSERT
  5
7DFB
  8
3
  6
CONTINUOUS
 62
     0
  2
_OPEN
 10
4425.5302741217702
 20
5043.5801579999998
 30
0.0
 41
80.0
 42
80.0
 43
80.0
 50
90.0
  0
INSERT
  5
7DFC
  8
3
  6
CONTINUOUS
 62
     0
  2
_OPEN
 10
4425.5302741217702
 20
3845.5801580000002
 30
0.0
 41
80.0
 42
80.0
 43
80.0
 50
270.0
  0
TEXT
  8
3
  40
120
  5
7E7D
  62
0
  72
0
  71
0
 10
4085.53
 20
4246.13
 30
0.000000
  1
1198
  0
POINT
  5
7DFE
  8
DEFPOINTS
  6
CONTINUOUS
 62
     0
 10
3833.380545121769
 20
5043.5801579999998
 30
0.0
  0
POINT
  5
7DFF
  8
DEFPOINTS
  6
CONTINUOUS
 62
     0
 10
3986.1987661217681
 20
3845.5801580000002
 30
0.0
  0
POINT
  5
7E00
  8
DEFPOINTS
  6
CONTINUOUS
 62
     0
 10
4425.5302741217702
 20
3845.5801580000002
 30
0.0
  0
ENDBLK
  5
7B06
  8
0
  0
BLOCK
  8
0
  2
*D3
 70
     1
 10
0.0
 20
0.0
 30
0.0
  3
*D3
  1

  0
LINE
  5
7E01
  8
3
  6
CONTINUOUS
 62
     0
 10
3853.380545121769
 20
5096.5801579999998
 30
0.0
 11
4749.7329201217699
 21
5096.5801579999998
 31
0.0
  0
LINE
  5
7E02
  8
3
  6
CONTINUOUS
 62
     0
 10
3753.3805451217681
 20
3005.5801579999988
 30
0.0
 11
4749.7329201217699
 21
3005.5801579999988
 31
0.0
  0
LINE
  5
7E03
  8
3
  6
CONTINUOUS
 62
     0
 10
4709.732920121769
 20
5016.5801579999998
 30
0.0
 11
4709.732920121769
 21
3085.5801579999988
 31
0.0
  0
INSERT
  5
7E04
  8
3
  6
CONTINUOUS
 62
     0
  2
_OPEN
 10
4709.732920121769
 20
5096.5801579999998
 30
0.0
 41
80.0
 42
80.0
 43
80.0
 50
90.0
  0
INSERT
  5
7E05
  8
3
  6
CONTINUOUS
 62
     0
  2
_OPEN
 10
4709.732920121769
 20
3005.5801579999988
 30
0.0
 41
80.0
 42
80.0
 43
80.0
 50
270.0
  0
TEXT
  8
3
  40
120
  5
7E7E
  62
0
  72
0
  71
0
 10
4369.73
 20
3745.78
 30
0.000000
  1
2091
  0
POINT
  5
7E07
  8
DEFPOINTS
  6
CONTINUOUS
 62
     0
 10
3833.380545121769
 20
5096.5801579999998
 30
0.0
  0
POINT
  5
7E08
  8
DEFPOINTS
  6
CONTINUOUS
 62
     0
 10
3733.380545121769
 20
3005.5801579999988
 30
0.0
  0
POINT
  5
7E09
  8
DEFPOINTS
  6
CONTINUOUS
 62
     0
 10
4709.732920121769
 20
3005.5801579999988
 30
0.0
  0
ENDBLK
  5
7B13
  8
0
  0
BLOCK
  8
0
  2
*D4
 70
     1
 10
0.0
 20
0.0
 30
0.0
  3
*D4
  1

  0
LINE
  5
7E0A
  8
3
  6
CONTINUOUS
 62
     0
 10
3833.380545121769
 20
5116.5801579999998
 30
0.0
 11
3833.380545121769
 21
5328.6172390000002
 31
0.0
  0
LINE
  5
7E0B
  8
3
  6
CONTINUOUS
 62
     0
 10
3073.380545121769
 20
5182.4451959999988
 30
0.0
 11
3073.380545121769
 21
5328.6172390000002
 31
0.0
  0
LINE
  5
7E0C
  8
3
  6
CONTINUOUS
 62
     0
 10
3753.380545121769
 20
5288.6172390000002
 30
0.0
 11
3153.380545121769
 21
5288.6172390000002
 31
0.0
  0
INSERT
  5
7E0D
  8
3
  6
CONTINUOUS
 62
     0
  2
_OPEN
 10
3833.380545121769
 20
5288.6172390000002
 30
0.0
 41
80.0
 42
80.0
 43
80.0
  0
INSERT
  5
7E0E
  8
3
  6
CONTINUOUS
 62
     0
  2
_OPEN
 10
3073.380545121769
 20
5288.6172390000002
 30
0.0
 41
80.0
 42
80.0
 43
80.0
 50
180.0
  0
TEXT
  8
3
  40
120
  5
7E7F
  62
0
  72
0
  71
0
 10
3205.43
 20
5176.22
 30
0.000000
  1
760
  0
POINT
  5
7E10
  8
DEFPOINTS
  6
CONTINUOUS
 62
     0
 10
3833.380545121769
 20
5096.5801579999998
 30
0.0
  0
POINT
  5
7E11
  8
DEFPOINTS
  6
CONTINUOUS
 62
     0
 10
3073.380545121769
 20
5162.4451959999997
 30
0.0
  0
POINT
  5
7E12
  8
DEFPOINTS
  6
CONTINUOUS
 62
     0
 10
3073.380545121769
 20
5288.6172390000002
 30
0.0
  0
ENDBLK
  5
7B20
  8
0
  0
BLOCK
  8
0
  2
*D5
 70
     1
 10
0.0
 20
0.0
 30
0.0
  3
*D5
  1

  0
LINE
  5
7E13
  8
3
  6
CONTINUOUS
 62
     0
 10
3733.380545121769
 20
2985.5801579999988
 30
0.0
 11
3733.380545121769
 21
2676.9390399999988
 31
0.0
  0
LINE
  5
7E14
  8
3
  6
CONTINUOUS
 62
     0
 10
3073.380545121769
 20
2823.7017179999998
 30
0.0
 11
3073.380545121769
 21
2676.9390399999988
 31
0.0
  0
LINE
  5
7E15
  8
3
  6
CONTINUOUS
 62
     0
 10
3813.3805451217681
 20
2716.9390399999988
 30
0.0
 11
3893.380545121769
 21
2716.9390399999988
 31
0.0
  0
LINE
  5
7E16
  8
3
  6
CONTINUOUS
 62
     0
 10
2993.380545121769
 20
2716.9390399999988
 30
0.0
 11
2913.380545121769
 21
2716.9390399999988
 31
0.0
  0
LINE
  5
7E17
  8
3
  6
CONTINUOUS
 62
     0
 10
3733.380545121769
 20
2716.9390399999988
 30
0.0
 11
3073.380545121769
 21
2716.9390399999988
 31
0.0
  0
INSERT
  5
7E18
  8
3
  6
CONTINUOUS
 62
     0
  2
_OPEN
 10
3733.380545121769
 20
2716.9390399999988
 30
0.0
 41
80.0
 42
80.0
 43
80.0
 50
180.0
  0
INSERT
  5
7E19
  8
3
  6
CONTINUOUS
 62
     0
  2
_OPEN
 10
3073.380545121769
 20
2716.9390399999988
 30
0.0
 41
80.0
 42
80.0
 43
80.0
  0
TEXT
  8
3
  40
120
  5
7E80
  62
0
  72
0
  71
0
 10
3219.09
 20
2604.54
 30
0.000000
  1
660
  0
POINT
  5
7E1B
  8
DEFPOINTS
  6
CONTINUOUS
 62
     0
 10
3733.380545121769
 20
3005.5801579999988
 30
0.0
  0
POINT
  5
7E1C
  8
DEFPOINTS
  6
CONTINUOUS
 62
     0
 10
3073.380545121769
 20
2843.7017179999998
 30
0.0
  0
POINT
  5
7E1D
  8
DEFPOINTS
  6
CONTINUOUS
 62
     0
 10
3073.380545121769
 20
2716.9390399999988
 30
0.0
  0
ENDBLK
  5
7B2D
  8
0
  0
BLOCK
  8
0
  2
*D6
 70
     1
 10
0.0
 20
0.0
 30
0.0
  3
*D6
  1

  0
LINE
  5
7E1E
  8
3
  6
CONTINUOUS
 62
     0
 10
1373.380545121769
 20
2985.5801579999988
 30
0.0
 11
1373.380545121769
 21
2676.9390399999988
 31
0.0
  0
LINE
  5
7E1F
  8
3
  6
CONTINUOUS
 62
     0
 10
2993.380545121769
 20
2716.9390399999988
 30
0.0
 11
1453.380545121769
 21
2716.9390399999988
 31
0.0
  0
INSERT
  5
7E20
  8
3
  6
CONTINUOUS
 62
     0
  2
_OPEN
 10
3073.380545121769
 20
2716.9390399999988
 30
0.0
 41
80.0
 42
80.0
 43
80.0
  0
INSERT
  5
7E21
  8
3
  6
CONTINUOUS
 62
     0
  2
_OPEN
 10
1373.380545121769
 20
2716.9390399999988
 30
0.0
 41
80.0
 42
80.0
 43
80.0
 50
180.0
  0
TEXT
  8
3
  40
120
  5
7E81
  62
0
  72
0
  71
0
 10
1983.38
 20
2604.54
 30
0.000000
  1
1700
  0
POINT
  5
7E23
  8
DEFPOINTS
  6
CONTINUOUS
 62
     0
 10
3073.380545121769
 20
2843.7017179999998
 30
0.0
  0
POINT
  5
7E24
  8
DEFPOINTS
  6
CONTINUOUS
 62
     0
 10
1373.380545121769
 20
3005.5801579999988
 30
0.0
  0
POINT
  5
7E25
  8
DEFPOINTS
  6
CONTINUOUS
 62
     0
 10
1373.380545121769
 20
2716.9390399999988
 30
0.0
  0
ENDBLK
  5
7B39
  8
0
  0
BLOCK
  8
0
  2
*D7
 70
     1
 10
0.0
 20
0.0
 30
0.0
  3
*D7
  1

  0
LINE
  5
7E26
  8
3
  6
CONTINUOUS
 62
     0
 10
6630.7377571657789
 20
5063.5801579999998
 30
0.0
 11
6630.7377571657789
 21
5298.8868430000002
 31
0.0
  0
LINE
  5
7E27
  8
3
  6
CONTINUOUS
 62
     0
 10
5780.737757165778
 20
5063.5801579999998
 30
0.0
 11
5780.737757165778
 21
5298.8868430000002
 31
0.0
  0
LINE
  5
7E28
  8
3
  6
CONTINUOUS
 62
     0
 10
6550.737757165778
 20
5258.8868430000002
 30
0.0
 11
5860.737757165778
 21
5258.8868430000002
 31
0.0
  0
INSERT
  5
7E29
  8
3
  6
CONTINUOUS
 62
     0
  2
_OPEN
 10
6630.7377571657789
 20
5258.8868430000002
 30
0.0
 41
80.0
 42
80.0
 43
80.0
  0
INSERT
  5
7E2A
  8
3
  6
CONTINUOUS
 62
     0
  2
_OPEN
 10
5780.737757165778
 20
5258.8868430000002
 30
0.0
 41
80.0
 42
80.0
 43
80.0
 50
180.0
  0
TEXT
  8
3
  40
120
  5
7E82
  62
0
  72
0
  71
0
 10
5963.45
 20
5146.49
 30
0.000000
  1
850
  0
POINT
  5
7E2C
  8
DEFPOINTS
  6
CONTINUOUS
 62
     0
 10
6630.7377571657789
 20
5043.5801579999998
 30
0.0
  0
POINT
  5
7E2D
  8
DEFPOINTS
  6
CONTINUOUS
 62
     0
 10
5780.737757165778
 20
5043.5801579999998
 30
0.0
  0
POINT
  5
7E2E
  8
DEFPOINTS
  6
CONTINUOUS
 62
     0
 10
5780.737757165778
 20
5258.8868430000002
 30
0.0
  0
ENDBLK
  5
7B52
  8
0
  0
BLOCK
  8
0
  2
*D8
 70
     1
 10
0.0
 20
0.0
 30
0.0
  3
*D8
  1

  0
LINE
  5
7E2F
  8
3
  6
CONTINUOUS
 62
     0
 10
6753.7377571657789
 20
4405.5801579999998
 30
0.0
 11
7031.7829151657807
 21
4405.5801579999998
 31
0.0
  0
LINE
  5
7E30
  8
3
  6
CONTINUOUS
 62
     0
 10
6753.7377571657789
 20
3285.5801580000002
 30
0.0
 11
7031.7829151657807
 21
3285.5801580000002
 31
0.0
  0
LINE
  5
7E31
  8
3
  6
CONTINUOUS
 62
     0
 10
6991.7829151657797
 20
4325.5801579999998
 30
0.0
 11
6991.7829151657797
 21
3365.5801579999988
 31
0.0
  0
INSERT
  5
7E32
  8
3
  6
CONTINUOUS
 62
     0
  2
_OPEN
 10
6991.7829151657797
 20
4405.5801579999998
 30
0.0
 41
80.0
 42
80.0
 43
80.0
 50
90.0
  0
INSERT
  5
7E33
  8
3
  6
CONTINUOUS
 62
     0
  2
_OPEN
 10
6991.7829151657797
 20
3285.5801580000002
 30
0.0
 41
80.0
 42
80.0
 43
80.0
 50
270.0
  0
TEXT
  8
3
  40
120
  5
7E83
  62
0
  72
0
  71
0
 10
6651.78
 20
3641.73
 30
0.000000
  1
φ1120
  0
POINT
  5
7E35
  8
DEFPOINTS
  6
CONTINUOUS
 62
     0
 10
6733.7377571657798
 20
4405.5801579999998
 30
0.0
  0
POINT
  5
7E36
  8
DEFPOINTS
  6
CONTINUOUS
 62
     0
 10
6733.7377571657798
 20
3285.5801580000002
 30
0.0
  0
POINT
  5
7E37
  8
DEFPOINTS
  6
CONTINUOUS
 62
     0
 10
6991.7829151657797
 20
3285.5801580000002
 30
0.0
  0
ENDBLK
  5
7C42
  8
0
  0
BLOCK
  8
0
  2
*D9
 70
     1
 10
0.0
 20
0.0
 30
0.0
  3
*D9
  1

  0
LINE
  5
7C2E
  8
0
  6
BYBLOCK
 62
     0
 10
6733.7377571657798
 20
4475.5801579999988
 30
0.0
 11
6733.7377571657798
 21
5544.162507
 31
0.0
  0
LINE
  5
7C2F
  8
0
  6
BYBLOCK
 62
     0
 10
6205.737757165778
 20
5461.6383960000012
 30
0.0
 11
6205.737757165778
 21
5544.162507
 31
0.0
  0
LINE
  5
7C30
  8
0
  6
BYBLOCK
 62
     0
 10
6653.737757165778
 20
5504.162507
 30
0.0
 11
6285.737757165778
 21
5504.162507
 31
0.0
  0
TEXT
  5
7C31
  8
3
 62
     0
 10
6315.4520428800643
 20
5552.0070126464343
 30
0.0
 40
120.0
  1
528
  0
INSERT
  5
7C32
  8
0
  6
BYBLOCK
 62
     0
  2
_OPEN
 10
6733.7377571657798
 20
5504.162507
 30
0.0
 41
80.0
 42
80.0
 43
80.0
  0
INSERT
  5
7C33
  8
0
  6
BYBLOCK
 62
     0
  2
_OPEN
 10
6205.737757165778
 20
5504.162507
 30
0.0
 41
80.0
 42
80.0
 43
80.0
 50
180.0
  0
POINT
  5
7C34
  8
DEFPOINTS
  6
BYBLOCK
 62
     0
 10
6733.7377571657798
 20
4455.5801579999998
 30
0.0
  0
POINT
  5
7C35
  8
DEFPOINTS
  6
BYBLOCK
 62
     0
 10
6205.737757165778
 20
5441.6383960000003
 30
0.0
  0
POINT
  5
7C36
  8
DEFPOINTS
  6
BYBLOCK
 62
     0
 10
6205.737757165778
 20
5504.162507
 30
0.0
  0
ENDBLK
  5
7C37
  8
0
  0
BLOCK
  8
0
  2
*D10
 70
     1
 10
0.0
 20
0.0
 30
0.0
  3
*D10
  1

  0
LINE
  5
7E38
  8
3
  6
CONTINUOUS
 62
     0
 10
5465.737757165778
 20
4243.5801579999988
 30
0.0
 11
5465.737757165778
 21
5544.162507
 31
0.0
  0
LINE
  5
7E39
  8
3
  6
CONTINUOUS
 62
     0
 10
6125.737757165778
 20
5504.162507
 30
0.0
 11
5545.7377571657771
 21
5504.162507
 31
0.0
  0
INSERT
  5
7E3A
  8
3
  6
CONTINUOUS
 62
     0
  2
_OPEN
 10
6205.737757165778
 20
5504.162507
 30
0.0
 41
80.0
 42
80.0
 43
80.0
  0
INSERT
  5
7E3B
  8
3
  6
CONTINUOUS
 62
     0
  2
_OPEN
 10
5465.737757165778
 20
5504.162507
 30
0.0
 41
80.0
 42
80.0
 43
80.0
 50
180.0
  0
TEXT
  8
3
  40
120
  5
7E84
  62
0
  72
0
  71
0
 10
5595.74
 20
5491.76
 30
0.000000
  1
MAX
  0
TEXT
  8
3
  40
120
  5
7E85
  62
0
  72
0
  71
0
 10
5595.74
 20
5335.76
 30
0.000000
  1
850
  0
POINT
  5
7E3D
  8
DEFPOINTS
  6
CONTINUOUS
 62
     0
 10
6205.737757165778
 20
5441.6383960000003
 30
0.0
  0
POINT
  5
7E3E
  8
DEFPOINTS
  6
CONTINUOUS
 62
     0
 10
5465.737757165778
 20
4223.5801579999988
 30
0.0
  0
POINT
  5
7E3F
  8
DEFPOINTS
  6
CONTINUOUS
 62
     0
 10
5465.737757165778
 20
5504.162507
 30
0.0
  0
ENDBLK
  5
7C4C
  8
0
  0
BLOCK
  8
0
  2
*D11
 70
     1
 10
0.0
 20
0.0
 30
0.0
  3
*D11
  1

  0
LINE
  5
7E40
  8
3
  6
CONTINUOUS
 62
     0
 10
5518.737757165778
 20
2985.5801579999988
 30
0.0
 11
5518.737757165778
 21
2706.6694079999988
 31
0.0
  0
LINE
  5
7E41
  8
3
  6
CONTINUOUS
 62
     0
 10
6205.737757165778
 20
2826.0341760000001
 30
0.0
 11
6205.737757165778
 21
2706.6694079999988
 31
0.0
  0
LINE
  5
7E42
  8
3
  6
CONTINUOUS
 62
     0
 10
5598.737757165778
 20
2746.6694079999988
 30
0.0
 11
6125.737757165778
 21
2746.6694079999988
 31
0.0
  0
INSERT
  5
7E43
  8
3
  6
CONTINUOUS
 62
     0
  2
_OPEN
 10
5518.737757165778
 20
2746.6694079999988
 30
0.0
 41
80.0
 42
80.0
 43
80.0
 50
180.0
  0
INSERT
  5
7E44
  8
3
  6
CONTINUOUS
 62
     0
  2
_OPEN
 10
6205.737757165778
 20
2746.6694079999988
 30
0.0
 41
80.0
 42
80.0
 43
80.0
  0
TEXT
  8
3
  40
120
  5
7E86
  62
0
  72
0
  71
0
 10
5628.79
 20
2634.27
 30
0.000000
  1
687
  0
POINT
  5
7E46
  8
DEFPOINTS
  6
CONTINUOUS
 62
     0
 10
5518.737757165778
 20
3005.5801579999988
 30
0.0
  0
POINT
  5
7E47
  8
DEFPOINTS
  6
CONTINUOUS
 62
     0
 10
6205.737757165778
 20
2846.0341760000001
 30
0.0
  0
POINT
  5
7E48
  8
DEFPOINTS
  6
CONTINUOUS
 62
     0
 10
6205.737757165778
 20
2746.6694079999988
 30
0.0
  0
ENDBLK
  5
7B87
  8
0
  0
BLOCK
  8
0
  2
*D12
 70
     1
 10
0.0
 20
0.0
 30
0.0
  3
*D12
  1

  0
LINE
  5
7E49
  8
3
  6
CONTINUOUS
 62
     0
 10
6698.7377571657789
 20
2985.5801579999988
 30
0.0
 11
6698.7377571657789
 21
2706.6694079999988
 31
0.0
  0
LINE
  5
7E4A
  8
3
  6
CONTINUOUS
 62
     0
 10
6285.737757165778
 20
2746.6694079999988
 30
0.0
 11
6618.7377571657789
 21
2746.6694079999988
 31
0.0
  0
TEXT
  8
3
  40
120
  5
7E87
  62
0
  72
0
  71
0
 10
6211.54
 20
2630.22
 30
0.000000
  1
493
  0
INSERT
  5
7E4C
  8
3
  6
CONTINUOUS
 62
     0
  2
_OPEN
 10
6205.737757165778
 20
2746.6694079999988
 30
0.0
 41
80.0
 42
80.0
 43
80.0
 50
180.0
  0
INSERT
  5
7E4D
  8
3
  6
CONTINUOUS
 62
     0
  2
_OPEN
 10
6698.7377571657789
 20
2746.6694079999988
 30
0.0
 41
80.0
 42
80.0
 43
80.0
  0
POINT
  5
7E4E
  8
DEFPOINTS
  6
CONTINUOUS
 62
     0
 10
6205.737757165778
 20
2846.0341760000001
 30
0.0
  0
POINT
  5
7E4F
  8
DEFPOINTS
  6
CONTINUOUS
 62
     0
 10
6698.7377571657789
 20
3005.5801579999988
 30
0.0
  0
POINT
  5
7E50
  8
DEFPOINTS
  6
CONTINUOUS
 62
     0
 10
6698.7377571657789
 20
2746.6694079999988
 30
0.0
  0
ENDBLK
  5
7BE2
  8
0
  0
BLOCK
  8
0
  2
*D13
 70
     1
 10
0.0
 20
0.0
 30
0.0
  3
*D13
  1

  0
LINE
  5
7E51
  8
3
  6
CONTINUOUS
 62
     0
 10
1373.380545121769
 20
7023.864675551793
 30
0.0
 11
1373.380545121769
 21
6557.838742551794
 31
0.0
  0
LINE
  5
7E52
  8
3
  6
CONTINUOUS
 62
     0
 10
3733.380545121769
 20
7023.864675551793
 30
0.0
 11
3733.380545121769
 21
6557.838742551794
 31
0.0
  0
LINE
  5
7E53
  8
3
  6
CONTINUOUS
 62
     0
 10
1453.380545121769
 20
6597.8387425517931
 30
0.0
 11
3653.3805451217681
 21
6597.8387425517931
 31
0.0
  0
INSERT
  5
7E54
  8
3
  6
CONTINUOUS
 62
     0
  2
_OPEN
 10
1373.380545121769
 20
6597.8387425517931
 30
0.0
 41
80.0
 42
80.0
 43
80.0
 50
180.0
  0
INSERT
  5
7E55
  8
3
  6
CONTINUOUS
 62
     0
  2
_OPEN
 10
3733.380545121769
 20
6597.8387425517931
 30
0.0
 41
80.0
 42
80.0
 43
80.0
  0
TEXT
  8
3
  40
120
  5
7E88
  62
0
  72
0
  71
0
 10
2193.99
 20
6485.44
 30
0.000000
  1
2360
  0
POINT
  5
7E57
  8
DEFPOINTS
  6
CONTINUOUS
 62
     0
 10
1373.380545121769
 20
7043.8646755517939
 30
0.0
  0
POINT
  5
7E58
  8
DEFPOINTS
  6
CONTINUOUS
 62
     0
 10
3733.380545121769
 20
7043.8646755517939
 30
0.0
  0
POINT
  5
7E59
  8
DEFPOINTS
  6
CONTINUOUS
 62
     0
 10
3733.380545121769
 20
6597.8387425517931
 30
0.0
  0
ENDBLK
  5
7BA2
  8
0
  0
BLOCK
  8
0
  2
*D14
 70
     1
 10
0.0
 20
0.0
 30
0.0
  3
*D14
  1

  0
LINE
  5
7E5A
  8
3
  6
CONTINUOUS
 62
     0
 10
3753.3805451217681
 20
8223.864675551793
 30
0.0
 11
4199.3903561217703
 21
8223.864675551793
 31
0.0
  0
LINE
  5
7E5B
  8
3
  6
CONTINUOUS
 62
     0
 10
3753.3805451217681
 20
7043.8646755517939
 30
0.0
 11
4199.3903561217703
 21
7043.8646755517939
 31
0.0
  0
LINE
  5
7E5C
  8
3
  6
CONTINUOUS
 62
     0
 10
4159.3903561217703
 20
8143.8646755517921
 30
0.0
 11
4159.3903561217703
 21
7123.864675551793
 31
0.0
  0
INSERT
  5
7E5D
  8
3
  6
CONTINUOUS
 62
     0
  2
_OPEN
 10
4159.3903561217703
 20
8223.864675551793
 30
0.0
 41
80.0
 42
80.0
 43
80.0
 50
90.0
  0
INSERT
  5
7E5E
  8
3
  6
CONTINUOUS
 62
     0
  2
_OPEN
 10
4159.3903561217703
 20
7043.8646755517939
 30
0.0
 41
80.0
 42
80.0
 43
80.0
 50
270.0
  0
TEXT
  8
3
  40
120
  5
7E89
  62
0
  72
0
  71
0
 10
3819.39
 20
7396.27
 30
0.000000
  1
1180
  0
POINT
  5
7E60
  8
DEFPOINTS
  6
CONTINUOUS
 62
     0
 10
3733.380545121769
 20
8223.864675551793
 30
0.0
  0
POINT
  5
7E61
  8
DEFPOINTS
  6
CONTINUOUS
 62
     0
 10
3733.380545121769
 20
7043.8646755517939
 30
0.0
  0
POINT
  5
7E62
  8
DEFPOINTS
  6
CONTINUOUS
 62
     0
 10
4159.3903561217703
 20
7043.8646755517939
 30
0.0
  0
ENDBLK
  5
7BAF
  8
0
  0
BLOCK
  8
0
  2
*D15
 70
     1
 10
0.0
 20
0.0
 30
0.0
  3
*D15
  1

  0
LINE
  5
7E63
  8
3
  6
CONTINUOUS
 62
     0
 10
3753.3805451217681
 20
3005.5801579999988
 30
0.0
 11
4465.5302741217693
 21
3005.5801579999988
 31
0.0
  0
LINE
  5
7E64
  8
3
  6
CONTINUOUS
 62
     0
 10
4425.5302741217693
 20
3765.5801579999988
 30
0.0
 11
4425.5302741217693
 21
3085.5801579999988
 31
0.0
  0
INSERT
  5
7E65
  8
3
  6
CONTINUOUS
 62
     0
  2
_OPEN
 10
4425.5302741217693
 20
3845.5801580000002
 30
0.0
 41
80.0
 42
80.0
 43
80.0
 50
90.0
  0
INSERT
  5
7E66
  8
3
  6
CONTINUOUS
 62
     0
  2
_OPEN
 10
4425.5302741217693
 20
3005.5801579999988
 30
0.0
 41
80.0
 42
80.0
 43
80.0
 50
270.0
  0
TEXT
  8
3
  40
120
  5
7E8A
  62
0
  72
0
  71
0
 10
4085.53
 20
3213.18
 30
0.000000
  1
840
  0
POINT
  5
7E68
  8
DEFPOINTS
  6
CONTINUOUS
 62
     0
 10
3986.1987661217681
 20
3845.5801580000002
 30
0.0
  0
POINT
  5
7E69
  8
DEFPOINTS
  6
CONTINUOUS
 62
     0
 10
3733.380545121769
 20
3005.5801579999988
 30
0.0
  0
POINT
  5
7E6A
  8
DEFPOINTS
  6
CONTINUOUS
 62
     0
 10
4425.5302741217693
 20
3005.5801579999988
 30
0.0
  0
ENDBLK
  5
7BF2
  8
0
  0
BLOCK
  8
0
  2
*D16
 70
     1
 10
0.0
 20
0.0
 30
0.0
  3
*D16
  1

  0
LINE
  5
7E6B
  8
3
  6
CONTINUOUS
 62
     0
 10
2104.3805451217681
 20
3865.5801579999988
 30
0.0
 11
2104.3805451217681
 21
5328.6172390000002
 31
0.0
  0
LINE
  5
7E6C
  8
3
  6
CONTINUOUS
 62
     0
 10
2993.380545121769
 20
5288.6172390000002
 30
0.0
 11
2184.380545121769
 21
5288.6172390000002
 31
0.0
  0
INSERT
  5
7E6D
  8
3
  6
CONTINUOUS
 62
     0
  2
_OPEN
 10
3073.380545121769
 20
5288.6172390000002
 30
0.0
 41
80.0
 42
80.0
 43
80.0
  0
INSERT
  5
7E6E
  8
3
  6
CONTINUOUS
 62
     0
  2
_OPEN
 10
2104.3805451217681
 20
5288.6172390000002
 30
0.0
 41
80.0
 42
80.0
 43
80.0
 50
180.0
  0
TEXT
  8
3
  40
120
  5
7E8B
  62
0
  72
0
  71
0
 10
2348.88
 20
5176.22
 30
0.000000
  1
969
  0
POINT
  5
7E70
  8
DEFPOINTS
  6
CONTINUOUS
 62
     0
 10
3073.380545121769
 20
5162.4451959999997
 30
0.0
  0
POINT
  5
7E71
  8
DEFPOINTS
  6
CONTINUOUS
 62
     0
 10
2104.3805451217681
 20
3845.5801580000002
 30
0.0
  0
POINT
  5
7E72
  8
DEFPOINTS
  6
CONTINUOUS
 62
     0
 10
2104.3805451217681
 20
5288.6172390000002
 30
0.0
  0
ENDBLK
  5
7C21
  8
0
  0
BLOCK
  8
0
  2
*D17
 70
     1
 10
0.0
 20
0.0
 30
0.0
  3
*D17
  1

  0
LINE
  5
7E73
  8
3
 62
     0
 10
1373.380545121769
 20
3150.5801580000002
 30
0.0
 11
1373.380545121769
 21
5553.6524580044488
 31
0.0
  0
LINE
  5
7E74
  8
3
 62
     0
 10
3833.380545121769
 20
5116.5801579999998
 30
0.0
 11
3833.380545121769
 21
5553.6524580044488
 31
0.0
  0
LINE
  5
7E75
  8
3
 62
     0
 10
1453.380545121769
 20
5513.6524580044497
 30
0.0
 11
3753.380545121769
 21
5513.6524580044497
 31
0.0
  0
INSERT
  5
7E76
  8
3
 62
     0
  2
_OPEN
 10
1373.380545121769
 20
5513.6524580044497
 30
0.0
 41
80.0
 42
80.0
 43
80.0
 50
180.0
  0
INSERT
  5
7E77
  8
3
 62
     0
  2
_OPEN
 10
3833.380545121769
 20
5513.6524580044497
 30
0.0
 41
80.0
 42
80.0
 43
80.0
  0
TEXT
  8
3
  40
120
  5
7E8C
  62
0
  72
0
  71
0
 10
2363.49
 20
5401.25
 30
0.000000
  1
2460
  0
POINT
  5
7E79
  8
DEFPOINTS
 62
     0
 10
1373.380545121769
 20
3130.5801579999988
 30
0.0
  0
POINT
  5
7E7A
  8
DEFPOINTS
 62
     0
 10
3833.380545121769
 20
5096.5801579999998
 30
0.0
  0
POINT
  5
7E7B
  8
DEFPOINTS
 62
     0
 10
3833.380545121769
 20
5513.6524580044497
 30
0.0
  0
ENDBLK
  5
7C58
  8
0
  0
ENDSEC
  0
SECTION
  2
ENTITIES
  0
LINE
  5
7A63
  8
1
  6
CONTINUOUS
 10
1473.380545121769
 20
3185.5801580000002
 30
0.0
 11
1923.380545121769
 21
3185.5801580000002
 31
0.0
  0
LINE
  5
7A64
  8
1
  6
CONTINUOUS
 10
3733.380545121769
 20
3130.5801579999988
 30
0.0
 11
1373.380545121769
 21
3130.5801579999988
 31
0.0
  0
LINE
  5
7A65
  8
1
  6
CONTINUOUS
 10
3733.380545121769
 20
3005.5801579999988
 30
0.0
 11
1373.380545121769
 21
3005.5801579999988
 31
0.0
  0
ARC
  5
7A66
  8
1
  6
CONTINUOUS
 10
2991.380545121769
 20
3927.5801579999988
 30
0.0
 40
890.20000000000005
 50
180.0
 51
275.10000000000002
  0
ARC
  5
7A67
  8
1
  6
CONTINUOUS
 10
3155.380545121769
 20
3927.5801579999988
 30
0.0
 40
1054.2
 50
94.500000000000014
 51
180.0
  0
LINE
  5
7A68
  8
1
  6
CONTINUOUS
 10
1473.380545121769
 20
3130.5801579999988
 30
0.0
 11
1923.380545121769
 21
3130.5801579999988
 31
0.0
  0
LINE
  5
7A69
  8
1
  6
CONTINUOUS
 10
1646.7805451217689
 20
3473.8801579999999
 30
0.0
 11
2953.7805451217691
 21
4096.5801579999998
 31
0.0
  0
LINE
  5
7A6A
  8
1
  6
CONTINUOUS
 10
1603.7805451217689
 20
3564.1801580000001
 30
0.0
 11
2910.7805451217691
 21
4186.8801579999999
 31
0.0
  0
LINE
  5
7A6B
  8
1
  6
CONTINUOUS
 10
1725.380545121769
 20
3248.6801579999992
 30
0.0
 11
3135.980545121769
 21
3574.6801579999992
 31
0.0
  0
LINE
  5
7A6C
  8
1
  6
CONTINUOUS
 10
1747.880545121769
 20
3151.280158
 30
0.0
 11
3158.480545121769
 21
3477.280158
 31
0.0
  0
ARC
  5
7A6D
  8
1
  6
CONTINUOUS
 10
1698.380545121769
 20
3365.5801579999988
 30
0.0
 40
199.0
 50
320.10000000000002
 51
219.90000000000001
  0
ARC
  5
7A6E
  8
1
  6
CONTINUOUS
 10
1698.380545121769
 20
3365.5801579999988
 30
0.0
 40
220.0
 50
115.4999999999999
 51
283.0
  0
CIRCLE
  5
7A6F
  8
1
  6
CONTINUOUS
 10
1698.380545121769
 20
3365.5801579999988
 30
0.0
 40
120.0
  0
LINE
  5
7A70
  8
2
  6
CENTER
 10
1578.380545121769
 20
3365.5801579999988
 30
0.0
 11
1818.380545121769
 21
3365.5801579999988
 31
0.0
  0
LINE
  5
7A71
  8
1
  6
CONTINUOUS
 10
1536.414679910524
 20
3185.5316813177369
 30
0.0
 11
1536.414679910524
 21
3228.0316813177369
 31
0.0
  0
LINE
  5
7A72
  8
1
  6
CONTINUOUS
 10
1536.414679910524
 20
3228.0316813177369
 30
0.0
 11
1545.714679910524
 21
3237.931681317737
 31
0.0
  0
LINE
  5
7A73
  8
1
  6
CONTINUOUS
 10
1373.380545121769
 20
3130.5801579999988
 30
0.0
 11
1373.380545121769
 21
3005.5801579999988
 31
0.0
  0
LINE
  5
7A74
  8
1
  6
CONTINUOUS
 10
1473.380545121769
 20
3130.5801579999988
 30
0.0
 11
1473.380545121769
 21
3185.5801580000002
 31
0.0
  0
LINE
  5
7A75
  8
1
  6
CONTINUOUS
 10
1860.380545121769
 20
3185.5801580000002
 30
0.0
 11
1860.380545121769
 21
3228.0801579999988
 31
0.0
  0
LINE
  5
7A76
  8
1
  6
CONTINUOUS
 10
1860.380545121769
 20
3228.0801579999988
 30
0.0
 11
1851.0805451217691
 21
3237.9801579999998
 31
0.0
  0
LINE
  5
7A77
  8
2
  6
CENTER
 10
1698.380545121769
 20
3245.5801580000002
 30
0.0
 11
1698.380545121769
 21
3485.5801579999988
 31
0.0
  0
CIRCLE
  5
7A78
  8
1
  6
CONTINUOUS
 10
3073.380545121769
 20
3845.5801580000002
 30
0.0
 40
278.0
  0
CIRCLE
  5
7A79
  8
1
  6
CONTINUOUS
 10
3073.380545121769
 20
3845.5801580000002
 30
0.0
 40
610.0
  0
CIRCLE
  5
7A7A
  8
1
  6
CONTINUOUS
 10
3073.380545121769
 20
3845.5801580000002
 30
0.0
 40
560.0
  0
ARC
  5
7A7B
  8
1
  6
CONTINUOUS
 10
3004.880545121769
 20
3777.0801579999988
 30
0.0
 40
739.10000000000002
 50
275.10000000000002
 51
0.0
  0
LINE
  5
7A7C
  8
1
  6
CONTINUOUS
 10
3833.380545121769
 20
5043.5801579999998
 30
0.0
 11
3073.380545121769
 21
4978.5801579999988
 31
0.0
  0
ARC
  5
7A7D
  8
1
  6
CONTINUOUS
 10
3073.380545121769
 20
3845.5801580000002
 30
0.0
 40
378.0
 50
283.0
 51
115.4999999999999
  0
LINE
  5
7A7E
  8
2
  6
CENTER
 10
1831.366623121769
 20
3845.5801580000002
 30
0.0
 11
3986.1987661217681
 21
3845.5801580000002
 31
0.0
  0
LINE
  5
7A7F
  8
1
  6
CONTINUOUS
 10
1923.380545121769
 20
3130.5801579999988
 30
0.0
 11
1923.380545121769
 21
3185.5801580000002
 31
0.0
  0
LINE
  5
7A80
  8
2
  6
CENTER
 10
3073.380545121769
 20
2843.7017179999998
 30
0.0
 11
3073.380545121769
 21
5162.4451959999997
 31
0.0
  0
LINE
  5
7A81
  8
1
  6
CONTINUOUS
 10
3793.380545121769
 20
3893.5801579999988
 30
0.0
 11
3793.380545121769
 21
5040.1801580000001
 31
0.0
  0
LINE
  5
7A82
  8
1
  6
CONTINUOUS
 10
3833.380545121769
 20
3840.5801579999988
 30
0.0
 11
3833.380545121769
 21
5096.5801579999998
 31
0.0
  0
LINE
  5
7A83
  8
1
  6
CONTINUOUS
 10
3733.380545121769
 20
3130.5801579999988
 30
0.0
 11
3733.380545121769
 21
3005.5801579999988
 31
0.0
  0
ARC
  5
7A84
  8
1
  6
CONTINUOUS
 10
3141.880545121769
 20
3777.0801579999988
 30
0.0
 40
602.10000000000002
 50
0.0
 51
11.19999999999999
  0
LINE
  5
7A85
  8
1
  6
CONTINUOUS
 10
3732.5805451217689
 20
3893.5801579999988
 30
0.0
 11
3833.380545121769
 21
3893.5801579999988
 31
0.0
  0
LINE
  5
7A86
  8
1
  6
CONTINUOUS
 10
6698.7377571657789
 20
3130.5801579999988
 30
0.0
 11
5518.737757165778
 21
3130.5801579999988
 31
0.0
  0
LINE
  5
7A87
  8
1
  6
CONTINUOUS
 10
6698.7377571657789
 20
3005.5801579999988
 30
0.0
 11
5518.737757165778
 21
3005.5801579999988
 31
0.0
  0
LINE
  5
7A88
  8
1
  6
CONTINUOUS
 10
5780.737757165778
 20
5043.5801579999998
 30
0.0
 11
6630.7377571657789
 21
5043.5801579999998
 31
0.0
  0
LINE
  5
7A89
  8
1
  6
CONTINUOUS
 10
5780.737757165778
 20
3893.5801579999988
 30
0.0
 11
6630.7377571657789
 21
3893.5801579999988
 31
0.0
  0
LINE
  5
7A8A
  8
1
  6
CONTINUOUS
 10
5780.737757165778
 20
5043.5801579999998
 30
0.0
 11
6630.7377571657789
 21
3893.5801579999988
 31
0.0
  0
LINE
  5
7A8B
  8
1
  6
CONTINUOUS
 10
6630.7377571657789
 20
5043.5801579999998
 30
0.0
 11
5780.737757165778
 21
3893.5801579999988
 31
0.0
  0
LINE
  5
7A8C
  8
1
  6
CONTINUOUS
 10
5780.737757165778
 20
3130.5801579999988
 30
0.0
 11
5780.737757165778
 21
5043.5801579999998
 31
0.0
  0
LINE
  5
7A8D
  8
1
  6
CONTINUOUS
 10
5465.737757165778
 20
4223.5801579999988
 30
0.0
 11
5705.737757165778
 21
4223.5801579999988
 31
0.0
  0
LINE
  5
7A8E
  8
1
  6
CONTINUOUS
 10
5535.737757165778
 20
4123.5801579999998
 30
0.0
 11
5635.7377571657771
 21
4123.5801579999998
 31
0.0
  0
LINE
  5
7A8F
  8
1
  6
CONTINUOUS
 10
5535.737757165778
 20
3485.5801579999988
 30
0.0
 11
5635.7377571657771
 21
3485.5801579999988
 31
0.0
  0
LINE
  5
7A90
  8
1
  6
CONTINUOUS
 10
5535.737757165778
 20
3245.5801580000002
 30
0.0
 11
5635.7377571657771
 21
3245.5801580000002
 31
0.0
  0
LINE
  5
7A91
  8
1
  6
CONTINUOUS
 10
5535.737757165778
 20
3567.5801580000002
 30
0.0
 11
5635.7377571657771
 21
3567.5801580000002
 31
0.0
  0
LINE
  5
7A92
  8
1
  6
CONTINUOUS
 10
5465.737757165778
 20
3145.5801580000002
 30
0.0
 11
5705.737757165778
 21
3145.5801580000002
 31
0.0
  0
LINE
  5
7A93
  8
1
  6
CONTINUOUS
 10
5465.737757165778
 20
3145.5801580000002
 30
0.0
 11
5465.737757165778
 21
4223.5801579999988
 31
0.0
  0
LINE
  5
7A94
  8
1
  6
CONTINUOUS
 10
5518.737757165778
 20
3005.5801579999988
 30
0.0
 11
5518.737757165778
 21
3130.5801579999988
 31
0.0
  0
LINE
  5
7A95
  8
1
  6
CONTINUOUS
 10
5535.737757165778
 20
3485.5801579999988
 30
0.0
 11
5535.737757165778
 21
3245.5801580000002
 31
0.0
  0
LINE
  5
7A96
  8
1
  6
CONTINUOUS
 10
5535.737757165778
 20
4123.5801579999998
 30
0.0
 11
5535.737757165778
 21
3567.5801580000002
 31
0.0
  0
LINE
  5
7A97
  8
1
  6
CONTINUOUS
 10
5705.737757165778
 20
3145.5801580000002
 30
0.0
 11
5705.737757165778
 21
4223.5801579999988
 31
0.0
  0
LINE
  5
7A98
  8
1
  6
CONTINUOUS
 10
5635.7377571657771
 20
3485.5801579999988
 30
0.0
 11
5635.7377571657771
 21
3245.5801580000002
 31
0.0
  0
LINE
  5
7A99
  8
1
  6
CONTINUOUS
 10
5635.7377571657771
 20
3393.0801580000002
 30
0.0
 11
5780.737757165778
 21
3393.0801580000002
 31
0.0
  0
LINE
  5
7A9A
  8
1
  6
CONTINUOUS
 10
5635.7377571657771
 20
3338.0801579999988
 30
0.0
 11
5780.737757165778
 21
3338.0801579999988
 31
0.0
  0
LINE
  5
7A9B
  8
1
  6
CONTINUOUS
 10
5635.7377571657771
 20
4123.5801579999998
 30
0.0
 11
5635.7377571657771
 21
3567.5801580000002
 31
0.0
  0
LINE
  5
7A9C
  8
1
  6
CONTINUOUS
 10
5635.7377571657771
 20
3873.0801580000002
 30
0.0
 11
5780.737757165778
 21
3873.0801580000002
 31
0.0
  0
LINE
  5
7A9D
  8
1
  6
CONTINUOUS
 10
5635.7377571657771
 20
3818.0801580000002
 30
0.0
 11
5780.737757165778
 21
3818.0801580000002
 31
0.0
  0
LINE
  5
7A9E
  8
1
  6
CONTINUOUS
 10
6630.7377571657789
 20
3130.5801579999988
 30
0.0
 11
6630.7377571657789
 21
5043.5801579999998
 31
0.0
  0
LINE
  5
7A9F
  8
1
  6
CONTINUOUS
 10
6733.7377571657798
 20
3235.5801579999988
 30
0.0
 11
6733.7377571657798
 21
4455.5801579999998
 31
0.0
  0
LINE
  5
7AA0
  8
1
  6
CONTINUOUS
 10
6698.7377571657789
 20
3005.5801579999988
 30
0.0
 11
6698.7377571657789
 21
3130.5801579999988
 31
0.0
  0
LINE
  5
7AA1
  8
1
  6
CONTINUOUS
 10
6630.7377571657789
 20
3285.5801580000002
 30
0.0
 11
6733.7377571657798
 21
3285.5801580000002
 31
0.0
  0
LINE
  5
7AA2
  8
1
  6
CONTINUOUS
 10
6630.7377571657789
 20
4405.5801579999998
 30
0.0
 11
6733.7377571657798
 21
4405.5801579999998
 31
0.0
  0
LINE
  5
7AA3
  8
1
  6
CONTINUOUS
 10
1373.380545121769
 20
8223.864675551793
 30
0.0
 11
2513.380545121769
 21
8223.864675551793
 31
0.0
  0
LINE
  5
7AA4
  8
1
  6
CONTINUOUS
 10
1373.380545121769
 20
7043.8646755517939
 30
0.0
 11
3733.380545121769
 21
7043.8646755517939
 31
0.0
  0
LINE
  5
7AA5
  8
1
  6
CONTINUOUS
 10
1478.380545121769
 20
6990.8646755517939
 30
0.0
 11
3451.380545121769
 21
6990.8646755517939
 31
0.0
  0
LINE
  5
7AA6
  8
1
  6
CONTINUOUS
 10
1478.380545121769
 20
7230.8646755517921
 30
0.0
 11
3451.380545121769
 21
7230.8646755517921
 31
0.0
  0
LINE
  5
7AA7
  8
1
  6
CONTINUOUS
 10
1373.380545121769
 20
8223.864675551793
 30
0.0
 11
1373.380545121769
 21
7043.8646755517939
 31
0.0
  0
LINE
  5
7AA8
  8
1
  6
CONTINUOUS
 10
1670.880545121769
 20
7160.8646755517939
 30
0.0
 11
1670.880545121769
 21
7279.5646755517928
 31
0.0
  0
LINE
  5
7AA9
  8
1
  6
CONTINUOUS
 10
1725.880545121769
 20
7160.8646755517939
 30
0.0
 11
1725.880545121769
 21
7279.5646755517928
 31
0.0
  0
LINE
  5
7AAA
  8
1
  6
CONTINUOUS
 10
1818.380545121769
 20
7160.8646755517939
 30
0.0
 11
1578.380545121769
 21
7160.8646755517939
 31
0.0
  0
LINE
  5
7AAB
  8
1
  6
CONTINUOUS
 10
1818.380545121769
 20
7060.8646755517939
 30
0.0
 11
1578.380545121769
 21
7060.8646755517939
 31
0.0
  0
LINE
  5
7AAC
  8
1
  6
CONTINUOUS
 10
1578.380545121769
 20
7060.8646755517939
 30
0.0
 11
1578.380545121769
 21
7160.8646755517939
 31
0.0
  0
LINE
  5
7AAD
  8
1
  6
CONTINUOUS
 10
1478.380545121769
 20
6990.8646755517939
 30
0.0
 11
1478.380545121769
 21
7230.8646755517921
 31
0.0
  0
LINE
  5
7AAE
  8
1
  6
CONTINUOUS
 10
1818.380545121769
 20
7060.8646755517939
 30
0.0
 11
1818.380545121769
 21
7160.8646755517939
 31
0.0
  0
LINE
  5
7AAF
  8
1
  6
CONTINUOUS
 10
1499.2805451217689
 20
7279.5646755517928
 30
0.0
 11
1897.480545121769
 21
7279.5646755517928
 31
0.0
  0
LINE
  5
7AB0
  8
1
  6
CONTINUOUS
 10
1499.2805451217689
 20
7879.0646755517937
 30
0.0
 11
1897.480545121769
 21
7879.0646755517937
 31
0.0
  0
LINE
  5
7AB1
  8
1
  6
CONTINUOUS
 10
1499.2805451217689
 20
7279.5646755517928
 30
0.0
 11
1499.2805451217689
 21
7879.0646755517937
 31
0.0
  0
LINE
  5
7AB2
  8
1
  6
CONTINUOUS
 10
1897.480545121769
 20
7279.5646755517928
 30
0.0
 11
1897.480545121769
 21
7879.0646755517937
 31
0.0
  0
LINE
  5
7AB3
  8
1
  6
CONTINUOUS
 10
2101.1805451217688
 20
8155.864675551793
 30
0.0
 11
3833.380545121769
 21
8155.864675551793
 31
0.0
  0
LINE
  5
7AB4
  8
1
  6
CONTINUOUS
 10
2101.1805451217688
 20
7305.8646755517921
 30
0.0
 11
3833.380545121769
 21
7305.8646755517921
 31
0.0
  0
LINE
  5
7AB5
  8
1
  6
CONTINUOUS
 10
2463.3805451217681
 20
8258.864675551793
 30
0.0
 11
3683.380545121769
 21
8258.864675551793
 31
0.0
  0
LINE
  5
7AB6
  8
1
  6
CONTINUOUS
 10
3351.380545121769
 20
7060.8646755517939
 30
0.0
 11
2795.380545121769
 21
7060.8646755517939
 31
0.0
  0
LINE
  5
7AB7
  8
1
  6
CONTINUOUS
 10
3351.380545121769
 20
7160.8646755517939
 30
0.0
 11
2795.380545121769
 21
7160.8646755517939
 31
0.0
  0
LINE
  5
7AB8
  8
1
  6
CONTINUOUS
 10
2101.1805451217688
 20
7305.8646755517921
 30
0.0
 11
2101.1805451217688
 21
8155.864675551793
 31
0.0
  0
LINE
  5
7AB9
  8
1
  6
CONTINUOUS
 10
3100.880545121769
 20
7305.8646755517921
 30
0.0
 11
3100.880545121769
 21
7160.8646755517939
 31
0.0
  0
LINE
  5
7ABA
  8
1
  6
CONTINUOUS
 10
3045.880545121769
 20
7305.8646755517921
 30
0.0
 11
3045.880545121769
 21
7160.8646755517939
 31
0.0
  0
LINE
  5
7ABB
  8
1
  6
CONTINUOUS
 10
2795.380545121769
 20
7060.8646755517939
 30
0.0
 11
2795.380545121769
 21
7160.8646755517939
 31
0.0
  0
LINE
  5
7ABC
  8
1
  6
CONTINUOUS
 10
2513.380545121769
 20
8258.864675551793
 30
0.0
 11
2513.380545121769
 21
8155.864675551793
 31
0.0
  0
LINE
  5
7ABD
  8
1
  6
CONTINUOUS
 10
3833.380545121769
 20
7255.864675551793
 30
0.0
 11
3833.380545121769
 21
8205.8646755517912
 31
0.0
  0
LINE
  5
7ABE
  8
1
  6
CONTINUOUS
 10
3351.380545121769
 20
7060.8646755517939
 30
0.0
 11
3351.380545121769
 21
7160.8646755517939
 31
0.0
  0
LINE
  5
7ABF
  8
1
  6
CONTINUOUS
 10
3451.380545121769
 20
6990.8646755517939
 30
0.0
 11
3451.380545121769
 21
7230.8646755517921
 31
0.0
  0
LINE
  5
7AC0
  8
1
  6
CONTINUOUS
 10
3733.380545121769
 20
7305.8646755517921
 30
0.0
 11
3733.380545121769
 21
7043.8646755517939
 31
0.0
  0
LINE
  5
7AC1
  8
1
  6
CONTINUOUS
 10
3633.380545121769
 20
8223.864675551793
 30
0.0
 11
3733.380545121769
 21
8223.864675551793
 31
0.0
  0
LINE
  5
7AC2
  8
1
  6
CONTINUOUS
 10
3633.380545121769
 20
8258.864675551793
 30
0.0
 11
3633.380545121769
 21
8155.864675551793
 31
0.0
  0
LINE
  5
7AC3
  8
1
  6
CONTINUOUS
 10
3733.380545121769
 20
8223.864675551793
 30
0.0
 11
3733.380545121769
 21
8155.864675551793
 31
0.0
  0
LINE
  5
7AC4
  8
2
  6
CENTER
 10
6205.737757165778
 20
5275.9646679999996
 30
0.0
 11
6205.737757165778
 21
2846.0341760000001
 31
0.0
  0
LINE
  5
7AC5
  8
2
  6
CENTER
 10
1268.2202041217679
 20
7730.8646755517921
 30
0.0
 11
3968.0909271217679
 21
7730.8646755517921
 31
0.0
  0
LINE
  5
7AC6
  8
2
  6
CENTER
 10
3073.380545121769
 20
6806.5835495517931
 30
0.0
 11
3073.380545121769
 21
8417.2130855517935
 31
0.0
  0
LINE
  5
7AC7
  8
2
  6
CENTER
 10
5324.4536461657781
 20
3845.5801580000002
 30
0.0
 11
6798.4193141657779
 21
3845.5801580000002
 31
0.0
  0
LINE
  5
7AC8
  8
4
  6
CONTINUOUS
 10
7400.0
 20
2000.0
 30
0.0
 11
7400.0
 21
1200.0
 31
0.0
  0
LINE
  5
7AC9
  8
4
  6
CONTINUOUS
 10
4600.0
 20
2000.0
 30
0.0
 11
4600.0
 21
1200.0
 31
0.0
  0
LINE
  5
7ACA
  8
4
  6
CONTINUOUS
 10
2600.0
 20
2000.0
 30
0.0
 11
2600.0
 21
1200.0
 31
0.0
  0
LINE
  5
7ACD
  8
4
  6
CONTINUOUS
 10
2600.0
 20
1200.0
 30
0.0
 11
7400.0
 21
1200.0
 31
0.0
  0
LINE
  5
7ACE
  8
4
  6
CONTINUOUS
 10
2600.0
 20
1600.0
 30
0.0
 11
7400.0
 21
1600.0
 31
0.0
  0
TEXT
  5
7ACF
  8
4
  6
CONTINUOUS
 10
2754.008323
 20
1726.1721030000001
 30
0.0
 40
200.0
  1
機器名称
  0
TEXT
  5
7AD0
  8
4
  6
CONTINUOUS
 10
2745.032424
 20
1286.580627
 30
0.0
 40
200.0
  1
機器型番
  0
TEXT
  5
7AD1
  8
4
  6
CONTINUOUS
 10
4710.7149820000004
 20
1690.2870760000001
 30
0.0
 40
200.0
  1
ミツヤ多翼送風機
  0
TEXT
  5
7AD2
  8
4
  6
CONTINUOUS
 10
4746.6179819999998
 20
1268.6383370000001
 30
0.0
 40
200.0
  1
MFE#7-4
  0
TEXT
  5
7AD4
  8
4
  6
CONTINUOUS
 10
3619.1430620000001
 20
9533.715365
 30
0.0
 40
216.0
  1
床置ベット
  0
TEXT
  5
7AD5
  8
4
  6
CONTINUOUS
 10
1264.6703729999999
 20
10135.523905
 30
0.0
 40
288.0
  1
ベルト駆動式片吸込両持排煙ファン
  0
LINE
  5
7AD6
  8
4
  6
CONTINUOUS
 10
1000.0
 20
9877.6350170000005
 30
0.0
 11
7400.0
 21
9877.6350170000005
 31
0.0
  0
LINE
  5
7AD7
  8
4
  6
CONTINUOUS
 10
1000.0
 20
10677.635017000001
 30
0.0
 11
7400.0
 21
10677.635017000001
 31
0.0
  0
LINE
  5
7AD8
  8
4
  6
CONTINUOUS
 10
2600.0
 20
2000.0
 30
0.0
 11
7400.0
 21
2000.0
 31
0.0
  0
LINE
  5
7AD9
  8
4
  6
CONTINUOUS
 10
1000.0
 20
10677.635017000001
 30
0.0
 11
1000.0
 21
9877.6350170000005
 31
0.0
  0
TEXT
  5
7ADA
  8
4
  6
CONTINUOUS
 10
1568.367872
 20
9529.2779099999989
 30
0.0
 40
216.0
  1
右回転右横向
  0
TEXT
  5
7ADB
  8
4
  6
CONTINUOUS
 10
5875.8782369999999
 20
10824.244326
 30
0.0
 40
224.0
  1
No.
  0
TEXT
  5
7ADC
  8
4
  6
CONTINUOUS
 10
5245.1842500000012
 20
9533.715365
 30
0.0
 40
216.0
  1
縮尺：1/40
  0
LINE
  5
7ADD
  8
4
  6
CONTINUOUS
 10
7400.0
 20
10677.635017000001
 30
0.0
 11
7400.0
 21
9877.6350170000005
 31
0.0
  0
LINE
  5
7ADF
  8
4
  6
CONTINUOUS
 10
5762.4696889999996
 20
10725.054333
 30
0.0
 11
5762.4696889999996
 21
11146.609046
 31
0.0
  0
LINE
  5
7AE0
  8
4
  6
CONTINUOUS
 10
5762.4696889999996
 20
11146.609046
 30
0.0
 11
7400.0
 21
11146.609046
 31
0.0
  0
LINE
  5
7AE1
  8
4
  6
CONTINUOUS
 10
7400.0
 20
11146.609046
 30
0.0
 11
7400.0
 21
10725.054333
 31
0.0
  0
LINE
  5
7AE2
  8
4
  6
CONTINUOUS
 10
7400.0
 20
10725.054333
 30
0.0
 11
5762.4696889999996
 21
10725.054333
 31
0.0
  0
DIMENSION
  5
7AFA
  8
3
  6
CONTINUOUS
  2
*D1
 10
4156.0224951217697
 20
3893.5801579999988
 30
0.0
 11
4156.0224951217688
 21
4468.153096
 31
0.0
 70
   128
 13
3833.380545121769
 23
5043.5801579999998
 33
0.0
 14
3833.380545121769
 24
3893.5801579999988
 34
0.0
 50
90.0
1001
ACAD
1000
DSTYLE
1002
{
1070
   287
1070
     3
1070
   287
1070
     3
1070
    40
1040
40.0
1070
   143
1040
0.039
1070
   172
1070
     1
1070
   271
1070
     0
1070
   279
1070
     0
1070
   288
1070
     1
1002
}
  0
DIMENSION
  5
7B07
  8
3
  6
CONTINUOUS
  2
*D2
 10
4425.5302741217702
 20
3845.5801580000002
 30
0.0
 11
4425.5302741217693
 21
4458.5335960000002
 31
0.0
 70
   128
 13
3833.380545121769
 23
5043.5801579999998
 33
0.0
 14
3986.1987661217681
 24
3845.5801580000002
 34
0.0
 50
90.0
1001
ACAD
1000
DSTYLE
1002
{
1070
   287
1070
     3
1070
   287
1070
     3
1070
    40
1040
40.0
1070
   143
1040
0.039
1070
   172
1070
     1
1070
   271
1070
     0
1070
   279
1070
     0
1070
   288
1070
     1
1002
}
  0
DIMENSION
  5
7B14
  8
3
  6
CONTINUOUS
  2
*D3
 10
4709.732920121769
 20
3005.5801579999988
 30
0.0
 11
4709.7329201217681
 21
3958.1825450000001
 31
0.0
 70
   128
 13
3833.380545121769
 23
5096.5801579999998
 33
0.0
 14
3733.380545121769
 24
3005.5801579999988
 34
0.0
 50
90.0
1001
ACAD
1000
DSTYLE
1002
{
1070
   287
1070
     3
1070
   287
1070
     3
1070
    40
1040
40.0
1070
   143
1040
0.039
1070
   172
1070
     1
1070
   271
1070
     0
1070
   279
1070
     0
1070
   288
1070
     1
1002
}
  0
DIMENSION
  5
7B21
  8
3
  6
CONTINUOUS
  2
*D4
 10
3073.380545121769
 20
5288.6172390000002
 30
0.0
 11
3445.4324741217688
 21
5288.6172390000002
 31
0.0
 70
   128
 13
3833.380545121769
 23
5096.5801579999998
 33
0.0
 14
3073.380545121769
 24
5162.4451959999997
 34
0.0
1001
ACAD
1000
DSTYLE
1002
{
1070
   287
1070
     3
1070
   287
1070
     3
1070
    40
1040
40.0
1070
   143
1040
0.039
1070
   172
1070
     1
1070
   271
1070
     0
1070
   279
1070
     0
1070
   288
1070
     1
1002
}
  0
DIMENSION
  5
7B2E
  8
3
  6
CONTINUOUS
  2
*D5
 10
3073.380545121769
 20
2716.9390399999988
 30
0.0
 11
3459.0948311217689
 21
2716.9390399999988
 31
0.0
 70
   128
 13
3733.380545121769
 23
3005.5801579999988
 33
0.0
 14
3073.380545121769
 24
2843.7017179999998
 34
0.0
1001
ACAD
1000
DSTYLE
1002
{
1070
   287
1070
     3
1070
   287
1070
     3
1070
    40
1040
40.0
1070
   143
1040
0.039
1070
   172
1070
     1
1070
   271
1070
     0
1070
   279
1070
     0
1070
   288
1070
     1
1002
}
  0
DIMENSION
  5
7B3A
  8
3
  6
CONTINUOUS
  2
*D6
 10
1373.380545121769
 20
2716.9390399999988
 30
0.0
 11
2223.380545121769
 21
2816.9390399999988
 31
0.0
 70
     0
 13
3073.380545121769
 23
2843.7017179999998
 33
0.0
 14
1373.380545121769
 24
3005.5801579999988
 34
0.0
1001
ACAD
1000
DSTYLE
1002
{
1070
   287
1070
     4
1070
   287
1070
     4
1070
    40
1040
40.0
1070
    75
1070
     1
1070
   143
1040
0.039
1070
   172
1070
     1
1070
   271
1070
     0
1070
   279
1070
     1
1070
   288
1070
     1
1002
}
  0
DIMENSION
  5
7B53
  8
3
  6
CONTINUOUS
  2
*D7
 10
5780.737757165778
 20
5258.8868430000002
 30
0.0
 11
6203.4543911657784
 21
5258.8868430000002
 31
0.0
 70
   128
 13
6630.7377571657789
 23
5043.5801579999998
 33
0.0
 14
5780.737757165778
 24
5043.5801579999998
 34
0.0
1001
ACAD
1000
DSTYLE
1002
{
1070
   287
1070
     3
1070
   287
1070
     3
1070
    40
1040
40.0
1070
   143
1040
0.039
1070
   172
1070
     1
1070
   271
1070
     0
1070
   279
1070
     0
1070
   288
1070
     1
1002
}
  0
DIMENSION
  5
7B60
  8
3
  6
CONTINUOUS
  2
*D8
 10
6991.7829151657797
 20
3285.5801580000002
 30
0.0
 11
6991.7829151657779
 21
3854.1262000000002
 31
0.0
 70
   128
 13
6733.7377571657798
 23
4405.5801579999998
 33
0.0
 14
6733.7377571657798
 24
3285.5801580000002
 34
0.0
 50
90.0
1001
ACAD
1000
DSTYLE
1002
{
1070
   287
1070
     3
1070
   287
1070
     3
1070
     3
1000
φ<>
1070
    40
1040
40.0
1070
   143
1040
0.039
1070
   172
1070
     1
1070
   271
1070
     0
1070
   279
1070
     0
1070
   288
1070
     1
1002
}
  0
DIMENSION
  5
7B6F
  8
3
  6
CONTINUOUS
  2
*D9
 10
6205.737757165778
 20
5504.162507
 30
0.0
 11
6469.737757165778
 21
5612.0070126464343
 31
0.0
 70
   128
 13
6733.7377571657798
 23
4455.5801579999998
 33
0.0
 14
6205.737757165778
 24
5441.6383960000003
 34
0.0
1001
ACAD
1000
DSTYLE
1002
{
1070
   288
1070
     1
1070
   172
1070
     1
1070
    40
1040
40.0
1070
   271
1070
     0
1070
   143
1040
0.039
1002
}
  0
DIMENSION
  5
7B7B
  8
3
  6
CONTINUOUS
  2
*D10
 10
5465.737757165778
 20
5504.162507
 30
0.0
 11
5835.737757165778
 21
5704.162507
 31
0.0
 70
     0
  1
MAX\P850
 13
6205.737757165778
 23
5441.6383960000003
 33
0.0
 14
5465.737757165778
 24
4223.5801579999988
 34
0.0
1001
ACAD
1000
DSTYLE
1002
{
1070
   287
1070
     4
1070
   287
1070
     4
1070
    40
1040
40.0
1070
    75
1070
     1
1070
   143
1040
0.039
1070
   172
1070
     1
1070
   271
1070
     0
1070
   279
1070
     1
1070
   288
1070
     1
1002
}
  0
DIMENSION
  5
7B88
  8
3
  6
CONTINUOUS
  2
*D11
 10
6205.737757165778
 20
2746.6694079999988
 30
0.0
 11
5868.7866511657803
 21
2746.6694079999988
 31
0.0
 70
   128
 13
5518.737757165778
 23
3005.5801579999988
 33
0.0
 14
6205.737757165778
 24
2846.0341760000001
 34
0.0
1001
ACAD
1000
DSTYLE
1002
{
1070
   287
1070
     3
1070
   287
1070
     3
1070
    40
1040
40.0
1070
   143
1040
0.039
1070
   172
1070
     1
1070
   271
1070
     0
1070
   279
1070
     0
1070
   288
1070
     1
1002
}
  0
DIMENSION
  5
7B96
  8
3
  6
CONTINUOUS
  2
*D12
 10
6698.7377571657789
 20
2746.6694079999988
 30
0.0
 11
6451.5385741657783
 21
2742.6197480000001
 31
0.0
 70
   128
 13
6205.737757165778
 23
2846.0341760000001
 33
0.0
 14
6698.7377571657789
 24
3005.5801579999988
 34
0.0
1001
ACAD
1000
DSTYLE
1002
{
1070
   287
1070
     4
1070
   287
1070
     4
1070
    40
1040
40.0
1070
    75
1070
     1
1070
   143
1040
0.039
1070
   172
1070
     1
1070
   271
1070
     0
1070
   279
1070
     1
1070
   288
1070
     1
1002
}
  0
DIMENSION
  5
7BA3
  8
3
  6
CONTINUOUS
  2
*D13
 10
3733.380545121769
 20
6597.8387425517931
 30
0.0
 11
2433.9921521217689
 21
6597.8387425517931
 31
0.0
 70
   128
 13
1373.380545121769
 23
7043.8646755517939
 33
0.0
 14
3733.380545121769
 24
7043.8646755517939
 34
0.0
1001
ACAD
1000
DSTYLE
1002
{
1070
   287
1070
     3
1070
   287
1070
     3
1070
    40
1040
40.0
1070
   143
1040
0.039
1070
   172
1070
     1
1070
   271
1070
     0
1070
   279
1070
     0
1070
   288
1070
     1
1002
}
  0
DIMENSION
  5
7BB0
  8
3
  6
CONTINUOUS
  2
*D14
 10
4159.3903561217703
 20
7043.8646755517939
 30
0.0
 11
4159.3903561217694
 21
7608.6717955517915
 31
0.0
 70
   128
 13
3733.380545121769
 23
8223.864675551793
 33
0.0
 14
3733.380545121769
 24
7043.8646755517939
 34
0.0
 50
90.0
1001
ACAD
1000
DSTYLE
1002
{
1070
   287
1070
     3
1070
   287
1070
     3
1070
    40
1040
40.0
1070
   143
1040
0.039
1070
   172
1070
     1
1070
   271
1070
     0
1070
   279
1070
     0
1070
   288
1070
     1
1002
}
  0
DIMENSION
  5
7BF3
  8
3
  6
CONTINUOUS
  2
*D15
 10
4425.5302741217693
 20
3005.5801579999988
 30
0.0
 11
4325.5302741217683
 21
3425.5801580000002
 31
0.0
 70
     0
 13
3986.1987661217681
 23
3845.5801580000002
 33
0.0
 14
3733.380545121769
 24
3005.5801579999988
 34
0.0
 50
90.0
1001
ACAD
1000
DSTYLE
1002
{
1070
   287
1070
     4
1070
   287
1070
     4
1070
    40
1040
40.0
1070
    75
1070
     1
1070
   143
1040
0.039
1070
   172
1070
     1
1070
   271
1070
     0
1070
   279
1070
     1
1070
   288
1070
     1
1002
}
  0
DIMENSION
  5
7C0C
  8
3
  6
CONTINUOUS
  2
*D16
 10
2104.3805451217681
 20
5288.6172390000002
 30
0.0
 11
2588.880545121769
 21
5388.6172390000011
 31
0.0
 70
     0
 13
3073.380545121769
 23
5162.4451959999997
 33
0.0
 14
2104.3805451217681
 24
3845.5801580000002
 34
0.0
1001
ACAD
1000
DSTYLE
1002
{
1070
   287
1070
     4
1070
   287
1070
     4
1070
    40
1040
40.0
1070
    75
1070
     1
1070
   143
1040
0.039
1070
   172
1070
     1
1070
   271
1070
     0
1070
   279
1070
     1
1070
   288
1070
     1
1002
}
  0
DIMENSION
  5
7C59
  8
3
  2
*D17
 10
3833.380545121769
 20
5513.6524580044497
 30
0.0
 11
2603.4941003250642
 21
5513.6524580044497
 31
0.0
 70
   128
 13
1373.380545121769
 23
3130.5801579999988
 33
0.0
 14
3833.380545121769
 24
5096.5801579999998
 34
0.0
1001
ACAD
1000
DSTYLE
1002
{
1070
   287
1070
     3
1070
   287
1070
     3
1070
    40
1040
40.0
1070
   143
1040
0.039
1070
   172
1070
     1
1070
   271
1070
     0
1070
   279
1070
     0
1070
   288
1070
     1
1002
}
  0
ENDSEC
  0
EOF
