  0
SECTION
  2
HEADER
  9
$ACADVER
  1
AC1009
  9
$INSBASE
 10
0.0
 20
0.0
 30
0.0
  9
$EXTMIN
 10
1000.0
 20
1200.0
 30
0.0
  9
$EXTMAX
 10
7400.0
 20
11146.609046
 30
0.0
  9
$LIMMIN
 10
0.0
 20
0.0
  9
$LIMMAX
 10
297.0
 20
210.0
  9
$ORTHOMODE
 70
     0
  9
$REGENMODE
 70
     1
  9
$FILLMODE
 70
     0
  9
$QTEXTMODE
 70
     0
  9
$MIRRTEXT
 70
     1
  9
$DRAGMODE
 70
     2
  9
$LTSCALE
 40
100.0
  9
$OSMODE
 70
    37
  9
$ATTMODE
 70
     1
  9
$TEXTSIZE
 40
180.0
  9
$TRACEWID
 40
0.05
  9
$TEXTSTYLE
  7
STANDARD
  9
$CLAYER
  8
3
  9
$CELTYPE
  6
BYLAYER
  9
$CECOLOR
 62
   256
  9
$DIMSCALE
 40
40.0
  9
$DIMASZ
 40
2.0
  9
$DIMEXO
 40
0.5
  9
$DIMDLI
 40
10.0
  9
$DIMRND
 40
0.0
  9
$DIMDLE
 40
0.0
  9
$DIMEXE
 40
1.0
  9
$DIMTP
 40
1.0
  9
$DIMTM
 40
1.0
  9
$DIMTXT
 40
3.0
  9
$DIMCEN
 40
0.0
  9
$DIMTSZ
 40
0.0
  9
$DIMTOL
 70
     0
  9
$DIMLIM
 70
     0
  9
$DIMTIH
 70
     0
  9
$DIMTOH
 70
     0
  9
$DIMSE1
 70
     0
  9
$DIMSE2
 70
     0
  9
$DIMTAD
 70
     1
  9
$DIMZIN
 70
     8
  9
$DIMBLK
  1

  9
$DIMASO
 70
     1
  9
$DIMSHO
 70
     1
  9
$DIMPOST
  1

  9
$DIMAPOST
  1

  9
$DIMALT
 70
     0
  9
$DIMALTD
 70
     2
  9
$DIMALTF
 40
0.039
  9
$DIMLFAC
 40
1.0
  9
$DIMTOFL
 70
     1
  9
$DIMTVP
 40
0.0
  9
$DIMTIX
 70
     0
  9
$DIMSOXD
 70
     0
  9
$DIMSAH
 70
     1
  9
$DIMBLK1
  1
OPEN
  9
$DIMBLK2
  1
OPEN
  9
$DIMSTYLE
  2
IGA
  9
$DIMCLRD
 70
     0
  9
$DIMCLRE
 70
     0
  9
$DIMCLRT
 70
     0
  9
$DIMTFAC
 40
10.0
  9
$DIMGAP
 40
1.0
  9
$LUNITS
 70
     2
  9
$LUPREC
 70
     3
  9
$SKETCHINC
 40
0.1
  9
$FILLETRAD
 40
50.0
  9
$AUNITS
 70
     0
  9
$AUPREC
 70
     0
  9
$MENU
  1
acad
  9
$ELEVATION
 40
0.0
  9
$PELEVATION
 40
0.0
  9
$THICKNESS
 40
0.0
  9
$LIMCHECK
 70
     0
  9
$BLIPMODE
 70
     0
  9
$CHAMFERA
 40
0.5
  9
$CHAMFERB
 40
0.5
  9
$SKPOLY
 70
     0
  9
$TDCREATE
 40
2450753.654512153
  9
$TDUPDATE
 40
2454953.8432919318
  9
$TDINDWG
 40
0.0048966782
  9
$TDUSRTIMER
 40
0.0048966782
  9
$USRTIMER
 70
     1
  9
$ANGBASE
 50
0.0
  9
$ANGDIR
 70
     0
  9
$PDMODE
 70
     0
  9
$PDSIZE
 40
0.0
  9
$PLINEWID
 40
0.0
  9
$COORDS
 70
     1
  9
$SPLFRAME
 70
     0
  9
$SPLINETYPE
 70
     6
  9
$SPLINESEGS
 70
     8
  9
$ATTDIA
 70
     0
  9
$ATTREQ
 70
     1
  9
$HANDLING
 70
 10241
  9
$HANDSEED
  5
7E21
  9
$SURFTAB1
 70
     6
  9
$SURFTAB2
 70
     6
  9
$SURFTYPE
 70
     6
  9
$SURFU
 70
     6
  9
$SURFV
 70
     6
  9
$UCSNAME
  2

  9
$UCSORG
 10
0.0
 20
0.0
 30
0.0
  9
$UCSXDIR
 10
1.0
 20
0.0
 30
0.0
  9
$UCSYDIR
 10
0.0
 20
1.0
 30
0.0
  9
$PUCSNAME
  2

  9
$PUCSORG
 10
0.0
 20
0.0
 30
0.0
  9
$PUCSXDIR
 10
1.0
 20
0.0
 30
0.0
  9
$PUCSYDIR
 10
0.0
 20
1.0
 30
0.0
  9
$USERI1
 70
     0
  9
$USERI2
 70
     0
  9
$USERI3
 70
     0
  9
$USERI4
 70
     0
  9
$USERI5
 70
     0
  9
$USERR1
 40
0.0
  9
$USERR2
 40
0.0
  9
$USERR3
 40
0.0
  9
$USERR4
 40
0.0
  9
$USERR5
 40
0.0
  9
$WORLDVIEW
 70
     1
  9
$SHADEDGE
 70
     3
  9
$SHADEDIF
 70
    70
  9
$TILEMODE
 70
     1
  9
$MAXACTVP
 70
    16
  9
$PLIMCHECK
 70
     0
  9
$PEXTMIN
 10
1.0000000000000000E+020
 20
1.0000000000000000E+020
 30
1.0000000000000000E+020
  9
$PEXTMAX
 10
-1.0000000000000000E+020
 20
-1.0000000000000000E+020
 30
-1.0000000000000000E+020
  9
$PLIMMIN
 10
0.0
 20
0.0
  9
$PLIMMAX
 10
12.0
 20
9.0
  9
$UNITMODE
 70
     0
  9
$VISRETAIN
 70
     0
  9
$PLINEGEN
 70
     0
  9
$PSLTSCALE
 70
     1
  0
ENDSEC
  0
SECTION
  2
TABLES
  0
TABLE
  2
VPORT
 70
     2
  0
VPORT
  2
*ACTIVE
 70
     0
 10
0.0
 20
0.0
 11
1.0
 21
1.0
 12
10189.81301610489
 22
6184.3498318296488
 13
0.0
 23
0.0
 14
10.0
 24
10.0
 15
10.0
 25
10.0
 16
0.0
 26
0.0
 36
1.0
 17
0.0
 27
0.0
 37
0.0
 40
14046.829360524451
 41
1.5051150895140659
 42
50.0
 43
0.0
 44
0.0
 50
0.0
 51
0.0
 71
     0
 72
   100
 73
     1
 74
     0
 75
     0
 76
     0
 77
     0
 78
     0
  0
ENDTAB
  0
TABLE
  2
LTYPE
 70
     2
  0
LTYPE
  2
CONTINUOUS
 70
     0
  3
Solid line
 72
    65
 73
     0
 40
0.0
  0
LTYPE
  2
CENTER
 70
     0
  3
____ _ ____ _ ____ _ ____ _ ____ _ ____ _ ____ 
 72
    65
 73
     4
 40
2.0
 49
1.25
 49
-0.25
 49
0.25
 49
-0.25
  0
ENDTAB
  0
TABLE
  2
LAYER
 70
     6
  0
LAYER
  2
0
 70
     0
 62
     7
  6
CONTINUOUS
  0
LAYER
  2
3
 70
     0
 62
     2
  6
CONTINUOUS
  0
LAYER
  2
2
 70
     0
 62
     3
  6
CENTER
  0
LAYER
  2
1
 70
     0
 62
     4
  6
CONTINUOUS
  0
LAYER
  2
4
 70
     0
 62
     7
  6
CONTINUOUS
  0
LAYER
  2
DEFPOINTS
 70
     0
 62
     7
  6
CONTINUOUS
  0
ENDTAB
  0
TABLE
  2
STYLE
 70
     1
  0
STYLE
  2
STANDARD
 70
     0
 40
0.0
 41
1.0
 50
0.0
 71
     0
 42
180.0
  3
simplex.shx
  4
extfont.shx
  0
ENDTAB
  0
TABLE
  2
VIEW
 70
     0
  0
ENDTAB
  0
TABLE
  2
UCS
 70
     0
  0
ENDTAB
  0
TABLE
  2
APPID
 70
     1
  0
APPID
  2
ACAD
 70
     0
  0
ENDTAB
  0
TABLE
  2
DIMSTYLE
 70
     1
  0
DIMSTYLE
  2
IGA
 70
     0
  3

  4

  5

  6
OPEN
  7
OPEN
 40
2.0
 41
2.0
 42
0.5
 43
10.0
 44
1.0
 45
0.0
 46
0.0
 47
1.0
 48
1.0
140
3.0
141
0.0
142
0.0
143
0.03937
144
1.0
145
0.0
146
10.0
147
1.0
 71
     0
 72
     0
 73
     0
 74
     0
 75
     0
 76
     0
 77
     1
 78
     8
170
     0
171
     2
172
     0
173
     1
174
     0
175
     0
176
     0
177
     0
178
     0
  0
ENDTAB
  0
ENDSEC
  0
SECTION
  2
BLOCKS
  0
BLOCK
  8
0
  2
$MODEL_SPACE
 70
     0
 10
0.0
 20
0.0
 30
0.0
  3
$MODEL_SPACE
  1

  0
ENDBLK
  5
1B
  8
0
  0
BLOCK
 67
     1
  8
0
  2
$PAPER_SPACE
 70
     0
 10
0.0
 20
0.0
 30
0.0
  3
$PAPER_SPACE
  1

  0
ENDBLK
  5
18
 67
     1
  8
0
  0
BLOCK
  8
0
  2
_OPEN
 70
     0
 10
0.0
 20
0.0
 30
0.0
  3
_OPEN
  1

  0
LINE
  5
7AEB
  8
0
  6
BYBLOCK
 62
     0
 10
-1.0
 20
0.166667
 30
0.0
 11
0.0
 21
0.0
 31
0.0
  0
LINE
  5
7AEC
  8
0
  6
BYBLOCK
 62
     0
 10
0.0
 20
0.0
 30
0.0
 11
-1.0
 21
-0.166667
 31
0.0
  0
LINE
  5
7AED
  8
0
  6
BYBLOCK
 62
     0
 10
0.0
 20
0.0
 30
0.0
 11
-1.0
 21
0.0
 31
0.0
  0
ENDBLK
  5
7AEE
  8
0
  0
BLOCK
  8
0
  2
*D1
 70
     1
 10
0.0
 20
0.0
 30
0.0
  3
*D1
  1

  0
LINE
  5
7D7B
  8
3
  6
CONTINUOUS
 62
     0
 10
3785.9555329999998
 20
3227.893243
 30
0.0
 11
4116.0920590000023
 21
3227.893243
 31
0.0
  0
LINE
  5
7D7C
  8
3
  6
CONTINUOUS
 62
     0
 10
3785.9555329999998
 20
4377.8932429999986
 30
0.0
 11
4116.0920590000023
 21
4377.8932429999986
 31
0.0
  0
LINE
  5
7D7D
  8
3
  6
CONTINUOUS
 62
     0
 10
4076.092059000001
 20
3307.893243
 30
0.0
 11
4076.092059000001
 21
4297.8932429999986
 31
0.0
  0
INSERT
  5
7D7E
  8
3
  6
CONTINUOUS
 62
     0
  2
_OPEN
 10
4076.092059000001
 20
3227.893243
 30
0.0
 41
80.0
 42
80.0
 43
80.0
 50
270.0
  0
INSERT
  5
7D7F
  8
3
  6
CONTINUOUS
 62
     0
  2
_OPEN
 10
4076.092059000001
 20
4377.8932429999986
 30
0.0
 41
80.0
 42
80.0
 43
80.0
 50
90.0
  0
TEXT
  8
3
  40
120
  5
7E0F
  62
0
  72
0
  71
0
 10
3736.09
 20
3631.28
 30
0.000000
  1
1150
  0
POINT
  5
7D81
  8
DEFPOINTS
  6
CONTINUOUS
 62
     0
 10
3765.9555329999989
 20
3227.893243
 30
0.0
  0
POINT
  5
7D82
  8
DEFPOINTS
  6
CONTINUOUS
 62
     0
 10
3765.9555329999989
 20
4377.8932429999986
 30
0.0
  0
POINT
  5
7D83
  8
DEFPOINTS
  6
CONTINUOUS
 62
     0
 10
4076.092059000001
 20
4377.8932429999986
 30
0.0
  0
ENDBLK
  5
7AFB
  8
0
  0
BLOCK
  8
0
  2
*D2
 70
     1
 10
0.0
 20
0.0
 30
0.0
  3
*D2
  1

  0
LINE
  5
7D84
  8
3
  6
CONTINUOUS
 62
     0
 10
3986.9616649999989
 20
4425.8932429999986
 30
0.0
 11
4386.5894429999998
 21
4425.8932429999986
 31
0.0
  0
LINE
  5
7D85
  8
3
  6
CONTINUOUS
 62
     0
 10
3785.9555329999998
 20
3227.893243
 30
0.0
 11
4386.5894429999998
 21
3227.893243
 31
0.0
  0
LINE
  5
7D86
  8
3
  6
CONTINUOUS
 62
     0
 10
4346.5894429999998
 20
4345.8932429999986
 30
0.0
 11
4346.5894429999998
 21
3307.893243
 31
0.0
  0
INSERT
  5
7D87
  8
3
  6
CONTINUOUS
 62
     0
  2
_OPEN
 10
4346.5894429999998
 20
4425.8932429999986
 30
0.0
 41
80.0
 42
80.0
 43
80.0
 50
90.0
  0
INSERT
  5
7D88
  8
3
  6
CONTINUOUS
 62
     0
  2
_OPEN
 10
4346.5894429999998
 20
3227.893243
 30
0.0
 41
80.0
 42
80.0
 43
80.0
 50
270.0
  0
TEXT
  8
3
  40
120
  5
7E10
  62
0
  72
0
  71
0
 10
4006.59
 20
3640.29
 30
0.000000
  1
1198
  0
POINT
  5
7D8A
  8
DEFPOINTS
  6
CONTINUOUS
 62
     0
 10
3966.9616649999998
 20
4425.8932429999986
 30
0.0
  0
POINT
  5
7D8B
  8
DEFPOINTS
  6
CONTINUOUS
 62
     0
 10
3765.9555329999989
 20
3227.893243
 30
0.0
  0
POINT
  5
7D8C
  8
DEFPOINTS
  6
CONTINUOUS
 62
     0
 10
4346.5894429999998
 20
3227.893243
 30
0.0
  0
ENDBLK
  5
7B08
  8
0
  0
BLOCK
  8
0
  2
*D3
 70
     1
 10
0.0
 20
0.0
 30
0.0
  3
*D3
  1

  0
LINE
  5
7D8D
  8
3
  6
CONTINUOUS
 62
     0
 10
3986.9616649999989
 20
4425.8932429999986
 30
0.0
 11
4675.1199740000002
 21
4425.8932429999986
 31
0.0
  0
LINE
  5
7D8E
  8
3
  6
CONTINUOUS
 62
     0
 10
3685.9555329999998
 20
3070.893243
 30
0.0
 11
4675.1199740000002
 21
3070.893243
 31
0.0
  0
LINE
  5
7D8F
  8
3
  6
CONTINUOUS
 62
     0
 10
4635.1199740000011
 20
4345.8932429999986
 30
0.0
 11
4635.1199740000011
 21
3150.893243
 31
0.0
  0
INSERT
  5
7D90
  8
3
  6
CONTINUOUS
 62
     0
  2
_OPEN
 10
4635.1199740000011
 20
4425.8932429999986
 30
0.0
 41
80.0
 42
80.0
 43
80.0
 50
90.0
  0
INSERT
  5
7D91
  8
3
  6
CONTINUOUS
 62
     0
  2
_OPEN
 10
4635.1199740000011
 20
3070.893243
 30
0.0
 41
80.0
 42
80.0
 43
80.0
 50
270.0
  0
TEXT
  8
3
  40
120
  5
7E11
  62
0
  72
0
  71
0
 10
4295.12
 20
3535.99
 30
0.000000
  1
1355
  0
POINT
  5
7D93
  8
DEFPOINTS
  6
CONTINUOUS
 62
     0
 10
3966.9616649999998
 20
4425.8932429999986
 30
0.0
  0
POINT
  5
7D94
  8
DEFPOINTS
  6
CONTINUOUS
 62
     0
 10
3665.9555329999989
 20
3070.893243
 30
0.0
  0
POINT
  5
7D95
  8
DEFPOINTS
  6
CONTINUOUS
 62
     0
 10
4635.1199740000011
 20
3070.893243
 30
0.0
  0
ENDBLK
  5
7C3D
  8
0
  0
BLOCK
  8
0
  2
*D4
 70
     1
 10
0.0
 20
0.0
 30
0.0
  3
*D4
  1

  0
LINE
  5
7D96
  8
3
  6
CONTINUOUS
 62
     0
 10
1305.9555330000001
 20
3050.893243
 30
0.0
 11
1305.9555330000001
 21
2713.3267879999989
 31
0.0
  0
LINE
  5
7D97
  8
3
  6
CONTINUOUS
 62
     0
 10
3005.9555329999989
 20
2851.8665539999988
 30
0.0
 11
3005.9555329999989
 21
2713.3267879999989
 31
0.0
  0
LINE
  5
7D98
  8
3
  6
CONTINUOUS
 62
     0
 10
1385.9555330000001
 20
2753.3267879999999
 30
0.0
 11
2925.9555329999989
 21
2753.3267879999999
 31
0.0
  0
INSERT
  5
7D99
  8
3
  6
CONTINUOUS
 62
     0
  2
_OPEN
 10
1305.9555330000001
 20
2753.3267879999999
 30
0.0
 41
80.0
 42
80.0
 43
80.0
 50
180.0
  0
INSERT
  5
7D9A
  8
3
  6
CONTINUOUS
 62
     0
  2
_OPEN
 10
3005.9555329999989
 20
2753.3267879999999
 30
0.0
 41
80.0
 42
80.0
 43
80.0
  0
TEXT
  8
3
  40
120
  5
7E12
  62
0
  72
0
  71
0
 10
1933.59
 20
2640.93
 30
0.000000
  1
1700
  0
POINT
  5
7D9C
  8
DEFPOINTS
  6
CONTINUOUS
 62
     0
 10
1305.9555330000001
 20
3070.893243
 30
0.0
  0
POINT
  5
7D9D
  8
DEFPOINTS
  6
CONTINUOUS
 62
     0
 10
3005.9555329999989
 20
2871.8665539999988
 30
0.0
  0
POINT
  5
7D9E
  8
DEFPOINTS
  6
CONTINUOUS
 62
     0
 10
3005.9555329999989
 20
2753.3267879999999
 30
0.0
  0
ENDBLK
  5
7B3B
  8
0
  0
BLOCK
  8
0
  2
*D5
 70
     1
 10
0.0
 20
0.0
 30
0.0
  3
*D5
  1

  0
LINE
  5
7D9F
  8
3
  6
CONTINUOUS
 62
     0
 10
3665.9555329999989
 20
3050.893243
 30
0.0
 11
3665.9555329999989
 21
2713.3267879999989
 31
0.0
  0
LINE
  5
7DA0
  8
3
  6
CONTINUOUS
 62
     0
 10
3085.9555329999989
 20
2753.3267879999999
 30
0.0
 11
3585.9555329999989
 21
2753.3267879999999
 31
0.0
  0
INSERT
  5
7DA1
  8
3
  6
CONTINUOUS
 62
     0
  2
_OPEN
 10
3005.9555329999989
 20
2753.3267879999999
 30
0.0
 41
80.0
 42
80.0
 43
80.0
 50
180.0
  0
INSERT
  5
7DA2
  8
3
  6
CONTINUOUS
 62
     0
  2
_OPEN
 10
3665.9555329999989
 20
2753.3267879999999
 30
0.0
 41
80.0
 42
80.0
 43
80.0
  0
TEXT
  8
3
  40
120
  5
7E13
  62
0
  72
0
  71
0
 10
3095.96
 20
2640.93
 30
0.000000
  1
660
  0
POINT
  5
7DA4
  8
DEFPOINTS
  6
CONTINUOUS
 62
     0
 10
3005.9555329999989
 20
2871.8665539999988
 30
0.0
  0
POINT
  5
7DA5
  8
DEFPOINTS
  6
CONTINUOUS
 62
     0
 10
3665.9555329999989
 20
3070.893243
 30
0.0
  0
POINT
  5
7DA6
  8
DEFPOINTS
  6
CONTINUOUS
 62
     0
 10
3665.9555329999989
 20
2753.3267879999999
 30
0.0
  0
ENDBLK
  5
7B47
  8
0
  0
BLOCK
  8
0
  2
*D6
 70
     1
 10
0.0
 20
0.0
 30
0.0
  3
*D6
  1

  0
LINE
  5
7DA7
  8
3
  6
CONTINUOUS
 62
     0
 10
3765.9555329999989
 20
4450.8932429999986
 30
0.0
 11
3765.9555329999989
 21
5478.6539730000004
 31
0.0
  0
LINE
  5
7DA8
  8
3
  6
CONTINUOUS
 62
     0
 10
3005.9555329999989
 20
5393.6803390000014
 30
0.0
 11
3005.9555329999989
 21
5478.6539730000004
 31
0.0
  0
LINE
  5
7DA9
  8
3
  6
CONTINUOUS
 62
     0
 10
3685.9555329999998
 20
5438.6539730000004
 30
0.0
 11
3085.9555329999989
 21
5438.6539730000004
 31
0.0
  0
INSERT
  5
7DAA
  8
3
  6
CONTINUOUS
 62
     0
  2
_OPEN
 10
3765.9555329999989
 20
5438.6539730000004
 30
0.0
 41
80.0
 42
80.0
 43
80.0
  0
INSERT
  5
7DAB
  8
3
  6
CONTINUOUS
 62
     0
  2
_OPEN
 10
3005.9555329999989
 20
5438.6539730000004
 30
0.0
 41
80.0
 42
80.0
 43
80.0
 50
180.0
  0
TEXT
  8
3
  40
120
  5
7E14
  62
0
  72
0
  71
0
 10
3141.82
 20
5326.25
 30
0.000000
  1
760
  0
POINT
  5
7DAD
  8
DEFPOINTS
  6
CONTINUOUS
 62
     0
 10
3765.9555329999989
 20
4430.8932429999986
 30
0.0
  0
POINT
  5
7DAE
  8
DEFPOINTS
  6
CONTINUOUS
 62
     0
 10
3005.9555329999989
 20
5373.6803389999995
 30
0.0
  0
POINT
  5
7DAF
  8
DEFPOINTS
  6
CONTINUOUS
 62
     0
 10
3005.9555329999989
 20
5438.6539730000004
 30
0.0
  0
ENDBLK
  5
7B54
  8
0
  0
BLOCK
  8
0
  2
*D7
 70
     1
 10
0.0
 20
0.0
 30
0.0
  3
*D7
  1

  0
LINE
  5
7DB0
  8
3
  6
CONTINUOUS
 62
     0
 10
5852.6883250000001
 20
5254.0932430000003
 30
0.0
 11
5852.6883250000001
 21
5505.6874500000004
 31
0.0
  0
LINE
  5
7DB1
  8
3
  6
CONTINUOUS
 62
     0
 10
6702.6883250000001
 20
5254.0932430000003
 30
0.0
 11
6702.6883250000001
 21
5505.6874500000004
 31
0.0
  0
LINE
  5
7DB2
  8
3
  6
CONTINUOUS
 62
     0
 10
5932.6883250000001
 20
5465.6874500000004
 30
0.0
 11
6622.6883250000001
 21
5465.6874500000004
 31
0.0
  0
INSERT
  5
7DB3
  8
3
  6
CONTINUOUS
 62
     0
  2
_OPEN
 10
5852.6883250000001
 20
5465.6874500000004
 30
0.0
 41
80.0
 42
80.0
 43
80.0
 50
180.0
  0
INSERT
  5
7DB4
  8
3
  6
CONTINUOUS
 62
     0
  2
_OPEN
 10
6702.6883250000001
 20
5465.6874500000004
 30
0.0
 41
80.0
 42
80.0
 43
80.0
  0
TEXT
  8
3
  40
120
  5
7E15
  62
0
  72
0
  71
0
 10
6032.21
 20
5353.29
 30
0.000000
  1
850
  0
POINT
  5
7DB6
  8
DEFPOINTS
  6
CONTINUOUS
 62
     0
 10
5852.6883250000001
 20
5234.0932430000003
 30
0.0
  0
POINT
  5
7DB7
  8
DEFPOINTS
  6
CONTINUOUS
 62
     0
 10
6702.6883250000001
 20
5234.0932430000003
 30
0.0
  0
POINT
  5
7DB8
  8
DEFPOINTS
  6
CONTINUOUS
 62
     0
 10
6702.6883250000001
 20
5465.6874500000004
 30
0.0
  0
ENDBLK
  5
7B6D
  8
0
  0
BLOCK
  8
0
  2
*D8
 70
     1
 10
0.0
 20
0.0
 30
0.0
  3
*D8
  1

  0
LINE
  5
7DB9
  8
3
  6
CONTINUOUS
 62
     0
 10
6825.6883250000001
 20
4985.8932429999986
 30
0.0
 11
7159.7695200000007
 21
4985.8932429999986
 31
0.0
  0
LINE
  5
7DBA
  8
3
  6
CONTINUOUS
 62
     0
 10
6825.6883250000001
 20
3865.893243
 30
0.0
 11
7159.7695200000007
 21
3865.893243
 31
0.0
  0
LINE
  5
7DBB
  8
3
  6
CONTINUOUS
 62
     0
 10
7119.7695200000007
 20
4905.8932430000004
 30
0.0
 11
7119.7695200000007
 21
3945.893243
 31
0.0
  0
INSERT
  5
7DBC
  8
3
  6
CONTINUOUS
 62
     0
  2
_OPEN
 10
7119.7695200000007
 20
4985.8932429999986
 30
0.0
 41
80.0
 42
80.0
 43
80.0
 50
90.0
  0
INSERT
  5
7DBD
  8
3
  6
CONTINUOUS
 62
     0
  2
_OPEN
 10
7119.7695200000007
 20
3865.893243
 30
0.0
 41
80.0
 42
80.0
 43
80.0
 50
270.0
  0
TEXT
  8
3
  40
120
  5
7E16
  62
0
  72
0
  71
0
 10
6779.77
 20
4207.99
 30
0.000000
  1
φ1120
  0
POINT
  5
7DBF
  8
DEFPOINTS
  6
CONTINUOUS
 62
     0
 10
6805.6883250000001
 20
4985.8932429999986
 30
0.0
  0
POINT
  5
7DC0
  8
DEFPOINTS
  6
CONTINUOUS
 62
     0
 10
6805.6883250000001
 20
3865.893243
 30
0.0
  0
POINT
  5
7DC1
  8
DEFPOINTS
  6
CONTINUOUS
 62
     0
 10
7119.7695200000007
 20
3865.893243
 30
0.0
  0
ENDBLK
  5
7C96
  8
0
  0
BLOCK
  8
0
  2
*D9
 70
     1
 10
0.0
 20
0.0
 30
0.0
  3
*D9
  1

  0
LINE
  5
7C78
  8
0
  6
BYBLOCK
 62
     0
 10
6805.6883250000001
 20
5055.8932429999986
 30
0.0
 11
6805.6883250000001
 21
5758.0000700000001
 31
0.0
  0
LINE
  5
7C79
  8
0
  6
BYBLOCK
 62
     0
 10
6277.6883250000001
 20
5666.1801079999987
 30
0.0
 11
6277.6883250000001
 21
5758.0000700000001
 31
0.0
  0
LINE
  5
7C7A
  8
0
  6
BYBLOCK
 62
     0
 10
6725.6883250000001
 20
5718.0000700000001
 30
0.0
 11
6357.6883250000001
 21
5718.0000700000001
 31
0.0
  0
TEXT
  5
7C7B
  8
3
 62
     0
 10
6387.4026107142863
 20
5754.8746295271703
 30
0.0
 40
120.0
  1
528
  0
INSERT
  5
7C7C
  8
0
  6
BYBLOCK
 62
     0
  2
_OPEN
 10
6805.6883250000001
 20
5718.0000700000001
 30
0.0
 41
80.0
 42
80.0
 43
80.0
  0
INSERT
  5
7C7D
  8
0
  6
BYBLOCK
 62
     0
  2
_OPEN
 10
6277.6883250000001
 20
5718.0000700000001
 30
0.0
 41
80.0
 42
80.0
 43
80.0
 50
180.0
  0
POINT
  5
7C7E
  8
DEFPOINTS
  6
BYBLOCK
 62
     0
 10
6805.6883250000001
 20
5035.8932430000004
 30
0.0
  0
POINT
  5
7C7F
  8
DEFPOINTS
  6
BYBLOCK
 62
     0
 10
6277.6883250000001
 20
5646.1801079999987
 30
0.0
  0
POINT
  5
7C80
  8
DEFPOINTS
  6
BYBLOCK
 62
     0
 10
6277.6883250000001
 20
5718.0000700000001
 30
0.0
  0
ENDBLK
  5
7C81
  8
0
  0
BLOCK
  8
0
  2
*D10
 70
     1
 10
0.0
 20
0.0
 30
0.0
  3
*D10
  1

  0
LINE
  5
7DC2
  8
3
  6
CONTINUOUS
 62
     0
 10
5537.6883250000001
 20
4823.8932430000004
 30
0.0
 11
5537.6883250000001
 21
5758.0000700000001
 31
0.0
  0
LINE
  5
7DC3
  8
3
  6
CONTINUOUS
 62
     0
 10
6197.6883250000001
 20
5718.0000700000001
 30
0.0
 11
5617.6883250000001
 21
5718.0000700000001
 31
0.0
  0
INSERT
  5
7DC4
  8
3
  6
CONTINUOUS
 62
     0
  2
_OPEN
 10
6277.6883250000001
 20
5718.0000700000001
 30
0.0
 41
80.0
 42
80.0
 43
80.0
  0
INSERT
  5
7DC5
  8
3
  6
CONTINUOUS
 62
     0
  2
_OPEN
 10
5537.6883250000001
 20
5718.0000700000001
 30
0.0
 41
80.0
 42
80.0
 43
80.0
 50
180.0
  0
TEXT
  8
3
  40
120
  5
7E17
  62
0
  72
0
  71
0
 10
5667.69
 20
5705.60
 30
0.000000
  1
MAX
  0
TEXT
  8
3
  40
120
  5
7E18
  62
0
  72
0
  71
0
 10
5667.69
 20
5549.60
 30
0.000000
  1
850
  0
POINT
  5
7DC7
  8
DEFPOINTS
  6
CONTINUOUS
 62
     0
 10
6277.6883250000001
 20
5646.1801079999987
 30
0.0
  0
POINT
  5
7DC8
  8
DEFPOINTS
  6
CONTINUOUS
 62
     0
 10
5537.6883250000001
 20
4803.8932430000004
 30
0.0
  0
POINT
  5
7DC9
  8
DEFPOINTS
  6
CONTINUOUS
 62
     0
 10
5537.6883250000001
 20
5718.0000700000001
 30
0.0
  0
ENDBLK
  5
7C8B
  8
0
  0
BLOCK
  8
0
  2
*D11
 70
     1
 10
0.0
 20
0.0
 30
0.0
  3
*D11
  1

  0
LINE
  5
7DCA
  8
3
  6
CONTINUOUS
 62
     0
 10
5590.6883250000001
 20
3050.893243
 30
0.0
 11
5590.6883250000001
 21
2731.349146
 31
0.0
  0
LINE
  5
7DCB
  8
3
  6
CONTINUOUS
 62
     0
 10
6277.6883250000001
 20
2891.487995
 30
0.0
 11
6277.6883250000001
 21
2731.349146
 31
0.0
  0
LINE
  5
7DCC
  8
3
  6
CONTINUOUS
 62
     0
 10
5670.6883250000001
 20
2771.349146
 30
0.0
 11
6197.6883250000001
 21
2771.349146
 31
0.0
  0
INSERT
  5
7DCD
  8
3
  6
CONTINUOUS
 62
     0
  2
_OPEN
 10
5590.6883250000001
 20
2771.349146
 30
0.0
 41
80.0
 42
80.0
 43
80.0
 50
180.0
  0
INSERT
  5
7DCE
  8
3
  6
CONTINUOUS
 62
     0
  2
_OPEN
 10
6277.6883250000001
 20
2771.349146
 30
0.0
 41
80.0
 42
80.0
 43
80.0
  0
TEXT
  8
3
  40
120
  5
7E19
  62
0
  72
0
  71
0
 10
5707.61
 20
2658.95
 30
0.000000
  1
687
  0
POINT
  5
7DD0
  8
DEFPOINTS
  6
CONTINUOUS
 62
     0
 10
5590.6883250000001
 20
3070.893243
 30
0.0
  0
POINT
  5
7DD1
  8
DEFPOINTS
  6
CONTINUOUS
 62
     0
 10
6277.6883250000001
 20
2911.487994999999
 30
0.0
  0
POINT
  5
7DD2
  8
DEFPOINTS
  6
CONTINUOUS
 62
     0
 10
6277.6883250000001
 20
2771.349146
 30
0.0
  0
ENDBLK
  5
7BA2
  8
0
  0
BLOCK
  8
0
  2
*D12
 70
     1
 10
0.0
 20
0.0
 30
0.0
  3
*D12
  1

  0
LINE
  5
7DD3
  8
3
  6
CONTINUOUS
 62
     0
 10
6770.6883250000001
 20
3050.893243
 30
0.0
 11
6770.6883250000001
 21
2731.349146
 31
0.0
  0
LINE
  5
7DD4
  8
3
  6
CONTINUOUS
 62
     0
 10
6357.6883250000001
 20
2771.349146
 30
0.0
 11
6690.6883250000001
 21
2771.349146
 31
0.0
  0
TEXT
  8
3
  40
120
  5
7E1A
  62
0
  72
0
  71
0
 10
6280.87
 20
2664.61
 30
0.000000
  1
493
  0
INSERT
  5
7DD6
  8
3
  6
CONTINUOUS
 62
     0
  2
_OPEN
 10
6277.6883250000001
 20
2771.349146
 30
0.0
 41
80.0
 42
80.0
 43
80.0
 50
180.0
  0
INSERT
  5
7DD7
  8
3
  6
CONTINUOUS
 62
     0
  2
_OPEN
 10
6770.6883250000001
 20
2771.349146
 30
0.0
 41
80.0
 42
80.0
 43
80.0
  0
POINT
  5
7DD8
  8
DEFPOINTS
  6
CONTINUOUS
 62
     0
 10
6277.6883250000001
 20
2911.487994999999
 30
0.0
  0
POINT
  5
7DD9
  8
DEFPOINTS
  6
CONTINUOUS
 62
     0
 10
6770.6883250000001
 20
3070.893243
 30
0.0
  0
POINT
  5
7DDA
  8
DEFPOINTS
  6
CONTINUOUS
 62
     0
 10
6770.6883250000001
 20
2771.349146
 30
0.0
  0
ENDBLK
  5
7BFD
  8
0
  0
BLOCK
  8
0
  2
*D13
 70
     1
 10
0.0
 20
0.0
 30
0.0
  3
*D13
  1

  0
LINE
  5
7DDB
  8
3
  6
CONTINUOUS
 62
     0
 10
1305.9555330000001
 20
7193.9814870000009
 30
0.0
 11
1305.9555330000001
 21
6810.8316970000014
 31
0.0
  0
LINE
  5
7DDC
  8
3
  6
CONTINUOUS
 62
     0
 10
3665.9555329999989
 20
7193.9814870000009
 30
0.0
 11
3665.9555329999989
 21
6810.8316970000014
 31
0.0
  0
LINE
  5
7DDD
  8
3
  6
CONTINUOUS
 62
     0
 10
1385.9555330000001
 20
6850.8316969999996
 30
0.0
 11
3585.9555329999989
 21
6850.8316969999996
 31
0.0
  0
INSERT
  5
7DDE
  8
3
  6
CONTINUOUS
 62
     0
  2
_OPEN
 10
1305.9555330000001
 20
6850.8316969999996
 30
0.0
 41
80.0
 42
80.0
 43
80.0
 50
180.0
  0
INSERT
  5
7DDF
  8
3
  6
CONTINUOUS
 62
     0
  2
_OPEN
 10
3665.9555329999989
 20
6850.8316969999996
 30
0.0
 41
80.0
 42
80.0
 43
80.0
  0
TEXT
  8
3
  40
120
  5
7E1B
  62
0
  72
0
  71
0
 10
2159.01
 20
6738.43
 30
0.000000
  1
2360
  0
POINT
  5
7DE1
  8
DEFPOINTS
  6
CONTINUOUS
 62
     0
 10
1305.9555330000001
 20
7213.9814870000009
 30
0.0
  0
POINT
  5
7DE2
  8
DEFPOINTS
  6
CONTINUOUS
 62
     0
 10
3665.9555329999989
 20
7213.9814870000009
 30
0.0
  0
POINT
  5
7DE3
  8
DEFPOINTS
  6
CONTINUOUS
 62
     0
 10
3665.9555329999989
 20
6850.8316969999996
 30
0.0
  0
ENDBLK
  5
7BD4
  8
0
  0
BLOCK
  8
0
  2
*D14
 70
     1
 10
0.0
 20
0.0
 30
0.0
  3
*D14
  1

  0
LINE
  5
7DE4
  8
3
  6
CONTINUOUS
 62
     0
 10
3685.9555329999998
 20
8393.9814870000009
 30
0.0
 11
4134.1252520000016
 21
8393.9814869999991
 31
0.0
  0
LINE
  5
7DE5
  8
3
  6
CONTINUOUS
 62
     0
 10
3685.9555329999998
 20
7213.9814870000009
 30
0.0
 11
4134.1252520000016
 21
7213.9814870000009
 31
0.0
  0
LINE
  5
7DE6
  8
3
  6
CONTINUOUS
 62
     0
 10
4094.1252520000021
 20
8313.9814870000009
 30
0.0
 11
4094.1252520000021
 21
7293.981487
 31
0.0
  0
INSERT
  5
7DE7
  8
3
  6
CONTINUOUS
 62
     0
  2
_OPEN
 10
4094.1252520000021
 20
8393.9814870000009
 30
0.0
 41
80.0
 42
80.0
 43
80.0
 50
90.0
  0
INSERT
  5
7DE8
  8
3
  6
CONTINUOUS
 62
     0
  2
_OPEN
 10
4094.1252520000021
 20
7213.9814870000009
 30
0.0
 41
80.0
 42
80.0
 43
80.0
 50
270.0
  0
TEXT
  8
3
  40
120
  5
7E1C
  62
0
  72
0
  71
0
 10
3754.13
 20
7557.57
 30
0.000000
  1
1180
  0
POINT
  5
7DEA
  8
DEFPOINTS
  6
CONTINUOUS
 62
     0
 10
3665.9555329999989
 20
8393.9814870000009
 30
0.0
  0
POINT
  5
7DEB
  8
DEFPOINTS
  6
CONTINUOUS
 62
     0
 10
3665.9555329999989
 20
7213.9814870000009
 30
0.0
  0
POINT
  5
7DEC
  8
DEFPOINTS
  6
CONTINUOUS
 62
     0
 10
4094.1252520000021
 20
7213.9814870000009
 30
0.0
  0
ENDBLK
  5
7BE1
  8
0
  0
BLOCK
  8
0
  2
*D15
 70
     1
 10
0.0
 20
0.0
 30
0.0
  3
*D15
  1

  0
LINE
  5
7DED
  8
3
  6
CONTINUOUS
 62
     0
 10
3025.9555329999989
 20
5230.8932430000004
 30
0.0
 11
4675.1199740000002
 21
5230.8932430000004
 31
0.0
  0
LINE
  5
7DEE
  8
3
  6
CONTINUOUS
 62
     0
 10
4635.1199740000011
 20
4505.8932430000004
 30
0.0
 11
4635.1199740000011
 21
5150.8932429999986
 31
0.0
  0
INSERT
  5
7DEF
  8
3
  6
CONTINUOUS
 62
     0
  2
_OPEN
 10
4635.1199740000011
 20
4425.8932429999986
 30
0.0
 41
80.0
 42
80.0
 43
80.0
 50
270.0
  0
INSERT
  5
7DF0
  8
3
  6
CONTINUOUS
 62
     0
  2
_OPEN
 10
4635.1199740000011
 20
5230.8932430000004
 30
0.0
 41
80.0
 42
80.0
 43
80.0
 50
90.0
  0
TEXT
  8
3
  40
120
  5
7E1D
  62
0
  72
0
  71
0
 10
4295.12
 20
4615.99
 30
0.000000
  1
805
  0
POINT
  5
7DF2
  8
DEFPOINTS
  6
CONTINUOUS
 62
     0
 10
3966.9616649999998
 20
4425.8932429999986
 30
0.0
  0
POINT
  5
7DF3
  8
DEFPOINTS
  6
CONTINUOUS
 62
     0
 10
3005.9555329999989
 20
5230.8932430000004
 30
0.0
  0
POINT
  5
7DF4
  8
DEFPOINTS
  6
CONTINUOUS
 62
     0
 10
4635.1199740000011
 20
5230.8932430000004
 30
0.0
  0
ENDBLK
  5
7C53
  8
0
  0
BLOCK
  8
0
  2
*D16
 70
     1
 10
0.0
 20
0.0
 30
0.0
  3
*D16
  1

  0
LINE
  5
7DF5
  8
3
  6
CONTINUOUS
 62
     0
 10
3025.9555329999989
 20
5230.8932430000004
 30
0.0
 11
4986.6403910000008
 21
5230.8932430000004
 31
0.0
  0
LINE
  5
7DF6
  8
3
  6
CONTINUOUS
 62
     0
 10
3685.9555329999998
 20
3070.893243
 30
0.0
 11
4986.6403910000008
 21
3070.893243
 31
0.0
  0
LINE
  5
7DF7
  8
3
  6
CONTINUOUS
 62
     0
 10
4946.6403910000008
 20
5150.8932429999986
 30
0.0
 11
4946.6403910000008
 21
3150.893243
 31
0.0
  0
INSERT
  5
7DF8
  8
3
  6
CONTINUOUS
 62
     0
  2
_OPEN
 10
4946.6403910000008
 20
5230.8932430000004
 30
0.0
 41
80.0
 42
80.0
 43
80.0
 50
90.0
  0
INSERT
  5
7DF9
  8
3
  6
CONTINUOUS
 62
     0
  2
_OPEN
 10
4946.6403910000008
 20
3070.893243
 30
0.0
 41
80.0
 42
80.0
 43
80.0
 50
270.0
  0
TEXT
  8
3
  40
120
  5
7E1E
  62
0
  72
0
  71
0
 10
4606.64
 20
3985.44
 30
0.000000
  1
2160
  0
POINT
  5
7DFB
  8
DEFPOINTS
  6
CONTINUOUS
 62
     0
 10
3005.9555329999989
 20
5230.8932430000004
 30
0.0
  0
POINT
  5
7DFC
  8
DEFPOINTS
  6
CONTINUOUS
 62
     0
 10
3665.9555329999989
 20
3070.893243
 30
0.0
  0
POINT
  5
7DFD
  8
DEFPOINTS
  6
CONTINUOUS
 62
     0
 10
4946.6403910000008
 20
3070.893243
 30
0.0
  0
ENDBLK
  5
7C49
  8
0
  0
BLOCK
  8
0
  2
*D17
 70
     1
 10
0.0
 20
0.0
 30
0.0
  3
*D17
  1

  0
LINE
  5
7DFE
  8
3
  6
CONTINUOUS
 62
     0
 10
2036.9555329999989
 20
4439.3057088130199
 30
0.0
 11
2036.9555329999989
 21
5478.6539730000004
 31
0.0
  0
LINE
  5
7DFF
  8
3
  6
CONTINUOUS
 62
     0
 10
2925.9555329999989
 20
5438.6539730000004
 30
0.0
 11
2116.9555329999998
 21
5438.6539730000004
 31
0.0
  0
INSERT
  5
7E00
  8
3
  6
CONTINUOUS
 62
     0
  2
_OPEN
 10
3005.9555329999989
 20
5438.6539730000004
 30
0.0
 41
80.0
 42
80.0
 43
80.0
  0
INSERT
  5
7E01
  8
3
  6
CONTINUOUS
 62
     0
  2
_OPEN
 10
2036.9555329999989
 20
5438.6539730000004
 30
0.0
 41
80.0
 42
80.0
 43
80.0
 50
180.0
  0
TEXT
  8
3
  40
120
  5
7E1F
  62
0
  72
0
  71
0
 10
2281.46
 20
5326.25
 30
0.000000
  1
969
  0
POINT
  5
7E03
  8
DEFPOINTS
  6
CONTINUOUS
 62
     0
 10
3005.9555329999989
 20
5373.6803389999995
 30
0.0
  0
POINT
  5
7E04
  8
DEFPOINTS
  6
CONTINUOUS
 62
     0
 10
2036.9555329999989
 20
4419.3057088130208
 30
0.0
  0
POINT
  5
7E05
  8
DEFPOINTS
  6
CONTINUOUS
 62
     0
 10
2036.9555329999989
 20
5438.6539730000004
 30
0.0
  0
ENDBLK
  5
7C6B
  8
0
  0
BLOCK
  8
0
  2
*D18
 70
     1
 10
0.0
 20
0.0
 30
0.0
  3
*D18
  1

  0
LINE
  5
7E06
  8
3
 62
     0
 10
3765.9555329999989
 20
4450.8932429999986
 30
0.0
 11
3765.9555329999989
 21
5720.2333372530629
 31
0.0
  0
LINE
  5
7E07
  8
3
 62
     0
 10
1305.9555329999989
 20
3215.893243
 30
0.0
 11
1305.9555330000001
 21
5720.2333372530629
 31
0.0
  0
LINE
  5
7E08
  8
3
 62
     0
 10
3685.9555329999998
 20
5680.2333372530638
 30
0.0
 11
1385.9555330000001
 21
5680.2333372530638
 31
0.0
  0
INSERT
  5
7E09
  8
3
 62
     0
  2
_OPEN
 10
3765.9555329999989
 20
5680.2333372530638
 30
0.0
 41
80.0
 42
80.0
 43
80.0
  0
INSERT
  5
7E0A
  8
3
 62
     0
  2
_OPEN
 10
1305.9555330000001
 20
5680.2333372530638
 30
0.0
 41
80.0
 42
80.0
 43
80.0
 50
180.0
  0
TEXT
  8
3
  40
120
  5
7E20
  62
0
  72
0
  71
0
 10
2413.10
 20
5567.83
 30
0.000000
  1
2460
  0
POINT
  5
7E0C
  8
DEFPOINTS
 62
     0
 10
3765.9555329999989
 20
4430.8932429999986
 30
0.0
  0
POINT
  5
7E0D
  8
DEFPOINTS
 62
     0
 10
1305.9555329999989
 20
3195.893243
 30
0.0
  0
POINT
  5
7E0E
  8
DEFPOINTS
 62
     0
 10
1305.9555330000001
 20
5680.2333372530638
 30
0.0
  0
ENDBLK
  5
7C5F
  8
0
  0
ENDSEC
  0
SECTION
  2
ENTITIES
  0
LINE
  5
7A64
  8
1
  6
CONTINUOUS
 10
6702.6883250000001
 20
4377.8932429999986
 30
0.0
 11
5852.6883250000001
 21
3227.893243
 31
0.0
  0
LINE
  5
7A65
  8
1
  6
CONTINUOUS
 10
5852.6883250000001
 20
4377.8932429999986
 30
0.0
 11
6702.6883250000001
 21
3227.893243
 31
0.0
  0
LINE
  5
7A66
  8
1
  6
CONTINUOUS
 10
5852.6883250000001
 20
3227.893243
 30
0.0
 11
6702.6883250000001
 21
3227.893243
 31
0.0
  0
LINE
  5
7A67
  8
1
  6
CONTINUOUS
 10
5852.6883250000001
 20
5234.0932430000003
 30
0.0
 11
6702.6883250000001
 21
5234.0932430000003
 31
0.0
  0
LINE
  5
7A68
  8
1
  6
CONTINUOUS
 10
6770.6883250000001
 20
3070.893243
 30
0.0
 11
5590.6883250000001
 21
3070.893243
 31
0.0
  0
LINE
  5
7A69
  8
1
  6
CONTINUOUS
 10
6770.6883250000001
 20
3195.893243
 30
0.0
 11
5590.6883250000001
 21
3195.893243
 31
0.0
  0
LINE
  5
7A6A
  8
1
  6
CONTINUOUS
 10
5852.6883250000001
 20
4377.8932429999986
 30
0.0
 11
6702.6883250000001
 21
4377.8932429999986
 31
0.0
  0
LINE
  5
7A6B
  8
2
  6
CENTER
 10
1862.95018
 20
4425.8932429999986
 30
0.0
 11
3966.9616649999998
 21
4425.8932429999986
 31
0.0
  0
ARC
  5
7A6C
  8
1
  6
CONTINUOUS
 10
3005.9555329999989
 20
4425.8932429999986
 30
0.0
 40
378.0
 50
300.49999999999989
 51
131.1999999999999
  0
LINE
  5
7A6D
  8
1
  6
CONTINUOUS
 10
3765.9555329999989
 20
3227.893243
 30
0.0
 11
3005.9555329999989
 21
3292.893243
 31
0.0
  0
ARC
  5
7A6E
  8
1
  6
CONTINUOUS
 10
2937.4555329999989
 20
4494.3932430000004
 30
0.0
 40
739.10000000000002
 50
0.0
 51
84.900000000000006
  0
LINE
  5
7A6F
  8
1
  6
CONTINUOUS
 10
3665.9555329999989
 20
3070.893243
 30
0.0
 11
1305.9555330000001
 21
3070.893243
 31
0.0
  0
LINE
  5
7A70
  8
1
  6
CONTINUOUS
 10
3665.9555329999989
 20
3195.893243
 30
0.0
 11
1305.9555330000001
 21
3195.893243
 31
0.0
  0
CIRCLE
  5
7A71
  8
1
  6
CONTINUOUS
 10
3005.9555329999989
 20
4425.8932429999986
 30
0.0
 40
560.0
  0
CIRCLE
  5
7A72
  8
1
  6
CONTINUOUS
 10
3005.9555329999989
 20
4425.8932429999986
 30
0.0
 40
610.0
  0
CIRCLE
  5
7A73
  8
1
  6
CONTINUOUS
 10
3005.9555329999989
 20
4425.8932429999986
 30
0.0
 40
278.0
  0
ARC
  5
7A74
  8
1
  6
CONTINUOUS
 10
3087.9555329999998
 20
4343.8932429999986
 30
0.0
 40
1054.2
 50
180.0
 51
265.5
  0
ARC
  5
7A75
  8
1
  6
CONTINUOUS
 10
2923.9555329999989
 20
4343.8932429999986
 30
0.0
 40
890.20000000000005
 50
84.900000000000006
 51
180.0
  0
LINE
  5
7A76
  8
1
  6
CONTINUOUS
 10
1551.8555329999999
 20
3521.0932429999998
 30
0.0
 11
2822.755533
 21
4634.9932429999999
 31
0.0
  0
LINE
  5
7A77
  8
1
  6
CONTINUOUS
 10
1485.9555330000001
 20
3596.2932430000001
 30
0.0
 11
2756.855532999999
 21
4710.1932429999988
 31
0.0
  0
LINE
  5
7A78
  8
1
  6
CONTINUOUS
 10
1742.7555329999991
 20
3241.393243
 30
0.0
 11
3198.0555329999988
 21
4100.3932430000004
 31
0.0
  0
LINE
  5
7A79
  8
1
  6
CONTINUOUS
 10
1691.9555329999989
 20
3327.5932429999989
 30
0.0
 11
3147.255533
 21
4186.4932429999999
 31
0.0
  0
ARC
  5
7A7A
  8
1
  6
CONTINUOUS
 10
1630.9555330000001
 20
3430.8932429999991
 30
0.0
 40
220.0
 50
131.1999999999999
 51
300.49999999999989
  0
LINE
  5
7A7B
  8
1
  6
CONTINUOUS
 10
1305.9555330000001
 20
3195.893243
 30
0.0
 11
1305.9555330000001
 21
3070.893243
 31
0.0
  0
ARC
  5
7A7C
  8
1
  6
CONTINUOUS
 10
1630.9555330000001
 20
3430.8932429999991
 30
0.0
 40
199.0
 50
320.10000000000002
 51
219.90000000000001
  0
LINE
  5
7A7D
  8
2
  6
CENTER
 10
1510.9555330000001
 20
3430.8932429999991
 30
0.0
 11
1750.9555329999989
 21
3430.8932429999991
 31
0.0
  0
CIRCLE
  5
7A7E
  8
1
  6
CONTINUOUS
 10
1630.9555330000001
 20
3430.8932429999991
 30
0.0
 40
120.0
  0
LINE
  5
7A7F
  8
1
  6
CONTINUOUS
 10
1405.9555330000001
 20
3195.893243
 30
0.0
 11
1855.9555329999989
 21
3195.893243
 31
0.0
  0
LINE
  5
7A80
  8
1
  6
CONTINUOUS
 10
1405.9555330000001
 20
3250.893243
 30
0.0
 11
1855.9555329999989
 21
3250.893243
 31
0.0
  0
LINE
  5
7A81
  8
2
  6
CENTER
 10
1630.9555330000001
 20
3310.893243
 30
0.0
 11
1630.9555330000001
 21
3550.893243
 31
0.0
  0
LINE
  5
7A82
  8
1
  6
CONTINUOUS
 10
1405.9555330000001
 20
3195.893243
 30
0.0
 11
1405.9555330000001
 21
3250.893243
 31
0.0
  0
LINE
  5
7A83
  8
1
  6
CONTINUOUS
 10
1468.9555330000001
 20
3293.393243
 30
0.0
 11
1478.255533
 21
3303.2932430000001
 31
0.0
  0
LINE
  5
7A84
  8
1
  6
CONTINUOUS
 10
1468.9555330000001
 20
3250.893243
 30
0.0
 11
1468.9555330000001
 21
3293.393243
 31
0.0
  0
LINE
  5
7A85
  8
1
  6
CONTINUOUS
 10
1855.9555329999989
 20
3195.893243
 30
0.0
 11
1855.9555329999989
 21
3250.893243
 31
0.0
  0
LINE
  5
7A86
  8
1
  6
CONTINUOUS
 10
1792.9555329999989
 20
3293.393243
 30
0.0
 11
1783.6555330000001
 21
3303.2932430000001
 31
0.0
  0
LINE
  5
7A87
  8
1
  6
CONTINUOUS
 10
1792.9555329999989
 20
3250.893243
 30
0.0
 11
1792.9555329999989
 21
3293.393243
 31
0.0
  0
LINE
  5
7A88
  8
2
  6
CENTER
 10
3005.9555329999989
 20
8586.2382980000002
 30
0.0
 11
3005.9555329999989
 21
7022.6563070000002
 31
0.0
  0
ARC
  5
7A89
  8
1
  6
CONTINUOUS
 10
3074.4555329999998
 20
4494.3932430000004
 30
0.0
 40
602.10000000000002
 50
348.7999999999999
 51
0.0
  0
LINE
  5
7A8A
  8
1
  6
CONTINUOUS
 10
3765.9555329999989
 20
4430.8932429999986
 30
0.0
 11
3765.9555329999989
 21
3174.893243
 31
0.0
  0
LINE
  5
7A8B
  8
1
  6
CONTINUOUS
 10
3725.9555329999998
 20
4377.8932429999986
 30
0.0
 11
3725.9555329999998
 21
3231.2932430000001
 31
0.0
  0
LINE
  5
7A8C
  8
1
  6
CONTINUOUS
 10
3665.9555329999989
 20
3195.893243
 30
0.0
 11
3665.9555329999989
 21
3070.893243
 31
0.0
  0
LINE
  5
7A8D
  8
1
  6
CONTINUOUS
 10
3665.1555330000001
 20
4377.8932429999986
 30
0.0
 11
3765.9555329999989
 21
4377.8932429999986
 31
0.0
  0
LINE
  5
7A8E
  8
1
  6
CONTINUOUS
 10
5707.6883250000001
 20
4703.8932429999986
 30
0.0
 11
5707.6883250000001
 21
4147.8932429999986
 31
0.0
  0
LINE
  5
7A8F
  8
1
  6
CONTINUOUS
 10
5607.6883250000001
 20
4703.8932429999986
 30
0.0
 11
5607.6883250000001
 21
4147.8932429999986
 31
0.0
  0
LINE
  5
7A90
  8
1
  6
CONTINUOUS
 10
5777.6883250000001
 20
3210.893243
 30
0.0
 11
5777.6883250000001
 21
4803.8932430000004
 31
0.0
  0
LINE
  5
7A91
  8
1
  6
CONTINUOUS
 10
5537.6883250000001
 20
3210.893243
 30
0.0
 11
5537.6883250000001
 21
4803.8932430000004
 31
0.0
  0
LINE
  5
7A92
  8
1
  6
CONTINUOUS
 10
5852.6883250000001
 20
3195.893243
 30
0.0
 11
5852.6883250000001
 21
5234.0932430000003
 31
0.0
  0
LINE
  5
7A93
  8
1
  6
CONTINUOUS
 10
5707.6883250000001
 20
4398.3932430000004
 30
0.0
 11
5852.6883250000001
 21
4398.3932430000004
 31
0.0
  0
LINE
  5
7A94
  8
1
  6
CONTINUOUS
 10
5707.6883250000001
 20
3403.393243
 30
0.0
 11
5852.6883250000001
 21
3403.393243
 31
0.0
  0
LINE
  5
7A95
  8
1
  6
CONTINUOUS
 10
5707.6883250000001
 20
3458.3932429999991
 30
0.0
 11
5852.6883250000001
 21
3458.3932429999991
 31
0.0
  0
LINE
  5
7A96
  8
1
  6
CONTINUOUS
 10
5707.6883250000001
 20
3550.893243
 30
0.0
 11
5707.6883250000001
 21
3310.893243
 31
0.0
  0
LINE
  5
7A97
  8
1
  6
CONTINUOUS
 10
5607.6883250000001
 20
3550.893243
 30
0.0
 11
5607.6883250000001
 21
3310.893243
 31
0.0
  0
LINE
  5
7A98
  8
1
  6
CONTINUOUS
 10
5537.6883250000001
 20
3210.893243
 30
0.0
 11
5777.6883250000001
 21
3210.893243
 31
0.0
  0
LINE
  5
7A99
  8
1
  6
CONTINUOUS
 10
5607.6883250000001
 20
3310.893243
 30
0.0
 11
5707.6883250000001
 21
3310.893243
 31
0.0
  0
LINE
  5
7A9A
  8
1
  6
CONTINUOUS
 10
5607.6883250000001
 20
3550.893243
 30
0.0
 11
5707.6883250000001
 21
3550.893243
 31
0.0
  0
LINE
  5
7A9B
  8
1
  6
CONTINUOUS
 10
5590.6883250000001
 20
3070.893243
 30
0.0
 11
5590.6883250000001
 21
3195.893243
 31
0.0
  0
LINE
  5
7A9C
  8
1
  6
CONTINUOUS
 10
5607.6883250000001
 20
4147.8932429999986
 30
0.0
 11
5707.6883250000001
 21
4147.8932429999986
 31
0.0
  0
LINE
  5
7A9D
  8
1
  6
CONTINUOUS
 10
5707.6883250000001
 20
4453.3932429999986
 30
0.0
 11
5852.6883250000001
 21
4453.3932429999986
 31
0.0
  0
LINE
  5
7A9E
  8
1
  6
CONTINUOUS
 10
5607.6883250000001
 20
4703.8932429999986
 30
0.0
 11
5707.6883250000001
 21
4703.8932429999986
 31
0.0
  0
LINE
  5
7A9F
  8
1
  6
CONTINUOUS
 10
5537.6883250000001
 20
4803.8932430000004
 30
0.0
 11
5777.6883250000001
 21
4803.8932430000004
 31
0.0
  0
LINE
  5
7AA0
  8
1
  6
CONTINUOUS
 10
6805.6883250000001
 20
3815.893243
 30
0.0
 11
6805.6883250000001
 21
5035.8932430000004
 31
0.0
  0
LINE
  5
7AA1
  8
1
  6
CONTINUOUS
 10
6702.6883250000001
 20
3195.893243
 30
0.0
 11
6702.6883250000001
 21
5234.0932430000003
 31
0.0
  0
LINE
  5
7AA2
  8
1
  6
CONTINUOUS
 10
6770.6883250000001
 20
3070.893243
 30
0.0
 11
6770.6883250000001
 21
3195.893243
 31
0.0
  0
LINE
  5
7AA3
  8
1
  6
CONTINUOUS
 10
6702.6883250000001
 20
3865.893243
 30
0.0
 11
6805.6883250000001
 21
3865.893243
 31
0.0
  0
LINE
  5
7AA4
  8
1
  6
CONTINUOUS
 10
6702.6883250000001
 20
4985.8932429999986
 30
0.0
 11
6805.6883250000001
 21
4985.8932429999986
 31
0.0
  0
LINE
  5
7AA5
  8
1
  6
CONTINUOUS
 10
3283.9555329999989
 20
7330.9814870000009
 30
0.0
 11
2727.9555329999989
 21
7330.9814870000009
 31
0.0
  0
LINE
  5
7AA6
  8
1
  6
CONTINUOUS
 10
3283.9555329999989
 20
7230.9814870000009
 30
0.0
 11
2727.9555329999989
 21
7230.9814870000009
 31
0.0
  0
LINE
  5
7AA7
  8
1
  6
CONTINUOUS
 10
1410.9555330000001
 20
7400.9814870000009
 30
0.0
 11
3383.9555329999989
 21
7400.9814870000009
 31
0.0
  0
LINE
  5
7AA8
  8
1
  6
CONTINUOUS
 10
2395.9555329999989
 20
8428.9814870000009
 30
0.0
 11
3615.9555329999989
 21
8428.9814870000009
 31
0.0
  0
LINE
  5
7AA9
  8
1
  6
CONTINUOUS
 10
1410.9555330000001
 20
7160.981487
 30
0.0
 11
3383.9555329999989
 21
7160.981487
 31
0.0
  0
LINE
  5
7AAA
  8
1
  6
CONTINUOUS
 10
2033.7555329999991
 20
7475.9814870000018
 30
0.0
 11
3765.9555329999989
 21
7475.9814870000018
 31
0.0
  0
LINE
  5
7AAB
  8
1
  6
CONTINUOUS
 10
2033.7555329999991
 20
8325.9814870000009
 30
0.0
 11
3765.9555329999989
 21
8325.9814870000009
 31
0.0
  0
LINE
  5
7AAC
  8
1
  6
CONTINUOUS
 10
1305.9555330000001
 20
7213.9814870000009
 30
0.0
 11
3665.9555329999989
 21
7213.9814870000009
 31
0.0
  0
LINE
  5
7AAD
  8
1
  6
CONTINUOUS
 10
1305.9555330000001
 20
8393.9814870000009
 30
0.0
 11
2445.9555329999998
 21
8393.9814870000009
 31
0.0
  0
LINE
  5
7AAE
  8
1
  6
CONTINUOUS
 10
1305.9555330000001
 20
8393.9814870000009
 30
0.0
 11
1305.9555330000001
 21
7213.9814870000009
 31
0.0
  0
LINE
  5
7AAF
  8
1
  6
CONTINUOUS
 10
1658.4555330000001
 20
7330.9814870000009
 30
0.0
 11
1658.4555330000001
 21
7449.6814870000007
 31
0.0
  0
LINE
  5
7AB0
  8
1
  6
CONTINUOUS
 10
1603.4555329999989
 20
7330.9814870000009
 30
0.0
 11
1603.4555329999989
 21
7449.6814870000007
 31
0.0
  0
LINE
  5
7AB1
  8
1
  6
CONTINUOUS
 10
1750.9555329999989
 20
7230.9814870000009
 30
0.0
 11
1510.9555330000001
 21
7230.9814870000009
 31
0.0
  0
LINE
  5
7AB2
  8
1
  6
CONTINUOUS
 10
1750.9555329999989
 20
7330.9814870000009
 30
0.0
 11
1510.9555330000001
 21
7330.9814870000009
 31
0.0
  0
LINE
  5
7AB3
  8
1
  6
CONTINUOUS
 10
1410.9555330000001
 20
7160.981487
 30
0.0
 11
1410.9555330000001
 21
7400.9814870000009
 31
0.0
  0
LINE
  5
7AB4
  8
1
  6
CONTINUOUS
 10
1510.9555330000001
 20
7230.9814870000009
 30
0.0
 11
1510.9555330000001
 21
7330.9814870000009
 31
0.0
  0
LINE
  5
7AB5
  8
1
  6
CONTINUOUS
 10
1750.9555329999989
 20
7230.9814870000009
 30
0.0
 11
1750.9555329999989
 21
7330.9814870000009
 31
0.0
  0
LINE
  5
7AB6
  8
1
  6
CONTINUOUS
 10
1431.8555329999999
 20
8049.1814870000017
 30
0.0
 11
1830.0555329999991
 21
8049.1814870000017
 31
0.0
  0
LINE
  5
7AB7
  8
1
  6
CONTINUOUS
 10
1431.8555329999999
 20
7449.6814870000007
 30
0.0
 11
1830.0555329999991
 21
7449.6814870000007
 31
0.0
  0
LINE
  5
7AB8
  8
1
  6
CONTINUOUS
 10
1431.8555329999999
 20
7449.6814870000007
 30
0.0
 11
1431.8555329999999
 21
8049.1814870000017
 31
0.0
  0
LINE
  5
7AB9
  8
1
  6
CONTINUOUS
 10
1830.0555329999991
 20
7449.6814870000007
 30
0.0
 11
1830.0555329999991
 21
8049.1814870000017
 31
0.0
  0
LINE
  5
7ABA
  8
1
  6
CONTINUOUS
 10
2033.7555329999991
 20
7475.9814870000018
 30
0.0
 11
2033.7555329999991
 21
8325.9814870000009
 31
0.0
  0
LINE
  5
7ABB
  8
1
  6
CONTINUOUS
 10
2978.4555329999989
 20
7475.9814870000018
 30
0.0
 11
2978.4555329999989
 21
7330.9814870000009
 31
0.0
  0
LINE
  5
7ABC
  8
1
  6
CONTINUOUS
 10
3033.4555329999998
 20
7475.9814870000018
 30
0.0
 11
3033.4555329999998
 21
7330.9814870000009
 31
0.0
  0
LINE
  5
7ABD
  8
1
  6
CONTINUOUS
 10
2727.9555329999989
 20
7230.9814870000009
 30
0.0
 11
2727.9555329999989
 21
7330.9814870000009
 31
0.0
  0
LINE
  5
7ABE
  8
1
  6
CONTINUOUS
 10
2445.9555329999998
 20
8428.9814870000009
 30
0.0
 11
2445.9555329999998
 21
8325.9814870000009
 31
0.0
  0
LINE
  5
7ABF
  8
1
  6
CONTINUOUS
 10
3765.9555329999989
 20
7425.9814870000009
 30
0.0
 11
3765.9555329999989
 21
8375.9814870000027
 31
0.0
  0
LINE
  5
7AC0
  8
1
  6
CONTINUOUS
 10
3665.9555329999989
 20
7475.9814870000018
 30
0.0
 11
3665.9555329999989
 21
7213.9814870000009
 31
0.0
  0
LINE
  5
7AC1
  8
1
  6
CONTINUOUS
 10
3383.9555329999989
 20
7160.981487
 30
0.0
 11
3383.9555329999989
 21
7400.9814870000009
 31
0.0
  0
LINE
  5
7AC2
  8
1
  6
CONTINUOUS
 10
3283.9555329999989
 20
7230.9814870000009
 30
0.0
 11
3283.9555329999989
 21
7330.9814870000009
 31
0.0
  0
LINE
  5
7AC3
  8
1
  6
CONTINUOUS
 10
3565.9555329999989
 20
8428.9814870000009
 30
0.0
 11
3565.9555329999989
 21
8325.9814870000009
 31
0.0
  0
LINE
  5
7AC4
  8
1
  6
CONTINUOUS
 10
3665.9555329999989
 20
8393.9814870000009
 30
0.0
 11
3665.9555329999989
 21
8325.9814870000009
 31
0.0
  0
LINE
  5
7AC5
  8
1
  6
CONTINUOUS
 10
3565.9555329999989
 20
8393.9814870000009
 30
0.0
 11
3665.9555329999989
 21
8393.9814870000009
 31
0.0
  0
LINE
  5
7AC6
  8
2
  6
CENTER
 10
1134.605319999999
 20
7900.9814870000009
 30
0.0
 11
3877.0466489999999
 21
7900.9814870000009
 31
0.0
  0
LINE
  5
7AC7
  8
2
  6
CENTER
 10
6277.6883250000001
 20
5481.2879490000014
 30
0.0
 11
6277.6883250000001
 21
2911.487994999999
 31
0.0
  0
LINE
  5
7AC8
  8
2
  6
CENTER
 10
3005.9555329999989
 20
5373.6803389999995
 30
0.0
 11
3005.9555329999989
 21
2871.8665539999988
 31
0.0
  0
LINE
  5
7AC9
  8
2
  6
CENTER
 10
5403.882611
 20
4425.8932429999986
 30
0.0
 11
6885.3384750000014
 21
4425.8932429999986
 31
0.0
  0
LINE
  5
7ACA
  8
4
  6
CONTINUOUS
 10
7400.0
 20
2000.0
 30
0.0
 11
7400.0
 21
1200.0
 31
0.0
  0
LINE
  5
7ACB
  8
4
  6
CONTINUOUS
 10
4600.0
 20
2000.0
 30
0.0
 11
4600.0
 21
1200.0
 31
0.0
  0
LINE
  5
7ACC
  8
4
  6
CONTINUOUS
 10
2600.0
 20
2000.0
 30
0.0
 11
2600.0
 21
1200.0
 31
0.0
  0
LINE
  5
7ACF
  8
4
  6
CONTINUOUS
 10
2600.0
 20
1200.0
 30
0.0
 11
7400.0
 21
1200.0
 31
0.0
  0
LINE
  5
7AD0
  8
4
  6
CONTINUOUS
 10
2600.0
 20
1600.0
 30
0.0
 11
7400.0
 21
1600.0
 31
0.0
  0
TEXT
  5
7AD1
  8
4
  6
CONTINUOUS
 10
2754.008323
 20
1726.1721030000001
 30
0.0
 40
200.0
  1
機器名称
  0
TEXT
  5
7AD2
  8
4
  6
CONTINUOUS
 10
2745.032424
 20
1286.580627
 30
0.0
 40
200.0
  1
機器型番
  0
TEXT
  5
7AD3
  8
4
  6
CONTINUOUS
 10
4710.7149820000004
 20
1690.2870760000001
 30
0.0
 40
200.0
  1
ミツヤ多翼送風機
  0
TEXT
  5
7AD4
  8
4
  6
CONTINUOUS
 10
4746.6179819999998
 20
1268.6383370000001
 30
0.0
 40
200.0
  1
MFE#7-4
  0
TEXT
  5
7AD6
  8
4
  6
CONTINUOUS
 10
3619.1430620000001
 20
9533.715365
 30
0.0
 40
216.0
  1
床置ベット
  0
TEXT
  5
7AD7
  8
4
  6
CONTINUOUS
 10
1264.6703729999999
 20
10135.523905
 30
0.0
 40
288.0
  1
ベルト駆動式片吸込両持排煙ファン
  0
LINE
  5
7AD8
  8
4
  6
CONTINUOUS
 10
1000.0
 20
9877.6350170000005
 30
0.0
 11
7400.0
 21
9877.6350170000005
 31
0.0
  0
LINE
  5
7AD9
  8
4
  6
CONTINUOUS
 10
1000.0
 20
10677.635017000001
 30
0.0
 11
7400.0
 21
10677.635017000001
 31
0.0
  0
LINE
  5
7ADA
  8
4
  6
CONTINUOUS
 10
2600.0
 20
2000.0
 30
0.0
 11
7400.0
 21
2000.0
 31
0.0
  0
LINE
  5
7ADB
  8
4
  6
CONTINUOUS
 10
1000.0
 20
10677.635017000001
 30
0.0
 11
1000.0
 21
9877.6350170000005
 31
0.0
  0
TEXT
  5
7ADC
  8
4
  6
CONTINUOUS
 10
1606.7853720000001
 20
9529.2779099999989
 30
0.0
 40
216.0
  1
左回転右横向
  0
TEXT
  5
7ADD
  8
4
  6
CONTINUOUS
 10
5875.8782369999999
 20
10824.244326
 30
0.0
 40
224.0
  1
No.
  0
TEXT
  5
7ADE
  8
4
  6
CONTINUOUS
 10
5245.1842500000012
 20
9533.715365
 30
0.0
 40
216.0
  1
縮尺：1/40
  0
LINE
  5
7ADF
  8
4
  6
CONTINUOUS
 10
7400.0
 20
10677.635017000001
 30
0.0
 11
7400.0
 21
9877.6350170000005
 31
0.0
  0
LINE
  5
7AE1
  8
4
  6
CONTINUOUS
 10
5762.4696889999996
 20
10725.054333
 30
0.0
 11
5762.4696889999996
 21
11146.609046
 31
0.0
  0
LINE
  5
7AE2
  8
4
  6
CONTINUOUS
 10
5762.4696889999996
 20
11146.609046
 30
0.0
 11
7400.0
 21
11146.609046
 31
0.0
  0
LINE
  5
7AE3
  8
4
  6
CONTINUOUS
 10
7400.0
 20
11146.609046
 30
0.0
 11
7400.0
 21
10725.054333
 31
0.0
  0
LINE
  5
7AE4
  8
4
  6
CONTINUOUS
 10
7400.0
 20
10725.054333
 30
0.0
 11
5762.4696889999996
 21
10725.054333
 31
0.0
  0
DIMENSION
  5
7AFC
  8
3
  6
CONTINUOUS
  2
*D1
 10
4076.092059000001
 20
4377.8932429999986
 30
0.0
 11
4076.0920590000001
 21
3843.67776
 31
0.0
 70
   128
 13
3765.9555329999989
 23
3227.893243
 33
0.0
 14
3765.9555329999989
 24
4377.8932429999986
 34
0.0
 50
90.0
1001
ACAD
1000
DSTYLE
1002
{
1070
   287
1070
     3
1070
   287
1070
     3
1070
    40
1040
40.0
1070
   143
1040
0.039
1070
   172
1070
     1
1070
   271
1070
     0
1070
   279
1070
     0
1070
   288
1070
     1
1002
}
  0
DIMENSION
  5
7B09
  8
3
  6
CONTINUOUS
  2
*D2
 10
4346.5894429999998
 20
3227.893243
 30
0.0
 11
4346.5894429999998
 21
3852.6889390000001
 31
0.0
 70
   128
 13
3966.9616649999998
 23
4425.8932429999986
 33
0.0
 14
3765.9555329999989
 24
3227.893243
 34
0.0
 50
90.0
1001
ACAD
1000
DSTYLE
1002
{
1070
   287
1070
     3
1070
   287
1070
     3
1070
    40
1040
40.0
1070
   143
1040
0.039
1070
   172
1070
     1
1070
   271
1070
     0
1070
   279
1070
     0
1070
   288
1070
     1
1002
}
  0
DIMENSION
  5
7B22
  8
3
  6
CONTINUOUS
  2
*D3
 10
4635.1199740000011
 20
3070.893243
 30
0.0
 11
4535.1199739999993
 21
3748.393243
 31
0.0
 70
     0
 13
3966.9616649999998
 23
4425.8932429999986
 33
0.0
 14
3665.9555329999989
 24
3070.893243
 34
0.0
 50
90.0
1001
ACAD
1000
DSTYLE
1002
{
1070
   287
1070
     3
1070
   287
1070
     3
1070
    40
1040
40.0
1070
   143
1040
0.039
1070
   172
1070
     1
1070
   271
1070
     0
1070
   279
1070
     0
1070
   288
1070
     1
1002
}
  0
DIMENSION
  5
7B3C
  8
3
  6
CONTINUOUS
  2
*D4
 10
3005.9555329999989
 20
2753.3267879999999
 30
0.0
 11
2173.5940039999991
 21
2753.3267879999999
 31
0.0
 70
   128
 13
1305.9555330000001
 23
3070.893243
 33
0.0
 14
3005.9555329999989
 24
2871.8665539999988
 34
0.0
1001
ACAD
1000
DSTYLE
1002
{
1070
   287
1070
     3
1070
   287
1070
     3
1070
    40
1040
40.0
1070
   143
1040
0.039
1070
   172
1070
     1
1070
   271
1070
     0
1070
   279
1070
     0
1070
   288
1070
     1
1002
}
  0
DIMENSION
  5
7B48
  8
3
  6
CONTINUOUS
  2
*D5
 10
3665.9555329999989
 20
2753.3267879999999
 30
0.0
 11
3335.9555329999989
 21
2853.3267879999999
 31
0.0
 70
     0
 13
3005.9555329999989
 23
2871.8665539999988
 33
0.0
 14
3665.9555329999989
 24
3070.893243
 34
0.0
1001
ACAD
1000
DSTYLE
1002
{
1070
   287
1070
     4
1070
   287
1070
     4
1070
    40
1040
40.0
1070
    75
1070
     1
1070
   143
1040
0.039
1070
   172
1070
     1
1070
   271
1070
     0
1070
   279
1070
     1
1070
   288
1070
     1
1002
}
  0
DIMENSION
  5
7B55
  8
3
  6
CONTINUOUS
  2
*D6
 10
3005.9555329999989
 20
5438.6539730000004
 30
0.0
 11
3381.815521
 21
5438.6539730000004
 31
0.0
 70
   128
 13
3765.9555329999989
 23
4430.8932429999986
 33
0.0
 14
3005.9555329999989
 24
5373.6803389999995
 34
0.0
1001
ACAD
1000
DSTYLE
1002
{
1070
   287
1070
     3
1070
   287
1070
     3
1070
    40
1040
40.0
1070
   143
1040
0.039
1070
   172
1070
     1
1070
   271
1070
     0
1070
   279
1070
     0
1070
   288
1070
     1
1002
}
  0
DIMENSION
  5
7B6E
  8
3
  6
CONTINUOUS
  2
*D7
 10
6702.6883250000001
 20
5465.6874500000004
 30
0.0
 11
6272.2111199999999
 21
5465.6874500000004
 31
0.0
 70
   128
 13
5852.6883250000001
 23
5234.0932430000003
 33
0.0
 14
6702.6883250000001
 24
5234.0932430000003
 34
0.0
1001
ACAD
1000
DSTYLE
1002
{
1070
   287
1070
     3
1070
   287
1070
     3
1070
    40
1040
40.0
1070
   143
1040
0.039
1070
   172
1070
     1
1070
   271
1070
     0
1070
   279
1070
     0
1070
   288
1070
     1
1002
}
  0
DIMENSION
  5
7B7B
  8
3
  6
CONTINUOUS
  2
*D8
 10
7119.7695200000007
 20
3865.893243
 30
0.0
 11
7119.7695200000007
 21
4420.392311999999
 31
0.0
 70
   128
 13
6805.6883250000001
 23
4985.8932429999986
 33
0.0
 14
6805.6883250000001
 24
3865.893243
 34
0.0
 50
90.0
1001
ACAD
1000
DSTYLE
1002
{
1070
   287
1070
     3
1070
   287
1070
     3
1070
     3
1000
φ<>
1070
    40
1040
40.0
1070
   143
1040
0.039
1070
   172
1070
     1
1070
   271
1070
     0
1070
   279
1070
     0
1070
   288
1070
     1
1002
}
  0
DIMENSION
  5
7B8A
  8
3
  6
CONTINUOUS
  2
*D9
 10
6277.6883250000001
 20
5718.0000700000001
 30
0.0
 11
6541.6883249999992
 21
5814.8746295271712
 31
0.0
 70
   128
 13
6805.6883250000001
 23
5035.8932430000004
 33
0.0
 14
6277.6883250000001
 24
5646.1801079999987
 34
0.0
1001
ACAD
1000
DSTYLE
1002
{
1070
   288
1070
     1
1070
   172
1070
     1
1070
    40
1040
40.0
1070
   271
1070
     0
1070
   143
1040
0.039
1002
}
  0
DIMENSION
  5
7B96
  8
3
  6
CONTINUOUS
  2
*D10
 10
5537.6883250000001
 20
5718.0000700000001
 30
0.0
 11
5907.6883250000001
 21
5918.0000700000001
 31
0.0
 70
     0
  1
MAX\P850
 13
6277.6883250000001
 23
5646.1801079999987
 33
0.0
 14
5537.6883250000001
 24
4803.8932430000004
 34
0.0
1001
ACAD
1000
DSTYLE
1002
{
1070
   287
1070
     4
1070
   287
1070
     4
1070
    40
1040
40.0
1070
    75
1070
     1
1070
   143
1040
0.039
1070
   172
1070
     1
1070
   271
1070
     0
1070
   279
1070
     1
1070
   288
1070
     1
1002
}
  0
DIMENSION
  5
7BA3
  8
3
  6
CONTINUOUS
  2
*D11
 10
6277.6883250000001
 20
2771.349146
 30
0.0
 11
5947.6142959999997
 21
2771.349146
 31
0.0
 70
   128
 13
5590.6883250000001
 23
3070.893243
 33
0.0
 14
6277.6883250000001
 24
2911.487994999999
 34
0.0
1001
ACAD
1000
DSTYLE
1002
{
1070
   287
1070
     3
1070
   287
1070
     3
1070
    40
1040
40.0
1070
   143
1040
0.039
1070
   172
1070
     1
1070
   271
1070
     0
1070
   279
1070
     0
1070
   288
1070
     1
1002
}
  0
DIMENSION
  5
7BB1
  8
3
  6
CONTINUOUS
  2
*D12
 10
6770.6883250000001
 20
2771.349146
 30
0.0
 11
6520.8716709999999
 21
2777.0138919999999
 31
0.0
 70
   128
 13
6277.6883250000001
 23
2911.487994999999
 33
0.0
 14
6770.6883250000001
 24
3070.893243
 34
0.0
1001
ACAD
1000
DSTYLE
1002
{
1070
   287
1070
     4
1070
   287
1070
     4
1070
    40
1040
40.0
1070
    75
1070
     1
1070
   143
1040
0.039
1070
   172
1070
     1
1070
   271
1070
     0
1070
   279
1070
     1
1070
   288
1070
     1
1002
}
  0
DIMENSION
  5
7BD5
  8
3
  6
CONTINUOUS
  2
*D13
 10
3665.9555329999989
 20
6850.8316969999996
 30
0.0
 11
2399.0084519999991
 21
6850.8316969999996
 31
0.0
 70
   128
 13
1305.9555330000001
 23
7213.9814870000009
 33
0.0
 14
3665.9555329999989
 24
7213.9814870000009
 34
0.0
1001
ACAD
1000
DSTYLE
1002
{
1070
   287
1070
     3
1070
   287
1070
     3
1070
    40
1040
40.0
1070
   143
1040
0.039
1070
   172
1070
     1
1070
   271
1070
     0
1070
   279
1070
     0
1070
   288
1070
     1
1002
}
  0
DIMENSION
  5
7BE2
  8
3
  6
CONTINUOUS
  2
*D14
 10
4094.1252520000021
 20
7213.9814870000009
 30
0.0
 11
4094.1252519999998
 21
7769.9705389999999
 31
0.0
 70
   128
 13
3665.9555329999989
 23
8393.9814870000009
 33
0.0
 14
3665.9555329999989
 24
7213.9814870000009
 34
0.0
 50
90.0
1001
ACAD
1000
DSTYLE
1002
{
1070
   287
1070
     3
1070
   287
1070
     3
1070
    40
1040
40.0
1070
   143
1040
0.039
1070
   172
1070
     1
1070
   271
1070
     0
1070
   279
1070
     0
1070
   288
1070
     1
1002
}
  0
DIMENSION
  5
7C0E
  8
3
  6
CONTINUOUS
  2
*D15
 10
4635.1199740000011
 20
5230.8932430000004
 30
0.0
 11
4535.1199739999993
 21
4828.3932430000004
 31
0.0
 70
     0
 13
3966.9616649999998
 23
4425.8932429999986
 33
0.0
 14
3005.9555329999989
 24
5230.8932430000004
 34
0.0
 50
90.0
1001
ACAD
1000
DSTYLE
1002
{
1070
   287
1070
     4
1070
   287
1070
     4
1070
    40
1040
40.0
1070
    75
1070
     1
1070
   143
1040
0.039
1070
   172
1070
     1
1070
   271
1070
     0
1070
   279
1070
     1
1070
   288
1070
     1
1002
}
  0
DIMENSION
  5
7C1B
  8
3
  6
CONTINUOUS
  2
*D16
 10
4946.6403910000008
 20
3070.893243
 30
0.0
 11
4946.640390999999
 21
4197.84076
 31
0.0
 70
   128
 13
3005.9555329999989
 23
5230.8932430000004
 33
0.0
 14
3665.9555329999989
 24
3070.893243
 34
0.0
 50
90.0
1001
ACAD
1000
DSTYLE
1002
{
1070
   287
1070
     3
1070
   287
1070
     3
1070
    40
1040
40.0
1070
   143
1040
0.039
1070
   172
1070
     1
1070
   271
1070
     0
1070
   279
1070
     0
1070
   288
1070
     1
1002
}
  0
DIMENSION
  5
7C27
  8
3
  6
CONTINUOUS
  2
*D17
 10
2036.9555329999989
 20
5438.6539730000004
 30
0.0
 11
2521.4555329999998
 21
5538.6539729999986
 31
0.0
 70
     0
 13
3005.9555329999989
 23
5373.6803389999995
 33
0.0
 14
2036.9555329999989
 24
4419.3057088130208
 34
0.0
1001
ACAD
1000
DSTYLE
1002
{
1070
   287
1070
     4
1070
   287
1070
     4
1070
    40
1040
40.0
1070
    75
1070
     1
1070
   143
1040
0.039
1070
   172
1070
     1
1070
   271
1070
     0
1070
   279
1070
     1
1070
   288
1070
     1
1002
}
  0
DIMENSION
  5
7C60
  8
3
  2
*D18
 10
1305.9555330000001
 20
5680.2333372530638
 30
0.0
 11
2653.104790543206
 21
5680.2333372530638
 31
0.0
 70
   128
 13
3765.9555329999989
 23
4430.8932429999986
 33
0.0
 14
1305.9555329999989
 24
3195.893243
 34
0.0
1001
ACAD
1000
DSTYLE
1002
{
1070
   287
1070
     3
1070
   287
1070
     3
1070
    40
1040
40.0
1070
   143
1040
0.039
1070
   172
1070
     1
1070
   271
1070
     0
1070
   279
1070
     0
1070
   288
1070
     1
1002
}
  0
ENDSEC
  0
EOF
