  0
SECTION
  2
HEADER
  9
$ACADVER
  1
AC1009
  9
$INSBASE
 10
0.0
 20
0.0
 30
0.0
  9
$EXTMIN
 10
1000.0
 20
1200.0
 30
0.0
  9
$EXTMAX
 10
7400.0
 20
11146.609046
 30
0.0
  9
$LIMMIN
 10
0.0
 20
0.0
  9
$LIMMAX
 10
297.0
 20
210.0
  9
$ORTHOMODE
 70
     0
  9
$REGENMODE
 70
     1
  9
$FILLMODE
 70
     0
  9
$QTEXTMODE
 70
     0
  9
$MIRRTEXT
 70
     1
  9
$DRAGMODE
 70
     2
  9
$LTSCALE
 40
100.0
  9
$OSMODE
 70
    37
  9
$ATTMODE
 70
     1
  9
$TEXTSIZE
 40
180.0
  9
$TRACEWID
 40
0.05
  9
$TEXTSTYLE
  7
STANDARD
  9
$CLAYER
  8
3
  9
$CELTYPE
  6
BYLAYER
  9
$CECOLOR
 62
   256
  9
$DIMSCALE
 40
40.0
  9
$DIMASZ
 40
2.0
  9
$DIMEXO
 40
0.5
  9
$DIMDLI
 40
10.0
  9
$DIMRND
 40
0.0
  9
$DIMDLE
 40
0.0
  9
$DIMEXE
 40
1.0
  9
$DIMTP
 40
1.0
  9
$DIMTM
 40
1.0
  9
$DIMTXT
 40
3.0
  9
$DIMCEN
 40
0.0
  9
$DIMTSZ
 40
0.0
  9
$DIMTOL
 70
     0
  9
$DIMLIM
 70
     0
  9
$DIMTIH
 70
     0
  9
$DIMTOH
 70
     0
  9
$DIMSE1
 70
     0
  9
$DIMSE2
 70
     0
  9
$DIMTAD
 70
     1
  9
$DIMZIN
 70
     8
  9
$DIMBLK
  1

  9
$DIMASO
 70
     1
  9
$DIMSHO
 70
     1
  9
$DIMPOST
  1

  9
$DIMAPOST
  1

  9
$DIMALT
 70
     0
  9
$DIMALTD
 70
     2
  9
$DIMALTF
 40
0.039
  9
$DIMLFAC
 40
1.0
  9
$DIMTOFL
 70
     1
  9
$DIMTVP
 40
0.0
  9
$DIMTIX
 70
     0
  9
$DIMSOXD
 70
     0
  9
$DIMSAH
 70
     1
  9
$DIMBLK1
  1
OPEN
  9
$DIMBLK2
  1
OPEN
  9
$DIMSTYLE
  2
IGA
  9
$DIMCLRD
 70
     0
  9
$DIMCLRE
 70
     0
  9
$DIMCLRT
 70
     0
  9
$DIMTFAC
 40
10.0
  9
$DIMGAP
 40
1.0
  9
$LUNITS
 70
     2
  9
$LUPREC
 70
     3
  9
$SKETCHINC
 40
0.1
  9
$FILLETRAD
 40
50.0
  9
$AUNITS
 70
     0
  9
$AUPREC
 70
     0
  9
$MENU
  1
acad
  9
$ELEVATION
 40
0.0
  9
$PELEVATION
 40
0.0
  9
$THICKNESS
 40
0.0
  9
$LIMCHECK
 70
     0
  9
$BLIPMODE
 70
     0
  9
$CHAMFERA
 40
0.5
  9
$CHAMFERB
 40
0.5
  9
$SKPOLY
 70
     0
  9
$TDCREATE
 40
2450753.57362743
  9
$TDUPDATE
 40
2454953.8431704049
  9
$TDINDWG
 40
0.007421331
  9
$TDUSRTIMER
 40
0.007421331
  9
$USRTIMER
 70
     1
  9
$ANGBASE
 50
0.0
  9
$ANGDIR
 70
     0
  9
$PDMODE
 70
     0
  9
$PDSIZE
 40
0.0
  9
$PLINEWID
 40
0.0
  9
$COORDS
 70
     1
  9
$SPLFRAME
 70
     0
  9
$SPLINETYPE
 70
     6
  9
$SPLINESEGS
 70
     8
  9
$ATTDIA
 70
     0
  9
$ATTREQ
 70
     1
  9
$HANDLING
 70
 10241
  9
$HANDSEED
  5
7E59
  9
$SURFTAB1
 70
     6
  9
$SURFTAB2
 70
     6
  9
$SURFTYPE
 70
     6
  9
$SURFU
 70
     6
  9
$SURFV
 70
     6
  9
$UCSNAME
  2

  9
$UCSORG
 10
0.0
 20
0.0
 30
0.0
  9
$UCSXDIR
 10
1.0
 20
0.0
 30
0.0
  9
$UCSYDIR
 10
0.0
 20
1.0
 30
0.0
  9
$PUCSNAME
  2

  9
$PUCSORG
 10
0.0
 20
0.0
 30
0.0
  9
$PUCSXDIR
 10
1.0
 20
0.0
 30
0.0
  9
$PUCSYDIR
 10
0.0
 20
1.0
 30
0.0
  9
$USERI1
 70
     0
  9
$USERI2
 70
     0
  9
$USERI3
 70
     0
  9
$USERI4
 70
     0
  9
$USERI5
 70
     0
  9
$USERR1
 40
0.0
  9
$USERR2
 40
0.0
  9
$USERR3
 40
0.0
  9
$USERR4
 40
0.0
  9
$USERR5
 40
0.0
  9
$WORLDVIEW
 70
     1
  9
$SHADEDGE
 70
     3
  9
$SHADEDIF
 70
    70
  9
$TILEMODE
 70
     1
  9
$MAXACTVP
 70
    16
  9
$PLIMCHECK
 70
     0
  9
$PEXTMIN
 10
1.0000000000000000E+020
 20
1.0000000000000000E+020
 30
1.0000000000000000E+020
  9
$PEXTMAX
 10
-1.0000000000000000E+020
 20
-1.0000000000000000E+020
 30
-1.0000000000000000E+020
  9
$PLIMMIN
 10
0.0
 20
0.0
  9
$PLIMMAX
 10
12.0
 20
9.0
  9
$UNITMODE
 70
     0
  9
$VISRETAIN
 70
     0
  9
$PLINEGEN
 70
     0
  9
$PSLTSCALE
 70
     1
  0
ENDSEC
  0
SECTION
  2
TABLES
  0
TABLE
  2
VPORT
 70
     2
  0
VPORT
  2
*ACTIVE
 70
     0
 10
0.0
 20
0.0
 11
1.0
 21
1.0
 12
10889.63842120882
 22
6755.2600599715533
 13
0.0
 23
0.0
 14
10.0
 24
10.0
 15
10.0
 25
10.0
 16
0.0
 26
0.0
 36
1.0
 17
0.0
 27
0.0
 37
0.0
 40
14046.829360524451
 41
1.5051150895140659
 42
50.0
 43
0.0
 44
0.0
 50
0.0
 51
0.0
 71
     0
 72
   100
 73
     1
 74
     0
 75
     0
 76
     0
 77
     0
 78
     0
  0
ENDTAB
  0
TABLE
  2
LTYPE
 70
     2
  0
LTYPE
  2
CONTINUOUS
 70
     0
  3
Solid line
 72
    65
 73
     0
 40
0.0
  0
LTYPE
  2
CENTER
 70
     0
  3
____ _ ____ _ ____ _ ____ _ ____ _ ____ _ ____ 
 72
    65
 73
     4
 40
2.0
 49
1.25
 49
-0.25
 49
0.25
 49
-0.25
  0
ENDTAB
  0
TABLE
  2
LAYER
 70
     6
  0
LAYER
  2
0
 70
     0
 62
     7
  6
CONTINUOUS
  0
LAYER
  2
3
 70
     0
 62
     2
  6
CONTINUOUS
  0
LAYER
  2
2
 70
     0
 62
     3
  6
CENTER
  0
LAYER
  2
1
 70
     0
 62
     4
  6
CONTINUOUS
  0
LAYER
  2
4
 70
     0
 62
     7
  6
CONTINUOUS
  0
LAYER
  2
DEFPOINTS
 70
     0
 62
     7
  6
CONTINUOUS
  0
ENDTAB
  0
TABLE
  2
STYLE
 70
     1
  0
STYLE
  2
STANDARD
 70
     0
 40
0.0
 41
1.0
 50
0.0
 71
     0
 42
180.0
  3
simplex.shx
  4
extfont.shx
  0
ENDTAB
  0
TABLE
  2
VIEW
 70
     0
  0
ENDTAB
  0
TABLE
  2
UCS
 70
     0
  0
ENDTAB
  0
TABLE
  2
APPID
 70
     1
  0
APPID
  2
ACAD
 70
     0
  0
ENDTAB
  0
TABLE
  2
DIMSTYLE
 70
     1
  0
DIMSTYLE
  2
IGA
 70
     0
  3

  4

  5

  6
OPEN
  7
OPEN
 40
2.0
 41
2.0
 42
0.5
 43
10.0
 44
1.0
 45
0.0
 46
0.0
 47
1.0
 48
1.0
140
3.0
141
0.0
142
0.0
143
0.03937
144
1.0
145
0.0
146
10.0
147
1.0
 71
     0
 72
     0
 73
     0
 74
     0
 75
     0
 76
     0
 77
     1
 78
     8
170
     0
171
     2
172
     0
173
     1
174
     0
175
     0
176
     0
177
     0
178
     0
  0
ENDTAB
  0
ENDSEC
  0
SECTION
  2
BLOCKS
  0
BLOCK
  8
0
  2
$MODEL_SPACE
 70
     0
 10
0.0
 20
0.0
 30
0.0
  3
$MODEL_SPACE
  1

  0
ENDBLK
  5
1B
  8
0
  0
BLOCK
 67
     1
  8
0
  2
$PAPER_SPACE
 70
     0
 10
0.0
 20
0.0
 30
0.0
  3
$PAPER_SPACE
  1

  0
ENDBLK
  5
18
 67
     1
  8
0
  0
BLOCK
  8
0
  2
_OPEN
 70
     0
 10
0.0
 20
0.0
 30
0.0
  3
_OPEN
  1

  0
LINE
  5
7B71
  8
0
  6
BYBLOCK
 62
     0
 10
-1.0
 20
0.166667
 30
0.0
 11
0.0
 21
0.0
 31
0.0
  0
LINE
  5
7B72
  8
0
  6
BYBLOCK
 62
     0
 10
0.0
 20
0.0
 30
0.0
 11
-1.0
 21
-0.166667
 31
0.0
  0
LINE
  5
7B73
  8
0
  6
BYBLOCK
 62
     0
 10
0.0
 20
0.0
 30
0.0
 11
-1.0
 21
0.0
 31
0.0
  0
ENDBLK
  5
7B74
  8
0
  0
BLOCK
  8
0
  2
*D1
 70
     1
 10
0.0
 20
0.0
 30
0.0
  3
*D1
  1

  0
LINE
  5
7DBD
  8
3
  6
CONTINUOUS
 62
     0
 10
2124.1859370000002
 20
5087.9578490000013
 30
0.0
 11
1905.680513
 21
5087.9578490000022
 31
0.0
  0
LINE
  5
7DBE
  8
3
  6
CONTINUOUS
 62
     0
 10
2124.1859370000002
 20
3937.9578489999999
 30
0.0
 11
1905.680513
 21
3937.9578489999999
 31
0.0
  0
LINE
  5
7DBF
  8
3
  6
CONTINUOUS
 62
     0
 10
1945.680513
 20
5007.9578490000022
 30
0.0
 11
1945.680513
 21
4017.9578489999999
 31
0.0
  0
INSERT
  5
7DC0
  8
3
  6
CONTINUOUS
 62
     0
  2
_OPEN
 10
1945.680513
 20
5087.9578490000022
 30
0.0
 41
80.0
 42
80.0
 43
80.0
 50
90.0
  0
INSERT
  5
7DC1
  8
3
  6
CONTINUOUS
 62
     0
  2
_OPEN
 10
1945.680513
 20
3937.9578489999999
 30
0.0
 41
80.0
 42
80.0
 43
80.0
 50
270.0
  0
TEXT
  8
3
  40
120
  5
7E48
  62
0
  72
0
  71
0
 10
1605.68
 20
4315.73
 30
0.000000
  1
1150
  0
POINT
  5
7DC3
  8
DEFPOINTS
  6
CONTINUOUS
 62
     0
 10
2144.1859370000002
 20
5087.9578490000013
 30
0.0
  0
POINT
  5
7DC4
  8
DEFPOINTS
  6
CONTINUOUS
 62
     0
 10
2144.1859370000002
 20
3937.9578489999999
 30
0.0
  0
POINT
  5
7DC5
  8
DEFPOINTS
  6
CONTINUOUS
 62
     0
 10
1945.680513
 20
3937.9578489999999
 30
0.0
  0
ENDBLK
  5
7B81
  8
0
  0
BLOCK
  8
0
  2
*D2
 70
     1
 10
0.0
 20
0.0
 30
0.0
  3
*D2
  1

  0
LINE
  5
7DC6
  8
3
  6
CONTINUOUS
 62
     0
 10
2124.1859370000002
 20
5087.9578490000013
 30
0.0
 11
1626.875311
 21
5087.9578490000022
 31
0.0
  0
LINE
  5
7DC7
  8
3
  6
CONTINUOUS
 62
     0
 10
1884.7317879999989
 20
3889.9578489999999
 30
0.0
 11
1626.875311
 21
3889.9578489999999
 31
0.0
  0
LINE
  5
7DC8
  8
3
  6
CONTINUOUS
 62
     0
 10
1666.875311
 20
5007.9578490000022
 30
0.0
 11
1666.875311
 21
3969.9578489999999
 31
0.0
  0
INSERT
  5
7DC9
  8
3
  6
CONTINUOUS
 62
     0
  2
_OPEN
 10
1666.875311
 20
5087.9578490000022
 30
0.0
 41
80.0
 42
80.0
 43
80.0
 50
90.0
  0
INSERT
  5
7DCA
  8
3
  6
CONTINUOUS
 62
     0
  2
_OPEN
 10
1666.875311
 20
3889.9578489999999
 30
0.0
 41
80.0
 42
80.0
 43
80.0
 50
270.0
  0
TEXT
  8
3
  40
120
  5
7E49
  62
0
  72
0
  71
0
 10
1326.88
 20
4315.73
 30
0.000000
  1
1198
  0
POINT
  5
7DCC
  8
DEFPOINTS
  6
CONTINUOUS
 62
     0
 10
2144.1859370000002
 20
5087.9578490000013
 30
0.0
  0
POINT
  5
7DCD
  8
DEFPOINTS
  6
CONTINUOUS
 62
     0
 10
1904.7317879999989
 20
3889.9578489999999
 30
0.0
  0
POINT
  5
7DCE
  8
DEFPOINTS
  6
CONTINUOUS
 62
     0
 10
1666.875311
 20
3889.9578489999999
 30
0.0
  0
ENDBLK
  5
7B8E
  8
0
  0
BLOCK
  8
0
  2
*D3
 70
     1
 10
0.0
 20
0.0
 30
0.0
  3
*D3
  1

  0
LINE
  5
7DCF
  8
3
  6
CONTINUOUS
 62
     0
 10
2224.1859370000002
 20
3049.9578489999999
 30
0.0
 11
1626.875311
 21
3049.9578489999999
 31
0.0
  0
LINE
  5
7DD0
  8
3
  6
CONTINUOUS
 62
     0
 10
1666.875311
 20
3809.9578489999999
 30
0.0
 11
1666.875311
 21
3129.9578489999999
 31
0.0
  0
INSERT
  5
7DD1
  8
3
  6
CONTINUOUS
 62
     0
  2
_OPEN
 10
1666.875311
 20
3889.9578489999999
 30
0.0
 41
80.0
 42
80.0
 43
80.0
 50
90.0
  0
INSERT
  5
7DD2
  8
3
  6
CONTINUOUS
 62
     0
  2
_OPEN
 10
1666.875311
 20
3049.9578489999999
 30
0.0
 41
80.0
 42
80.0
 43
80.0
 50
270.0
  0
TEXT
  8
3
  40
120
  5
7E4A
  62
0
  72
0
  71
0
 10
1326.88
 20
3257.56
 30
0.000000
  1
840
  0
POINT
  5
7DD4
  8
DEFPOINTS
  6
CONTINUOUS
 62
     0
 10
1904.7317879999989
 20
3889.9578489999999
 30
0.0
  0
POINT
  5
7DD5
  8
DEFPOINTS
  6
CONTINUOUS
 62
     0
 10
2244.1859370000002
 20
3049.9578489999999
 30
0.0
  0
POINT
  5
7DD6
  8
DEFPOINTS
  6
CONTINUOUS
 62
     0
 10
1666.875311
 20
3049.9578489999999
 30
0.0
  0
ENDBLK
  5
7B9A
  8
0
  0
BLOCK
  8
0
  2
*D4
 70
     1
 10
0.0
 20
0.0
 30
0.0
  3
*D4
  1

  0
LINE
  5
7DD7
  8
3
  6
CONTINUOUS
 62
     0
 10
2124.1859370000002
 20
5140.9578490000004
 30
0.0
 11
1373.3227668362531
 21
5140.9578490000022
 31
0.0
  0
LINE
  5
7DD8
  8
3
  6
CONTINUOUS
 62
     0
 10
2224.1859370000002
 20
3049.9578489999999
 30
0.0
 11
1373.3227668362531
 21
3049.9578489999999
 31
0.0
  0
LINE
  5
7DD9
  8
3
  6
CONTINUOUS
 62
     0
 10
1413.3227668362531
 20
5060.9578490000013
 30
0.0
 11
1413.3227668362531
 21
3129.9578489999999
 31
0.0
  0
INSERT
  5
7DDA
  8
3
  6
CONTINUOUS
 62
     0
  2
_OPEN
 10
1413.3227668362531
 20
5140.9578490000022
 30
0.0
 41
80.0
 42
80.0
 43
80.0
 50
90.0
  0
INSERT
  5
7DDB
  8
3
  6
CONTINUOUS
 62
     0
  2
_OPEN
 10
1413.3227668362531
 20
3049.9578489999999
 30
0.0
 41
80.0
 42
80.0
 43
80.0
 50
270.0
  0
TEXT
  8
3
  40
120
  5
7E4B
  62
0
  72
0
  71
0
 10
1073.32
 20
3911.26
 30
0.000000
  1
2091
  0
POINT
  5
7DDD
  8
DEFPOINTS
  6
CONTINUOUS
 62
     0
 10
2144.1859370000002
 20
5140.9578490000004
 30
0.0
  0
POINT
  5
7DDE
  8
DEFPOINTS
  6
CONTINUOUS
 62
     0
 10
2244.1859370000002
 20
3049.9578489999999
 30
0.0
  0
POINT
  5
7DDF
  8
DEFPOINTS
  6
CONTINUOUS
 62
     0
 10
1413.3227668362531
 20
3049.9578489999999
 30
0.0
  0
ENDBLK
  5
7CA9
  8
0
  0
BLOCK
  8
0
  2
*D5
 70
     1
 10
0.0
 20
0.0
 30
0.0
  3
*D5
  1

  0
LINE
  5
7DE0
  8
3
  6
CONTINUOUS
 62
     0
 10
2244.1859370000002
 20
3029.9578489999999
 30
0.0
 11
2244.1859370000002
 21
2717.4340069999998
 31
0.0
  0
LINE
  5
7DE1
  8
3
  6
CONTINUOUS
 62
     0
 10
2904.1859370000002
 20
2832.9884029999998
 30
0.0
 11
2904.1859370000002
 21
2717.4340069999998
 31
0.0
  0
LINE
  5
7DE2
  8
3
  6
CONTINUOUS
 62
     0
 10
2324.1859370000002
 20
2757.4340069999998
 30
0.0
 11
2824.1859370000002
 21
2757.4340069999998
 31
0.0
  0
INSERT
  5
7DE3
  8
3
  6
CONTINUOUS
 62
     0
  2
_OPEN
 10
2244.1859370000002
 20
2757.4340069999998
 30
0.0
 41
80.0
 42
80.0
 43
80.0
 50
180.0
  0
INSERT
  5
7DE4
  8
3
  6
CONTINUOUS
 62
     0
  2
_OPEN
 10
2904.1859370000002
 20
2757.4340069999998
 30
0.0
 41
80.0
 42
80.0
 43
80.0
  0
TEXT
  8
3
  40
120
  5
7E4C
  62
0
  72
0
  71
0
 10
2344.23
 20
2645.03
 30
0.000000
  1
660
  0
POINT
  5
7DE6
  8
DEFPOINTS
  6
CONTINUOUS
 62
     0
 10
2244.1859370000002
 20
3049.9578489999999
 30
0.0
  0
POINT
  5
7DE7
  8
DEFPOINTS
  6
CONTINUOUS
 62
     0
 10
2904.1859370000002
 20
2852.9884029999998
 30
0.0
  0
POINT
  5
7DE8
  8
DEFPOINTS
  6
CONTINUOUS
 62
     0
 10
2904.1859370000002
 20
2757.4340069999998
 30
0.0
  0
ENDBLK
  5
7BB4
  8
0
  0
BLOCK
  8
0
  2
*D6
 70
     1
 10
0.0
 20
0.0
 30
0.0
  3
*D6
  1

  0
LINE
  5
7DE9
  8
3
  6
CONTINUOUS
 62
     0
 10
4604.1859369999993
 20
3029.9578489999999
 30
0.0
 11
4604.1859369999993
 21
2717.4340069999998
 31
0.0
  0
LINE
  5
7DEA
  8
3
  6
CONTINUOUS
 62
     0
 10
2984.1859370000002
 20
2757.4340069999998
 30
0.0
 11
4524.1859369999993
 21
2757.4340069999998
 31
0.0
  0
INSERT
  5
7DEB
  8
3
  6
CONTINUOUS
 62
     0
  2
_OPEN
 10
2904.1859370000002
 20
2757.4340069999998
 30
0.0
 41
80.0
 42
80.0
 43
80.0
 50
180.0
  0
INSERT
  5
7DEC
  8
3
  6
CONTINUOUS
 62
     0
  2
_OPEN
 10
4604.1859369999993
 20
2757.4340069999998
 30
0.0
 41
80.0
 42
80.0
 43
80.0
  0
TEXT
  8
3
  40
120
  5
7E4D
  62
0
  72
0
  71
0
 10
3514.19
 20
2645.03
 30
0.000000
  1
1700
  0
POINT
  5
7DEE
  8
DEFPOINTS
  6
CONTINUOUS
 62
     0
 10
2904.1859370000002
 20
2852.9884029999998
 30
0.0
  0
POINT
  5
7DEF
  8
DEFPOINTS
  6
CONTINUOUS
 62
     0
 10
4604.1859369999993
 20
3049.9578489999999
 30
0.0
  0
POINT
  5
7DF0
  8
DEFPOINTS
  6
CONTINUOUS
 62
     0
 10
4604.1859369999993
 20
2757.4340069999998
 30
0.0
  0
ENDBLK
  5
7BC0
  8
0
  0
BLOCK
  8
0
  2
*D7
 70
     1
 10
0.0
 20
0.0
 30
0.0
  3
*D7
  1

  0
LINE
  5
7DF1
  8
3
  6
CONTINUOUS
 62
     0
 10
2144.1859370000002
 20
5160.9578490000004
 30
0.0
 11
2144.1859370000002
 21
5386.0687719999987
 31
0.0
  0
LINE
  5
7DF2
  8
3
  6
CONTINUOUS
 62
     0
 10
2904.1859370000002
 20
5211.4427369999994
 30
0.0
 11
2904.1859370000002
 21
5386.0687719999987
 31
0.0
  0
LINE
  5
7DF3
  8
3
  6
CONTINUOUS
 62
     0
 10
2224.1859370000002
 20
5346.0687719999987
 30
0.0
 11
2824.1859370000002
 21
5346.0687719999987
 31
0.0
  0
INSERT
  5
7DF4
  8
3
  6
CONTINUOUS
 62
     0
  2
_OPEN
 10
2144.1859370000002
 20
5346.0687719999987
 30
0.0
 41
80.0
 42
80.0
 43
80.0
 50
180.0
  0
INSERT
  5
7DF5
  8
3
  6
CONTINUOUS
 62
     0
  2
_OPEN
 10
2904.1859370000002
 20
5346.0687719999987
 30
0.0
 41
80.0
 42
80.0
 43
80.0
  0
TEXT
  8
3
  40
120
  5
7E4E
  62
0
  72
0
  71
0
 10
2272.28
 20
5233.67
 30
0.000000
  1
760
  0
POINT
  5
7DF7
  8
DEFPOINTS
  6
CONTINUOUS
 62
     0
 10
2144.1859370000002
 20
5140.9578490000004
 30
0.0
  0
POINT
  5
7DF8
  8
DEFPOINTS
  6
CONTINUOUS
 62
     0
 10
2904.1859370000002
 20
5191.4427370000003
 30
0.0
  0
POINT
  5
7DF9
  8
DEFPOINTS
  6
CONTINUOUS
 62
     0
 10
2904.1859370000002
 20
5346.0687719999987
 30
0.0
  0
ENDBLK
  5
7BCD
  8
0
  0
BLOCK
  8
0
  2
*D8
 70
     1
 10
0.0
 20
0.0
 30
0.0
  3
*D8
  1

  0
LINE
  5
7DFA
  8
3
  6
CONTINUOUS
 62
     0
 10
5839.3460139999997
 20
5107.9578490000004
 30
0.0
 11
5839.3460139999997
 21
5332.1388740000002
 31
0.0
  0
LINE
  5
7DFB
  8
3
  6
CONTINUOUS
 62
     0
 10
6689.3460139999997
 20
5107.9578490000004
 30
0.0
 11
6689.3460139999997
 21
5332.1388740000002
 31
0.0
  0
LINE
  5
7DFC
  8
3
  6
CONTINUOUS
 62
     0
 10
5919.3460139999997
 20
5292.1388740000002
 30
0.0
 11
6609.3460139999997
 21
5292.1388740000002
 31
0.0
  0
INSERT
  5
7DFD
  8
3
  6
CONTINUOUS
 62
     0
  2
_OPEN
 10
5839.3460139999997
 20
5292.1388740000002
 30
0.0
 41
80.0
 42
80.0
 43
80.0
 50
180.0
  0
INSERT
  5
7DFE
  8
3
  6
CONTINUOUS
 62
     0
  2
_OPEN
 10
6689.3460139999997
 20
5292.1388740000002
 30
0.0
 41
80.0
 42
80.0
 43
80.0
  0
TEXT
  8
3
  40
120
  5
7E4F
  62
0
  72
0
  71
0
 10
6025.11
 20
5179.74
 30
0.000000
  1
850
  0
POINT
  5
7E00
  8
DEFPOINTS
  6
CONTINUOUS
 62
     0
 10
5839.3460139999997
 20
5087.9578490000013
 30
0.0
  0
POINT
  5
7E01
  8
DEFPOINTS
  6
CONTINUOUS
 62
     0
 10
6689.3460139999997
 20
5087.9578490000013
 30
0.0
  0
POINT
  5
7E02
  8
DEFPOINTS
  6
CONTINUOUS
 62
     0
 10
6689.3460139999997
 20
5292.1388740000002
 30
0.0
  0
ENDBLK
  5
7BE6
  8
0
  0
BLOCK
  8
0
  2
*D9
 70
     1
 10
0.0
 20
0.0
 30
0.0
  3
*D9
  1

  0
LINE
  5
7E03
  8
3
  6
CONTINUOUS
 62
     0
 10
6812.3460139999988
 20
4449.9578490000004
 30
0.0
 11
7195.4841870000018
 21
4449.9578490000004
 31
0.0
  0
LINE
  5
7E04
  8
3
  6
CONTINUOUS
 62
     0
 10
6812.3460139999988
 20
3329.9578489999999
 30
0.0
 11
7195.4841870000018
 21
3329.957848999999
 31
0.0
  0
LINE
  5
7E05
  8
3
  6
CONTINUOUS
 62
     0
 10
7155.4841870000018
 20
4369.9578490000013
 30
0.0
 11
7155.4841870000018
 21
3409.957848999999
 31
0.0
  0
INSERT
  5
7E06
  8
3
  6
CONTINUOUS
 62
     0
  2
_OPEN
 10
7155.4841870000018
 20
4449.9578490000004
 30
0.0
 41
80.0
 42
80.0
 43
80.0
 50
90.0
  0
INSERT
  5
7E07
  8
3
  6
CONTINUOUS
 62
     0
  2
_OPEN
 10
7155.4841870000018
 20
3329.9578489999999
 30
0.0
 41
80.0
 42
80.0
 43
80.0
 50
270.0
  0
TEXT
  8
3
  40
120
  5
7E50
  62
0
  72
0
  71
0
 10
6815.48
 20
3668.57
 30
0.000000
  1
φ1120
  0
POINT
  5
7E09
  8
DEFPOINTS
  6
CONTINUOUS
 62
     0
 10
6792.3460139999997
 20
4449.9578490000004
 30
0.0
  0
POINT
  5
7E0A
  8
DEFPOINTS
  6
CONTINUOUS
 62
     0
 10
6792.3460139999997
 20
3329.9578489999999
 30
0.0
  0
POINT
  5
7E0B
  8
DEFPOINTS
  6
CONTINUOUS
 62
     0
 10
7155.4841870000018
 20
3329.9578489999999
 30
0.0
  0
ENDBLK
  5
7CE2
  8
0
  0
BLOCK
  8
0
  2
*D10
 70
     1
 10
0.0
 20
0.0
 30
0.0
  3
*D10
  1

  0
LINE
  5
7CC3
  8
0
  6
BYBLOCK
 62
     0
 10
6792.3460139999997
 20
4519.9578490000004
 30
0.0
 11
6792.3460139999997
 21
5610.7766410000004
 31
0.0
  0
LINE
  5
7CC4
  8
0
  6
BYBLOCK
 62
     0
 10
6264.3460139999997
 20
5517.1770900000001
 30
0.0
 11
6264.3460139999997
 21
5610.7766410000004
 31
0.0
  0
LINE
  5
7CC5
  8
0
  6
BYBLOCK
 62
     0
 10
6712.3460139999988
 20
5570.7766410000004
 30
0.0
 11
6344.3460139999997
 21
5570.7766410000004
 31
0.0
  0
TEXT
  5
7CC6
  8
3
 62
     0
 10
6374.0602997142851
 20
5608.3442822678517
 30
0.0
 40
120.0
  1
528
  0
INSERT
  5
7CC7
  8
0
  6
BYBLOCK
 62
     0
  2
_OPEN
 10
6792.3460139999997
 20
5570.7766410000004
 30
0.0
 41
80.0
 42
80.0
 43
80.0
  0
INSERT
  5
7CC8
  8
0
  6
BYBLOCK
 62
     0
  2
_OPEN
 10
6264.3460139999997
 20
5570.7766410000004
 30
0.0
 41
80.0
 42
80.0
 43
80.0
 50
180.0
  0
POINT
  5
7CC9
  8
DEFPOINTS
  6
BYBLOCK
 62
     0
 10
6792.3460139999997
 20
4499.9578490000004
 30
0.0
  0
POINT
  5
7CCA
  8
DEFPOINTS
  6
BYBLOCK
 62
     0
 10
6264.3460139999997
 20
5497.1770900000001
 30
0.0
  0
POINT
  5
7CCB
  8
DEFPOINTS
  6
BYBLOCK
 62
     0
 10
6264.3460139999997
 20
5570.7766410000004
 30
0.0
  0
ENDBLK
  5
7CCC
  8
0
  0
BLOCK
  8
0
  2
*D11
 70
     1
 10
0.0
 20
0.0
 30
0.0
  3
*D11
  1

  0
LINE
  5
7E0C
  8
3
  6
CONTINUOUS
 62
     0
 10
5524.3460139999988
 20
4287.9578490000004
 30
0.0
 11
5524.3460139999988
 21
5610.7766410000004
 31
0.0
  0
LINE
  5
7E0D
  8
3
  6
CONTINUOUS
 62
     0
 10
6184.3460139999988
 20
5570.7766410000004
 30
0.0
 11
5604.3460139999997
 21
5570.7766410000004
 31
0.0
  0
INSERT
  5
7E0E
  8
3
  6
CONTINUOUS
 62
     0
  2
_OPEN
 10
6264.3460139999997
 20
5570.7766410000004
 30
0.0
 41
80.0
 42
80.0
 43
80.0
  0
INSERT
  5
7E0F
  8
3
  6
CONTINUOUS
 62
     0
  2
_OPEN
 10
5524.3460139999988
 20
5570.7766410000004
 30
0.0
 41
80.0
 42
80.0
 43
80.0
 50
180.0
  0
TEXT
  8
3
  40
120
  5
7E51
  62
0
  72
0
  71
0
 10
5654.35
 20
5558.38
 30
0.000000
  1
MAX
  0
TEXT
  8
3
  40
120
  5
7E52
  62
0
  72
0
  71
0
 10
5654.35
 20
5402.38
 30
0.000000
  1
850
  0
POINT
  5
7E11
  8
DEFPOINTS
  6
CONTINUOUS
 62
     0
 10
6264.3460139999997
 20
5497.1770900000001
 30
0.0
  0
POINT
  5
7E12
  8
DEFPOINTS
  6
CONTINUOUS
 62
     0
 10
5524.3460139999988
 20
4267.9578490000004
 30
0.0
  0
POINT
  5
7E13
  8
DEFPOINTS
  6
CONTINUOUS
 62
     0
 10
5524.3460139999988
 20
5570.7766410000004
 30
0.0
  0
ENDBLK
  5
7CD7
  8
0
  0
BLOCK
  8
0
  2
*D12
 70
     1
 10
0.0
 20
0.0
 30
0.0
  3
*D12
  1

  0
LINE
  5
7E14
  8
3
  6
CONTINUOUS
 62
     0
 10
5577.3460139999988
 20
3029.9578489999999
 30
0.0
 11
5577.3460139999988
 21
2690.4690739999992
 31
0.0
  0
LINE
  5
7E15
  8
3
  6
CONTINUOUS
 62
     0
 10
6264.3460139999997
 20
2856.5859500000001
 30
0.0
 11
6264.3460139999997
 21
2690.4690739999992
 31
0.0
  0
LINE
  5
7E16
  8
3
  6
CONTINUOUS
 62
     0
 10
5657.3460139999997
 20
2730.4690740000001
 30
0.0
 11
6184.3460139999988
 21
2730.4690740000001
 31
0.0
  0
INSERT
  5
7E17
  8
3
  6
CONTINUOUS
 62
     0
  2
_OPEN
 10
5577.3460139999988
 20
2730.4690740000001
 30
0.0
 41
80.0
 42
80.0
 43
80.0
 50
180.0
  0
INSERT
  5
7E18
  8
3
  6
CONTINUOUS
 62
     0
  2
_OPEN
 10
6264.3460139999997
 20
2730.4690740000001
 30
0.0
 41
80.0
 42
80.0
 43
80.0
  0
TEXT
  8
3
  40
120
  5
7E53
  62
0
  72
0
  71
0
 10
5692.34
 20
2618.07
 30
0.000000
  1
687
  0
POINT
  5
7E1A
  8
DEFPOINTS
  6
CONTINUOUS
 62
     0
 10
5577.3460139999988
 20
3049.9578489999999
 30
0.0
  0
POINT
  5
7E1B
  8
DEFPOINTS
  6
CONTINUOUS
 62
     0
 10
6264.3460139999997
 20
2876.5859500000001
 30
0.0
  0
POINT
  5
7E1C
  8
DEFPOINTS
  6
CONTINUOUS
 62
     0
 10
6264.3460139999997
 20
2730.4690740000001
 30
0.0
  0
ENDBLK
  5
7C1B
  8
0
  0
BLOCK
  8
0
  2
*D13
 70
     1
 10
0.0
 20
0.0
 30
0.0
  3
*D13
  1

  0
LINE
  5
7E1D
  8
3
  6
CONTINUOUS
 62
     0
 10
6757.3460139999988
 20
3029.9578489999999
 30
0.0
 11
6757.3460139999988
 21
2690.4690739999992
 31
0.0
  0
LINE
  5
7E1E
  8
3
  6
CONTINUOUS
 62
     0
 10
6344.3460139999997
 20
2730.4690740000001
 30
0.0
 11
6677.3460139999997
 21
2730.4690740000001
 31
0.0
  0
TEXT
  8
3
  40
120
  5
7E54
  62
0
  72
0
  71
0
 10
6279.88
 20
2623.36
 30
0.000000
  1
493
  0
INSERT
  5
7E20
  8
3
  6
CONTINUOUS
 62
     0
  2
_OPEN
 10
6264.3460139999997
 20
2730.4690740000001
 30
0.0
 41
80.0
 42
80.0
 43
80.0
 50
180.0
  0
INSERT
  5
7E21
  8
3
  6
CONTINUOUS
 62
     0
  2
_OPEN
 10
6757.3460139999988
 20
2730.4690740000001
 30
0.0
 41
80.0
 42
80.0
 43
80.0
  0
POINT
  5
7E22
  8
DEFPOINTS
  6
CONTINUOUS
 62
     0
 10
6264.3460139999997
 20
2876.5859500000001
 30
0.0
  0
POINT
  5
7E23
  8
DEFPOINTS
  6
CONTINUOUS
 62
     0
 10
6757.3460139999988
 20
3049.9578489999999
 30
0.0
  0
POINT
  5
7E24
  8
DEFPOINTS
  6
CONTINUOUS
 62
     0
 10
6757.3460139999988
 20
2730.4690740000001
 30
0.0
  0
ENDBLK
  5
7C78
  8
0
  0
BLOCK
  8
0
  2
*D14
 70
     1
 10
0.0
 20
0.0
 30
0.0
  3
*D14
  1

  0
LINE
  5
7E25
  8
3
  6
CONTINUOUS
 62
     0
 10
2244.1859370000002
 20
7092.1637449999998
 30
0.0
 11
2244.1859370000002
 21
6717.1872279999998
 31
0.0
  0
LINE
  5
7E26
  8
3
  6
CONTINUOUS
 62
     0
 10
4604.1859369999993
 20
7092.1637449999998
 30
0.0
 11
4604.1859369999993
 21
6717.1872279999998
 31
0.0
  0
LINE
  5
7E27
  8
3
  6
CONTINUOUS
 62
     0
 10
2324.1859370000002
 20
6757.1872279999989
 30
0.0
 11
4524.1859369999993
 21
6757.1872279999989
 31
0.0
  0
INSERT
  5
7E28
  8
3
  6
CONTINUOUS
 62
     0
  2
_OPEN
 10
2244.1859370000002
 20
6757.1872279999989
 30
0.0
 41
80.0
 42
80.0
 43
80.0
 50
180.0
  0
INSERT
  5
7E29
  8
3
  6
CONTINUOUS
 62
     0
  2
_OPEN
 10
4604.1859369999993
 20
6757.1872279999989
 30
0.0
 41
80.0
 42
80.0
 43
80.0
  0
TEXT
  8
3
  40
120
  5
7E55
  62
0
  72
0
  71
0
 10
3063.73
 20
6644.79
 30
0.000000
  1
2360
  0
POINT
  5
7E2B
  8
DEFPOINTS
  6
CONTINUOUS
 62
     0
 10
2244.1859370000002
 20
7112.1637450000007
 30
0.0
  0
POINT
  5
7E2C
  8
DEFPOINTS
  6
CONTINUOUS
 62
     0
 10
4604.1859369999993
 20
7112.1637450000007
 30
0.0
  0
POINT
  5
7E2D
  8
DEFPOINTS
  6
CONTINUOUS
 62
     0
 10
4604.1859369999993
 20
6757.1872279999989
 30
0.0
  0
ENDBLK
  5
7C37
  8
0
  0
BLOCK
  8
0
  2
*D15
 70
     1
 10
0.0
 20
0.0
 30
0.0
  3
*D15
  1

  0
LINE
  5
7E2E
  8
3
  6
CONTINUOUS
 62
     0
 10
4624.1859369999993
 20
8292.1637450000017
 30
0.0
 11
5016.5625020000007
 21
8292.1637450000017
 31
0.0
  0
LINE
  5
7E2F
  8
3
  6
CONTINUOUS
 62
     0
 10
4624.1859369999993
 20
7112.1637450000007
 30
0.0
 11
5016.5625020000007
 21
7112.1637450000007
 31
0.0
  0
LINE
  5
7E30
  8
3
  6
CONTINUOUS
 62
     0
 10
4976.5625020000007
 20
8212.1637449999998
 30
0.0
 11
4976.5625020000007
 21
7192.1637450000007
 31
0.0
  0
INSERT
  5
7E31
  8
3
  6
CONTINUOUS
 62
     0
  2
_OPEN
 10
4976.5625020000007
 20
8292.1637450000017
 30
0.0
 41
80.0
 42
80.0
 43
80.0
 50
90.0
  0
INSERT
  5
7E32
  8
3
  6
CONTINUOUS
 62
     0
  2
_OPEN
 10
4976.5625020000007
 20
7112.1637450000007
 30
0.0
 41
80.0
 42
80.0
 43
80.0
 50
270.0
  0
TEXT
  8
3
  40
120
  5
7E56
  62
0
  72
0
  71
0
 10
4636.56
 20
7452.61
 30
0.000000
  1
1180
  0
POINT
  5
7E34
  8
DEFPOINTS
  6
CONTINUOUS
 62
     0
 10
4604.1859369999993
 20
8292.1637450000017
 30
0.0
  0
POINT
  5
7E35
  8
DEFPOINTS
  6
CONTINUOUS
 62
     0
 10
4604.1859369999993
 20
7112.1637450000007
 30
0.0
  0
POINT
  5
7E36
  8
DEFPOINTS
  6
CONTINUOUS
 62
     0
 10
4976.5625020000007
 20
7112.1637450000007
 30
0.0
  0
ENDBLK
  5
7C44
  8
0
  0
BLOCK
  8
0
  2
*D16
 70
     1
 10
0.0
 20
0.0
 30
0.0
  3
*D16
  1

  0
LINE
  5
7E37
  8
3
  6
CONTINUOUS
 62
     0
 10
3873.1859370000002
 20
3909.9578489999999
 30
0.0
 11
3873.1859370000002
 21
5386.0687719999987
 31
0.0
  0
LINE
  5
7E38
  8
3
  6
CONTINUOUS
 62
     0
 10
2984.1859370000002
 20
5346.0687719999987
 30
0.0
 11
3793.1859370000002
 21
5346.0687719999987
 31
0.0
  0
INSERT
  5
7E39
  8
3
  6
CONTINUOUS
 62
     0
  2
_OPEN
 10
2904.1859370000002
 20
5346.0687719999987
 30
0.0
 41
80.0
 42
80.0
 43
80.0
 50
180.0
  0
INSERT
  5
7E3A
  8
3
  6
CONTINUOUS
 62
     0
  2
_OPEN
 10
3873.1859370000002
 20
5346.0687719999987
 30
0.0
 41
80.0
 42
80.0
 43
80.0
  0
TEXT
  8
3
  40
120
  5
7E57
  62
0
  72
0
  71
0
 10
3148.69
 20
5233.67
 30
0.000000
  1
969
  0
POINT
  5
7E3C
  8
DEFPOINTS
  6
CONTINUOUS
 62
     0
 10
2904.1859370000002
 20
5191.4427370000003
 30
0.0
  0
POINT
  5
7E3D
  8
DEFPOINTS
  6
CONTINUOUS
 62
     0
 10
3873.1859370000002
 20
3889.9578489999999
 30
0.0
  0
POINT
  5
7E3E
  8
DEFPOINTS
  6
CONTINUOUS
 62
     0
 10
3873.1859370000002
 20
5346.0687719999987
 30
0.0
  0
ENDBLK
  5
7C9E
  8
0
  0
BLOCK
  8
0
  2
*D17
 70
     1
 10
0.0
 20
0.0
 30
0.0
  3
*D17
  1

  0
LINE
  5
7E3F
  8
3
 62
     0
 10
2144.1859370000002
 20
5160.9578490000004
 30
0.0
 11
2144.1859370000002
 21
5628.2338411416849
 31
0.0
  0
LINE
  5
7E40
  8
3
 62
     0
 10
4604.1859369999993
 20
3194.9578489999999
 30
0.0
 11
4604.1859369999993
 21
5628.2338411416849
 31
0.0
  0
LINE
  5
7E41
  8
3
 62
     0
 10
2224.1859370000002
 20
5588.2338411416858
 30
0.0
 11
4524.1859369999993
 21
5588.2338411416858
 31
0.0
  0
INSERT
  5
7E42
  8
3
 62
     0
  2
_OPEN
 10
2144.1859370000002
 20
5588.2338411416858
 30
0.0
 41
80.0
 42
80.0
 43
80.0
 50
180.0
  0
INSERT
  5
7E43
  8
3
 62
     0
  2
_OPEN
 10
4604.1859369999993
 20
5588.2338411416858
 30
0.0
 41
80.0
 42
80.0
 43
80.0
  0
TEXT
  8
3
  40
120
  5
7E58
  62
0
  72
0
  71
0
 10
3129.63
 20
5475.83
 30
0.000000
  1
2460
  0
POINT
  5
7E45
  8
DEFPOINTS
 62
     0
 10
2144.1859370000002
 20
5140.9578490000004
 30
0.0
  0
POINT
  5
7E46
  8
DEFPOINTS
 62
     0
 10
4604.1859369999993
 20
3174.9578489999999
 30
0.0
  0
POINT
  5
7E47
  8
DEFPOINTS
 62
     0
 10
4604.1859369999993
 20
5588.2338411416858
 30
0.0
  0
ENDBLK
  5
7CB5
  8
0
  0
ENDSEC
  0
SECTION
  2
ENTITIES
  0
LINE
  5
7AA7
  8
1
  6
CONTINUOUS
 10
4229.6859369999993
 20
3195.6578489999988
 30
0.0
 11
2819.0859369999998
 21
3521.6578490000002
 31
0.0
  0
LINE
  5
7AA8
  8
1
  6
CONTINUOUS
 10
4252.1859369999993
 20
3293.0578489999998
 30
0.0
 11
2841.5859369999998
 21
3619.0578489999998
 31
0.0
  0
LINE
  5
7AA9
  8
1
  6
CONTINUOUS
 10
4373.7859369999996
 20
3608.5578489999998
 30
0.0
 11
3066.7859370000001
 21
4231.2578490000014
 31
0.0
  0
LINE
  5
7AAA
  8
1
  6
CONTINUOUS
 10
4330.7859369999987
 20
3518.2578490000001
 30
0.0
 11
3023.7859370000001
 21
4140.9578490000004
 31
0.0
  0
LINE
  5
7AAB
  8
1
  6
CONTINUOUS
 10
4499.1859369999993
 20
7299.1637450000007
 30
0.0
 11
2526.1859370000002
 21
7299.1637450000007
 31
0.0
  0
LINE
  5
7AAC
  8
1
  6
CONTINUOUS
 10
4499.1859369999993
 20
7059.1637450000007
 30
0.0
 11
2526.1859370000002
 21
7059.1637450000007
 31
0.0
  0
LINE
  5
7AAD
  8
1
  6
CONTINUOUS
 10
3876.385937
 20
7374.1637450000007
 30
0.0
 11
2144.1859370000002
 21
7374.1637450000007
 31
0.0
  0
LINE
  5
7AAE
  8
1
  6
CONTINUOUS
 10
3876.385937
 20
8224.1637449999998
 30
0.0
 11
2144.1859370000002
 21
8224.1637449999998
 31
0.0
  0
LINE
  5
7AAF
  8
1
  6
CONTINUOUS
 10
4604.1859369999993
 20
7112.1637450000007
 30
0.0
 11
2244.1859370000002
 21
7112.1637450000007
 31
0.0
  0
LINE
  5
7AB0
  8
1
  6
CONTINUOUS
 10
4604.1859369999993
 20
8292.1637450000017
 30
0.0
 11
3464.1859369999988
 21
8292.1637450000017
 31
0.0
  0
ARC
  5
7AB1
  8
1
  6
CONTINUOUS
 10
2822.1859370000002
 20
3971.9578489999999
 30
0.0
 40
1054.2
 50
0.0
 51
85.5
  0
ARC
  5
7AB2
  8
1
  6
CONTINUOUS
 10
2986.1859370000002
 20
3971.9578489999999
 30
0.0
 40
890.20000000000005
 50
264.89999999999998
 51
0.0
  0
LINE
  5
7AB3
  8
1
  6
CONTINUOUS
 10
2244.1859370000002
 20
3049.9578489999999
 30
0.0
 11
4604.1859369999993
 21
3049.9578489999999
 31
0.0
  0
LINE
  5
7AB4
  8
1
  6
CONTINUOUS
 10
2244.1859370000002
 20
3174.9578489999999
 30
0.0
 11
4604.1859369999993
 21
3174.9578489999999
 31
0.0
  0
LINE
  5
7AB5
  8
1
  6
CONTINUOUS
 10
2144.1859370000002
 20
5087.9578490000013
 30
0.0
 11
2904.1859370000002
 21
5022.9578490000004
 31
0.0
  0
ARC
  5
7AB6
  8
1
  6
CONTINUOUS
 10
2972.6859370000002
 20
3821.4578489999999
 30
0.0
 40
739.10000000000002
 50
180.0
 51
264.89999999999998
  0
CIRCLE
  5
7AB7
  8
1
  6
CONTINUOUS
 10
2904.1859370000002
 20
3889.9578489999999
 30
0.0
 40
610.0
  0
LINE
  5
7AB8
  8
1
  6
CONTINUOUS
 10
2144.1859370000002
 20
3884.9578489999999
 30
0.0
 11
2144.1859370000002
 21
5140.9578490000004
 31
0.0
  0
LINE
  5
7AB9
  8
1
  6
CONTINUOUS
 10
2184.1859370000002
 20
3937.9578489999999
 30
0.0
 11
2184.1859370000002
 21
5084.5578489999998
 31
0.0
  0
LINE
  5
7ABA
  8
1
  6
CONTINUOUS
 10
2244.1859370000002
 20
3174.9578489999999
 30
0.0
 11
2244.1859370000002
 21
3049.9578489999999
 31
0.0
  0
LINE
  5
7ABB
  8
1
  6
CONTINUOUS
 10
2244.9859369999999
 20
3937.9578489999999
 30
0.0
 11
2144.1859370000002
 21
3937.9578489999999
 31
0.0
  0
ARC
  5
7ABC
  8
1
  6
CONTINUOUS
 10
2835.6859370000002
 20
3821.4578489999999
 30
0.0
 40
602.10000000000002
 50
168.80000000000001
 51
180.0
  0
CIRCLE
  5
7ABD
  8
1
  6
CONTINUOUS
 10
2904.1859370000002
 20
3889.9578489999999
 30
0.0
 40
560.0
  0
LINE
  5
7ABE
  8
2
  6
CENTER
 10
6958.4703250000002
 20
3889.9578489999999
 30
0.0
 11
5306.7200670000002
 21
3889.9578489999999
 31
0.0
  0
ARC
  5
7ABF
  8
1
  6
CONTINUOUS
 10
2904.1859370000002
 20
3889.9578489999999
 30
0.0
 40
378.0
 50
64.5
 51
257.0
  0
CIRCLE
  5
7AC0
  8
1
  6
CONTINUOUS
 10
2904.1859370000002
 20
3889.9578489999999
 30
0.0
 40
278.0
  0
LINE
  5
7AC1
  8
2
  6
CENTER
 10
2904.1859370000002
 20
2852.9884029999998
 30
0.0
 11
2904.1859370000002
 21
5191.4427370000003
 31
0.0
  0
LINE
  5
7AC2
  8
1
  6
CONTINUOUS
 10
2344.1859370000002
 20
8292.1637450000017
 30
0.0
 11
2244.1859370000002
 21
8292.1637450000017
 31
0.0
  0
LINE
  5
7AC3
  8
1
  6
CONTINUOUS
 10
3514.1859370000002
 20
8327.1637449999998
 30
0.0
 11
2294.1859370000002
 21
8327.1637449999998
 31
0.0
  0
LINE
  5
7AC4
  8
1
  6
CONTINUOUS
 10
2144.1859370000002
 20
7324.1637450000007
 30
0.0
 11
2144.1859370000002
 21
8274.1637449999998
 31
0.0
  0
LINE
  5
7AC5
  8
1
  6
CONTINUOUS
 10
2244.1859370000002
 20
7374.1637450000007
 30
0.0
 11
2244.1859370000002
 21
7112.1637450000007
 31
0.0
  0
LINE
  5
7AC6
  8
1
  6
CONTINUOUS
 10
2244.1859370000002
 20
8292.1637450000017
 30
0.0
 11
2244.1859370000002
 21
8224.1637449999998
 31
0.0
  0
LINE
  5
7AC7
  8
1
  6
CONTINUOUS
 10
2626.1859370000002
 20
7229.1637450000007
 30
0.0
 11
3182.1859370000002
 21
7229.1637450000007
 31
0.0
  0
LINE
  5
7AC8
  8
1
  6
CONTINUOUS
 10
2626.1859370000002
 20
7129.1637450000007
 30
0.0
 11
3182.1859370000002
 21
7129.1637450000007
 31
0.0
  0
LINE
  5
7AC9
  8
1
  6
CONTINUOUS
 10
2876.6859370000002
 20
7374.1637450000007
 30
0.0
 11
2876.6859370000002
 21
7229.1637450000007
 31
0.0
  0
LINE
  5
7ACA
  8
1
  6
CONTINUOUS
 10
2526.1859370000002
 20
7059.1637450000007
 30
0.0
 11
2526.1859370000002
 21
7299.1637450000007
 31
0.0
  0
LINE
  5
7ACB
  8
1
  6
CONTINUOUS
 10
2626.1859370000002
 20
7129.1637450000007
 30
0.0
 11
2626.1859370000002
 21
7229.1637450000007
 31
0.0
  0
LINE
  5
7ACC
  8
1
  6
CONTINUOUS
 10
2931.6859370000002
 20
7374.1637450000007
 30
0.0
 11
2931.6859370000002
 21
7229.1637450000007
 31
0.0
  0
LINE
  5
7ACD
  8
1
  6
CONTINUOUS
 10
3182.1859370000002
 20
7129.1637450000007
 30
0.0
 11
3182.1859370000002
 21
7229.1637450000007
 31
0.0
  0
LINE
  5
7ACE
  8
1
  6
CONTINUOUS
 10
2344.1859370000002
 20
8327.1637449999998
 30
0.0
 11
2344.1859370000002
 21
8224.1637449999998
 31
0.0
  0
LINE
  5
7ACF
  8
1
  6
CONTINUOUS
 10
3464.1859369999988
 20
8327.1637449999998
 30
0.0
 11
3464.1859369999988
 21
8224.1637449999998
 31
0.0
  0
LINE
  5
7ADA
  8
1
  6
CONTINUOUS
 10
4504.1859369999993
 20
3174.9578489999999
 30
0.0
 11
4054.1859369999988
 21
3174.9578489999999
 31
0.0
  0
LINE
  5
7ADB
  8
1
  6
CONTINUOUS
 10
4117.1859369999993
 20
3272.4578489999999
 30
0.0
 11
4126.4859369999986
 21
3282.357849
 31
0.0
  0
ARC
  5
7ADC
  8
1
  6
CONTINUOUS
 10
4279.1859369999993
 20
3409.9578489999999
 30
0.0
 40
199.0
 50
320.10000000000002
 51
219.90000000000001
  0
LINE
  5
7ADD
  8
1
  6
CONTINUOUS
 10
4504.1859369999993
 20
3229.9578489999999
 30
0.0
 11
4054.1859369999988
 21
3229.9578489999999
 31
0.0
  0
LINE
  5
7ADE
  8
1
  6
CONTINUOUS
 10
4054.1859369999988
 20
3174.9578489999999
 30
0.0
 11
4054.1859369999988
 21
3229.9578489999999
 31
0.0
  0
LINE
  5
7ADF
  8
1
  6
CONTINUOUS
 10
4117.1859369999993
 20
3229.9578489999999
 30
0.0
 11
4117.1859369999993
 21
3272.4578489999999
 31
0.0
  0
ARC
  5
7AE0
  8
1
  6
CONTINUOUS
 10
4279.1859369999993
 20
3409.9578489999999
 30
0.0
 40
220.0
 50
257.0
 51
64.5
  0
LINE
  5
7AE1
  8
2
  6
CENTER
 10
4399.1859369999993
 20
3409.9578489999999
 30
0.0
 11
4159.1859369999993
 21
3409.9578489999999
 31
0.0
  0
LINE
  5
7AE2
  8
2
  6
CENTER
 10
4279.1859369999993
 20
3289.957848999999
 30
0.0
 11
4279.1859369999993
 21
3529.9578489999999
 31
0.0
  0
CIRCLE
  5
7AE3
  8
1
  6
CONTINUOUS
 10
4279.1859369999993
 20
3409.9578489999999
 30
0.0
 40
120.0
  0
LINE
  5
7AE4
  8
1
  6
CONTINUOUS
 10
4504.1859369999993
 20
3174.9578489999999
 30
0.0
 11
4504.1859369999993
 21
3229.9578489999999
 31
0.0
  0
LINE
  5
7AE5
  8
1
  6
CONTINUOUS
 10
4604.1859369999993
 20
3174.9578489999999
 30
0.0
 11
4604.1859369999993
 21
3049.9578489999999
 31
0.0
  0
LINE
  5
7AE6
  8
1
  6
CONTINUOUS
 10
4441.1859369999993
 20
3272.4578489999999
 30
0.0
 11
4431.8859369999991
 21
3282.357849
 31
0.0
  0
LINE
  5
7AE7
  8
1
  6
CONTINUOUS
 10
4441.1859369999993
 20
3229.9578489999999
 30
0.0
 11
4441.1859369999993
 21
3272.4578489999999
 31
0.0
  0
LINE
  5
7B01
  8
1
  6
CONTINUOUS
 10
6757.3460139999988
 20
3174.9578489999999
 30
0.0
 11
5577.3460139999988
 21
3174.9578489999999
 31
0.0
  0
LINE
  5
7B02
  8
1
  6
CONTINUOUS
 10
6757.3460139999988
 20
3049.9578489999999
 30
0.0
 11
5577.3460139999988
 21
3049.9578489999999
 31
0.0
  0
LINE
  5
7B03
  8
1
  6
CONTINUOUS
 10
5839.3460139999997
 20
5087.9578490000013
 30
0.0
 11
6689.3460139999997
 21
5087.9578490000013
 31
0.0
  0
LINE
  5
7B04
  8
1
  6
CONTINUOUS
 10
5839.3460139999997
 20
3937.9578489999999
 30
0.0
 11
6689.3460139999997
 21
3937.9578489999999
 31
0.0
  0
LINE
  5
7B05
  8
1
  6
CONTINUOUS
 10
5839.3460139999997
 20
5087.9578490000013
 30
0.0
 11
6689.3460139999997
 21
3937.9578489999999
 31
0.0
  0
LINE
  5
7B06
  8
1
  6
CONTINUOUS
 10
6689.3460139999997
 20
5087.9578490000013
 30
0.0
 11
5839.3460139999997
 21
3937.9578489999999
 31
0.0
  0
LINE
  5
7B07
  8
1
  6
CONTINUOUS
 10
5839.3460139999997
 20
3174.9578489999999
 30
0.0
 11
5839.3460139999997
 21
5087.9578490000013
 31
0.0
  0
LINE
  5
7B08
  8
1
  6
CONTINUOUS
 10
5524.3460139999988
 20
4267.9578490000004
 30
0.0
 11
5764.3460139999997
 21
4267.9578490000004
 31
0.0
  0
LINE
  5
7B09
  8
1
  6
CONTINUOUS
 10
5594.3460139999997
 20
4167.9578490000004
 30
0.0
 11
5694.3460139999997
 21
4167.9578490000004
 31
0.0
  0
LINE
  5
7B0A
  8
1
  6
CONTINUOUS
 10
5594.3460139999997
 20
3529.9578489999999
 30
0.0
 11
5694.3460139999997
 21
3529.9578489999999
 31
0.0
  0
LINE
  5
7B0B
  8
1
  6
CONTINUOUS
 10
5594.3460139999997
 20
3289.957848999999
 30
0.0
 11
5694.3460139999997
 21
3289.957848999999
 31
0.0
  0
LINE
  5
7B0C
  8
1
  6
CONTINUOUS
 10
5594.3460139999997
 20
3611.9578489999999
 30
0.0
 11
5694.3460139999997
 21
3611.9578489999999
 31
0.0
  0
LINE
  5
7B0D
  8
1
  6
CONTINUOUS
 10
5524.3460139999988
 20
3189.9578489999999
 30
0.0
 11
5764.3460139999997
 21
3189.9578489999999
 31
0.0
  0
LINE
  5
7B0E
  8
1
  6
CONTINUOUS
 10
5524.3460139999988
 20
3189.9578489999999
 30
0.0
 11
5524.3460139999988
 21
4267.9578490000004
 31
0.0
  0
LINE
  5
7B0F
  8
1
  6
CONTINUOUS
 10
5577.3460139999988
 20
3049.9578489999999
 30
0.0
 11
5577.3460139999988
 21
3174.9578489999999
 31
0.0
  0
LINE
  5
7B10
  8
1
  6
CONTINUOUS
 10
5594.3460139999997
 20
3529.9578489999999
 30
0.0
 11
5594.3460139999997
 21
3289.957848999999
 31
0.0
  0
LINE
  5
7B11
  8
1
  6
CONTINUOUS
 10
5594.3460139999997
 20
4167.9578490000004
 30
0.0
 11
5594.3460139999997
 21
3611.9578489999999
 31
0.0
  0
LINE
  5
7B12
  8
1
  6
CONTINUOUS
 10
5764.3460139999997
 20
3189.9578489999999
 30
0.0
 11
5764.3460139999997
 21
4267.9578490000004
 31
0.0
  0
LINE
  5
7B13
  8
1
  6
CONTINUOUS
 10
5694.3460139999997
 20
3529.9578489999999
 30
0.0
 11
5694.3460139999997
 21
3289.957848999999
 31
0.0
  0
LINE
  5
7B14
  8
1
  6
CONTINUOUS
 10
5694.3460139999997
 20
3437.4578489999999
 30
0.0
 11
5839.3460139999997
 21
3437.4578489999999
 31
0.0
  0
LINE
  5
7B15
  8
1
  6
CONTINUOUS
 10
5694.3460139999997
 20
3382.4578490000008
 30
0.0
 11
5839.3460139999997
 21
3382.4578490000008
 31
0.0
  0
LINE
  5
7B16
  8
1
  6
CONTINUOUS
 10
5694.3460139999997
 20
4167.9578490000004
 30
0.0
 11
5694.3460139999997
 21
3611.9578489999999
 31
0.0
  0
LINE
  5
7B17
  8
1
  6
CONTINUOUS
 10
5694.3460139999997
 20
3917.4578489999999
 30
0.0
 11
5839.3460139999997
 21
3917.4578489999999
 31
0.0
  0
LINE
  5
7B18
  8
1
  6
CONTINUOUS
 10
5694.3460139999997
 20
3862.4578489999999
 30
0.0
 11
5839.3460139999997
 21
3862.4578489999999
 31
0.0
  0
LINE
  5
7B19
  8
1
  6
CONTINUOUS
 10
6689.3460139999997
 20
3174.9578489999999
 30
0.0
 11
6689.3460139999997
 21
5087.9578490000013
 31
0.0
  0
LINE
  5
7B1A
  8
1
  6
CONTINUOUS
 10
6792.3460139999997
 20
3279.9578489999999
 30
0.0
 11
6792.3460139999997
 21
4499.9578490000004
 31
0.0
  0
LINE
  5
7B1B
  8
1
  6
CONTINUOUS
 10
6757.3460139999988
 20
3049.9578489999999
 30
0.0
 11
6757.3460139999988
 21
3174.9578489999999
 31
0.0
  0
LINE
  5
7B1C
  8
1
  6
CONTINUOUS
 10
6689.3460139999997
 20
3329.9578489999999
 30
0.0
 11
6792.3460139999997
 21
3329.9578489999999
 31
0.0
  0
LINE
  5
7B1D
  8
1
  6
CONTINUOUS
 10
6689.3460139999997
 20
4449.9578490000004
 30
0.0
 11
6792.3460139999997
 21
4449.9578490000004
 31
0.0
  0
LINE
  5
7B22
  8
1
  6
CONTINUOUS
 10
3876.385937
 20
7374.1637450000007
 30
0.0
 11
3876.385937
 21
8224.1637449999998
 31
0.0
  0
LINE
  5
7B23
  8
1
  6
CONTINUOUS
 10
4604.1859369999993
 20
8292.1637450000017
 30
0.0
 11
4604.1859369999993
 21
7112.1637450000007
 31
0.0
  0
LINE
  5
7B24
  8
1
  6
CONTINUOUS
 10
4478.2859369999987
 20
7947.3637450000006
 30
0.0
 11
4080.0859369999989
 21
7947.3637450000006
 31
0.0
  0
LINE
  5
7B25
  8
1
  6
CONTINUOUS
 10
4478.2859369999987
 20
7347.8637450000006
 30
0.0
 11
4080.0859369999989
 21
7347.8637450000006
 31
0.0
  0
LINE
  5
7B26
  8
1
  6
CONTINUOUS
 10
4080.0859369999989
 20
7347.8637450000006
 30
0.0
 11
4080.0859369999989
 21
7947.3637450000006
 31
0.0
  0
LINE
  5
7B27
  8
1
  6
CONTINUOUS
 10
4251.6859369999993
 20
7229.1637450000007
 30
0.0
 11
4251.6859369999993
 21
7347.8637450000006
 31
0.0
  0
LINE
  5
7B28
  8
1
  6
CONTINUOUS
 10
4306.6859370000002
 20
7229.1637450000007
 30
0.0
 11
4306.6859370000002
 21
7347.8637450000006
 31
0.0
  0
LINE
  5
7B29
  8
1
  6
CONTINUOUS
 10
4159.1859369999993
 20
7129.1637450000007
 30
0.0
 11
4399.1859369999993
 21
7129.1637450000007
 31
0.0
  0
LINE
  5
7B2A
  8
1
  6
CONTINUOUS
 10
4159.1859369999993
 20
7229.1637450000007
 30
0.0
 11
4399.1859369999993
 21
7229.1637450000007
 31
0.0
  0
LINE
  5
7B2B
  8
1
  6
CONTINUOUS
 10
4399.1859369999993
 20
7129.1637450000007
 30
0.0
 11
4399.1859369999993
 21
7229.1637450000007
 31
0.0
  0
LINE
  5
7B2C
  8
1
  6
CONTINUOUS
 10
4159.1859369999993
 20
7129.1637450000007
 30
0.0
 11
4159.1859369999993
 21
7229.1637450000007
 31
0.0
  0
LINE
  5
7B2D
  8
1
  6
CONTINUOUS
 10
4499.1859369999993
 20
7059.1637450000007
 30
0.0
 11
4499.1859369999993
 21
7299.1637450000007
 31
0.0
  0
LINE
  5
7B2E
  8
1
  6
CONTINUOUS
 10
4478.2859369999987
 20
7347.8637450000006
 30
0.0
 11
4478.2859369999987
 21
7947.3637450000006
 31
0.0
  0
LINE
  5
7B4C
  8
2
  6
CENTER
 10
6264.3460139999997
 20
5497.1770900000001
 30
0.0
 11
6264.3460139999997
 21
5487.1841869999998
 31
0.0
  0
LINE
  5
7B4D
  8
2
  6
CENTER
 10
2030.2721280000001
 20
7799.1637450000007
 30
0.0
 11
4733.7321979999997
 21
7799.1637450000007
 31
0.0
  0
LINE
  5
7B4E
  8
2
  6
CENTER
 10
2904.1859370000002
 20
6954.9301640000012
 30
0.0
 11
2904.1859370000002
 21
8524.3975729999984
 31
0.0
  0
LINE
  5
7B4F
  8
2
  6
CENTER
 10
4319.0207929999988
 20
3889.9578489999999
 30
0.0
 11
1904.7317879999989
 21
3889.9578489999999
 31
0.0
  0
LINE
  5
7B50
  8
4
  6
CONTINUOUS
 10
7400.0
 20
2000.0
 30
0.0
 11
7400.0
 21
1200.0
 31
0.0
  0
LINE
  5
7B51
  8
4
  6
CONTINUOUS
 10
4600.0
 20
2000.0
 30
0.0
 11
4600.0
 21
1200.0
 31
0.0
  0
LINE
  5
7B52
  8
4
  6
CONTINUOUS
 10
2600.0
 20
2000.0
 30
0.0
 11
2600.0
 21
1200.0
 31
0.0
  0
LINE
  5
7B55
  8
4
  6
CONTINUOUS
 10
2600.0
 20
1200.0
 30
0.0
 11
7400.0
 21
1200.0
 31
0.0
  0
LINE
  5
7B56
  8
4
  6
CONTINUOUS
 10
2600.0
 20
1600.0
 30
0.0
 11
7400.0
 21
1600.0
 31
0.0
  0
TEXT
  5
7B57
  8
4
  6
CONTINUOUS
 10
2754.008323
 20
1726.1721030000001
 30
0.0
 40
200.0
  1
機器名称
  0
TEXT
  5
7B58
  8
4
  6
CONTINUOUS
 10
2745.032424
 20
1286.580627
 30
0.0
 40
200.0
  1
機器型番
  0
TEXT
  5
7B59
  8
4
  6
CONTINUOUS
 10
4710.7149820000004
 20
1690.2870760000001
 30
0.0
 40
200.0
  1
ミツヤ多翼送風機
  0
TEXT
  5
7B5A
  8
4
  6
CONTINUOUS
 10
4746.6179819999998
 20
1268.6383370000001
 30
0.0
 40
200.0
  1
MFE#7-4
  0
TEXT
  5
7B5C
  8
4
  6
CONTINUOUS
 10
3619.1430620000001
 20
9533.715365
 30
0.0
 40
216.0
  1
床置ベット
  0
TEXT
  5
7B5D
  8
4
  6
CONTINUOUS
 10
1264.6703729999999
 20
10135.523905
 30
0.0
 40
288.0
  1
ベルト駆動式片吸込両持排煙ファン
  0
LINE
  5
7B5E
  8
4
  6
CONTINUOUS
 10
1000.0
 20
9877.6350170000005
 30
0.0
 11
7400.0
 21
9877.6350170000005
 31
0.0
  0
LINE
  5
7B5F
  8
4
  6
CONTINUOUS
 10
1000.0
 20
10677.635017000001
 30
0.0
 11
7400.0
 21
10677.635017000001
 31
0.0
  0
LINE
  5
7B60
  8
4
  6
CONTINUOUS
 10
2600.0
 20
2000.0
 30
0.0
 11
7400.0
 21
2000.0
 31
0.0
  0
LINE
  5
7B61
  8
4
  6
CONTINUOUS
 10
1000.0
 20
10677.635017000001
 30
0.0
 11
1000.0
 21
9877.6350170000005
 31
0.0
  0
TEXT
  5
7B62
  8
4
  6
CONTINUOUS
 10
1734.0661459999999
 20
9529.2779099999989
 30
0.0
 40
216.0
  1
左回転左横向
  0
TEXT
  5
7B63
  8
4
  6
CONTINUOUS
 10
5875.8782369999999
 20
10824.244326
 30
0.0
 40
224.0
  1
No.
  0
TEXT
  5
7B64
  8
4
  6
CONTINUOUS
 10
5245.1842500000012
 20
9533.715365
 30
0.0
 40
216.0
  1
縮尺：1/40
  0
LINE
  5
7B65
  8
4
  6
CONTINUOUS
 10
7400.0
 20
10677.635017000001
 30
0.0
 11
7400.0
 21
9877.6350170000005
 31
0.0
  0
LINE
  5
7B67
  8
4
  6
CONTINUOUS
 10
5762.4696889999996
 20
10725.054333
 30
0.0
 11
5762.4696889999996
 21
11146.609046
 31
0.0
  0
LINE
  5
7B68
  8
4
  6
CONTINUOUS
 10
5762.4696889999996
 20
11146.609046
 30
0.0
 11
7400.0
 21
11146.609046
 31
0.0
  0
LINE
  5
7B69
  8
4
  6
CONTINUOUS
 10
7400.0
 20
11146.609046
 30
0.0
 11
7400.0
 21
10725.054333
 31
0.0
  0
LINE
  5
7B6A
  8
4
  6
CONTINUOUS
 10
7400.0
 20
10725.054333
 30
0.0
 11
5762.4696889999996
 21
10725.054333
 31
0.0
  0
DIMENSION
  5
7B82
  8
3
  6
CONTINUOUS
  2
*D1
 10
1945.680513
 20
3937.9578489999999
 30
0.0
 11
1945.680513
 21
4528.1320929999993
 31
0.0
 70
   128
 13
2144.1859370000002
 23
5087.9578490000013
 33
0.0
 14
2144.1859370000002
 24
3937.9578489999999
 34
0.0
 50
90.0
1001
ACAD
1000
DSTYLE
1002
{
1070
   287
1070
     3
1070
   287
1070
     3
1070
    40
1040
40.0
1070
   143
1040
0.039
1070
   172
1070
     1
1070
   271
1070
     0
1070
   279
1070
     0
1070
   288
1070
     1
1002
}
  0
DIMENSION
  5
7B8F
  8
3
  6
CONTINUOUS
  2
*D2
 10
1666.875311
 20
3889.9578489999999
 30
0.0
 11
1666.875311
 21
4528.1320929999993
 31
0.0
 70
   128
 13
2144.1859370000002
 23
5087.9578490000013
 33
0.0
 14
1904.7317879999989
 24
3889.9578489999999
 34
0.0
 50
90.0
1001
ACAD
1000
DSTYLE
1002
{
1070
   287
1070
     3
1070
   287
1070
     3
1070
    40
1040
40.0
1070
   143
1040
0.039
1070
   172
1070
     1
1070
   271
1070
     0
1070
   279
1070
     0
1070
   288
1070
     1
1002
}
  0
DIMENSION
  5
7B9B
  8
3
  6
CONTINUOUS
  2
*D3
 10
1666.875311
 20
3049.9578489999999
 30
0.0
 11
1566.8753109999991
 21
3469.9578489999999
 31
0.0
 70
     0
 13
1904.7317879999989
 23
3889.9578489999999
 33
0.0
 14
2244.1859370000002
 24
3049.9578489999999
 34
0.0
 50
90.0
1001
ACAD
1000
DSTYLE
1002
{
1070
   287
1070
     4
1070
   287
1070
     4
1070
    40
1040
40.0
1070
    75
1070
     1
1070
   143
1040
0.039
1070
   172
1070
     1
1070
   271
1070
     0
1070
   279
1070
     1
1070
   288
1070
     1
1002
}
  0
DIMENSION
  5
7BA8
  8
3
  6
CONTINUOUS
  2
*D4
 10
1413.3227668362531
 20
3049.9578489999999
 30
0.0
 11
1413.322766836252
 21
4123.6579090000014
 31
0.0
 70
   128
 13
2144.1859370000002
 23
5140.9578490000004
 33
0.0
 14
2244.1859370000002
 24
3049.9578489999999
 34
0.0
 50
90.0
1001
ACAD
1000
DSTYLE
1002
{
1070
   287
1070
     3
1070
   287
1070
     3
1070
    40
1040
40.0
1070
   143
1040
0.039
1070
   172
1070
     1
1070
   271
1070
     0
1070
   279
1070
     0
1070
   288
1070
     1
1002
}
  0
DIMENSION
  5
7BB5
  8
3
  6
CONTINUOUS
  2
*D5
 10
2904.1859370000002
 20
2757.4340069999998
 30
0.0
 11
2584.2342709999998
 21
2757.4340069999998
 31
0.0
 70
   128
 13
2244.1859370000002
 23
3049.9578489999999
 33
0.0
 14
2904.1859370000002
 24
2852.9884029999998
 34
0.0
1001
ACAD
1000
DSTYLE
1002
{
1070
   287
1070
     3
1070
   287
1070
     3
1070
    40
1040
40.0
1070
   143
1040
0.039
1070
   172
1070
     1
1070
   271
1070
     0
1070
   279
1070
     0
1070
   288
1070
     1
1002
}
  0
DIMENSION
  5
7BC1
  8
3
  6
CONTINUOUS
  2
*D6
 10
4604.1859369999993
 20
2757.4340069999998
 30
0.0
 11
3754.1859369999988
 21
2857.4340069999998
 31
0.0
 70
     0
 13
2904.1859370000002
 23
2852.9884029999998
 33
0.0
 14
4604.1859369999993
 24
3049.9578489999999
 34
0.0
1001
ACAD
1000
DSTYLE
1002
{
1070
   287
1070
     4
1070
   287
1070
     4
1070
    40
1040
40.0
1070
    75
1070
     1
1070
   143
1040
0.039
1070
   172
1070
     1
1070
   271
1070
     0
1070
   279
1070
     1
1070
   288
1070
     1
1002
}
  0
DIMENSION
  5
7BCE
  8
3
  6
CONTINUOUS
  2
*D7
 10
2904.1859370000002
 20
5346.0687719999987
 30
0.0
 11
2512.284521999999
 21
5346.0687719999987
 31
0.0
 70
   128
 13
2144.1859370000002
 23
5140.9578490000004
 33
0.0
 14
2904.1859370000002
 24
5191.4427370000003
 34
0.0
1001
ACAD
1000
DSTYLE
1002
{
1070
   287
1070
     3
1070
   287
1070
     3
1070
    40
1040
40.0
1070
   143
1040
0.039
1070
   172
1070
     1
1070
   271
1070
     0
1070
   279
1070
     0
1070
   288
1070
     1
1002
}
  0
DIMENSION
  5
7BE7
  8
3
  6
CONTINUOUS
  2
*D8
 10
6689.3460139999997
 20
5292.1388740000002
 30
0.0
 11
6265.1063770000001
 21
5292.1388740000002
 31
0.0
 70
   128
 13
5839.3460139999997
 23
5087.9578490000013
 33
0.0
 14
6689.3460139999997
 24
5087.9578490000013
 34
0.0
1001
ACAD
1000
DSTYLE
1002
{
1070
   287
1070
     3
1070
   287
1070
     3
1070
    40
1040
40.0
1070
   143
1040
0.039
1070
   172
1070
     1
1070
   271
1070
     0
1070
   279
1070
     0
1070
   288
1070
     1
1002
}
  0
DIMENSION
  5
7BF4
  8
3
  6
CONTINUOUS
  2
*D9
 10
7155.4841870000018
 20
3329.9578489999999
 30
0.0
 11
7155.484187
 21
3880.9733860000001
 31
0.0
 70
   128
 13
6792.3460139999997
 23
4449.9578490000004
 33
0.0
 14
6792.3460139999997
 24
3329.9578489999999
 34
0.0
 50
90.0
1001
ACAD
1000
DSTYLE
1002
{
1070
   287
1070
     3
1070
   287
1070
     3
1070
     3
1000
φ<>
1070
    40
1040
40.0
1070
   143
1040
0.039
1070
   172
1070
     1
1070
   271
1070
     0
1070
   279
1070
     0
1070
   288
1070
     1
1002
}
  0
DIMENSION
  5
7C03
  8
3
  6
CONTINUOUS
  2
*D10
 10
6264.3460139999997
 20
5570.7766410000004
 30
0.0
 11
6528.3460139999997
 21
5668.3442822678517
 31
0.0
 70
   128
 13
6792.3460139999997
 23
4499.9578490000004
 33
0.0
 14
6264.3460139999997
 24
5497.1770900000001
 34
0.0
1001
ACAD
1000
DSTYLE
1002
{
1070
   288
1070
     1
1070
   172
1070
     1
1070
    40
1040
40.0
1070
   271
1070
     0
1070
   143
1040
0.039
1002
}
  0
DIMENSION
  5
7C0F
  8
3
  6
CONTINUOUS
  2
*D11
 10
5524.3460139999988
 20
5570.7766410000004
 30
0.0
 11
5894.3460139999988
 21
5770.7766410000004
 31
0.0
 70
     0
  1
MAX\P850
 13
6264.3460139999997
 23
5497.1770900000001
 33
0.0
 14
5524.3460139999988
 24
4267.9578490000004
 34
0.0
1001
ACAD
1000
DSTYLE
1002
{
1070
   287
1070
     4
1070
   287
1070
     4
1070
    40
1040
40.0
1070
    75
1070
     1
1070
   143
1040
0.039
1070
   172
1070
     1
1070
   271
1070
     0
1070
   279
1070
     1
1070
   288
1070
     1
1002
}
  0
DIMENSION
  5
7C1C
  8
3
  6
CONTINUOUS
  2
*D12
 10
6264.3460139999997
 20
2730.4690740000001
 30
0.0
 11
5932.3389219999999
 21
2730.4690740000001
 31
0.0
 70
   128
 13
5577.3460139999988
 23
3049.9578489999999
 33
0.0
 14
6264.3460139999997
 24
2876.5859500000001
 34
0.0
1001
ACAD
1000
DSTYLE
1002
{
1070
   287
1070
     3
1070
   287
1070
     3
1070
    40
1040
40.0
1070
   143
1040
0.039
1070
   172
1070
     1
1070
   271
1070
     0
1070
   279
1070
     0
1070
   288
1070
     1
1002
}
  0
DIMENSION
  5
7C2B
  8
3
  6
CONTINUOUS
  2
*D13
 10
6757.3460139999988
 20
2730.4690740000001
 30
0.0
 11
6519.8797109999996
 21
2735.755283
 31
0.0
 70
   128
 13
6264.3460139999997
 23
2876.5859500000001
 33
0.0
 14
6757.3460139999988
 24
3049.9578489999999
 34
0.0
1001
ACAD
1000
DSTYLE
1002
{
1070
   287
1070
     4
1070
   287
1070
     4
1070
    40
1040
40.0
1070
    75
1070
     1
1070
   143
1040
0.039
1070
   172
1070
     1
1070
   271
1070
     0
1070
   279
1070
     1
1070
   288
1070
     1
1002
}
  0
DIMENSION
  5
7C38
  8
3
  6
CONTINUOUS
  2
*D14
 10
4604.1859369999993
 20
6757.1872279999989
 30
0.0
 11
3303.7314809999989
 21
6757.1872279999989
 31
0.0
 70
   128
 13
2244.1859370000002
 23
7112.1637450000007
 33
0.0
 14
4604.1859369999993
 24
7112.1637450000007
 34
0.0
1001
ACAD
1000
DSTYLE
1002
{
1070
   287
1070
     3
1070
   287
1070
     3
1070
    40
1040
40.0
1070
   143
1040
0.039
1070
   172
1070
     1
1070
   271
1070
     0
1070
   279
1070
     0
1070
   288
1070
     1
1002
}
  0
DIMENSION
  5
7C45
  8
3
  6
CONTINUOUS
  2
*D15
 10
4976.5625020000007
 20
7112.1637450000007
 30
0.0
 11
4976.5625020000007
 21
7665.0070790000018
 31
0.0
 70
   128
 13
4604.1859369999993
 23
8292.1637450000017
 33
0.0
 14
4604.1859369999993
 24
7112.1637450000007
 34
0.0
 50
90.0
1001
ACAD
1000
DSTYLE
1002
{
1070
   287
1070
     3
1070
   287
1070
     3
1070
    40
1040
40.0
1070
   143
1040
0.039
1070
   172
1070
     1
1070
   271
1070
     0
1070
   279
1070
     0
1070
   288
1070
     1
1002
}
  0
LINE
  5
7C5D
  8
2
  6
CENTER
 10
6264.3460139999997
 20
5306.2681069999999
 30
0.0
 11
6264.3460139999997
 21
2876.5859500000001
 31
0.0
  0
DIMENSION
  5
7C89
  8
3
  6
CONTINUOUS
  2
*D16
 10
3873.1859370000002
 20
5346.0687719999987
 30
0.0
 11
3388.6859370000002
 21
5446.0687719999996
 31
0.0
 70
     0
 13
2904.1859370000002
 23
5191.4427370000003
 33
0.0
 14
3873.1859370000002
 24
3889.9578489999999
 34
0.0
1001
ACAD
1000
DSTYLE
1002
{
1070
   287
1070
     4
1070
   287
1070
     4
1070
    40
1040
40.0
1070
    75
1070
     1
1070
   143
1040
0.039
1070
   172
1070
     1
1070
   271
1070
     0
1070
   279
1070
     1
1070
   288
1070
     1
1002
}
  0
DIMENSION
  5
7CB6
  8
3
  2
*D17
 10
4604.1859369999993
 20
5588.2338411416858
 30
0.0
 11
3369.632200272943
 21
5588.2338411416858
 31
0.0
 70
   128
 13
2144.1859370000002
 23
5140.9578490000004
 33
0.0
 14
4604.1859369999993
 24
3174.9578489999999
 34
0.0
1001
ACAD
1000
DSTYLE
1002
{
1070
   287
1070
     3
1070
   287
1070
     3
1070
    40
1040
40.0
1070
   143
1040
0.039
1070
   172
1070
     1
1070
   271
1070
     0
1070
   279
1070
     0
1070
   288
1070
     1
1002
}
  0
ENDSEC
  0
EOF
