  0
SECTION
  2
HEADER
  9
$ACADVER
  1
AC1009
  9
$INSBASE
 10
0.0
 20
0.0
 30
0.0
  9
$EXTMIN
 10
1000.0
 20
1200.0
 30
0.0
  9
$EXTMAX
 10
7400.0
 20
11146.609046
 30
0.0
  9
$LIMMIN
 10
0.0
 20
0.0
  9
$LIMMAX
 10
297.0
 20
210.0
  9
$ORTHOMODE
 70
     0
  9
$REGENMODE
 70
     1
  9
$FILLMODE
 70
     0
  9
$QTEXTMODE
 70
     0
  9
$MIRRTEXT
 70
     1
  9
$DRAGMODE
 70
     2
  9
$LTSCALE
 40
100.0
  9
$OSMODE
 70
    37
  9
$ATTMODE
 70
     1
  9
$TEXTSIZE
 40
180.0
  9
$TRACEWID
 40
0.05
  9
$TEXTSTYLE
  7
STANDARD
  9
$CLAYER
  8
1
  9
$CELTYPE
  6
BYLAYER
  9
$CECOLOR
 62
   256
  9
$DIMSCALE
 40
40.0
  9
$DIMASZ
 40
2.0
  9
$DIMEXO
 40
0.5
  9
$DIMDLI
 40
10.0
  9
$DIMRND
 40
0.0
  9
$DIMDLE
 40
0.0
  9
$DIMEXE
 40
1.0
  9
$DIMTP
 40
1.0
  9
$DIMTM
 40
1.0
  9
$DIMTXT
 40
3.0
  9
$DIMCEN
 40
0.0
  9
$DIMTSZ
 40
0.0
  9
$DIMTOL
 70
     0
  9
$DIMLIM
 70
     0
  9
$DIMTIH
 70
     0
  9
$DIMTOH
 70
     0
  9
$DIMSE1
 70
     0
  9
$DIMSE2
 70
     0
  9
$DIMTAD
 70
     1
  9
$DIMZIN
 70
     8
  9
$DIMBLK
  1

  9
$DIMASO
 70
     1
  9
$DIMSHO
 70
     1
  9
$DIMPOST
  1

  9
$DIMAPOST
  1

  9
$DIMALT
 70
     0
  9
$DIMALTD
 70
     2
  9
$DIMALTF
 40
0.039
  9
$DIMLFAC
 40
1.0
  9
$DIMTOFL
 70
     1
  9
$DIMTVP
 40
0.0
  9
$DIMTIX
 70
     0
  9
$DIMSOXD
 70
     0
  9
$DIMSAH
 70
     1
  9
$DIMBLK1
  1
OPEN
  9
$DIMBLK2
  1
OPEN
  9
$DIMSTYLE
  2
IGA
  9
$DIMCLRD
 70
     0
  9
$DIMCLRE
 70
     0
  9
$DIMCLRT
 70
     0
  9
$DIMTFAC
 40
10.0
  9
$DIMGAP
 40
1.0
  9
$LUNITS
 70
     2
  9
$LUPREC
 70
     3
  9
$SKETCHINC
 40
0.1
  9
$FILLETRAD
 40
50.0
  9
$AUNITS
 70
     0
  9
$AUPREC
 70
     0
  9
$MENU
  1
acad
  9
$ELEVATION
 40
0.0
  9
$PELEVATION
 40
0.0
  9
$THICKNESS
 40
0.0
  9
$LIMCHECK
 70
     0
  9
$BLIPMODE
 70
     0
  9
$CHAMFERA
 40
0.5
  9
$CHAMFERB
 40
0.5
  9
$SKPOLY
 70
     0
  9
$TDCREATE
 40
2450753.3908959492
  9
$TDUPDATE
 40
2454953.8427425348
  9
$TDINDWG
 40
0.0514758333
  9
$TDUSRTIMER
 40
0.0514758333
  9
$USRTIMER
 70
     1
  9
$ANGBASE
 50
0.0
  9
$ANGDIR
 70
     0
  9
$PDMODE
 70
     0
  9
$PDSIZE
 40
0.0
  9
$PLINEWID
 40
0.0
  9
$COORDS
 70
     1
  9
$SPLFRAME
 70
     0
  9
$SPLINETYPE
 70
     6
  9
$SPLINESEGS
 70
     8
  9
$ATTDIA
 70
     0
  9
$ATTREQ
 70
     1
  9
$HANDLING
 70
 10241
  9
$HANDSEED
  5
8067
  9
$SURFTAB1
 70
     6
  9
$SURFTAB2
 70
     6
  9
$SURFTYPE
 70
     6
  9
$SURFU
 70
     6
  9
$SURFV
 70
     6
  9
$UCSNAME
  2

  9
$UCSORG
 10
0.0
 20
0.0
 30
0.0
  9
$UCSXDIR
 10
1.0
 20
0.0
 30
0.0
  9
$UCSYDIR
 10
0.0
 20
1.0
 30
0.0
  9
$PUCSNAME
  2

  9
$PUCSORG
 10
0.0
 20
0.0
 30
0.0
  9
$PUCSXDIR
 10
1.0
 20
0.0
 30
0.0
  9
$PUCSYDIR
 10
0.0
 20
1.0
 30
0.0
  9
$USERI1
 70
     0
  9
$USERI2
 70
     0
  9
$USERI3
 70
     0
  9
$USERI4
 70
     0
  9
$USERI5
 70
     0
  9
$USERR1
 40
0.0
  9
$USERR2
 40
0.0
  9
$USERR3
 40
0.0
  9
$USERR4
 40
0.0
  9
$USERR5
 40
0.0
  9
$WORLDVIEW
 70
     1
  9
$SHADEDGE
 70
     3
  9
$SHADEDIF
 70
    70
  9
$TILEMODE
 70
     1
  9
$MAXACTVP
 70
    16
  9
$PLIMCHECK
 70
     0
  9
$PEXTMIN
 10
1.0000000000000000E+020
 20
1.0000000000000000E+020
 30
1.0000000000000000E+020
  9
$PEXTMAX
 10
-1.0000000000000000E+020
 20
-1.0000000000000000E+020
 30
-1.0000000000000000E+020
  9
$PLIMMIN
 10
0.0
 20
0.0
  9
$PLIMMAX
 10
12.0
 20
9.0
  9
$UNITMODE
 70
     0
  9
$VISRETAIN
 70
     0
  9
$PLINEGEN
 70
     0
  9
$PSLTSCALE
 70
     1
  0
ENDSEC
  0
SECTION
  2
TABLES
  0
TABLE
  2
VPORT
 70
     2
  0
VPORT
  2
*ACTIVE
 70
     0
 10
0.0
 20
0.0
 11
1.0
 21
1.0
 12
4675.5446305180849
 22
5978.875658011134
 13
0.0
 23
0.0
 14
10.0
 24
10.0
 15
10.0
 25
10.0
 16
0.0
 26
0.0
 36
1.0
 17
0.0
 27
0.0
 37
0.0
 40
12084.52732811942
 41
1.5051150895140659
 42
50.0
 43
0.0
 44
0.0
 50
0.0
 51
0.0
 71
     0
 72
   100
 73
     1
 74
     0
 75
     0
 76
     0
 77
     0
 78
     0
  0
ENDTAB
  0
TABLE
  2
LTYPE
 70
     2
  0
LTYPE
  2
CONTINUOUS
 70
     0
  3
Solid line
 72
    65
 73
     0
 40
0.0
  0
LTYPE
  2
CENTER
 70
     0
  3
____ _ ____ _ ____ _ ____ _ ____ _ ____ _ ____ 
 72
    65
 73
     4
 40
2.0
 49
1.25
 49
-0.25
 49
0.25
 49
-0.25
  0
ENDTAB
  0
TABLE
  2
LAYER
 70
     6
  0
LAYER
  2
0
 70
     0
 62
     7
  6
CONTINUOUS
  0
LAYER
  2
3
 70
     0
 62
     2
  6
CONTINUOUS
  0
LAYER
  2
2
 70
     0
 62
     3
  6
CENTER
  0
LAYER
  2
1
 70
     0
 62
     4
  6
CONTINUOUS
  0
LAYER
  2
4
 70
     0
 62
     7
  6
CONTINUOUS
  0
LAYER
  2
DEFPOINTS
 70
     0
 62
     7
  6
CONTINUOUS
  0
ENDTAB
  0
TABLE
  2
STYLE
 70
     1
  0
STYLE
  2
STANDARD
 70
     0
 40
0.0
 41
1.0
 50
0.0
 71
     0
 42
180.0
  3
simplex.shx
  4
extfont.shx
  0
ENDTAB
  0
TABLE
  2
VIEW
 70
     0
  0
ENDTAB
  0
TABLE
  2
UCS
 70
     0
  0
ENDTAB
  0
TABLE
  2
APPID
 70
     1
  0
APPID
  2
ACAD
 70
     0
  0
ENDTAB
  0
TABLE
  2
DIMSTYLE
 70
     1
  0
DIMSTYLE
  2
IGA
 70
     0
  3

  4

  5

  6
OPEN
  7
OPEN
 40
2.0
 41
2.0
 42
0.5
 43
10.0
 44
1.0
 45
0.0
 46
0.0
 47
1.0
 48
1.0
140
3.0
141
0.0
142
0.0
143
0.03937
144
1.0
145
0.0
146
10.0
147
1.0
 71
     0
 72
     0
 73
     0
 74
     0
 75
     0
 76
     0
 77
     1
 78
     8
170
     0
171
     2
172
     0
173
     1
174
     0
175
     0
176
     0
177
     0
178
     0
  0
ENDTAB
  0
ENDSEC
  0
SECTION
  2
BLOCKS
  0
BLOCK
  8
0
  2
$MODEL_SPACE
 70
     0
 10
0.0
 20
0.0
 30
0.0
  3
$MODEL_SPACE
  1

  0
ENDBLK
  5
1B
  8
0
  0
BLOCK
 67
     1
  8
0
  2
$PAPER_SPACE
 70
     0
 10
0.0
 20
0.0
 30
0.0
  3
$PAPER_SPACE
  1

  0
ENDBLK
  5
18
 67
     1
  8
0
  0
BLOCK
  8
0
  2
_OPEN
 70
     0
 10
0.0
 20
0.0
 30
0.0
  3
_OPEN
  1

  0
LINE
  5
7BEB
  8
0
  6
BYBLOCK
 62
     0
 10
-1.0
 20
0.166667
 30
0.0
 11
0.0
 21
0.0
 31
0.0
  0
LINE
  5
7BEC
  8
0
  6
BYBLOCK
 62
     0
 10
0.0
 20
0.0
 30
0.0
 11
-1.0
 21
-0.166667
 31
0.0
  0
LINE
  5
7BED
  8
0
  6
BYBLOCK
 62
     0
 10
0.0
 20
0.0
 30
0.0
 11
-1.0
 21
0.0
 31
0.0
  0
ENDBLK
  5
7BEE
  8
0
  0
BLOCK
  8
0
  2
*D1
 70
     1
 10
0.0
 20
0.0
 30
0.0
  3
*D1
  1

  0
LINE
  5
7FB0
  8
3
  6
CONTINUOUS
 62
     0
 10
2252.2393729999999
 20
4567.0330809999996
 30
0.0
 11
2027.0007869999999
 21
4567.0330810000014
 31
0.0
  0
LINE
  5
7FB1
  8
3
  6
CONTINUOUS
 62
     0
 10
2252.2393729999999
 20
3537.033081
 30
0.0
 11
2027.000786999999
 21
3537.033081
 31
0.0
  0
LINE
  5
7FB2
  8
3
  6
CONTINUOUS
 62
     0
 10
2067.0007869999999
 20
4487.0330809999996
 30
0.0
 11
2067.0007869999999
 21
3617.033081
 31
0.0
  0
INSERT
  5
7FB3
  8
3
  6
CONTINUOUS
 62
     0
  2
_OPEN
 10
2067.0007869999999
 20
4567.0330809999996
 30
0.0
 41
80.0
 42
80.0
 43
80.0
 50
90.0
  0
INSERT
  5
7FB4
  8
3
  6
CONTINUOUS
 62
     0
  2
_OPEN
 10
2067.0007869999999
 20
3537.033081
 30
0.0
 41
80.0
 42
80.0
 43
80.0
 50
270.0
  0
TEXT
  8
3
  40
120
  5
8054
  62
0
  72
0
  71
0
 10
1727.00
 20
3782.78
 30
0.000000
  1
1030
  0
POINT
  5
7FB6
  8
DEFPOINTS
  6
CONTINUOUS
 62
     0
 10
2272.2393729999999
 20
4567.0330809999996
 30
0.0
  0
POINT
  5
7FB7
  8
DEFPOINTS
  6
CONTINUOUS
 62
     0
 10
2272.2393729999999
 20
3537.033081
 30
0.0
  0
POINT
  5
7FB8
  8
DEFPOINTS
  6
CONTINUOUS
 62
     0
 10
2067.0007869999999
 20
3537.033081
 30
0.0
  0
ENDBLK
  5
7BFB
  8
0
  0
BLOCK
  8
0
  2
*D2
 70
     1
 10
0.0
 20
0.0
 30
0.0
  3
*D2
  1

  0
LINE
  5
7FB9
  8
3
  6
CONTINUOUS
 62
     0
 10
2159.9595539999991
 20
4519.0330809999996
 30
0.0
 11
1808.2625070000011
 21
4519.0330810000014
 31
0.0
  0
LINE
  5
7FBA
  8
3
  6
CONTINUOUS
 62
     0
 10
2252.2393729999999
 20
3537.033081
 30
0.0
 11
1808.2625069999999
 21
3537.033081
 31
0.0
  0
LINE
  5
7FBB
  8
3
  6
CONTINUOUS
 62
     0
 10
1848.2625069999999
 20
4439.0330810000014
 30
0.0
 11
1848.2625069999999
 21
3617.033081
 31
0.0
  0
INSERT
  5
7FBC
  8
3
  6
CONTINUOUS
 62
     0
  2
_OPEN
 10
1848.2625069999999
 20
4519.0330810000014
 30
0.0
 41
80.0
 42
80.0
 43
80.0
 50
90.0
  0
INSERT
  5
7FBD
  8
3
  6
CONTINUOUS
 62
     0
  2
_OPEN
 10
1848.2625069999999
 20
3537.033081
 30
0.0
 41
80.0
 42
80.0
 43
80.0
 50
270.0
  0
TEXT
  8
3
  40
120
  5
8055
  62
0
  72
0
  71
0
 10
1508.26
 20
3820.47
 30
0.000000
  1
982
  0
POINT
  5
7FBF
  8
DEFPOINTS
  6
CONTINUOUS
 62
     0
 10
2179.959554
 20
4519.0330809999996
 30
0.0
  0
POINT
  5
7FC0
  8
DEFPOINTS
  6
CONTINUOUS
 62
     0
 10
2272.2393729999999
 20
3537.033081
 30
0.0
  0
POINT
  5
7FC1
  8
DEFPOINTS
  6
CONTINUOUS
 62
     0
 10
1848.2625069999999
 20
3537.033081
 30
0.0
  0
ENDBLK
  5
7C14
  8
0
  0
BLOCK
  8
0
  2
*D3
 70
     1
 10
0.0
 20
0.0
 30
0.0
  3
*D3
  1

  0
LINE
  5
7FC2
  8
3
  6
CONTINUOUS
 62
     0
 10
2159.9595539999991
 20
4519.0330809999996
 30
0.0
 11
1559.353431
 21
4519.0330810000014
 31
0.0
  0
LINE
  5
7FC3
  8
3
  6
CONTINUOUS
 62
     0
 10
2332.239372999999
 20
3304.033081
 30
0.0
 11
1559.353431
 21
3304.033081
 31
0.0
  0
LINE
  5
7FC4
  8
3
  6
CONTINUOUS
 62
     0
 10
1599.353431
 20
4439.0330810000014
 30
0.0
 11
1599.353431
 21
3384.033081
 31
0.0
  0
INSERT
  5
7FC5
  8
3
  6
CONTINUOUS
 62
     0
  2
_OPEN
 10
1599.353431
 20
4519.0330810000014
 30
0.0
 41
80.0
 42
80.0
 43
80.0
 50
90.0
  0
INSERT
  5
7FC6
  8
3
  6
CONTINUOUS
 62
     0
  2
_OPEN
 10
1599.353431
 20
3304.033081
 30
0.0
 41
80.0
 42
80.0
 43
80.0
 50
270.0
  0
TEXT
  8
3
  40
120
  5
8056
  62
0
  72
0
  71
0
 10
1259.35
 20
3699.13
 30
0.000000
  1
1215
  0
POINT
  5
7FC8
  8
DEFPOINTS
  6
CONTINUOUS
 62
     0
 10
2179.959554
 20
4519.0330809999996
 30
0.0
  0
POINT
  5
7FC9
  8
DEFPOINTS
  6
CONTINUOUS
 62
     0
 10
2352.2393729999999
 20
3304.033081
 30
0.0
  0
POINT
  5
7FCA
  8
DEFPOINTS
  6
CONTINUOUS
 62
     0
 10
1599.353431
 20
3304.033081
 30
0.0
  0
ENDBLK
  5
7E1C
  8
0
  0
BLOCK
  8
0
  2
*D4
 70
     1
 10
0.0
 20
0.0
 30
0.0
  3
*D4
  1

  0
LINE
  5
7FCB
  8
3
  6
CONTINUOUS
 62
     0
 10
2332.239372999999
 20
3304.033081
 30
0.0
 11
1556.8905150000001
 21
3304.033081
 31
0.0
  0
LINE
  5
7FCC
  8
3
  6
CONTINUOUS
 62
     0
 10
2332.239372999999
 20
3138.033081
 30
0.0
 11
1556.8905150000001
 21
3138.033081
 31
0.0
  0
LINE
  5
7FCD
  8
3
  6
CONTINUOUS
 62
     0
 10
1596.8905150000001
 20
3384.033081
 30
0.0
 11
1596.8905150000001
 21
3464.033081
 31
0.0
  0
LINE
  5
7FCE
  8
3
  6
CONTINUOUS
 62
     0
 10
1596.8905150000001
 20
3058.033081
 30
0.0
 11
1596.8905150000001
 21
2618.033081
 31
0.0
  0
LINE
  5
7FCF
  8
3
  6
CONTINUOUS
 62
     0
 10
1596.8905150000001
 20
3304.033081
 30
0.0
 11
1596.8905150000001
 21
3138.033081
 31
0.0
  0
INSERT
  5
7FD0
  8
3
  6
CONTINUOUS
 62
     0
  2
_OPEN
 10
1596.8905150000001
 20
3304.033081
 30
0.0
 41
80.0
 42
80.0
 43
80.0
 50
270.0
  0
INSERT
  5
7FD1
  8
3
  6
CONTINUOUS
 62
     0
  2
_OPEN
 10
1596.8905150000001
 20
3138.033081
 30
0.0
 41
80.0
 42
80.0
 43
80.0
 50
90.0
  0
TEXT
  8
3
  40
120
  5
8057
  62
0
  72
0
  71
0
 10
1256.89
 20
2585.63
 30
0.000000
  1
166
  0
POINT
  5
7FD3
  8
DEFPOINTS
  6
CONTINUOUS
 62
     0
 10
2352.2393729999999
 20
3304.033081
 30
0.0
  0
POINT
  5
7FD4
  8
DEFPOINTS
  6
CONTINUOUS
 62
     0
 10
2352.2393729999999
 20
3138.033081
 30
0.0
  0
POINT
  5
7FD5
  8
DEFPOINTS
  6
CONTINUOUS
 62
     0
 10
1596.8905150000001
 20
3138.033081
 30
0.0
  0
ENDBLK
  5
7E00
  8
0
  0
BLOCK
  8
0
  2
*D5
 70
     1
 10
0.0
 20
0.0
 30
0.0
  3
*D5
  1

  0
LINE
  5
7FD6
  8
3
  6
CONTINUOUS
 62
     0
 10
2352.2393729999999
 20
3118.033081
 30
0.0
 11
2352.2393729999999
 21
2824.4536010000002
 31
0.0
  0
LINE
  5
7FD7
  8
3
  6
CONTINUOUS
 62
     0
 10
3002.2393729999999
 20
2997.2856980000001
 30
0.0
 11
3002.2393729999999
 21
2824.4536010000002
 31
0.0
  0
LINE
  5
7FD8
  8
3
  6
CONTINUOUS
 62
     0
 10
2432.239372999999
 20
2864.4536010000002
 30
0.0
 11
2922.2393729999999
 21
2864.4536010000002
 31
0.0
  0
INSERT
  5
7FD9
  8
3
  6
CONTINUOUS
 62
     0
  2
_OPEN
 10
2352.2393729999999
 20
2864.4536010000002
 30
0.0
 41
80.0
 42
80.0
 43
80.0
 50
180.0
  0
INSERT
  5
7FDA
  8
3
  6
CONTINUOUS
 62
     0
  2
_OPEN
 10
3002.2393729999999
 20
2864.4536010000002
 30
0.0
 41
80.0
 42
80.0
 43
80.0
  0
TEXT
  8
3
  40
120
  5
8058
  62
0
  72
0
  71
0
 10
2437.96
 20
2752.05
 30
0.000000
  1
650
  0
POINT
  5
7FDC
  8
DEFPOINTS
  6
CONTINUOUS
 62
     0
 10
2352.2393729999999
 20
3138.033081
 30
0.0
  0
POINT
  5
7FDD
  8
DEFPOINTS
  6
CONTINUOUS
 62
     0
 10
3002.2393729999999
 20
3017.2856980000001
 30
0.0
  0
POINT
  5
7FDE
  8
DEFPOINTS
  6
CONTINUOUS
 62
     0
 10
3002.2393729999999
 20
2864.4536010000002
 30
0.0
  0
ENDBLK
  5
7C56
  8
0
  0
BLOCK
  8
0
  2
*D6
 70
     1
 10
0.0
 20
0.0
 30
0.0
  3
*D6
  1

  0
LINE
  5
7FDF
  8
3
  6
CONTINUOUS
 62
     0
 10
4302.2393729999994
 20
3118.033081
 30
0.0
 11
4302.2393729999994
 21
2824.4536010000002
 31
0.0
  0
LINE
  5
7FE0
  8
3
  6
CONTINUOUS
 62
     0
 10
3082.2393729999999
 20
2864.4536010000002
 30
0.0
 11
4222.2393729999994
 21
2864.4536010000002
 31
0.0
  0
INSERT
  5
7FE1
  8
3
  6
CONTINUOUS
 62
     0
  2
_OPEN
 10
3002.2393729999999
 20
2864.4536010000002
 30
0.0
 41
80.0
 42
80.0
 43
80.0
 50
180.0
  0
INSERT
  5
7FE2
  8
3
  6
CONTINUOUS
 62
     0
  2
_OPEN
 10
4302.2393729999994
 20
2864.4536010000002
 30
0.0
 41
80.0
 42
80.0
 43
80.0
  0
TEXT
  8
3
  40
120
  5
8059
  62
0
  72
0
  71
0
 10
3412.24
 20
2752.05
 30
0.000000
  1
1300
  0
POINT
  5
7FE4
  8
DEFPOINTS
  6
CONTINUOUS
 62
     0
 10
3002.2393729999999
 20
3017.2856980000001
 30
0.0
  0
POINT
  5
7FE5
  8
DEFPOINTS
  6
CONTINUOUS
 62
     0
 10
4302.2393729999994
 20
3138.033081
 30
0.0
  0
POINT
  5
7FE6
  8
DEFPOINTS
  6
CONTINUOUS
 62
     0
 10
4302.2393729999994
 20
2864.4536010000002
 30
0.0
  0
ENDBLK
  5
7C62
  8
0
  0
BLOCK
  8
0
  2
*D7
 70
     1
 10
0.0
 20
0.0
 30
0.0
  3
*D7
  1

  0
LINE
  5
7FE7
  8
3
  6
CONTINUOUS
 62
     0
 10
2272.2393729999999
 20
4637.0330810000014
 30
0.0
 11
2272.2393729999999
 21
5482.5079750000004
 31
0.0
  0
LINE
  5
7FE8
  8
3
  6
CONTINUOUS
 62
     0
 10
3002.2393729999999
 20
5342.7135931441298
 30
0.0
 11
3002.2393729999999
 21
5482.5079750000004
 31
0.0
  0
LINE
  5
7FE9
  8
3
  6
CONTINUOUS
 62
     0
 10
2352.2393729999999
 20
5442.5079750000014
 30
0.0
 11
2922.2393729999999
 21
5442.5079750000014
 31
0.0
  0
INSERT
  5
7FEA
  8
3
  6
CONTINUOUS
 62
     0
  2
_OPEN
 10
2272.2393729999999
 20
5442.5079750000014
 30
0.0
 41
80.0
 42
80.0
 43
80.0
 50
180.0
  0
INSERT
  5
7FEB
  8
3
  6
CONTINUOUS
 62
     0
  2
_OPEN
 10
3002.2393729999999
 20
5442.5079750000014
 30
0.0
 41
80.0
 42
80.0
 43
80.0
  0
TEXT
  8
3
  40
120
  5
805A
  62
0
  72
0
  71
0
 10
2392.70
 20
5330.11
 30
0.000000
  1
730
  0
POINT
  5
7FED
  8
DEFPOINTS
  6
CONTINUOUS
 62
     0
 10
2272.2393729999999
 20
4617.0330809999996
 30
0.0
  0
POINT
  5
7FEE
  8
DEFPOINTS
  6
CONTINUOUS
 62
     0
 10
3002.2393729999999
 20
5322.7135931441308
 30
0.0
  0
POINT
  5
7FEF
  8
DEFPOINTS
  6
CONTINUOUS
 62
     0
 10
3002.2393729999999
 20
5442.5079750000014
 30
0.0
  0
ENDBLK
  5
7E32
  8
0
  0
BLOCK
  8
0
  2
*D8
 70
     1
 10
0.0
 20
0.0
 30
0.0
  3
*D8
  1

  0
LINE
  5
7FF0
  8
3
  6
CONTINUOUS
 62
     0
 10
5861.1264369999999
 20
5255.0330809999996
 30
0.0
 11
5861.1264369999999
 21
5444.8171140000013
 31
0.0
  0
LINE
  5
7FF1
  8
3
  6
CONTINUOUS
 62
     0
 10
6611.1264369999999
 20
5255.0330809999996
 30
0.0
 11
6611.1264369999999
 21
5444.8171140000013
 31
0.0
  0
LINE
  5
7FF2
  8
3
  6
CONTINUOUS
 62
     0
 10
5941.1264369999999
 20
5404.8171140000004
 30
0.0
 11
6531.1264370000008
 21
5404.8171140000004
 31
0.0
  0
INSERT
  5
7FF3
  8
3
  6
CONTINUOUS
 62
     0
  2
_OPEN
 10
5861.1264369999999
 20
5404.8171140000004
 30
0.0
 41
80.0
 42
80.0
 43
80.0
 50
180.0
  0
INSERT
  5
7FF4
  8
3
  6
CONTINUOUS
 62
     0
  2
_OPEN
 10
6611.1264369999999
 20
5404.8171140000004
 30
0.0
 41
80.0
 42
80.0
 43
80.0
  0
TEXT
  8
3
  40
120
  5
805B
  62
0
  72
0
  71
0
 10
6006.88
 20
5292.42
 30
0.000000
  1
750
  0
POINT
  5
7FF6
  8
DEFPOINTS
  6
CONTINUOUS
 62
     0
 10
5861.1264369999999
 20
5235.0330809999996
 30
0.0
  0
POINT
  5
7FF7
  8
DEFPOINTS
  6
CONTINUOUS
 62
     0
 10
6611.1264369999999
 20
5235.0330809999996
 30
0.0
  0
POINT
  5
7FF8
  8
DEFPOINTS
  6
CONTINUOUS
 62
     0
 10
6611.1264369999999
 20
5404.8171140000004
 30
0.0
  0
ENDBLK
  5
7C88
  8
0
  0
BLOCK
  8
0
  2
*D9
 70
     1
 10
0.0
 20
0.0
 30
0.0
  3
*D9
  1

  0
LINE
  5
7FF9
  8
3
  6
CONTINUOUS
 62
     0
 10
6635.1264369999999
 20
5049.0330810000014
 30
0.0
 11
6965.7251620000006
 21
5049.0330810000014
 31
0.0
  0
LINE
  5
7FFA
  8
3
  6
CONTINUOUS
 62
     0
 10
6635.1264369999999
 20
3989.033081
 30
0.0
 11
6965.7251620000006
 21
3989.033081
 31
0.0
  0
LINE
  5
7FFB
  8
3
  6
CONTINUOUS
 62
     0
 10
6925.7251620000015
 20
4969.0330809999996
 30
0.0
 11
6925.7251620000015
 21
4069.0330809999991
 31
0.0
  0
INSERT
  5
7FFC
  8
3
  6
CONTINUOUS
 62
     0
  2
_OPEN
 10
6925.7251620000015
 20
5049.0330810000014
 30
0.0
 41
80.0
 42
80.0
 43
80.0
 50
90.0
  0
INSERT
  5
7FFD
  8
3
  6
CONTINUOUS
 62
     0
  2
_OPEN
 10
6925.7251620000015
 20
3989.033081
 30
0.0
 41
80.0
 42
80.0
 43
80.0
 50
270.0
  0
TEXT
  8
3
  40
120
  5
805C
  62
0
  72
0
  71
0
 10
6585.73
 20
4295.37
 30
0.000000
  1
φ1060
  0
POINT
  5
7FFF
  8
DEFPOINTS
  6
CONTINUOUS
 62
     0
 10
6615.1264369999999
 20
5049.0330810000014
 30
0.0
  0
POINT
  5
8000
  8
DEFPOINTS
  6
CONTINUOUS
 62
     0
 10
6615.1264369999999
 20
3989.033081
 30
0.0
  0
POINT
  5
8001
  8
DEFPOINTS
  6
CONTINUOUS
 62
     0
 10
6925.7251620000015
 20
3989.033081
 30
0.0
  0
ENDBLK
  5
7DD2
  8
0
  0
BLOCK
  8
0
  2
*D10
 70
     1
 10
0.0
 20
0.0
 30
0.0
  3
*D10
  1

  0
LINE
  5
8002
  8
3
  6
CONTINUOUS
 62
     0
 10
5653.626436999999
 20
3118.033081
 30
0.0
 11
5653.626436999999
 21
2816.915446
 31
0.0
  0
LINE
  5
8003
  8
3
  6
CONTINUOUS
 62
     0
 10
6236.1264369999999
 20
2991.2252640000002
 30
0.0
 11
6236.1264369999999
 21
2816.915446
 31
0.0
  0
LINE
  5
8004
  8
3
  6
CONTINUOUS
 62
     0
 10
5573.6264369999999
 20
2856.915446
 30
0.0
 11
5493.6264369999999
 21
2856.915446
 31
0.0
  0
LINE
  5
8005
  8
3
  6
CONTINUOUS
 62
     0
 10
6316.1264369999999
 20
2856.915446
 30
0.0
 11
6396.1264369999999
 21
2856.915446
 31
0.0
  0
LINE
  5
8006
  8
3
  6
CONTINUOUS
 62
     0
 10
5653.626436999999
 20
2856.915446
 30
0.0
 11
6236.1264369999999
 21
2856.915446
 31
0.0
  0
INSERT
  5
8007
  8
3
  6
CONTINUOUS
 62
     0
  2
_OPEN
 10
5653.626436999999
 20
2856.915446
 30
0.0
 41
80.0
 42
80.0
 43
80.0
  0
INSERT
  5
8008
  8
3
  6
CONTINUOUS
 62
     0
  2
_OPEN
 10
6236.1264369999999
 20
2856.915446
 30
0.0
 41
80.0
 42
80.0
 43
80.0
 50
180.0
  0
TEXT
  8
3
  40
120
  5
805D
  62
0
  72
0
  71
0
 10
5721.84
 20
2744.52
 30
0.000000
  1
583
  0
POINT
  5
800A
  8
DEFPOINTS
  6
CONTINUOUS
 62
     0
 10
5653.626436999999
 20
3138.033081
 30
0.0
  0
POINT
  5
800B
  8
DEFPOINTS
  6
CONTINUOUS
 62
     0
 10
6236.1264369999999
 20
3011.2252640000002
 30
0.0
  0
POINT
  5
800C
  8
DEFPOINTS
  6
CONTINUOUS
 62
     0
 10
6236.1264369999999
 20
2856.915446
 30
0.0
  0
ENDBLK
  5
7CBF
  8
0
  0
BLOCK
  8
0
  2
*D11
 70
     1
 10
0.0
 20
0.0
 30
0.0
  3
*D11
  1

  0
LINE
  5
800D
  8
3
  6
CONTINUOUS
 62
     0
 10
6677.6264369999999
 20
3118.033081
 30
0.0
 11
6677.6264369999999
 21
2816.915446
 31
0.0
  0
LINE
  5
800E
  8
3
  6
CONTINUOUS
 62
     0
 10
6316.1264369999999
 20
2856.915446
 30
0.0
 11
6597.626436999999
 21
2856.915446
 31
0.0
  0
TEXT
  8
3
  40
120
  5
805E
  62
0
  72
0
  71
0
 10
6219.90
 20
2746.41
 30
0.000000
  1
442
  0
INSERT
  5
8010
  8
3
  6
CONTINUOUS
 62
     0
  2
_OPEN
 10
6236.1264369999999
 20
2856.915446
 30
0.0
 41
80.0
 42
80.0
 43
80.0
 50
180.0
  0
INSERT
  5
8011
  8
3
  6
CONTINUOUS
 62
     0
  2
_OPEN
 10
6677.6264369999999
 20
2856.915446
 30
0.0
 41
80.0
 42
80.0
 43
80.0
  0
POINT
  5
8012
  8
DEFPOINTS
  6
CONTINUOUS
 62
     0
 10
6236.1264369999999
 20
3011.2252640000002
 30
0.0
  0
POINT
  5
8013
  8
DEFPOINTS
  6
CONTINUOUS
 62
     0
 10
6677.6264369999999
 20
3138.033081
 30
0.0
  0
POINT
  5
8014
  8
DEFPOINTS
  6
CONTINUOUS
 62
     0
 10
6677.6264369999999
 20
2856.915446
 30
0.0
  0
ENDBLK
  5
7DBC
  8
0
  0
BLOCK
  8
0
  2
*D12
 70
     1
 10
0.0
 20
0.0
 30
0.0
  3
*D12
  1

  0
LINE
  5
8015
  8
3
  6
CONTINUOUS
 62
     0
 10
2352.2393729999999
 20
8134.3193844288326
 30
0.0
 11
2352.2393729999999
 21
8354.6157404288333
 31
0.0
  0
LINE
  5
8016
  8
3
  6
CONTINUOUS
 62
     0
 10
4302.2393729999994
 20
8134.3193844288326
 30
0.0
 11
4302.2393729999994
 21
8354.6157404288333
 31
0.0
  0
LINE
  5
8017
  8
3
  6
CONTINUOUS
 62
     0
 10
2432.239372999999
 20
8314.6157404288315
 30
0.0
 11
4222.2393729999994
 21
8314.6157404288315
 31
0.0
  0
INSERT
  5
8018
  8
3
  6
CONTINUOUS
 62
     0
  2
_OPEN
 10
2352.2393729999999
 20
8314.6157404288315
 30
0.0
 41
80.0
 42
80.0
 43
80.0
 50
180.0
  0
INSERT
  5
8019
  8
3
  6
CONTINUOUS
 62
     0
  2
_OPEN
 10
4302.2393729999994
 20
8314.6157404288315
 30
0.0
 41
80.0
 42
80.0
 43
80.0
  0
TEXT
  8
3
  40
120
  5
805F
  62
0
  72
0
  71
0
 10
3056.46
 20
8202.22
 30
0.000000
  1
1950
  0
POINT
  5
801B
  8
DEFPOINTS
  6
CONTINUOUS
 62
     0
 10
2352.2393729999999
 20
8114.3193844288326
 30
0.0
  0
POINT
  5
801C
  8
DEFPOINTS
  6
CONTINUOUS
 62
     0
 10
4302.2393729999994
 20
8114.3193844288326
 30
0.0
  0
POINT
  5
801D
  8
DEFPOINTS
  6
CONTINUOUS
 62
     0
 10
4302.2393729999994
 20
8314.6157404288315
 30
0.0
  0
ENDBLK
  5
7CFA
  8
0
  0
BLOCK
  8
0
  2
*D13
 70
     1
 10
0.0
 20
0.0
 30
0.0
  3
*D13
  1

  0
LINE
  5
801E
  8
3
  6
CONTINUOUS
 62
     0
 10
4322.2393729999994
 20
8114.3193844288326
 30
0.0
 11
4626.2623860000012
 21
8114.3193844288326
 31
0.0
  0
LINE
  5
801F
  8
3
  6
CONTINUOUS
 62
     0
 10
4322.2393729999994
 20
7089.3193844288326
 30
0.0
 11
4626.2623860000012
 21
7089.3193844288326
 31
0.0
  0
LINE
  5
8020
  8
3
  6
CONTINUOUS
 62
     0
 10
4586.2623860000012
 20
8034.3193844288307
 30
0.0
 11
4586.2623860000012
 21
7169.3193844288326
 31
0.0
  0
INSERT
  5
8021
  8
3
  6
CONTINUOUS
 62
     0
  2
_OPEN
 10
4586.2623860000012
 20
8114.3193844288326
 30
0.0
 41
80.0
 42
80.0
 43
80.0
 50
90.0
  0
INSERT
  5
8022
  8
3
  6
CONTINUOUS
 62
     0
  2
_OPEN
 10
4586.2623860000012
 20
7089.3193844288326
 30
0.0
 41
80.0
 42
80.0
 43
80.0
 50
270.0
  0
TEXT
  8
3
  40
120
  5
8060
  62
0
  72
0
  71
0
 10
4246.26
 20
7378.55
 30
0.000000
  1
1025
  0
POINT
  5
8024
  8
DEFPOINTS
  6
CONTINUOUS
 62
     0
 10
4302.2393729999994
 20
8114.3193844288326
 30
0.0
  0
POINT
  5
8025
  8
DEFPOINTS
  6
CONTINUOUS
 62
     0
 10
4302.2393729999994
 20
7089.3193844288326
 30
0.0
  0
POINT
  5
8026
  8
DEFPOINTS
  6
CONTINUOUS
 62
     0
 10
4586.2623860000012
 20
7089.3193844288326
 30
0.0
  0
ENDBLK
  5
7D07
  8
0
  0
BLOCK
  8
0
  2
*D14
 70
     1
 10
0.0
 20
0.0
 30
0.0
  3
*D14
  1

  0
LINE
  5
8027
  8
3
  6
CONTINUOUS
 62
     0
 10
5576.1264369999999
 20
5049.0330810000014
 30
0.0
 11
5576.1264369999999
 21
5689.1777979999997
 31
0.0
  0
LINE
  5
8028
  8
3
  6
CONTINUOUS
 62
     0
 10
6236.1264369999999
 20
5609.8482100000001
 30
0.0
 11
6236.1264369999999
 21
5689.1777979999997
 31
0.0
  0
LINE
  5
8029
  8
3
  6
CONTINUOUS
 62
     0
 10
5656.1264370000008
 20
5649.1777979999997
 30
0.0
 11
6156.1264370000008
 21
5649.1777979999997
 31
0.0
  0
INSERT
  5
802A
  8
3
  6
CONTINUOUS
 62
     0
  2
_OPEN
 10
5576.1264369999999
 20
5649.1777979999997
 30
0.0
 41
80.0
 42
80.0
 43
80.0
 50
180.0
  0
INSERT
  5
802B
  8
3
  6
CONTINUOUS
 62
     0
  2
_OPEN
 10
6236.1264369999999
 20
5649.1777979999997
 30
0.0
 41
80.0
 42
80.0
 43
80.0
  0
TEXT
  8
3
  40
120
  5
8061
  62
0
  72
0
  71
0
 10
5704.70
 20
5636.78
 30
0.000000
  1
MAX
  0
TEXT
  8
3
  40
120
  5
8062
  62
0
  72
0
  71
0
 10
5704.70
 20
5480.78
 30
0.000000
  1
700
  0
POINT
  5
802D
  8
DEFPOINTS
  6
CONTINUOUS
 62
     0
 10
5576.1264369999999
 20
5029.0330810000014
 30
0.0
  0
POINT
  5
802E
  8
DEFPOINTS
  6
CONTINUOUS
 62
     0
 10
6236.1264369999999
 20
5589.8482100000001
 30
0.0
  0
POINT
  5
802F
  8
DEFPOINTS
  6
CONTINUOUS
 62
     0
 10
6236.1264369999999
 20
5649.1777979999997
 30
0.0
  0
ENDBLK
  5
7DDD
  8
0
  0
BLOCK
  8
0
  2
*D15
 70
     1
 10
0.0
 20
0.0
 30
0.0
  3
*D15
  1

  0
LINE
  5
8030
  8
3
  6
CONTINUOUS
 62
     0
 10
6615.1264369999999
 20
5069.0330809999996
 30
0.0
 11
6615.1264369999999
 21
5689.1777979999997
 31
0.0
  0
LINE
  5
8031
  8
3
  6
CONTINUOUS
 62
     0
 10
6316.1264369999999
 20
5649.1777979999997
 30
0.0
 11
6535.126436999999
 21
5649.1777979999997
 31
0.0
  0
TEXT
  8
3
  40
120
  5
8063
  62
0
  72
0
  71
0
 10
6188.23
 20
5539.01
 30
0.000000
  1
379
  0
INSERT
  5
8033
  8
3
  6
CONTINUOUS
 62
     0
  2
_OPEN
 10
6236.1264369999999
 20
5649.1777979999997
 30
0.0
 41
80.0
 42
80.0
 43
80.0
 50
180.0
  0
INSERT
  5
8034
  8
3
  6
CONTINUOUS
 62
     0
  2
_OPEN
 10
6615.1264369999999
 20
5649.1777979999997
 30
0.0
 41
80.0
 42
80.0
 43
80.0
  0
POINT
  5
8035
  8
DEFPOINTS
  6
CONTINUOUS
 62
     0
 10
6236.1264369999999
 20
5589.8482100000001
 30
0.0
  0
POINT
  5
8036
  8
DEFPOINTS
  6
CONTINUOUS
 62
     0
 10
6615.1264369999999
 20
5049.0330810000014
 30
0.0
  0
POINT
  5
8037
  8
DEFPOINTS
  6
CONTINUOUS
 62
     0
 10
6615.1264369999999
 20
5649.1777979999997
 30
0.0
  0
ENDBLK
  5
7D88
  8
0
  0
BLOCK
  8
0
  2
*D16
 70
     1
 10
0.0
 20
0.0
 30
0.0
  3
*D16
  1

  0
LINE
  5
8038
  8
3
  6
CONTINUOUS
 62
     0
 10
2982.2393729999999
 20
5234.6600206924277
 30
0.0
 11
1559.353431
 21
5234.6600206924277
 31
0.0
  0
LINE
  5
8039
  8
3
  6
CONTINUOUS
 62
     0
 10
1599.3534309999991
 20
4599.0330810000014
 30
0.0
 11
1599.353431
 21
5154.6600206924277
 31
0.0
  0
INSERT
  5
803A
  8
3
  6
CONTINUOUS
 62
     0
  2
_OPEN
 10
1599.3534309999991
 20
4519.0330810000014
 30
0.0
 41
80.0
 42
80.0
 43
80.0
 50
270.0
  0
INSERT
  5
803B
  8
3
  6
CONTINUOUS
 62
     0
  2
_OPEN
 10
1599.353431
 20
5234.6600206924277
 30
0.0
 41
80.0
 42
80.0
 43
80.0
 50
90.0
  0
TEXT
  8
3
  40
120
  5
8064
  62
0
  72
0
  71
0
 10
1259.35
 20
4664.45
 30
0.000000
  1
716
  0
POINT
  5
803D
  8
DEFPOINTS
  6
CONTINUOUS
 62
     0
 10
2179.959554
 20
4519.0330809999996
 30
0.0
  0
POINT
  5
803E
  8
DEFPOINTS
  6
CONTINUOUS
 62
     0
 10
3002.2393729999999
 20
5234.6600206924277
 30
0.0
  0
POINT
  5
803F
  8
DEFPOINTS
  6
CONTINUOUS
 62
     0
 10
1599.353431
 20
5234.6600206924277
 30
0.0
  0
ENDBLK
  5
7DF3
  8
0
  0
BLOCK
  8
0
  2
*D17
 70
     1
 10
0.0
 20
0.0
 30
0.0
  3
*D17
  1

  0
LINE
  5
8040
  8
3
  6
CONTINUOUS
 62
     0
 10
3830.2108750000002
 20
4539.0330810000014
 30
0.0
 11
3830.2108750000002
 21
5482.5079750000004
 31
0.0
  0
LINE
  5
8041
  8
3
  6
CONTINUOUS
 62
     0
 10
3082.2393729999999
 20
5442.5079750000014
 30
0.0
 11
3750.2108750000002
 21
5442.5079750000014
 31
0.0
  0
INSERT
  5
8042
  8
3
  6
CONTINUOUS
 62
     0
  2
_OPEN
 10
3002.2393729999999
 20
5442.5079750000014
 30
0.0
 41
80.0
 42
80.0
 43
80.0
 50
180.0
  0
INSERT
  5
8043
  8
3
  6
CONTINUOUS
 62
     0
  2
_OPEN
 10
3830.2108750000002
 20
5442.5079750000014
 30
0.0
 41
80.0
 42
80.0
 43
80.0
  0
TEXT
  8
3
  40
120
  5
8065
  62
0
  72
0
  71
0
 10
3176.23
 20
5330.11
 30
0.000000
  1
828
  0
POINT
  5
8045
  8
DEFPOINTS
  6
CONTINUOUS
 62
     0
 10
3002.2393729999999
 20
5322.7135931441308
 30
0.0
  0
POINT
  5
8046
  8
DEFPOINTS
  6
CONTINUOUS
 62
     0
 10
3830.2108750000002
 20
4519.0330809999996
 30
0.0
  0
POINT
  5
8047
  8
DEFPOINTS
  6
CONTINUOUS
 62
     0
 10
3830.2108750000002
 20
5442.5079750000014
 30
0.0
  0
ENDBLK
  5
7E27
  8
0
  0
BLOCK
  8
0
  2
*D18
 70
     1
 10
0.0
 20
0.0
 30
0.0
  3
*D18
  1

  0
LINE
  5
8048
  8
3
 62
     0
 10
2272.2393729999999
 20
4637.0330810000014
 30
0.0
 11
2272.2393729999999
 21
5689.5616591828293
 31
0.0
  0
LINE
  5
8049
  8
3
 62
     0
 10
4302.2393729999994
 20
3449.033081
 30
0.0
 11
4302.2393729999994
 21
5689.5616591828293
 31
0.0
  0
LINE
  5
804A
  8
3
 62
     0
 10
2352.2393729999999
 20
5649.5616591828293
 30
0.0
 11
4222.2393729999994
 21
5649.5616591828293
 31
0.0
  0
INSERT
  5
804B
  8
3
 62
     0
  2
_OPEN
 10
2272.2393729999999
 20
5649.5616591828293
 30
0.0
 41
80.0
 42
80.0
 43
80.0
 50
180.0
  0
INSERT
  5
804C
  8
3
 62
     0
  2
_OPEN
 10
4302.2393729999994
 20
5649.5616591828293
 30
0.0
 41
80.0
 42
80.0
 43
80.0
  0
TEXT
  8
3
  40
120
  5
8066
  62
0
  72
0
  71
0
 10
3012.18
 20
5537.16
 30
0.000000
  1
2030
  0
POINT
  5
804E
  8
DEFPOINTS
 62
     0
 10
2272.2393729999999
 20
4617.0330809999996
 30
0.0
  0
POINT
  5
804F
  8
DEFPOINTS
 62
     0
 10
4302.2393729999994
 20
3429.033081
 30
0.0
  0
POINT
  5
8050
  8
DEFPOINTS
 62
     0
 10
4302.2393729999994
 20
5649.5616591828293
 30
0.0
  0
ENDBLK
  5
7E0C
  8
0
  0
BLOCK
  8
0
  2
_DOT
 70
     0
 10
0.0
 20
0.0
 30
0.0
  3
_DOT
  1

  0
POLYLINE
  5
7F57
  8
0
  6
BYBLOCK
 62
     0
 66
     1
 10
0.0
 20
0.0
 30
0.0
 70
     1
 40
0.5
 41
0.5
  0
VERTEX
  5
8051
  8
0
  6
BYBLOCK
 62
     0
 10
-0.25
 20
0.0
 30
0.0
 42
1.0
  0
VERTEX
  5
8052
  8
0
  6
BYBLOCK
 62
     0
 10
0.25
 20
0.0
 30
0.0
 42
1.0
  0
SEQEND
  5
8053
  8
0
  6
BYBLOCK
 62
     0
  0
LINE
  5
7F58
  8
0
  6
BYBLOCK
 62
     0
 10
-0.5
 20
0.0
 30
0.0
 11
-1.0
 21
0.0
 31
0.0
  0
ENDBLK
  5
7F5A
  8
0
  0
ENDSEC
  0
SECTION
  2
ENTITIES
  0
POLYLINE
  5
7AE7
  8
1
  6
CONTINUOUS
 66
     1
 10
0.0
 20
0.0
 30
0.0
  0
VERTEX
  5
7F7C
  8
1
  6
CONTINUOUS
 10
4302.2393729999994
 20
7089.3193844288326
 30
0.0
  0
VERTEX
  5
7F7D
  8
1
  6
CONTINUOUS
 10
4208.389373
 20
7089.3193844288326
 30
0.0
  0
SEQEND
  5
7F7E
  8
1
  6
CONTINUOUS
  0
LINE
  5
7AEB
  8
1
  6
CONTINUOUS
 10
4302.2393729999994
 20
3429.033081
 30
0.0
 11
2352.2393729999999
 21
3429.033081
 31
0.0
  0
LINE
  5
7AEC
  8
1
  6
CONTINUOUS
 10
4302.2393729999994
 20
3304.033081
 30
0.0
 11
2352.2393729999999
 21
3304.033081
 31
0.0
  0
LINE
  5
7AED
  8
1
  6
CONTINUOUS
 10
4302.2393729999994
 20
8114.3193844288326
 30
0.0
 11
2352.2393729999999
 21
8114.3193844288326
 31
0.0
  0
POLYLINE
  5
7AEE
  8
1
  6
CONTINUOUS
 66
     1
 10
0.0
 20
0.0
 30
0.0
 70
     1
  0
VERTEX
  5
7F7F
  8
1
  6
CONTINUOUS
 10
4302.2393729999994
 20
3263.033081
 30
0.0
  0
VERTEX
  5
7F80
  8
1
  6
CONTINUOUS
 10
2352.2393729999999
 20
3263.033081
 30
0.0
  0
VERTEX
  5
7F81
  8
1
  6
CONTINUOUS
 10
2352.2393729999999
 20
3138.033081
 30
0.0
  0
VERTEX
  5
7F82
  8
1
  6
CONTINUOUS
 10
4302.2393729999994
 20
3138.033081
 30
0.0
  0
SEQEND
  5
7F83
  8
1
  6
CONTINUOUS
  0
LINE
  5
7AF4
  8
1
  6
CONTINUOUS
 10
3990.0648270000002
 20
3530.4490580000002
 30
0.0
 11
2886.2647550000002
 21
4365.7862290000003
 31
0.0
  0
LINE
  5
7AF5
  8
1
  6
CONTINUOUS
 10
3232.2393729999999
 20
5029.0330810000014
 30
0.0
 11
2462.2393729999999
 21
5029.0330810000014
 31
0.0
  0
ARC
  5
7AF6
  8
1
  6
CONTINUOUS
 10
2937.2393729999999
 20
4454.0330810000014
 30
0.0
 40
895.0
 50
274.16481299999992
 51
4.1648129999999988
  0
ARC
  5
7AF7
  8
1
  6
CONTINUOUS
 10
3058.2393729999999
 20
4463.0330809999996
 30
0.0
 40
774.0
 50
4.149055999999999
 51
94.149056000000002
  0
CIRCLE
  5
7AFB
  8
1
  6
CONTINUOUS
 10
3002.2393729999999
 20
4519.0330809999996
 30
0.0
 40
192.18405100000001
  0
LINE
  5
7AFC
  8
2
  6
CENTER
 10
6699.4441719999986
 20
4519.0330809999996
 30
0.0
 11
5444.9941209999997
 21
4519.0330809999996
 31
0.0
  0
ARC
  5
7AFD
  8
1
  6
CONTINUOUS
 10
3045.2393729999999
 20
4562.0330809999996
 30
0.0
 40
674.0
 50
93.657853000000017
 51
179.57495299999991
  0
LINE
  5
7AFF
  8
1
  6
CONTINUOUS
 10
2462.2393729999999
 20
5029.0330810000014
 30
0.0
 11
2462.2393729999999
 21
3429.033081
 31
0.0
  0
LINE
  5
7B00
  8
1
  6
CONTINUOUS
 10
3002.2393729999999
 20
3561.3965360000002
 30
0.0
 11
2272.2393729999999
 21
3537.033081
 31
0.0
  0
LINE
  5
7B01
  8
1
  6
CONTINUOUS
 10
2272.2393729999999
 20
3487.0330809999991
 30
0.0
 11
2272.2393729999999
 21
4617.0330809999996
 31
0.0
  0
LINE
  5
7B02
  8
1
  6
CONTINUOUS
 10
2322.239372999999
 20
3538.70181
 30
0.0
 11
2322.239372999999
 21
4567.0330809999996
 31
0.0
  0
LINE
  5
7B03
  8
1
  6
CONTINUOUS
 10
2371.2579190000001
 20
4567.0330809999996
 30
0.0
 11
2272.2393729999999
 21
4567.0330809999996
 31
0.0
  0
LINE
  5
7B04
  8
2
  6
CENTER
 10
3002.2393729999999
 20
3017.2856980000001
 30
0.0
 11
3002.2393729999999
 21
5322.7135931441308
 31
0.0
  0
LINE
  5
7B05
  8
1
  6
CONTINUOUS
 10
4232.2393729999994
 20
3829.033081
 30
0.0
 11
3232.2393729999999
 21
5029.0330810000014
 31
0.0
  0
LINE
  5
7B07
  8
1
  6
CONTINUOUS
 10
4162.9181420000004
 20
3740.6229759999992
 30
0.0
 11
3130.2161740000001
 21
4662.408977000001
 31
0.0
  0
ARC
  5
7B08
  8
1
  6
CONTINUOUS
 10
4072.2393729999999
 20
3639.033081
 30
0.0
 40
162.0
 50
324.972283
 51
215.02771699999991
  0
CIRCLE
  5
7B09
  8
1
  6
CONTINUOUS
 10
4072.2393729999999
 20
3639.033081
 30
0.0
 40
136.1732199999999
  0
POLYLINE
  5
7B0A
  8
1
  6
CONTINUOUS
 66
     1
 10
0.0
 20
0.0
 30
0.0
  0
VERTEX
  5
7F84
  8
1
  6
CONTINUOUS
 10
4269.7393729999994
 20
3429.033081
 30
0.0
  0
VERTEX
  5
7F85
  8
1
  6
CONTINUOUS
 10
3874.7393729999999
 20
3429.033081
 30
0.0
  0
VERTEX
  5
7F86
  8
1
  6
CONTINUOUS
 10
3884.7393729999999
 20
3479.033081
 30
0.0
  0
VERTEX
  5
7F87
  8
1
  6
CONTINUOUS
 10
3918.2393729999999
 20
3479.033081
 30
0.0
  0
SEQEND
  5
7F88
  8
1
  6
CONTINUOUS
  0
LINE
  5
7B10
  8
2
  6
CENTER
 10
4213.412593
 20
3639.033081
 30
0.0
 11
3931.0661530000002
 21
3639.033081
 31
0.0
  0
LINE
  5
7B11
  8
1
  6
CONTINUOUS
 10
3918.2393729999999
 20
3497.033081
 30
0.0
 11
3939.5817069999998
 21
3546.0495139999998
 31
0.0
  0
LINE
  5
7B12
  8
1
  6
CONTINUOUS
 10
3918.2393729999999
 20
3479.033081
 30
0.0
 11
3918.2393729999999
 21
3497.033081
 31
0.0
  0
LINE
  5
7B13
  8
1
  6
CONTINUOUS
 10
4226.2393729999994
 20
3479.033081
 30
0.0
 11
4226.2393729999994
 21
3497.033081
 31
0.0
  0
LINE
  5
7B14
  8
1
  6
CONTINUOUS
 10
4226.2393729999994
 20
3497.033081
 30
0.0
 11
4204.8970390000013
 21
3546.0495139999998
 31
0.0
  0
POLYLINE
  5
7B15
  8
1
  6
CONTINUOUS
 66
     1
 10
0.0
 20
0.0
 30
0.0
  0
VERTEX
  5
7F89
  8
1
  6
CONTINUOUS
 10
4226.2393729999994
 20
3479.033081
 30
0.0
  0
VERTEX
  5
7F8A
  8
1
  6
CONTINUOUS
 10
4259.7393729999994
 20
3479.033081
 30
0.0
  0
VERTEX
  5
7F8B
  8
1
  6
CONTINUOUS
 10
4269.7393729999994
 20
3429.033081
 30
0.0
  0
SEQEND
  5
7F8C
  8
1
  6
CONTINUOUS
  0
LINE
  5
7B1A
  8
2
  6
CENTER
 10
4072.2393729999999
 20
3497.85986
 30
0.0
 11
4072.2393729999999
 21
3780.2063009999988
 31
0.0
  0
LINE
  5
7B1B
  8
1
  6
CONTINUOUS
 10
4232.2393729999994
 20
3829.033081
 30
0.0
 11
4232.2393729999994
 21
3429.033081
 31
0.0
  0
LINE
  5
7B1C
  8
1
  6
CONTINUOUS
 10
3830.239372999999
 20
8046.8193844288317
 30
0.0
 11
2272.2393729999999
 21
8046.8193844288317
 31
0.0
  0
LINE
  5
7B1D
  8
1
  6
CONTINUOUS
 10
3830.239372999999
 20
7296.8193844288317
 30
0.0
 11
2272.2393729999999
 21
7296.8193844288317
 31
0.0
  0
POLYLINE
  5
7B1E
  8
1
  6
CONTINUOUS
 66
     1
 10
0.0
 20
0.0
 30
0.0
 70
     1
  0
VERTEX
  5
7F8D
  8
1
  6
CONTINUOUS
 10
3194.4393730000002
 20
7174.8193844288326
 30
0.0
  0
VERTEX
  5
7F8E
  8
1
  6
CONTINUOUS
 10
3194.4393730000002
 20
7073.8193844288326
 30
0.0
  0
VERTEX
  5
7F8F
  8
1
  6
CONTINUOUS
 10
2810.0393730000001
 20
7073.8193844288326
 30
0.0
  0
VERTEX
  5
7F90
  8
1
  6
CONTINUOUS
 10
2810.0393730000001
 20
7174.8193844288326
 30
0.0
  0
SEQEND
  5
7F91
  8
1
  6
CONTINUOUS
  0
POLYLINE
  5
7B24
  8
1
  6
CONTINUOUS
 66
     1
 10
0.0
 20
0.0
 30
0.0
 70
     1
  0
VERTEX
  5
7F92
  8
1
  6
CONTINUOUS
 10
4232.2393729999994
 20
7225.8193844288326
 30
0.0
  0
VERTEX
  5
7F93
  8
1
  6
CONTINUOUS
 10
4232.2393729999994
 20
7045.8193844288326
 30
0.0
  0
VERTEX
  5
7F94
  8
1
  6
CONTINUOUS
 10
2462.2393729999999
 20
7045.8193844288326
 30
0.0
  0
VERTEX
  5
7F95
  8
1
  6
CONTINUOUS
 10
2462.2393729999999
 20
7225.8193844288326
 30
0.0
  0
SEQEND
  5
7F96
  8
1
  6
CONTINUOUS
  0
LINE
  5
7B2A
  8
1
  6
CONTINUOUS
 10
2810.0393730000001
 20
7089.3193844288326
 30
0.0
 11
2352.2393729999999
 21
7089.3193844288326
 31
0.0
  0
LINE
  5
7B2B
  8
1
  6
CONTINUOUS
 10
2272.2393729999999
 20
7246.8193844288317
 30
0.0
 11
2272.2393729999999
 21
8096.8193844288307
 31
0.0
  0
LINE
  5
7B2C
  8
1
  6
CONTINUOUS
 10
2322.239372999999
 20
7296.8193844288317
 30
0.0
 11
2322.239372999999
 21
8046.8193844288317
 31
0.0
  0
LINE
  5
7B2D
  8
1
  6
CONTINUOUS
 10
2352.2393729999999
 20
7089.3193844288326
 30
0.0
 11
2352.2393729999999
 21
7296.8193844288317
 31
0.0
  0
LINE
  5
7B2E
  8
1
  6
CONTINUOUS
 10
2352.2393729999999
 20
8046.8193844288317
 30
0.0
 11
2352.2393729999999
 21
8114.3193844288326
 31
0.0
  0
LINE
  5
7B2F
  8
1
  6
CONTINUOUS
 10
3029.739372999999
 20
7174.8193844288326
 30
0.0
 11
3029.739372999999
 21
7296.8193844288317
 31
0.0
  0
LINE
  5
7B30
  8
1
  6
CONTINUOUS
 10
2974.7393729999999
 20
7174.8193844288326
 30
0.0
 11
2974.7393729999999
 21
7296.8193844288317
 31
0.0
  0
LINE
  5
7B31
  8
1
  6
CONTINUOUS
 10
3936.0893729999998
 20
7089.3193844288326
 30
0.0
 11
3194.4393730000002
 21
7089.3193844288326
 31
0.0
  0
POLYLINE
  5
7B32
  8
1
  6
CONTINUOUS
 66
     1
 10
0.0
 20
0.0
 30
0.0
 70
     1
  0
VERTEX
  5
7F97
  8
1
  6
CONTINUOUS
 10
4234.2393730000003
 20
7770.9411044288327
 30
0.0
  0
VERTEX
  5
7F98
  8
1
  6
CONTINUOUS
 10
3910.2393729999999
 20
7770.9411044288327
 30
0.0
  0
VERTEX
  5
7F99
  8
1
  6
CONTINUOUS
 10
3910.2393729999999
 20
7296.8193844288317
 30
0.0
  0
VERTEX
  5
7F9A
  8
1
  6
CONTINUOUS
 10
4234.2393730000003
 20
7296.8193844288317
 30
0.0
  0
SEQEND
  5
7F9B
  8
1
  6
CONTINUOUS
  0
LINE
  5
7B38
  8
1
  6
CONTINUOUS
 10
3830.239372999999
 20
7296.8193844288317
 30
0.0
 11
3830.239372999999
 21
8046.8193844288317
 31
0.0
  0
POLYLINE
  5
7B39
  8
1
  6
CONTINUOUS
 66
     1
 10
0.0
 20
0.0
 30
0.0
 70
     1
  0
VERTEX
  5
7F9C
  8
1
  6
CONTINUOUS
 10
3936.0893729999998
 20
7174.8193844288326
 30
0.0
  0
VERTEX
  5
7F9D
  8
1
  6
CONTINUOUS
 10
3936.0893729999998
 20
7073.8193844288326
 30
0.0
  0
VERTEX
  5
7F9E
  8
1
  6
CONTINUOUS
 10
4208.389373
 20
7073.8193844288326
 30
0.0
  0
VERTEX
  5
7F9F
  8
1
  6
CONTINUOUS
 10
4208.389373
 20
7174.8193844288326
 30
0.0
  0
SEQEND
  5
7FA0
  8
1
  6
CONTINUOUS
  0
LINE
  5
7B3F
  8
1
  6
CONTINUOUS
 10
4051.2393729999999
 20
7174.8193844288326
 30
0.0
 11
4051.2393729999999
 21
7296.8193844288317
 31
0.0
  0
LINE
  5
7B40
  8
1
  6
CONTINUOUS
 10
4093.2393729999999
 20
7174.8193844288326
 30
0.0
 11
4093.2393729999999
 21
7296.8193844288317
 31
0.0
  0
LINE
  5
7B41
  8
1
  6
CONTINUOUS
 10
3910.2393729999999
 20
7616.6827004288334
 30
0.0
 11
3910.2393729999999
 21
7679.3786614288338
 31
0.0
  0
POLYLINE
  5
7B42
  8
1
  6
CONTINUOUS
 66
     1
 10
0.0
 20
0.0
 30
0.0
 70
     1
  0
VERTEX
  5
7FA1
  8
1
  6
CONTINUOUS
 10
5653.626436999999
 20
3138.033081
 30
0.0
  0
VERTEX
  5
7FA2
  8
1
  6
CONTINUOUS
 10
5653.626436999999
 20
3263.033081
 30
0.0
  0
VERTEX
  5
7FA3
  8
1
  6
CONTINUOUS
 10
6677.6264369999999
 20
3263.033081
 30
0.0
  0
VERTEX
  5
7FA4
  8
1
  6
CONTINUOUS
 10
6677.6264369999999
 20
3138.033081
 30
0.0
  0
SEQEND
  5
7FA5
  8
1
  6
CONTINUOUS
  0
LINE
  5
7B48
  8
1
  6
CONTINUOUS
 10
5653.626436999999
 20
3429.033081
 30
0.0
 11
6677.6264369999999
 21
3429.033081
 31
0.0
  0
LINE
  5
7B49
  8
1
  6
CONTINUOUS
 10
5653.626436999999
 20
3304.033081
 30
0.0
 11
6677.6264369999999
 21
3304.033081
 31
0.0
  0
LINE
  5
7B4A
  8
1
  6
CONTINUOUS
 10
5861.1264369999999
 20
5235.0330809999996
 30
0.0
 11
6611.1264369999999
 21
5235.0330809999996
 31
0.0
  0
LINE
  5
7B4B
  8
1
  6
CONTINUOUS
 10
5861.1264369999999
 20
4567.0330809999996
 30
0.0
 11
6611.1264369999999
 21
4567.0330809999996
 31
0.0
  0
LINE
  5
7B4C
  8
1
  6
CONTINUOUS
 10
5861.1264369999999
 20
3537.033081
 30
0.0
 11
6611.1264369999999
 21
3537.033081
 31
0.0
  0
LINE
  5
7B4D
  8
1
  6
CONTINUOUS
 10
5861.1264369999999
 20
4567.0330809999996
 30
0.0
 11
6611.1264369999999
 21
3537.033081
 31
0.0
  0
LINE
  5
7B4E
  8
1
  6
CONTINUOUS
 10
6611.1264369999999
 20
4567.0330809999996
 30
0.0
 11
5861.1264369999999
 21
3537.033081
 31
0.0
  0
LINE
  5
7B69
  8
1
  6
CONTINUOUS
 10
4302.2393729999994
 20
3429.033081
 30
0.0
 11
4302.2393729999994
 21
3304.033081
 31
0.0
  0
LINE
  5
7B81
  8
1
  6
CONTINUOUS
 10
5790.1264369999999
 20
3429.033081
 30
0.0
 11
5790.1264369999999
 21
5029.0330810000014
 31
0.0
  0
LINE
  5
7B82
  8
1
  6
CONTINUOUS
 10
5576.1264369999999
 20
3429.033081
 30
0.0
 11
5576.1264369999999
 21
5029.0330810000014
 31
0.0
  0
LINE
  5
7B83
  8
1
  6
CONTINUOUS
 10
5861.1264369999999
 20
3429.033081
 30
0.0
 11
5861.1264369999999
 21
5235.0330809999996
 31
0.0
  0
POLYLINE
  5
7B84
  8
1
  6
CONTINUOUS
 66
     1
 10
0.0
 20
0.0
 30
0.0
 70
     1
  0
VERTEX
  5
7FA6
  8
1
  6
CONTINUOUS
 10
5638.1264369999999
 20
3775.2063010000002
 30
0.0
  0
VERTEX
  5
7FA7
  8
1
  6
CONTINUOUS
 10
5638.1264369999999
 20
3502.85986
 30
0.0
  0
VERTEX
  5
7FA8
  8
1
  6
CONTINUOUS
 10
5739.1264369999999
 20
3502.85986
 30
0.0
  0
VERTEX
  5
7FA9
  8
1
  6
CONTINUOUS
 10
5739.1264369999999
 20
3775.2063010000002
 30
0.0
  0
SEQEND
  5
7FAA
  8
1
  6
CONTINUOUS
  0
LINE
  5
7B8A
  8
1
  6
CONTINUOUS
 10
5653.626436999999
 20
3429.033081
 30
0.0
 11
5576.1264369999999
 21
3429.033081
 31
0.0
  0
LINE
  5
7B8B
  8
1
  6
CONTINUOUS
 10
5739.1264369999999
 20
3618.033081
 30
0.0
 11
5861.1264369999999
 21
3618.033081
 31
0.0
  0
LINE
  5
7B8C
  8
1
  6
CONTINUOUS
 10
5739.1264369999999
 20
3660.033081
 30
0.0
 11
5861.1264369999999
 21
3660.033081
 31
0.0
  0
LINE
  5
7B8D
  8
1
  6
CONTINUOUS
 10
5653.626436999999
 20
3304.033081
 30
0.0
 11
5653.626436999999
 21
3429.033081
 31
0.0
  0
LINE
  5
7B8E
  8
1
  6
CONTINUOUS
 10
5739.1264369999999
 20
4491.5330809999996
 30
0.0
 11
5861.1264369999999
 21
4491.5330809999996
 31
0.0
  0
LINE
  5
7B8F
  8
1
  6
CONTINUOUS
 10
5739.1264369999999
 20
4546.5330809999996
 30
0.0
 11
5861.1264369999999
 21
4546.5330809999996
 31
0.0
  0
POLYLINE
  5
7B90
  8
1
  6
CONTINUOUS
 66
     1
 10
0.0
 20
0.0
 30
0.0
 70
     1
  0
VERTEX
  5
7FAB
  8
1
  6
CONTINUOUS
 10
5638.1264369999999
 20
4326.8490299999994
 30
0.0
  0
VERTEX
  5
7FAC
  8
1
  6
CONTINUOUS
 10
5739.1264369999999
 20
4326.8490299999994
 30
0.0
  0
VERTEX
  5
7FAD
  8
1
  6
CONTINUOUS
 10
5739.1264369999999
 20
4711.2171310000003
 30
0.0
  0
VERTEX
  5
7FAE
  8
1
  6
CONTINUOUS
 10
5638.1264369999999
 20
4711.2171310000003
 30
0.0
  0
SEQEND
  5
7FAF
  8
1
  6
CONTINUOUS
  0
LINE
  5
7B96
  8
1
  6
CONTINUOUS
 10
5576.1264369999999
 20
5029.0330810000014
 30
0.0
 11
5790.1264369999999
 21
5029.0330810000014
 31
0.0
  0
LINE
  5
7BB0
  8
1
  6
CONTINUOUS
 10
4302.2393729999994
 20
7089.3193844288326
 30
0.0
 11
4302.2393729999994
 21
8114.3193844288326
 31
0.0
  0
LINE
  5
7BC4
  8
1
  6
CONTINUOUS
 10
6611.1264369999999
 20
3429.033081
 30
0.0
 11
6611.1264369999999
 21
5235.0330809999996
 31
0.0
  0
LINE
  5
7BC5
  8
1
  6
CONTINUOUS
 10
6677.6264369999999
 20
3304.033081
 30
0.0
 11
6677.6264369999999
 21
3429.033081
 31
0.0
  0
LINE
  5
7BC6
  8
2
  6
CENTER
 10
6236.1264369999999
 20
5419.6677540000001
 30
0.0
 11
6236.1264369999999
 21
3011.2252640000002
 31
0.0
  0
LINE
  5
7BC7
  8
2
  6
CENTER
 10
4400.1796369999993
 20
7671.8193844288317
 30
0.0
 11
2112.3338140000001
 21
7671.8193844288317
 31
0.0
  0
LINE
  5
7BC8
  8
2
  6
CENTER
 10
3002.2393729999999
 20
6922.357964428832
 30
0.0
 11
3002.2393729999999
 21
8282.0436964288347
 31
0.0
  0
LINE
  5
7BC9
  8
2
  6
CENTER
 10
4061.161842999999
 20
4519.0330809999996
 30
0.0
 11
2179.959554
 21
4519.0330809999996
 31
0.0
  0
LINE
  5
7BCA
  8
4
  6
CONTINUOUS
 10
7400.0
 20
2000.0
 30
0.0
 11
7400.0
 21
1200.0
 31
0.0
  0
LINE
  5
7BCB
  8
4
  6
CONTINUOUS
 10
4600.0
 20
2000.0
 30
0.0
 11
4600.0
 21
1200.0
 31
0.0
  0
LINE
  5
7BCC
  8
4
  6
CONTINUOUS
 10
2600.0
 20
2000.0
 30
0.0
 11
2600.0
 21
1200.0
 31
0.0
  0
LINE
  5
7BCF
  8
4
  6
CONTINUOUS
 10
2600.0
 20
1200.0
 30
0.0
 11
7400.0
 21
1200.0
 31
0.0
  0
LINE
  5
7BD0
  8
4
  6
CONTINUOUS
 10
2600.0
 20
1600.0
 30
0.0
 11
7400.0
 21
1600.0
 31
0.0
  0
TEXT
  5
7BD1
  8
4
  6
CONTINUOUS
 10
2754.008323
 20
1726.1721030000001
 30
0.0
 40
200.0
  1
機器名称
  0
TEXT
  5
7BD2
  8
4
  6
CONTINUOUS
 10
2745.032424
 20
1286.580627
 30
0.0
 40
200.0
  1
機器型番
  0
TEXT
  5
7BD3
  8
4
  6
CONTINUOUS
 10
4710.7149820000004
 20
1690.2870760000001
 30
0.0
 40
200.0
  1
ミツヤ多翼送風機
  0
TEXT
  5
7BD4
  8
4
  6
CONTINUOUS
 10
4746.6179819999998
 20
1268.6383370000001
 30
0.0
 40
200.0
  1
MFE#6-4
  0
TEXT
  5
7BD6
  8
4
  6
CONTINUOUS
 10
3004.4633399999998
 20
9533.715365
 30
0.0
 40
216.0
  1
床置防振ベット
  0
TEXT
  5
7BD7
  8
4
  6
CONTINUOUS
 10
1264.6703729999999
 20
10135.523905
 30
0.0
 40
288.0
  1
ベルト駆動式片吸込両持排煙ファン
  0
LINE
  5
7BD8
  8
4
  6
CONTINUOUS
 10
1000.0
 20
9877.6350170000005
 30
0.0
 11
7400.0
 21
9877.6350170000005
 31
0.0
  0
LINE
  5
7BD9
  8
4
  6
CONTINUOUS
 10
1000.0
 20
10677.635017000001
 30
0.0
 11
7400.0
 21
10677.635017000001
 31
0.0
  0
LINE
  5
7BDA
  8
4
  6
CONTINUOUS
 10
2600.0
 20
2000.0
 30
0.0
 11
7400.0
 21
2000.0
 31
0.0
  0
LINE
  5
7BDB
  8
4
  6
CONTINUOUS
 10
1000.0
 20
10677.635017000001
 30
0.0
 11
1000.0
 21
9877.6350170000005
 31
0.0
  0
TEXT
  5
7BDC
  8
4
  6
CONTINUOUS
 10
1261.0280110000001
 20
9529.2779099999989
 30
0.0
 40
216.0
  1
右回転左横向
  0
TEXT
  5
7BDD
  8
4
  6
CONTINUOUS
 10
5875.8782369999999
 20
10824.244326
 30
0.0
 40
224.0
  1
No.
  0
TEXT
  5
7BDE
  8
4
  6
CONTINUOUS
 10
5245.1842500000012
 20
9533.715365
 30
0.0
 40
216.0
  1
縮尺：1/40
  0
LINE
  5
7BDF
  8
4
  6
CONTINUOUS
 10
7400.0
 20
10677.635017000001
 30
0.0
 11
7400.0
 21
9877.6350170000005
 31
0.0
  0
LINE
  5
7BE1
  8
4
  6
CONTINUOUS
 10
5762.4696889999996
 20
10725.054333
 30
0.0
 11
5762.4696889999996
 21
11146.609046
 31
0.0
  0
LINE
  5
7BE2
  8
4
  6
CONTINUOUS
 10
5762.4696889999996
 20
11146.609046
 30
0.0
 11
7400.0
 21
11146.609046
 31
0.0
  0
LINE
  5
7BE3
  8
4
  6
CONTINUOUS
 10
7400.0
 20
11146.609046
 30
0.0
 11
7400.0
 21
10725.054333
 31
0.0
  0
LINE
  5
7BE4
  8
4
  6
CONTINUOUS
 10
7400.0
 20
10725.054333
 30
0.0
 11
5762.4696889999996
 21
10725.054333
 31
0.0
  0
DIMENSION
  5
7BFC
  8
3
  6
CONTINUOUS
  2
*D1
 10
2067.0007869999999
 20
3537.033081
 30
0.0
 11
2067.0007869999999
 21
3995.1792030000001
 31
0.0
 70
   128
 13
2272.2393729999999
 23
4567.0330809999996
 33
0.0
 14
2272.2393729999999
 24
3537.033081
 34
0.0
 50
90.0
1001
ACAD
1000
DSTYLE
1002
{
1070
   287
1070
     3
1070
   287
1070
     3
1070
    40
1040
40.0
1070
   143
1040
0.039
1070
   172
1070
     1
1070
   271
1070
     0
1070
   279
1070
     0
1070
   288
1070
     1
1002
}
  0
DIMENSION
  5
7C09
  8
3
  6
CONTINUOUS
  2
*D2
 10
1848.2625069999999
 20
3537.033081
 30
0.0
 11
1848.2625069999999
 21
4032.8700639999988
 31
0.0
 70
   128
 13
2179.959554
 23
4519.0330809999996
 33
0.0
 14
2272.2393729999999
 24
3537.033081
 34
0.0
 50
90.0
1001
ACAD
1000
DSTYLE
1002
{
1070
   287
1070
     3
1070
   287
1070
     3
1070
    40
1040
40.0
1070
   143
1040
0.039
1070
   172
1070
     1
1070
   271
1070
     0
1070
   279
1070
     0
1070
   288
1070
     1
1002
}
  0
DIMENSION
  5
7C2D
  8
3
  6
CONTINUOUS
  2
*D3
 10
1599.353431
 20
3304.033081
 30
0.0
 11
1499.3534309999991
 21
3911.5330810000009
 31
0.0
 70
     0
 13
2179.959554
 23
4519.0330809999996
 33
0.0
 14
2352.2393729999999
 24
3304.033081
 34
0.0
 50
90.0
1001
ACAD
1000
DSTYLE
1002
{
1070
   287
1070
     3
1070
   287
1070
     3
1070
    40
1040
40.0
1070
   143
1040
0.039
1070
   172
1070
     1
1070
   271
1070
     0
1070
   279
1070
     0
1070
   288
1070
     1
1002
}
  0
DIMENSION
  5
7C3D
  8
3
  6
CONTINUOUS
  2
*D4
 10
1596.8905150000001
 20
3138.033081
 30
0.0
 11
1596.8905150000001
 21
2798.033081
 31
0.0
 70
   128
 13
2352.2393729999999
 23
3304.033081
 33
0.0
 14
2352.2393729999999
 24
3138.033081
 34
0.0
 50
90.0
1001
ACAD
1000
DSTYLE
1002
{
1070
   287
1070
     3
1070
   287
1070
     3
1070
    40
1040
40.0
1070
   143
1040
0.039
1070
   172
1070
     1
1070
   271
1070
     0
1070
   279
1070
     0
1070
   288
1070
     1
1002
}
  0
DIMENSION
  5
7C57
  8
3
  6
CONTINUOUS
  2
*D5
 10
3002.2393729999999
 20
2864.4536010000002
 30
0.0
 11
2677.9594550000002
 21
2864.4536010000002
 31
0.0
 70
   128
 13
2352.2393729999999
 23
3138.033081
 33
0.0
 14
3002.2393729999999
 24
3017.2856980000001
 34
0.0
1001
ACAD
1000
DSTYLE
1002
{
1070
   287
1070
     3
1070
   287
1070
     3
1070
    40
1040
40.0
1070
   143
1040
0.039
1070
   172
1070
     1
1070
   271
1070
     0
1070
   279
1070
     0
1070
   288
1070
     1
1002
}
  0
DIMENSION
  5
7C63
  8
3
  6
CONTINUOUS
  2
*D6
 10
4302.2393729999994
 20
2864.4536010000002
 30
0.0
 11
3652.2393729999999
 21
2964.4536010000002
 31
0.0
 70
     0
 13
3002.2393729999999
 23
3017.2856980000001
 33
0.0
 14
4302.2393729999994
 24
3138.033081
 34
0.0
1001
ACAD
1000
DSTYLE
1002
{
1070
   287
1070
     4
1070
   287
1070
     4
1070
    40
1040
40.0
1070
    75
1070
     1
1070
   143
1040
0.039
1070
   172
1070
     1
1070
   271
1070
     0
1070
   279
1070
     1
1070
   288
1070
     1
1002
}
  0
DIMENSION
  5
7C70
  8
3
  6
CONTINUOUS
  2
*D7
 10
3002.2393729999999
 20
5442.5079750000014
 30
0.0
 11
2632.7032399999998
 21
5442.5079750000014
 31
0.0
 70
   128
 13
2272.2393729999999
 23
4617.0330809999996
 33
0.0
 14
3002.2393729999999
 24
5322.7135931441308
 34
0.0
1001
ACAD
1000
DSTYLE
1002
{
1070
   287
1070
     3
1070
   287
1070
     3
1070
    40
1040
40.0
1070
   143
1040
0.039
1070
   172
1070
     1
1070
   271
1070
     0
1070
   279
1070
     0
1070
   288
1070
     1
1002
}
  0
DIMENSION
  5
7C89
  8
3
  6
CONTINUOUS
  2
*D8
 10
6611.1264369999999
 20
5404.8171140000004
 30
0.0
 11
6246.8822339999997
 21
5404.8171140000004
 31
0.0
 70
   128
 13
5861.1264369999999
 23
5235.0330809999996
 33
0.0
 14
6611.1264369999999
 24
5235.0330809999996
 34
0.0
1001
ACAD
1000
DSTYLE
1002
{
1070
   287
1070
     3
1070
   287
1070
     3
1070
    40
1040
40.0
1070
   143
1040
0.039
1070
   172
1070
     1
1070
   271
1070
     0
1070
   279
1070
     0
1070
   288
1070
     1
1002
}
  0
LINE
  5
7C8A
  8
1
  6
CONTINUOUS
 10
6615.1264369999999
 20
3989.033081
 30
0.0
 11
6615.1264369999999
 21
5049.0330810000014
 31
0.0
  0
DIMENSION
  5
7C99
  8
3
  6
CONTINUOUS
  2
*D9
 10
6925.7251620000015
 20
3989.033081
 30
0.0
 11
6925.7251619999997
 21
4507.774805
 31
0.0
 70
   128
 13
6615.1264369999999
 23
5049.0330810000014
 33
0.0
 14
6615.1264369999999
 24
3989.033081
 34
0.0
 50
90.0
1001
ACAD
1000
DSTYLE
1002
{
1070
   287
1070
     3
1070
   287
1070
     3
1070
     3
1000
φ<>
1070
    40
1040
40.0
1070
   143
1040
0.039
1070
   172
1070
     1
1070
   271
1070
     0
1070
   279
1070
     0
1070
   288
1070
     1
1002
}
  0
DIMENSION
  5
7CC0
  8
3
  6
CONTINUOUS
  2
*D10
 10
6236.1264369999999
 20
2856.915446
 30
0.0
 11
5961.8407229999993
 21
2856.915446
 31
0.0
 70
   128
 13
5653.626436999999
 23
3138.033081
 33
0.0
 14
6236.1264369999999
 24
3011.2252640000002
 34
0.0
1001
ACAD
1000
DSTYLE
1002
{
1070
   287
1070
     3
1070
   287
1070
     3
1070
    40
1040
40.0
1070
   143
1040
0.039
1070
   172
1070
     1
1070
   271
1070
     0
1070
   279
1070
     0
1070
   288
1070
     1
1002
}
  0
DIMENSION
  5
7CCE
  8
3
  6
CONTINUOUS
  2
*D11
 10
6677.6264369999999
 20
2856.915446
 30
0.0
 11
6459.8987729999999
 21
2858.8123340000002
 31
0.0
 70
   128
 13
6236.1264369999999
 23
3011.2252640000002
 33
0.0
 14
6677.6264369999999
 24
3138.033081
 34
0.0
1001
ACAD
1000
DSTYLE
1002
{
1070
   287
1070
     4
1070
   287
1070
     4
1070
    40
1040
40.0
1070
    75
1070
     1
1070
   143
1040
0.039
1070
   172
1070
     1
1070
   271
1070
     0
1070
   279
1070
     1
1070
   288
1070
     1
1002
}
  0
DIMENSION
  5
7CFB
  8
3
  6
CONTINUOUS
  2
*D12
 10
4302.2393729999994
 20
8314.6157404288315
 30
0.0
 11
3296.4607909999991
 21
8314.6157404288315
 31
0.0
 70
   128
 13
2352.2393729999999
 23
8114.3193844288326
 33
0.0
 14
4302.2393729999994
 24
8114.3193844288326
 34
0.0
1001
ACAD
1000
DSTYLE
1002
{
1070
   287
1070
     3
1070
   287
1070
     3
1070
    40
1040
40.0
1070
   143
1040
0.039
1070
   172
1070
     1
1070
   271
1070
     0
1070
   279
1070
     0
1070
   288
1070
     1
1002
}
  0
DIMENSION
  5
7D08
  8
3
  6
CONTINUOUS
  2
*D13
 10
4586.2623860000012
 20
7089.3193844288326
 30
0.0
 11
4586.2623860000003
 21
7590.9513404288336
 31
0.0
 70
   128
 13
4302.2393729999994
 23
8114.3193844288326
 33
0.0
 14
4302.2393729999994
 24
7089.3193844288326
 34
0.0
 50
90.0
1001
ACAD
1000
DSTYLE
1002
{
1070
   287
1070
     3
1070
   287
1070
     3
1070
    40
1040
40.0
1070
   143
1040
0.039
1070
   172
1070
     1
1070
   271
1070
     0
1070
   279
1070
     0
1070
   288
1070
     1
1002
}
  0
DIMENSION
  5
7D4F
  8
3
  6
CONTINUOUS
  2
*D14
 10
6236.1264369999999
 20
5649.1777979999997
 30
0.0
 11
5944.6978655714283
 21
5649.1777979999997
 31
0.0
 70
   128
  1
MAX\P700
 13
5576.1264369999999
 23
5029.0330810000014
 33
0.0
 14
6236.1264369999999
 24
5589.8482100000001
 34
0.0
1001
ACAD
1000
DSTYLE
1002
{
1070
   287
1070
     3
1070
   287
1070
     3
1070
    40
1040
40.0
1070
   143
1040
0.039
1070
   172
1070
     1
1070
   271
1070
     0
1070
   279
1070
     0
1070
   288
1070
     1
1002
}
  0
DIMENSION
  5
7D5D
  8
3
  6
CONTINUOUS
  2
*D15
 10
6615.1264369999999
 20
5649.1777979999997
 30
0.0
 11
6428.2349990000002
 21
5651.4060509999999
 31
0.0
 70
   128
 13
6236.1264369999999
 23
5589.8482100000001
 33
0.0
 14
6615.1264369999999
 24
5049.0330810000014
 34
0.0
1001
ACAD
1000
DSTYLE
1002
{
1070
   287
1070
     4
1070
   287
1070
     4
1070
    40
1040
40.0
1070
    75
1070
     1
1070
   143
1040
0.039
1070
   172
1070
     1
1070
   271
1070
     0
1070
   279
1070
     1
1070
   288
1070
     1
1002
}
  0
DIMENSION
  5
7D99
  8
3
  6
CONTINUOUS
  2
*D16
 10
1599.353431
 20
5234.6600206924277
 30
0.0
 11
1499.3534309999991
 21
4876.846550846215
 31
0.0
 70
     0
 13
2179.959554
 23
4519.0330809999996
 33
0.0
 14
3002.2393729999999
 24
5234.6600206924277
 34
0.0
 50
90.0
1001
ACAD
1000
DSTYLE
1002
{
1070
   287
1070
     4
1070
   287
1070
     4
1070
    40
1040
40.0
1070
    75
1070
     1
1070
   143
1040
0.039
1070
   172
1070
     1
1070
   271
1070
     0
1070
   279
1070
     1
1070
   288
1070
     1
1002
}
  0
DIMENSION
  5
7DB2
  8
3
  6
CONTINUOUS
  2
*D17
 10
3830.2108750000002
 20
5442.5079750000014
 30
0.0
 11
3416.2251240000001
 21
5542.5079750000014
 31
0.0
 70
     0
 13
3002.2393729999999
 23
5322.7135931441308
 33
0.0
 14
3830.2108750000002
 24
4519.0330809999996
 34
0.0
1001
ACAD
1000
DSTYLE
1002
{
1070
   287
1070
     4
1070
   287
1070
     4
1070
    40
1040
40.0
1070
    75
1070
     1
1070
   143
1040
0.039
1070
   172
1070
     1
1070
   271
1070
     0
1070
   279
1070
     1
1070
   288
1070
     1
1002
}
  0
DIMENSION
  5
7E0D
  8
3
  2
*D18
 10
4302.2393729999994
 20
5649.5616591828293
 30
0.0
 11
3252.1793190469539
 21
5649.5616591828293
 31
0.0
 70
   128
 13
2272.2393729999999
 23
4617.0330809999996
 33
0.0
 14
4302.2393729999994
 24
3429.033081
 34
0.0
1001
ACAD
1000
DSTYLE
1002
{
1070
   287
1070
     3
1070
   287
1070
     3
1070
    40
1040
40.0
1070
   143
1040
0.039
1070
   172
1070
     1
1070
   271
1070
     0
1070
   279
1070
     0
1070
   288
1070
     1
1002
}
  0
LINE
  5
7F62
  8
1
 10
3627.2393730000008
 20
3429.033081
 30
0.0
 11
3627.2393729999999
 21
4679.0330810000014
 31
0.0
  0
LINE
  5
7F63
  8
1
  6
CONTINUOUS
 10
2377.2393729999999
 20
4679.0330810000014
 30
0.0
 11
3627.2393729999999
 21
4679.0330810000014
 31
0.0
  0
LINE
  5
7F64
  8
1
 10
2377.2393729999999
 20
3429.033081
 30
0.0
 11
2377.2393729999999
 21
4679.0330810000014
 31
0.0
  0
LINE
  5
7F6D
  8
1
 10
2352.2393729999999
 20
3429.033081
 30
0.0
 11
2352.2393729999999
 21
3304.033081
 31
0.0
  0
ENDSEC
  0
EOF
