  0
SECTION
  2
HEADER
  9
$ACADVER
  1
AC1009
  9
$INSBASE
 10
0.0
 20
0.0
 30
0.0
  9
$EXTMIN
 10
1000.0
 20
1200.0
 30
0.0
  9
$EXTMAX
 10
7400.0
 20
11146.609039999999
 30
0.0
  9
$LIMMIN
 10
0.0
 20
0.0
  9
$LIMMAX
 10
297.0
 20
210.0
  9
$ORTHOMODE
 70
     0
  9
$REGENMODE
 70
     1
  9
$FILLMODE
 70
     0
  9
$QTEXTMODE
 70
     0
  9
$MIRRTEXT
 70
     1
  9
$DRAGMODE
 70
     2
  9
$LTSCALE
 40
100.0
  9
$OSMODE
 70
    37
  9
$ATTMODE
 70
     1
  9
$TEXTSIZE
 40
180.0
  9
$TRACEWID
 40
0.05
  9
$TEXTSTYLE
  7
STANDARD
  9
$CLAYER
  8
3
  9
$CELTYPE
  6
BYLAYER
  9
$CECOLOR
 62
   256
  9
$DIMSCALE
 40
40.0
  9
$DIMASZ
 40
2.0
  9
$DIMEXO
 40
0.5
  9
$DIMDLI
 40
10.0
  9
$DIMRND
 40
0.0
  9
$DIMDLE
 40
0.0
  9
$DIMEXE
 40
1.0
  9
$DIMTP
 40
1.0
  9
$DIMTM
 40
1.0
  9
$DIMTXT
 40
3.0
  9
$DIMCEN
 40
0.0
  9
$DIMTSZ
 40
0.0
  9
$DIMTOL
 70
     0
  9
$DIMLIM
 70
     0
  9
$DIMTIH
 70
     0
  9
$DIMTOH
 70
     0
  9
$DIMSE1
 70
     0
  9
$DIMSE2
 70
     0
  9
$DIMTAD
 70
     1
  9
$DIMZIN
 70
     8
  9
$DIMBLK
  1

  9
$DIMASO
 70
     1
  9
$DIMSHO
 70
     1
  9
$DIMPOST
  1

  9
$DIMAPOST
  1

  9
$DIMALT
 70
     0
  9
$DIMALTD
 70
     2
  9
$DIMALTF
 40
0.039
  9
$DIMLFAC
 40
1.0
  9
$DIMTOFL
 70
     1
  9
$DIMTVP
 40
0.0
  9
$DIMTIX
 70
     0
  9
$DIMSOXD
 70
     0
  9
$DIMSAH
 70
     1
  9
$DIMBLK1
  1
OPEN
  9
$DIMBLK2
  1
OPEN
  9
$DIMSTYLE
  2
IGA
  9
$DIMCLRD
 70
     0
  9
$DIMCLRE
 70
     0
  9
$DIMCLRT
 70
     0
  9
$DIMTFAC
 40
10.0
  9
$DIMGAP
 40
1.0
  9
$LUNITS
 70
     2
  9
$LUPREC
 70
     3
  9
$SKETCHINC
 40
0.1
  9
$FILLETRAD
 40
50.0
  9
$AUNITS
 70
     0
  9
$AUPREC
 70
     0
  9
$MENU
  1
acad
  9
$ELEVATION
 40
0.0
  9
$PELEVATION
 40
0.0
  9
$THICKNESS
 40
0.0
  9
$LIMCHECK
 70
     0
  9
$BLIPMODE
 70
     0
  9
$CHAMFERA
 40
0.5
  9
$CHAMFERB
 40
0.5
  9
$SKPOLY
 70
     0
  9
$TDCREATE
 40
2450752.662271759
  9
$TDUPDATE
 40
2454953.8426819439
  9
$TDINDWG
 40
0.0078685532
  9
$TDUSRTIMER
 40
0.0078685532
  9
$USRTIMER
 70
     1
  9
$ANGBASE
 50
0.0
  9
$ANGDIR
 70
     0
  9
$PDMODE
 70
     0
  9
$PDSIZE
 40
0.0
  9
$PLINEWID
 40
0.0
  9
$COORDS
 70
     1
  9
$SPLFRAME
 70
     0
  9
$SPLINETYPE
 70
     6
  9
$SPLINESEGS
 70
     8
  9
$ATTDIA
 70
     0
  9
$ATTREQ
 70
     1
  9
$HANDLING
 70
 10241
  9
$HANDSEED
  5
7F7D
  9
$SURFTAB1
 70
     6
  9
$SURFTAB2
 70
     6
  9
$SURFTYPE
 70
     6
  9
$SURFU
 70
     6
  9
$SURFV
 70
     6
  9
$UCSNAME
  2

  9
$UCSORG
 10
0.0
 20
0.0
 30
0.0
  9
$UCSXDIR
 10
1.0
 20
0.0
 30
0.0
  9
$UCSYDIR
 10
0.0
 20
1.0
 30
0.0
  9
$PUCSNAME
  2

  9
$PUCSORG
 10
0.0
 20
0.0
 30
0.0
  9
$PUCSXDIR
 10
1.0
 20
0.0
 30
0.0
  9
$PUCSYDIR
 10
0.0
 20
1.0
 30
0.0
  9
$USERI1
 70
     0
  9
$USERI2
 70
     0
  9
$USERI3
 70
     0
  9
$USERI4
 70
     0
  9
$USERI5
 70
     0
  9
$USERR1
 40
0.0
  9
$USERR2
 40
0.0
  9
$USERR3
 40
0.0
  9
$USERR4
 40
0.0
  9
$USERR5
 40
0.0
  9
$WORLDVIEW
 70
     1
  9
$SHADEDGE
 70
     3
  9
$SHADEDIF
 70
    70
  9
$TILEMODE
 70
     1
  9
$MAXACTVP
 70
    16
  9
$PLIMCHECK
 70
     0
  9
$PEXTMIN
 10
1.0000000000000000E+020
 20
1.0000000000000000E+020
 30
1.0000000000000000E+020
  9
$PEXTMAX
 10
-1.0000000000000000E+020
 20
-1.0000000000000000E+020
 30
-1.0000000000000000E+020
  9
$PLIMMIN
 10
0.0
 20
0.0
  9
$PLIMMAX
 10
12.0
 20
9.0
  9
$UNITMODE
 70
     0
  9
$VISRETAIN
 70
     0
  9
$PLINEGEN
 70
     0
  9
$PSLTSCALE
 70
     1
  0
ENDSEC
  0
SECTION
  2
TABLES
  0
TABLE
  2
VPORT
 70
     2
  0
VPORT
  2
*ACTIVE
 70
     0
 10
0.0
 20
0.0
 11
1.0
 21
1.0
 12
4632.3070683808446
 22
5964.4631257094443
 13
0.0
 23
0.0
 14
10.0
 24
10.0
 15
10.0
 25
10.0
 16
0.0
 26
0.0
 36
1.0
 17
0.0
 27
0.0
 37
0.0
 40
12084.527321614551
 41
1.5051150895140659
 42
50.0
 43
0.0
 44
0.0
 50
0.0
 51
0.0
 71
     0
 72
   100
 73
     1
 74
     0
 75
     0
 76
     0
 77
     0
 78
     0
  0
ENDTAB
  0
TABLE
  2
LTYPE
 70
     2
  0
LTYPE
  2
CONTINUOUS
 70
     0
  3
Solid line
 72
    65
 73
     0
 40
0.0
  0
LTYPE
  2
CENTER
 70
     0
  3
____ _ ____ _ ____ _ ____ _ ____ _ ____ _ ____ 
 72
    65
 73
     4
 40
2.0
 49
1.25
 49
-0.25
 49
0.25
 49
-0.25
  0
ENDTAB
  0
TABLE
  2
LAYER
 70
     6
  0
LAYER
  2
0
 70
     0
 62
     7
  6
CONTINUOUS
  0
LAYER
  2
3
 70
     0
 62
     2
  6
CONTINUOUS
  0
LAYER
  2
2
 70
     0
 62
     3
  6
CENTER
  0
LAYER
  2
1
 70
     0
 62
     4
  6
CONTINUOUS
  0
LAYER
  2
4
 70
     0
 62
     7
  6
CONTINUOUS
  0
LAYER
  2
DEFPOINTS
 70
     0
 62
     7
  6
CONTINUOUS
  0
ENDTAB
  0
TABLE
  2
STYLE
 70
     1
  0
STYLE
  2
STANDARD
 70
     0
 40
0.0
 41
1.0
 50
0.0
 71
     0
 42
180.0
  3
simplex.shx
  4
extfont.shx
  0
ENDTAB
  0
TABLE
  2
VIEW
 70
     0
  0
ENDTAB
  0
TABLE
  2
UCS
 70
     0
  0
ENDTAB
  0
TABLE
  2
APPID
 70
     1
  0
APPID
  2
ACAD
 70
     0
  0
ENDTAB
  0
TABLE
  2
DIMSTYLE
 70
     1
  0
DIMSTYLE
  2
IGA
 70
     0
  3

  4

  5

  6
OPEN
  7
OPEN
 40
2.0
 41
2.0
 42
0.5
 43
10.0
 44
1.0
 45
0.0
 46
0.0
 47
1.0
 48
1.0
140
3.0
141
0.0
142
0.0
143
0.03937
144
1.0
145
0.0
146
10.0
147
1.0
 71
     0
 72
     0
 73
     0
 74
     0
 75
     0
 76
     0
 77
     1
 78
     8
170
     0
171
     2
172
     0
173
     1
174
     0
175
     0
176
     0
177
     0
178
     0
  0
ENDTAB
  0
ENDSEC
  0
SECTION
  2
BLOCKS
  0
BLOCK
  8
0
  2
$MODEL_SPACE
 70
     0
 10
0.0
 20
0.0
 30
0.0
  3
$MODEL_SPACE
  1

  0
ENDBLK
  5
1B
  8
0
  0
BLOCK
 67
     1
  8
0
  2
$PAPER_SPACE
 70
     0
 10
0.0
 20
0.0
 30
0.0
  3
$PAPER_SPACE
  1

  0
ENDBLK
  5
18
 67
     1
  8
0
  0
BLOCK
  8
0
  2
_OPEN
 70
     0
 10
0.0
 20
0.0
 30
0.0
  3
_OPEN
  1

  0
LINE
  5
7B24
  8
0
  6
BYBLOCK
 62
     0
 10
-1.0
 20
0.166667
 30
0.0
 11
0.0
 21
0.0
 31
0.0
  0
LINE
  5
7B25
  8
0
  6
BYBLOCK
 62
     0
 10
0.0
 20
0.0
 30
0.0
 11
-1.0
 21
-0.166667
 31
0.0
  0
LINE
  5
7B26
  8
0
  6
BYBLOCK
 62
     0
 10
0.0
 20
0.0
 30
0.0
 11
-1.0
 21
0.0
 31
0.0
  0
ENDBLK
  5
7B27
  8
0
  0
BLOCK
  8
0
  2
*D1
 70
     1
 10
0.0
 20
0.0
 30
0.0
  3
*D1
  1

  0
LINE
  5
7ED2
  8
3
  6
CONTINUOUS
 62
     0
 10
1962.6409619999999
 20
4792.9111430000003
 30
0.0
 11
1962.6409619999999
 21
5079.656121
 31
0.0
  0
LINE
  5
7ED3
  8
3
  6
CONTINUOUS
 62
     0
 10
2992.6409619999999
 20
4792.9111430000003
 30
0.0
 11
2992.6409619999999
 21
5079.656121
 31
0.0
  0
LINE
  5
7ED4
  8
3
  6
CONTINUOUS
 62
     0
 10
2042.6409619999999
 20
5039.656121
 30
0.0
 11
2912.6409619999999
 21
5039.656121
 31
0.0
  0
INSERT
  5
7ED5
  8
3
  6
CONTINUOUS
 62
     0
  2
_OPEN
 10
1962.6409619999999
 20
5039.656121
 30
0.0
 41
80.0
 42
80.0
 43
80.0
 50
180.0
  0
INSERT
  5
7ED6
  8
3
  6
CONTINUOUS
 62
     0
  2
_OPEN
 10
2992.6409619999999
 20
5039.656121
 30
0.0
 41
80.0
 42
80.0
 43
80.0
  0
TEXT
  8
3
  40
120
  5
7F6B
  62
0
  72
0
  71
0
 10
2236.85
 20
4927.26
 30
0.000000
  1
1030
  0
POINT
  5
7ED8
  8
DEFPOINTS
  6
CONTINUOUS
 62
     0
 10
1962.6409619999999
 20
4772.9111430000003
 30
0.0
  0
POINT
  5
7ED9
  8
DEFPOINTS
  6
CONTINUOUS
 62
     0
 10
2992.6409619999999
 20
4772.9111430000003
 30
0.0
  0
POINT
  5
7EDA
  8
DEFPOINTS
  6
CONTINUOUS
 62
     0
 10
2992.6409619999999
 20
5039.656121
 30
0.0
  0
ENDBLK
  5
7CE6
  8
0
  0
BLOCK
  8
0
  2
*D2
 70
     1
 10
0.0
 20
0.0
 30
0.0
  3
*D2
  1

  0
LINE
  5
7EDB
  8
3
  6
CONTINUOUS
 62
     0
 10
1962.6409619999999
 20
4792.9111430000003
 30
0.0
 11
1962.6409619999999
 21
5317.3232719999987
 31
0.0
  0
LINE
  5
7EDC
  8
3
  6
CONTINUOUS
 62
     0
 10
2944.6409619999999
 20
4924.3517329999986
 30
0.0
 11
2944.6409619999999
 21
5317.3232719999987
 31
0.0
  0
LINE
  5
7EDD
  8
3
  6
CONTINUOUS
 62
     0
 10
2042.6409619999999
 20
5277.3232719999996
 30
0.0
 11
2864.6409619999999
 21
5277.3232719999996
 31
0.0
  0
INSERT
  5
7EDE
  8
3
  6
CONTINUOUS
 62
     0
  2
_OPEN
 10
1962.6409619999999
 20
5277.3232719999996
 30
0.0
 41
80.0
 42
80.0
 43
80.0
 50
180.0
  0
INSERT
  5
7EDF
  8
3
  6
CONTINUOUS
 62
     0
  2
_OPEN
 10
2944.6409619999999
 20
5277.3232719999996
 30
0.0
 41
80.0
 42
80.0
 43
80.0
  0
TEXT
  8
3
  40
120
  5
7F6C
  62
0
  72
0
  71
0
 10
2279.32
 20
5164.92
 30
0.000000
  1
982
  0
POINT
  5
7EE1
  8
DEFPOINTS
  6
CONTINUOUS
 62
     0
 10
1962.6409619999999
 20
4772.9111430000003
 30
0.0
  0
POINT
  5
7EE2
  8
DEFPOINTS
  6
CONTINUOUS
 62
     0
 10
2944.6409619999999
 20
4904.3517329999986
 30
0.0
  0
POINT
  5
7EE3
  8
DEFPOINTS
  6
CONTINUOUS
 62
     0
 10
2944.6409619999999
 20
5277.3232719999996
 30
0.0
  0
ENDBLK
  5
7CDB
  8
0
  0
BLOCK
  8
0
  2
*D3
 70
     1
 10
0.0
 20
0.0
 30
0.0
  3
*D3
  1

  0
LINE
  5
7EE4
  8
3
  6
CONTINUOUS
 62
     0
 10
3062.6409619999999
 20
4772.9111430000003
 30
0.0
 11
4028.6452530000001
 21
4772.9111430000003
 31
0.0
  0
LINE
  5
7EE5
  8
3
  6
CONTINUOUS
 62
     0
 10
3795.1091110000002
 20
4042.9111429999998
 30
0.0
 11
4028.6452530000001
 21
4042.9111429999998
 31
0.0
  0
LINE
  5
7EE6
  8
3
  6
CONTINUOUS
 62
     0
 10
3988.645253000001
 20
4692.9111430000003
 30
0.0
 11
3988.645253000001
 21
4122.9111430000003
 31
0.0
  0
INSERT
  5
7EE7
  8
3
  6
CONTINUOUS
 62
     0
  2
_OPEN
 10
3988.645253000001
 20
4772.9111430000003
 30
0.0
 41
80.0
 42
80.0
 43
80.0
 50
90.0
  0
INSERT
  5
7EE8
  8
3
  6
CONTINUOUS
 62
     0
  2
_OPEN
 10
3988.645253000001
 20
4042.9111429999998
 30
0.0
 41
80.0
 42
80.0
 43
80.0
 50
270.0
  0
TEXT
  8
3
  40
120
  5
7F6D
  62
0
  72
0
  71
0
 10
3648.65
 20
4164.84
 30
0.000000
  1
730
  0
POINT
  5
7EEA
  8
DEFPOINTS
  6
CONTINUOUS
 62
     0
 10
3042.6409619999999
 20
4772.9111430000003
 30
0.0
  0
POINT
  5
7EEB
  8
DEFPOINTS
  6
CONTINUOUS
 62
     0
 10
3775.1091109999988
 20
4042.9111429999998
 30
0.0
  0
POINT
  5
7EEC
  8
DEFPOINTS
  6
CONTINUOUS
 62
     0
 10
3988.645253000001
 20
4042.9111429999998
 30
0.0
  0
ENDBLK
  5
7B5A
  8
0
  0
BLOCK
  8
0
  2
*D4
 70
     1
 10
0.0
 20
0.0
 30
0.0
  3
*D4
  1

  0
LINE
  5
7EED
  8
3
  6
CONTINUOUS
 62
     0
 10
3614.6409619999999
 20
3182.9111429999998
 30
0.0
 11
4028.6452530000001
 21
3182.9111429999998
 31
0.0
  0
LINE
  5
7EEE
  8
3
  6
CONTINUOUS
 62
     0
 10
3988.6452529999988
 20
3962.9111429999998
 30
0.0
 11
3988.6452529999988
 21
3262.9111429999998
 31
0.0
  0
INSERT
  5
7EEF
  8
3
  6
CONTINUOUS
 62
     0
  2
_OPEN
 10
3988.6452529999988
 20
4042.9111429999998
 30
0.0
 41
80.0
 42
80.0
 43
80.0
 50
90.0
  0
INSERT
  5
7EF0
  8
3
  6
CONTINUOUS
 62
     0
  2
_OPEN
 10
3988.6452529999988
 20
3182.9111429999998
 30
0.0
 41
80.0
 42
80.0
 43
80.0
 50
270.0
  0
TEXT
  8
3
  40
120
  5
7F6E
  62
0
  72
0
  71
0
 10
3648.65
 20
3400.51
 30
0.000000
  1
860
  0
POINT
  5
7EF2
  8
DEFPOINTS
  6
CONTINUOUS
 62
     0
 10
3775.1091109999988
 20
4042.9111429999998
 30
0.0
  0
POINT
  5
7EF3
  8
DEFPOINTS
  6
CONTINUOUS
 62
     0
 10
3594.640961999999
 20
3182.9111429999998
 30
0.0
  0
POINT
  5
7EF4
  8
DEFPOINTS
  6
CONTINUOUS
 62
     0
 10
3988.6452529999988
 20
3182.9111429999998
 30
0.0
  0
ENDBLK
  5
7B66
  8
0
  0
BLOCK
  8
0
  2
*D5
 70
     1
 10
0.0
 20
0.0
 30
0.0
  3
*D5
  1

  0
LINE
  5
7EF5
  8
3
  6
CONTINUOUS
 62
     0
 10
3614.6409619999999
 20
3182.9111429999998
 30
0.0
 11
4028.3037900000008
 21
3182.9111429999998
 31
0.0
  0
LINE
  5
7EF6
  8
3
  6
CONTINUOUS
 62
     0
 10
3614.6409619999999
 20
3016.9111429999989
 30
0.0
 11
4028.3037899999999
 21
3016.9111429999989
 31
0.0
  0
LINE
  5
7EF7
  8
3
  6
CONTINUOUS
 62
     0
 10
3988.3037900000008
 20
3262.9111429999998
 30
0.0
 11
3988.3037900000008
 21
3342.9111429999998
 31
0.0
  0
LINE
  5
7EF8
  8
3
  6
CONTINUOUS
 62
     0
 10
3988.3037899999999
 20
2936.9111429999998
 30
0.0
 11
3988.3037899999999
 21
2496.9111429999998
 31
0.0
  0
LINE
  5
7EF9
  8
3
  6
CONTINUOUS
 62
     0
 10
3988.3037900000008
 20
3182.9111429999998
 30
0.0
 11
3988.3037899999999
 21
3016.9111429999989
 31
0.0
  0
INSERT
  5
7EFA
  8
3
  6
CONTINUOUS
 62
     0
  2
_OPEN
 10
3988.3037900000008
 20
3182.9111429999998
 30
0.0
 41
80.0
 42
80.0
 43
80.0
 50
270.0
  0
INSERT
  5
7EFB
  8
3
  6
CONTINUOUS
 62
     0
  2
_OPEN
 10
3988.3037899999999
 20
3016.9111429999989
 30
0.0
 41
80.0
 42
80.0
 43
80.0
 50
90.0
  0
TEXT
  8
3
  40
120
  5
7F6F
  62
0
  72
0
  71
0
 10
3648.30
 20
2464.51
 30
0.000000
  1
166
  0
POINT
  5
7EFD
  8
DEFPOINTS
  6
CONTINUOUS
 62
     0
 10
3594.640961999999
 20
3182.9111429999998
 30
0.0
  0
POINT
  5
7EFE
  8
DEFPOINTS
  6
CONTINUOUS
 62
     0
 10
3594.640961999999
 20
3016.9111429999989
 30
0.0
  0
POINT
  5
7EFF
  8
DEFPOINTS
  6
CONTINUOUS
 62
     0
 10
3988.3037899999999
 20
3016.9111429999989
 30
0.0
  0
ENDBLK
  5
7D3D
  8
0
  0
BLOCK
  8
0
  2
*D6
 70
     1
 10
0.0
 20
0.0
 30
0.0
  3
*D6
  1

  0
LINE
  5
7F00
  8
3
  6
CONTINUOUS
 62
     0
 10
3082.6409619999999
 20
4772.9111430000003
 30
0.0
 11
4298.3069169999999
 21
4772.9111430000003
 31
0.0
  0
LINE
  5
7F01
  8
3
  6
CONTINUOUS
 62
     0
 10
3614.6409619999999
 20
3016.9111429999989
 30
0.0
 11
4298.3069169999999
 21
3016.9111429999989
 31
0.0
  0
LINE
  5
7F02
  8
3
  6
CONTINUOUS
 62
     0
 10
4258.3069170000008
 20
4692.9111430000003
 30
0.0
 11
4258.3069170000008
 21
3096.9111429999989
 31
0.0
  0
INSERT
  5
7F03
  8
3
  6
CONTINUOUS
 62
     0
  2
_OPEN
 10
4258.3069170000008
 20
4772.9111430000003
 30
0.0
 41
80.0
 42
80.0
 43
80.0
 50
90.0
  0
INSERT
  5
7F04
  8
3
  6
CONTINUOUS
 62
     0
  2
_OPEN
 10
4258.3069170000008
 20
3016.9111429999989
 30
0.0
 41
80.0
 42
80.0
 43
80.0
 50
270.0
  0
TEXT
  8
3
  40
120
  5
7F70
  62
0
  72
0
  71
0
 10
3918.31
 20
3596.14
 30
0.000000
  1
1756
  0
POINT
  5
7F06
  8
DEFPOINTS
  6
CONTINUOUS
 62
     0
 10
3062.6409619999999
 20
4772.9111430000003
 30
0.0
  0
POINT
  5
7F07
  8
DEFPOINTS
  6
CONTINUOUS
 62
     0
 10
3594.640961999999
 20
3016.9111429999989
 30
0.0
  0
POINT
  5
7F08
  8
DEFPOINTS
  6
CONTINUOUS
 62
     0
 10
4258.3069170000008
 20
3016.9111429999989
 30
0.0
  0
ENDBLK
  5
7C74
  8
0
  0
BLOCK
  8
0
  2
*D7
 70
     1
 10
0.0
 20
0.0
 30
0.0
  3
*D7
  1

  0
LINE
  5
7F09
  8
3
  6
CONTINUOUS
 62
     0
 10
1644.6409619999999
 20
2996.9111429999998
 30
0.0
 11
1644.6409619999999
 21
2673.574548
 31
0.0
  0
LINE
  5
7F0A
  8
3
  6
CONTINUOUS
 62
     0
 10
2944.6409619999999
 20
2832.6725609999999
 30
0.0
 11
2944.6409619999999
 21
2673.574548
 31
0.0
  0
LINE
  5
7F0B
  8
3
  6
CONTINUOUS
 62
     0
 10
1724.6409619999999
 20
2713.574548
 30
0.0
 11
2864.6409619999999
 21
2713.574548
 31
0.0
  0
INSERT
  5
7F0C
  8
3
  6
CONTINUOUS
 62
     0
  2
_OPEN
 10
1644.6409619999999
 20
2713.574548
 30
0.0
 41
80.0
 42
80.0
 43
80.0
 50
180.0
  0
INSERT
  5
7F0D
  8
3
  6
CONTINUOUS
 62
     0
  2
_OPEN
 10
2944.6409619999999
 20
2713.574548
 30
0.0
 41
80.0
 42
80.0
 43
80.0
  0
TEXT
  8
3
  40
120
  5
7F71
  62
0
  72
0
  71
0
 10
2066.99
 20
2601.17
 30
0.000000
  1
1300
  0
POINT
  5
7F0F
  8
DEFPOINTS
  6
CONTINUOUS
 62
     0
 10
1644.6409619999999
 20
3016.9111429999989
 30
0.0
  0
POINT
  5
7F10
  8
DEFPOINTS
  6
CONTINUOUS
 62
     0
 10
2944.6409619999999
 20
2852.6725609999999
 30
0.0
  0
POINT
  5
7F11
  8
DEFPOINTS
  6
CONTINUOUS
 62
     0
 10
2944.6409619999999
 20
2713.574548
 30
0.0
  0
ENDBLK
  5
7B90
  8
0
  0
BLOCK
  8
0
  2
*D8
 70
     1
 10
0.0
 20
0.0
 30
0.0
  3
*D8
  1

  0
LINE
  5
7F12
  8
3
  6
CONTINUOUS
 62
     0
 10
3594.640961999999
 20
2996.9111429999998
 30
0.0
 11
3594.640961999999
 21
2673.574548
 31
0.0
  0
LINE
  5
7F13
  8
3
  6
CONTINUOUS
 62
     0
 10
3024.6409619999999
 20
2713.574548
 30
0.0
 11
3514.6409619999999
 21
2713.574548
 31
0.0
  0
INSERT
  5
7F14
  8
3
  6
CONTINUOUS
 62
     0
  2
_OPEN
 10
2944.6409619999999
 20
2713.574548
 30
0.0
 41
80.0
 42
80.0
 43
80.0
 50
180.0
  0
INSERT
  5
7F15
  8
3
  6
CONTINUOUS
 62
     0
  2
_OPEN
 10
3594.640961999999
 20
2713.574548
 30
0.0
 41
80.0
 42
80.0
 43
80.0
  0
TEXT
  8
3
  40
120
  5
7F72
  62
0
  72
0
  71
0
 10
3029.64
 20
2601.17
 30
0.000000
  1
650
  0
POINT
  5
7F17
  8
DEFPOINTS
  6
CONTINUOUS
 62
     0
 10
2944.6409619999999
 20
2852.6725609999999
 30
0.0
  0
POINT
  5
7F18
  8
DEFPOINTS
  6
CONTINUOUS
 62
     0
 10
3594.640961999999
 20
3016.9111429999989
 30
0.0
  0
POINT
  5
7F19
  8
DEFPOINTS
  6
CONTINUOUS
 62
     0
 10
3594.640961999999
 20
2713.574548
 30
0.0
  0
ENDBLK
  5
7B9C
  8
0
  0
BLOCK
  8
0
  2
*D9
 70
     1
 10
0.0
 20
0.0
 30
0.0
  3
*D9
  1

  0
LINE
  5
7F1A
  8
3
  6
CONTINUOUS
 62
     0
 10
6007.057041
 20
4792.9111430000003
 30
0.0
 11
6007.057041
 21
5048.1916770000007
 31
0.0
  0
LINE
  5
7F1B
  8
3
  6
CONTINUOUS
 62
     0
 10
6757.057041
 20
4792.9111430000003
 30
0.0
 11
6757.057041
 21
5048.1916770000007
 31
0.0
  0
LINE
  5
7F1C
  8
3
  6
CONTINUOUS
 62
     0
 10
6087.057041
 20
5008.1916770000007
 30
0.0
 11
6677.0570410000009
 21
5008.1916770000007
 31
0.0
  0
INSERT
  5
7F1D
  8
3
  6
CONTINUOUS
 62
     0
  2
_OPEN
 10
6007.057041
 20
5008.1916770000007
 30
0.0
 41
80.0
 42
80.0
 43
80.0
 50
180.0
  0
INSERT
  5
7F1E
  8
3
  6
CONTINUOUS
 62
     0
  2
_OPEN
 10
6757.057041
 20
5008.1916770000007
 30
0.0
 41
80.0
 42
80.0
 43
80.0
  0
TEXT
  8
3
  40
120
  5
7F73
  62
0
  72
0
  71
0
 10
6143.95
 20
4895.79
 30
0.000000
  1
750
  0
POINT
  5
7F20
  8
DEFPOINTS
  6
CONTINUOUS
 62
     0
 10
6007.057041
 20
4772.9111430000003
 30
0.0
  0
POINT
  5
7F21
  8
DEFPOINTS
  6
CONTINUOUS
 62
     0
 10
6757.057041
 20
4772.9111430000003
 30
0.0
  0
POINT
  5
7F22
  8
DEFPOINTS
  6
CONTINUOUS
 62
     0
 10
6757.057041
 20
5008.1916770000007
 30
0.0
  0
ENDBLK
  5
7D1C
  8
0
  0
BLOCK
  8
0
  2
*D10
 70
     1
 10
0.0
 20
0.0
 30
0.0
  3
*D10
  1

  0
LINE
  5
7F23
  8
3
  6
CONTINUOUS
 62
     0
 10
6781.057041
 20
4572.9111430000003
 30
0.0
 11
7142.7921510000006
 21
4572.9111430000003
 31
0.0
  0
LINE
  5
7F24
  8
3
  6
CONTINUOUS
 62
     0
 10
6781.057041
 20
3512.9111429999998
 30
0.0
 11
7142.7921510000006
 21
3512.9111429999998
 31
0.0
  0
LINE
  5
7F25
  8
3
  6
CONTINUOUS
 62
     0
 10
7102.7921510000006
 20
4492.9111430000003
 30
0.0
 11
7102.7921510000006
 21
3592.9111429999998
 31
0.0
  0
INSERT
  5
7F26
  8
3
  6
CONTINUOUS
 62
     0
  2
_OPEN
 10
7102.7921510000006
 20
4572.9111430000003
 30
0.0
 41
80.0
 42
80.0
 43
80.0
 50
90.0
  0
INSERT
  5
7F27
  8
3
  6
CONTINUOUS
 62
     0
  2
_OPEN
 10
7102.7921510000006
 20
3512.9111429999998
 30
0.0
 41
80.0
 42
80.0
 43
80.0
 50
270.0
  0
TEXT
  8
3
  40
120
  5
7F74
  62
0
  72
0
  71
0
 10
6762.79
 20
3830.94
 30
0.000000
  1
φ1060
  0
POINT
  5
7F29
  8
DEFPOINTS
  6
CONTINUOUS
 62
     0
 10
6761.057041
 20
4572.9111430000003
 30
0.0
  0
POINT
  5
7F2A
  8
DEFPOINTS
  6
CONTINUOUS
 62
     0
 10
6761.057041
 20
3512.9111429999998
 30
0.0
  0
POINT
  5
7F2B
  8
DEFPOINTS
  6
CONTINUOUS
 62
     0
 10
7102.7921510000006
 20
3512.9111429999998
 30
0.0
  0
ENDBLK
  5
7D6C
  8
0
  0
BLOCK
  8
0
  2
*D11
 70
     1
 10
0.0
 20
0.0
 30
0.0
  3
*D11
  1

  0
LINE
  5
7F2C
  8
3
  6
CONTINUOUS
 62
     0
 10
5799.5570409999991
 20
2996.9111429999998
 30
0.0
 11
5799.5570409999991
 21
2702.216422
 31
0.0
  0
LINE
  5
7F2D
  8
3
  6
CONTINUOUS
 62
     0
 10
6382.057041
 20
2840.852402
 30
0.0
 11
6382.057041
 21
2702.216422
 31
0.0
  0
LINE
  5
7F2E
  8
3
  6
CONTINUOUS
 62
     0
 10
5879.557041
 20
2742.216422
 30
0.0
 11
6302.0570410000009
 21
2742.216422
 31
0.0
  0
INSERT
  5
7F2F
  8
3
  6
CONTINUOUS
 62
     0
  2
_OPEN
 10
5799.5570409999991
 20
2742.216422
 30
0.0
 41
80.0
 42
80.0
 43
80.0
 50
180.0
  0
INSERT
  5
7F30
  8
3
  6
CONTINUOUS
 62
     0
  2
_OPEN
 10
6382.057041
 20
2742.216422
 30
0.0
 41
80.0
 42
80.0
 43
80.0
  0
TEXT
  8
3
  40
120
  5
7F75
  62
0
  72
0
  71
0
 10
5867.77
 20
2629.82
 30
0.000000
  1
583
  0
POINT
  5
7F32
  8
DEFPOINTS
  6
CONTINUOUS
 62
     0
 10
5799.5570409999991
 20
3016.9111429999989
 30
0.0
  0
POINT
  5
7F33
  8
DEFPOINTS
  6
CONTINUOUS
 62
     0
 10
6382.057041
 20
2860.852402
 30
0.0
  0
POINT
  5
7F34
  8
DEFPOINTS
  6
CONTINUOUS
 62
     0
 10
6382.057041
 20
2742.216422
 30
0.0
  0
ENDBLK
  5
7BC6
  8
0
  0
BLOCK
  8
0
  2
*D12
 70
     1
 10
0.0
 20
0.0
 30
0.0
  3
*D12
  1

  0
LINE
  5
7F35
  8
3
  6
CONTINUOUS
 62
     0
 10
6823.557041
 20
2996.9111429999998
 30
0.0
 11
6823.557041
 21
2702.216422
 31
0.0
  0
LINE
  5
7F36
  8
3
  6
CONTINUOUS
 62
     0
 10
6462.057041
 20
2742.216422
 30
0.0
 11
6743.5570409999991
 21
2742.216422
 31
0.0
  0
TEXT
  8
3
  40
120
  5
7F76
  62
0
  72
0
  71
0
 10
6362.27
 20
2638.07
 30
0.000000
  1
442
  0
INSERT
  5
7F38
  8
3
  6
CONTINUOUS
 62
     0
  2
_OPEN
 10
6382.057041
 20
2742.216422
 30
0.0
 41
80.0
 42
80.0
 43
80.0
 50
180.0
  0
INSERT
  5
7F39
  8
3
  6
CONTINUOUS
 62
     0
  2
_OPEN
 10
6823.557041
 20
2742.216422
 30
0.0
 41
80.0
 42
80.0
 43
80.0
  0
POINT
  5
7F3A
  8
DEFPOINTS
  6
CONTINUOUS
 62
     0
 10
6382.057041
 20
2860.852402
 30
0.0
  0
POINT
  5
7F3B
  8
DEFPOINTS
  6
CONTINUOUS
 62
     0
 10
6823.557041
 20
3016.9111429999989
 30
0.0
  0
POINT
  5
7F3C
  8
DEFPOINTS
  6
CONTINUOUS
 62
     0
 10
6823.557041
 20
2742.216422
 30
0.0
  0
ENDBLK
  5
7D06
  8
0
  0
BLOCK
  8
0
  2
*D13
 70
     1
 10
0.0
 20
0.0
 30
0.0
  3
*D13
  1

  0
LINE
  5
7F3D
  8
3
  6
CONTINUOUS
 62
     0
 10
1644.6409619999999
 20
8164.6846580000001
 30
0.0
 11
1644.6409619999999
 21
8427.836335
 31
0.0
  0
LINE
  5
7F3E
  8
3
  6
CONTINUOUS
 62
     0
 10
3594.640961999999
 20
8164.6846580000001
 30
0.0
 11
3594.640961999999
 21
8427.836335
 31
0.0
  0
LINE
  5
7F3F
  8
3
  6
CONTINUOUS
 62
     0
 10
1724.6409619999999
 20
8387.8363350000018
 30
0.0
 11
3514.6409619999999
 21
8387.8363350000018
 31
0.0
  0
INSERT
  5
7F40
  8
3
  6
CONTINUOUS
 62
     0
  2
_OPEN
 10
1644.6409619999999
 20
8387.8363350000018
 30
0.0
 41
80.0
 42
80.0
 43
80.0
 50
180.0
  0
INSERT
  5
7F41
  8
3
  6
CONTINUOUS
 62
     0
  2
_OPEN
 10
3594.640961999999
 20
8387.8363350000018
 30
0.0
 41
80.0
 42
80.0
 43
80.0
  0
TEXT
  8
3
  40
120
  5
7F77
  62
0
  72
0
  71
0
 10
2370.02
 20
8275.44
 30
0.000000
  1
1950
  0
POINT
  5
7F43
  8
DEFPOINTS
  6
CONTINUOUS
 62
     0
 10
1644.6409619999999
 20
8144.6846580000001
 30
0.0
  0
POINT
  5
7F44
  8
DEFPOINTS
  6
CONTINUOUS
 62
     0
 10
3594.640961999999
 20
8144.6846580000001
 30
0.0
  0
POINT
  5
7F45
  8
DEFPOINTS
  6
CONTINUOUS
 62
     0
 10
3594.640961999999
 20
8387.8363350000018
 30
0.0
  0
ENDBLK
  5
7C26
  8
0
  0
BLOCK
  8
0
  2
*D14
 70
     1
 10
0.0
 20
0.0
 30
0.0
  3
*D14
  1

  0
LINE
  5
7F46
  8
3
  6
CONTINUOUS
 62
     0
 10
3614.6409619999999
 20
8144.6846580000001
 30
0.0
 11
3991.8622380000011
 21
8144.6846580000001
 31
0.0
  0
LINE
  5
7F47
  8
3
  6
CONTINUOUS
 62
     0
 10
3614.6409619999999
 20
7119.6846580000001
 30
0.0
 11
3991.8622380000011
 21
7119.6846580000001
 31
0.0
  0
LINE
  5
7F48
  8
3
  6
CONTINUOUS
 62
     0
 10
3951.862238000002
 20
8064.6846580000001
 30
0.0
 11
3951.862238000002
 21
7199.6846579999992
 31
0.0
  0
INSERT
  5
7F49
  8
3
  6
CONTINUOUS
 62
     0
  2
_OPEN
 10
3951.862238000002
 20
8144.6846580000001
 30
0.0
 41
80.0
 42
80.0
 43
80.0
 50
90.0
  0
INSERT
  5
7F4A
  8
3
  6
CONTINUOUS
 62
     0
  2
_OPEN
 10
3951.8622380000011
 20
7119.6846580000001
 30
0.0
 41
80.0
 42
80.0
 43
80.0
 50
270.0
  0
TEXT
  8
3
  40
120
  5
7F78
  62
0
  72
0
  71
0
 10
3611.86
 20
7417.11
 30
0.000000
  1
1025
  0
POINT
  5
7F4C
  8
DEFPOINTS
  6
CONTINUOUS
 62
     0
 10
3594.640961999999
 20
8144.6846580000001
 30
0.0
  0
POINT
  5
7F4D
  8
DEFPOINTS
  6
CONTINUOUS
 62
     0
 10
3594.640961999999
 20
7119.6846580000001
 30
0.0
  0
POINT
  5
7F4E
  8
DEFPOINTS
  6
CONTINUOUS
 62
     0
 10
3951.8622380000011
 20
7119.6846580000001
 30
0.0
  0
ENDBLK
  5
7C33
  8
0
  0
BLOCK
  8
0
  2
*D15
 70
     1
 10
0.0
 20
0.0
 30
0.0
  3
*D15
  1

  0
LINE
  5
7F4F
  8
3
  6
CONTINUOUS
 62
     0
 10
5722.057041
 20
4627.9111430000003
 30
0.0
 11
5722.057041
 21
5299.2018070000013
 31
0.0
  0
LINE
  5
7F50
  8
3
  6
CONTINUOUS
 62
     0
 10
6382.057041
 20
5217.3642529999988
 30
0.0
 11
6382.057041
 21
5299.2018070000013
 31
0.0
  0
LINE
  5
7F51
  8
3
  6
CONTINUOUS
 62
     0
 10
5802.0570410000009
 20
5259.2018070000004
 30
0.0
 11
6302.0570410000009
 21
5259.2018070000004
 31
0.0
  0
INSERT
  5
7F52
  8
3
  6
CONTINUOUS
 62
     0
  2
_OPEN
 10
5722.057041
 20
5259.2018070000004
 30
0.0
 41
80.0
 42
80.0
 43
80.0
 50
180.0
  0
INSERT
  5
7F53
  8
3
  6
CONTINUOUS
 62
     0
  2
_OPEN
 10
6382.057041
 20
5259.2018070000004
 30
0.0
 41
80.0
 42
80.0
 43
80.0
  0
TEXT
  8
3
  40
120
  5
7F79
  62
0
  72
0
  71
0
 10
5773.49
 20
5246.80
 30
0.000000
  1
MAX
  0
TEXT
  8
3
  40
120
  5
7F7A
  62
0
  72
0
  71
0
 10
5773.49
 20
5090.80
 30
0.000000
  1
700
  0
POINT
  5
7F55
  8
DEFPOINTS
  6
CONTINUOUS
 62
     0
 10
5722.057041
 20
4607.9111430000003
 30
0.0
  0
POINT
  5
7F56
  8
DEFPOINTS
  6
CONTINUOUS
 62
     0
 10
6382.057041
 20
5197.3642529999988
 30
0.0
  0
POINT
  5
7F57
  8
DEFPOINTS
  6
CONTINUOUS
 62
     0
 10
6382.057041
 20
5259.2018070000004
 30
0.0
  0
ENDBLK
  5
7D61
  8
0
  0
BLOCK
  8
0
  2
*D16
 70
     1
 10
0.0
 20
0.0
 30
0.0
  3
*D16
  1

  0
LINE
  5
7F58
  8
3
  6
CONTINUOUS
 62
     0
 10
6761.057041
 20
4592.9111430000012
 30
0.0
 11
6761.057041
 21
5299.2018070000013
 31
0.0
  0
LINE
  5
7F59
  8
3
  6
CONTINUOUS
 62
     0
 10
6462.057041
 20
5259.2018070000004
 30
0.0
 11
6681.0570409999991
 21
5259.2018070000004
 31
0.0
  0
TEXT
  8
3
  40
120
  5
7F7B
  62
0
  72
0
  71
0
 10
6333.30
 20
5149.64
 30
0.000000
  1
379
  0
INSERT
  5
7F5B
  8
3
  6
CONTINUOUS
 62
     0
  2
_OPEN
 10
6382.057041
 20
5259.2018070000004
 30
0.0
 41
80.0
 42
80.0
 43
80.0
 50
180.0
  0
INSERT
  5
7F5C
  8
3
  6
CONTINUOUS
 62
     0
  2
_OPEN
 10
6761.057041
 20
5259.2018070000004
 30
0.0
 41
80.0
 42
80.0
 43
80.0
  0
POINT
  5
7F5D
  8
DEFPOINTS
  6
CONTINUOUS
 62
     0
 10
6382.057041
 20
5197.3642529999988
 30
0.0
  0
POINT
  5
7F5E
  8
DEFPOINTS
  6
CONTINUOUS
 62
     0
 10
6761.057041
 20
4572.9111430000003
 30
0.0
  0
POINT
  5
7F5F
  8
DEFPOINTS
  6
CONTINUOUS
 62
     0
 10
6761.057041
 20
5259.2018070000004
 30
0.0
  0
ENDBLK
  5
7D26
  8
0
  0
BLOCK
  8
0
  2
*D17
 70
     1
 10
0.0
 20
0.0
 30
0.0
  3
*D17
  1

  0
LINE
  5
7F60
  8
3
  6
CONTINUOUS
 62
     0
 10
3660.6124640646808
 20
4062.9111429999998
 30
0.0
 11
3660.6124640646808
 21
5317.3232719999987
 31
0.0
  0
LINE
  5
7F61
  8
3
  6
CONTINUOUS
 62
     0
 10
3024.6409619999999
 20
5277.3232719999996
 30
0.0
 11
3580.6124640646808
 21
5277.3232719999996
 31
0.0
  0
INSERT
  5
7F62
  8
3
  6
CONTINUOUS
 62
     0
  2
_OPEN
 10
2944.6409619999999
 20
5277.3232719999996
 30
0.0
 41
80.0
 42
80.0
 43
80.0
 50
180.0
  0
INSERT
  5
7F63
  8
3
  6
CONTINUOUS
 62
     0
  2
_OPEN
 10
3660.6124640646808
 20
5277.3232719999996
 30
0.0
 41
80.0
 42
80.0
 43
80.0
  0
TEXT
  8
3
  40
120
  5
7F7C
  62
0
  72
0
  71
0
 10
3062.63
 20
5164.92
 30
0.000000
  1
716
  0
POINT
  5
7F65
  8
DEFPOINTS
  6
CONTINUOUS
 62
     0
 10
2944.6409619999999
 20
4904.3517329999986
 30
0.0
  0
POINT
  5
7F66
  8
DEFPOINTS
  6
CONTINUOUS
 62
     0
 10
3660.6124640646808
 20
4042.9111429999998
 30
0.0
  0
POINT
  5
7F67
  8
DEFPOINTS
  6
CONTINUOUS
 62
     0
 10
3660.6124640646808
 20
5277.3232719999996
 30
0.0
  0
ENDBLK
  5
7D49
  8
0
  0
BLOCK
  8
0
  2
_DOT
 70
     0
 10
0.0
 20
0.0
 30
0.0
  3
_DOT
  1

  0
POLYLINE
  5
7E80
  8
0
  6
BYBLOCK
 62
     0
 66
     1
 10
0.0
 20
0.0
 30
0.0
 70
     1
 40
0.5
 41
0.5
  0
VERTEX
  5
7F68
  8
0
  6
BYBLOCK
 62
     0
 10
-0.25
 20
0.0
 30
0.0
 42
1.0
  0
VERTEX
  5
7F69
  8
0
  6
BYBLOCK
 62
     0
 10
0.25
 20
0.0
 30
0.0
 42
1.0
  0
SEQEND
  5
7F6A
  8
0
  6
BYBLOCK
 62
     0
  0
LINE
  5
7E81
  8
0
  6
BYBLOCK
 62
     0
 10
-0.5
 20
0.0
 30
0.0
 11
-1.0
 21
0.0
 31
0.0
  0
ENDBLK
  5
7E83
  8
0
  0
ENDSEC
  0
SECTION
  2
ENTITIES
  0
POLYLINE
  5
7A81
  8
1
  6
CONTINUOUS
 66
     1
 10
0.0
 20
0.0
 30
0.0
 70
     1
  0
VERTEX
  5
7EA6
  8
1
  6
CONTINUOUS
 10
1644.6409619999999
 20
3141.9111429999989
 30
0.0
  0
VERTEX
  5
7EA7
  8
1
  6
CONTINUOUS
 10
3594.640961999999
 20
3141.9111429999989
 30
0.0
  0
VERTEX
  5
7EA8
  8
1
  6
CONTINUOUS
 10
3594.640961999999
 20
3016.9111429999989
 30
0.0
  0
VERTEX
  5
7EA9
  8
1
  6
CONTINUOUS
 10
1644.6409619999999
 20
3016.9111429999989
 30
0.0
  0
SEQEND
  5
7EAA
  8
1
  6
CONTINUOUS
  0
LINE
  5
7A87
  8
1
  6
CONTINUOUS
 10
2714.6409619999999
 20
4607.9111430000003
 30
0.0
 11
1714.6409619999999
 21
3707.9111429999998
 31
0.0
  0
LINE
  5
7A88
  8
1
  6
CONTINUOUS
 10
1644.6409619999999
 20
3182.9111429999998
 30
0.0
 11
3594.640961999999
 21
3182.9111429999998
 31
0.0
  0
LINE
  5
7A89
  8
1
  6
CONTINUOUS
 10
1644.6409619999999
 20
3307.9111429999998
 30
0.0
 11
3594.640961999999
 21
3307.9111429999998
 31
0.0
  0
LINE
  5
7A8A
  8
1
  6
CONTINUOUS
 10
1964.309692
 20
4722.9111430000003
 30
0.0
 11
2992.6409619999999
 21
4722.9111430000003
 31
0.0
  0
LINE
  5
7A8B
  8
1
  6
CONTINUOUS
 10
1912.6409619999999
 20
4772.9111430000003
 30
0.0
 11
3042.6409619999999
 21
4772.9111430000003
 31
0.0
  0
ARC
  5
7A8C
  8
1
  6
CONTINUOUS
 10
2879.640961999999
 20
4107.9111430000003
 30
0.0
 40
895.0
 50
184.1648129999999
 51
274.16481299999992
  0
LINE
  5
7A8D
  8
1
  6
CONTINUOUS
 10
1808.9793440000001
 20
3637.2078219999999
 30
0.0
 11
2851.9713769999989
 21
4211.2769859999999
 31
0.0
  0
LINE
  5
7A8E
  8
1
  6
CONTINUOUS
 10
1928.8123539999999
 20
3392.9767350000002
 30
0.0
 11
3021.0941549999998
 21
3866.5886579999992
 31
0.0
  0
LINE
  5
7A8F
  8
1
  6
CONTINUOUS
 10
1987.004418
 20
4042.9111429999998
 30
0.0
 11
1962.6409619999999
 21
4772.9111430000003
 31
0.0
  0
LINE
  5
7A90
  8
2
  6
CENTER
 10
1733.467742
 20
3517.9111429999998
 30
0.0
 11
2015.8141820000001
 21
3517.9111429999998
 31
0.0
  0
POLYLINE
  5
7A91
  8
1
  6
CONTINUOUS
 66
     1
 10
0.0
 20
0.0
 30
0.0
  0
VERTEX
  5
7EAB
  8
1
  6
CONTINUOUS
 10
1677.1409619999999
 20
3307.9111429999998
 30
0.0
  0
VERTEX
  5
7EAC
  8
1
  6
CONTINUOUS
 10
2072.1409619999999
 20
3307.9111429999998
 30
0.0
  0
VERTEX
  5
7EAD
  8
1
  6
CONTINUOUS
 10
2062.1409619999999
 20
3357.9111429999989
 30
0.0
  0
VERTEX
  5
7EAE
  8
1
  6
CONTINUOUS
 10
2028.6409619999999
 20
3357.9111429999989
 30
0.0
  0
SEQEND
  5
7EAF
  8
1
  6
CONTINUOUS
  0
CIRCLE
  5
7A97
  8
1
  6
CONTINUOUS
 10
1874.6409619999999
 20
3517.9111429999998
 30
0.0
 40
136.1732199999999
  0
ARC
  5
7A98
  8
1
  6
CONTINUOUS
 10
1874.6409619999999
 20
3517.9111429999998
 30
0.0
 40
162.0
 50
324.972283
 51
215.02771699999991
  0
LINE
  5
7A99
  8
1
  6
CONTINUOUS
 10
1714.6409619999999
 20
3707.9111429999998
 30
0.0
 11
1714.6409619999999
 21
3307.9111429999998
 31
0.0
  0
POLYLINE
  5
7A9A
  8
1
  6
CONTINUOUS
 66
     1
 10
0.0
 20
0.0
 30
0.0
  0
VERTEX
  5
7EB0
  8
1
  6
CONTINUOUS
 10
1720.6409619999999
 20
3357.9111429999989
 30
0.0
  0
VERTEX
  5
7EB1
  8
1
  6
CONTINUOUS
 10
1687.1409619999999
 20
3357.9111429999989
 30
0.0
  0
VERTEX
  5
7EB2
  8
1
  6
CONTINUOUS
 10
1677.1409619999999
 20
3307.9111429999998
 30
0.0
  0
SEQEND
  5
7EB3
  8
1
  6
CONTINUOUS
  0
LINE
  5
7A9F
  8
1
  6
CONTINUOUS
 10
1720.6409619999999
 20
3375.9111429999989
 30
0.0
 11
1741.9832960000001
 21
3424.9275759999991
 31
0.0
  0
LINE
  5
7AA0
  8
1
  6
CONTINUOUS
 10
1720.6409619999999
 20
3357.9111429999989
 30
0.0
 11
1720.6409619999999
 21
3375.9111429999989
 31
0.0
  0
LINE
  5
7AA1
  8
1
  6
CONTINUOUS
 10
1644.6409619999999
 20
3307.9111429999998
 30
0.0
 11
1644.6409619999999
 21
3182.9111429999998
 31
0.0
  0
LINE
  5
7AA2
  8
2
  6
CENTER
 10
1874.6409619999999
 20
3376.7379219999989
 30
0.0
 11
1874.6409619999999
 21
3659.0843629999999
 31
0.0
  0
LINE
  5
7AA3
  8
1
  6
CONTINUOUS
 10
2028.6409619999999
 20
3357.9111429999989
 30
0.0
 11
2028.6409619999999
 21
3375.9111429999989
 31
0.0
  0
LINE
  5
7AA4
  8
1
  6
CONTINUOUS
 10
2028.6409619999999
 20
3375.9111429999989
 30
0.0
 11
2007.298628
 21
3424.9275759999991
 31
0.0
  0
LINE
  5
7AA5
  8
1
  6
CONTINUOUS
 10
2714.6409619999999
 20
4607.9111430000003
 30
0.0
 11
3484.6409619999999
 21
4607.9111430000003
 31
0.0
  0
ARC
  5
7AA8
  8
1
  6
CONTINUOUS
 10
2987.6409619999999
 20
3999.9111429999998
 30
0.0
 40
674.0
 50
3.6578529999999998
 51
89.574953000000008
  0
ARC
  5
7AA9
  8
1
  6
CONTINUOUS
 10
2888.6409619999999
 20
3986.9111429999998
 30
0.0
 40
774.0
 50
274.14905599999997
 51
4.149055999999999
  0
LINE
  5
7AAC
  8
1
  6
CONTINUOUS
 10
2992.6409619999999
 20
4673.8925959999988
 30
0.0
 11
2992.6409619999999
 21
4772.9111430000003
 31
0.0
  0
LINE
  5
7AAD
  8
2
  6
CENTER
 10
1719.7324809999991
 20
4042.9111429999998
 30
0.0
 11
3775.1091109999988
 21
4042.9111429999998
 31
0.0
  0
CIRCLE
  5
7AAE
  8
1
  6
CONTINUOUS
 10
2944.6409619999999
 20
4042.9111429999998
 30
0.0
 40
192.18405100000001
  0
LINE
  5
7AAF
  8
2
  6
CENTER
 10
2944.6409619999999
 20
2852.6725609999999
 30
0.0
 11
2944.6409619999999
 21
4904.3517329999986
 31
0.0
  0
LINE
  5
7AB1
  8
1
  6
CONTINUOUS
 10
3484.6409619999999
 20
4607.9111430000003
 30
0.0
 11
3484.6409619999999
 21
3307.9111429999998
 31
0.0
  0
POLYLINE
  5
7AB2
  8
1
  6
CONTINUOUS
 66
     1
 10
0.0
 20
0.0
 30
0.0
 70
     1
  0
VERTEX
  5
7EB4
  8
1
  6
CONTINUOUS
 10
1714.6409619999999
 20
7256.184658000001
 30
0.0
  0
VERTEX
  5
7EB5
  8
1
  6
CONTINUOUS
 10
1714.6409619999999
 20
7076.1846579999992
 30
0.0
  0
VERTEX
  5
7EB6
  8
1
  6
CONTINUOUS
 10
3484.6409619999999
 20
7076.1846579999992
 30
0.0
  0
VERTEX
  5
7EB7
  8
1
  6
CONTINUOUS
 10
3484.6409619999999
 20
7256.184658000001
 30
0.0
  0
SEQEND
  5
7EB8
  8
1
  6
CONTINUOUS
  0
LINE
  5
7AB8
  8
1
  6
CONTINUOUS
 10
2010.790962
 20
7119.6846580000001
 30
0.0
 11
2752.4409620000001
 21
7119.6846580000001
 31
0.0
  0
LINE
  5
7AB9
  8
1
  6
CONTINUOUS
 10
1962.6409619999999
 20
7327.1846580000001
 30
0.0
 11
3660.6409619999999
 21
7327.1846580000001
 31
0.0
  0
LINE
  5
7ABA
  8
1
  6
CONTINUOUS
 10
1962.6409619999999
 20
8077.1846580000001
 30
0.0
 11
3660.6409619999999
 21
8077.1846580000001
 31
0.0
  0
LINE
  5
7ABB
  8
1
  6
CONTINUOUS
 10
1644.6409619999999
 20
8144.6846580000001
 30
0.0
 11
3594.640961999999
 21
8144.6846580000001
 31
0.0
  0
LINE
  5
7ABC
  8
1
  6
CONTINUOUS
 10
1962.6409619999999
 20
8077.1846580000001
 30
0.0
 11
2992.6409619999999
 21
7327.1846580000001
 31
0.0
  0
LINE
  5
7ABD
  8
1
  6
CONTINUOUS
 10
1962.6409619999999
 20
7327.1846580000001
 30
0.0
 11
2992.6409619999999
 21
8077.1846580000001
 31
0.0
  0
LINE
  5
7ABE
  8
1
  6
CONTINUOUS
 10
1712.6409619999999
 20
7327.1846580000001
 30
0.0
 11
1712.6409619999999
 21
7801.3063780000011
 31
0.0
  0
LINE
  5
7ABF
  8
1
  6
CONTINUOUS
 10
1644.6409619999999
 20
7119.6846580000001
 30
0.0
 11
1644.6409619999999
 21
8144.6846580000001
 31
0.0
  0
LINE
  5
7AC0
  8
1
  6
CONTINUOUS
 10
1962.6409619999999
 20
7327.1846580000001
 30
0.0
 11
1962.6409619999999
 21
8077.1846580000001
 31
0.0
  0
POLYLINE
  5
7AC1
  8
1
  6
CONTINUOUS
 66
     1
 10
0.0
 20
0.0
 30
0.0
 70
     1
  0
VERTEX
  5
7EB9
  8
1
  6
CONTINUOUS
 10
2010.790962
 20
7205.1846580000001
 30
0.0
  0
VERTEX
  5
7EBA
  8
1
  6
CONTINUOUS
 10
2010.790962
 20
7104.1846580000001
 30
0.0
  0
VERTEX
  5
7EBB
  8
1
  6
CONTINUOUS
 10
1738.4909620000001
 20
7104.1846580000001
 30
0.0
  0
VERTEX
  5
7EBC
  8
1
  6
CONTINUOUS
 10
1738.4909620000001
 20
7205.1846580000001
 30
0.0
  0
SEQEND
  5
7EBD
  8
1
  6
CONTINUOUS
  0
LINE
  5
7AC7
  8
1
  6
CONTINUOUS
 10
2036.6409619999999
 20
7327.1846580000001
 30
0.0
 11
1712.6409619999999
 21
7327.1846580000001
 31
0.0
  0
LINE
  5
7AC8
  8
1
  6
CONTINUOUS
 10
1644.6409619999999
 20
7119.6846580000001
 30
0.0
 11
1738.4909620000001
 21
7119.6846580000001
 31
0.0
  0
LINE
  5
7AC9
  8
1
  6
CONTINUOUS
 10
1853.6409619999999
 20
7205.1846580000001
 30
0.0
 11
1853.6409619999999
 21
7327.1846580000001
 31
0.0
  0
LINE
  5
7ACA
  8
1
  6
CONTINUOUS
 10
1895.6409619999999
 20
7205.1846580000001
 30
0.0
 11
1895.6409619999999
 21
7327.1846580000001
 31
0.0
  0
LINE
  5
7ACB
  8
1
  6
CONTINUOUS
 10
1712.6409619999999
 20
7801.3063780000011
 30
0.0
 11
1962.6409619999999
 21
7801.3063780000011
 31
0.0
  0
LINE
  5
7ACC
  8
1
  6
CONTINUOUS
 10
3136.8409620000002
 20
7119.6846580000001
 30
0.0
 11
3594.640961999999
 21
7119.6846580000001
 31
0.0
  0
LINE
  5
7ACD
  8
1
  6
CONTINUOUS
 10
2992.6409619999999
 20
7327.1846580000001
 30
0.0
 11
2992.6409619999999
 21
8077.1846580000001
 31
0.0
  0
POLYLINE
  5
7ACE
  8
1
  6
CONTINUOUS
 66
     1
 10
0.0
 20
0.0
 30
0.0
 70
     1
  0
VERTEX
  5
7EBE
  8
1
  6
CONTINUOUS
 10
2752.4409620000001
 20
7205.1846580000001
 30
0.0
  0
VERTEX
  5
7EBF
  8
1
  6
CONTINUOUS
 10
2752.4409620000001
 20
7104.1846580000001
 30
0.0
  0
VERTEX
  5
7EC0
  8
1
  6
CONTINUOUS
 10
3136.8409620000002
 20
7104.1846580000001
 30
0.0
  0
VERTEX
  5
7EC1
  8
1
  6
CONTINUOUS
 10
3136.8409620000002
 20
7205.1846580000001
 30
0.0
  0
SEQEND
  5
7EC2
  8
1
  6
CONTINUOUS
  0
LINE
  5
7AD4
  8
1
  6
CONTINUOUS
 10
2972.1409619999999
 20
7205.1846580000001
 30
0.0
 11
2972.1409619999999
 21
7327.1846580000001
 31
0.0
  0
LINE
  5
7AD5
  8
1
  6
CONTINUOUS
 10
2917.140961999999
 20
7205.1846580000001
 30
0.0
 11
2917.140961999999
 21
7327.1846580000001
 31
0.0
  0
LINE
  5
7AD6
  8
1
  6
CONTINUOUS
 10
3660.6409619999999
 20
7327.1846580000001
 30
0.0
 11
3660.6409619999999
 21
8077.1846580000001
 31
0.0
  0
LINE
  5
7AD7
  8
1
  6
CONTINUOUS
 10
3594.640961999999
 20
7119.6846580000001
 30
0.0
 11
3594.640961999999
 21
7327.1846580000001
 31
0.0
  0
LINE
  5
7AD8
  8
1
  6
CONTINUOUS
 10
3594.640961999999
 20
8077.1846580000001
 30
0.0
 11
3594.640961999999
 21
8144.6846580000001
 31
0.0
  0
POLYLINE
  5
7AD9
  8
1
  6
CONTINUOUS
 66
     1
 10
0.0
 20
0.0
 30
0.0
 70
     1
  0
VERTEX
  5
7EC3
  8
1
  6
CONTINUOUS
 10
5799.5570409999991
 20
3016.9111429999989
 30
0.0
  0
VERTEX
  5
7EC4
  8
1
  6
CONTINUOUS
 10
5799.5570409999991
 20
3141.9111429999989
 30
0.0
  0
VERTEX
  5
7EC5
  8
1
  6
CONTINUOUS
 10
6823.557041
 20
3141.9111429999989
 30
0.0
  0
VERTEX
  5
7EC6
  8
1
  6
CONTINUOUS
 10
6823.557041
 20
3016.9111429999989
 30
0.0
  0
SEQEND
  5
7EC7
  8
1
  6
CONTINUOUS
  0
LINE
  5
7ADF
  8
1
  6
CONTINUOUS
 10
5799.5570409999991
 20
3307.9111429999998
 30
0.0
 11
6823.557041
 21
3307.9111429999998
 31
0.0
  0
LINE
  5
7AE0
  8
1
  6
CONTINUOUS
 10
5799.5570409999991
 20
3182.9111429999998
 30
0.0
 11
6823.557041
 21
3182.9111429999998
 31
0.0
  0
LINE
  5
7AE1
  8
1
  6
CONTINUOUS
 10
6007.057041
 20
3307.9111429999998
 30
0.0
 11
6007.057041
 21
4772.9111430000003
 31
0.0
  0
LINE
  5
7AE2
  8
1
  6
CONTINUOUS
 10
6757.057041
 20
3307.9111429999998
 30
0.0
 11
6757.057041
 21
4772.9111430000003
 31
0.0
  0
LINE
  5
7AE3
  8
1
  6
CONTINUOUS
 10
5936.057041
 20
3307.9111429999998
 30
0.0
 11
5936.057041
 21
4607.9111430000003
 31
0.0
  0
LINE
  5
7AE4
  8
1
  6
CONTINUOUS
 10
5722.057041
 20
3307.9111429999998
 30
0.0
 11
5722.057041
 21
4607.9111430000003
 31
0.0
  0
LINE
  5
7AE5
  8
1
  6
CONTINUOUS
 10
5885.057041
 20
3496.9111429999998
 30
0.0
 11
6007.057041
 21
3496.9111429999998
 31
0.0
  0
LINE
  5
7AE6
  8
1
  6
CONTINUOUS
 10
5885.057041
 20
3538.9111429999989
 30
0.0
 11
6007.057041
 21
3538.9111429999989
 31
0.0
  0
POLYLINE
  5
7AE7
  8
1
  6
CONTINUOUS
 66
     1
 10
0.0
 20
0.0
 30
0.0
 70
     1
  0
VERTEX
  5
7EC8
  8
1
  6
CONTINUOUS
 10
5784.057041
 20
3654.0843629999999
 30
0.0
  0
VERTEX
  5
7EC9
  8
1
  6
CONTINUOUS
 10
5784.057041
 20
3381.7379219999998
 30
0.0
  0
VERTEX
  5
7ECA
  8
1
  6
CONTINUOUS
 10
5885.057041
 20
3381.7379219999998
 30
0.0
  0
VERTEX
  5
7ECB
  8
1
  6
CONTINUOUS
 10
5885.057041
 20
3654.0843629999999
 30
0.0
  0
SEQEND
  5
7ECC
  8
1
  6
CONTINUOUS
  0
LINE
  5
7AED
  8
1
  6
CONTINUOUS
 10
5799.5570409999991
 20
3307.9111429999998
 30
0.0
 11
5722.057041
 21
3307.9111429999998
 31
0.0
  0
LINE
  5
7AEE
  8
1
  6
CONTINUOUS
 10
5799.5570409999991
 20
3182.9111429999998
 30
0.0
 11
5799.5570409999991
 21
3307.9111429999998
 31
0.0
  0
LINE
  5
7AEF
  8
1
  6
CONTINUOUS
 10
5722.057041
 20
4607.9111430000003
 30
0.0
 11
5936.057041
 21
4607.9111430000003
 31
0.0
  0
LINE
  5
7AF0
  8
1
  6
CONTINUOUS
 10
5885.057041
 20
4015.4111429999998
 30
0.0
 11
6007.057041
 21
4015.4111429999998
 31
0.0
  0
LINE
  5
7AF1
  8
1
  6
CONTINUOUS
 10
5885.057041
 20
4070.4111429999998
 30
0.0
 11
6007.057041
 21
4070.4111429999998
 31
0.0
  0
POLYLINE
  5
7AF2
  8
1
  6
CONTINUOUS
 66
     1
 10
0.0
 20
0.0
 30
0.0
 70
     1
  0
VERTEX
  5
7ECD
  8
1
  6
CONTINUOUS
 10
5784.057041
 20
3850.7270920000001
 30
0.0
  0
VERTEX
  5
7ECE
  8
1
  6
CONTINUOUS
 10
5885.057041
 20
3850.7270920000001
 30
0.0
  0
VERTEX
  5
7ECF
  8
1
  6
CONTINUOUS
 10
5885.057041
 20
4235.0951930000001
 30
0.0
  0
VERTEX
  5
7ED0
  8
1
  6
CONTINUOUS
 10
5784.057041
 20
4235.0951930000001
 30
0.0
  0
SEQEND
  5
7ED1
  8
1
  6
CONTINUOUS
  0
LINE
  5
7AF8
  8
1
  6
CONTINUOUS
 10
5957.057041
 20
4772.9111430000003
 30
0.0
 11
6807.057041
 21
4772.9111430000003
 31
0.0
  0
LINE
  5
7AF9
  8
1
  6
CONTINUOUS
 10
6823.557041
 20
3182.9111429999998
 30
0.0
 11
6823.557041
 21
3307.9111429999998
 31
0.0
  0
LINE
  5
7AFA
  8
2
  6
CENTER
 10
1551.47496
 20
7702.1846580000001
 30
0.0
 11
3764.4594900000002
 21
7702.1846580000001
 31
0.0
  0
LINE
  5
7AFB
  8
2
  6
CENTER
 10
6382.057041
 20
5015.0581679999987
 30
0.0
 11
6382.057041
 21
2860.852402
 31
0.0
  0
LINE
  5
7B01
  8
2
  6
CENTER
 10
5653.3095880000001
 20
4042.9111429999998
 30
0.0
 11
6871.1650719999998
 21
4042.9111429999998
 31
0.0
  0
LINE
  5
7B02
  8
2
  6
CENTER
 10
2944.6409619999999
 20
7010.6291609999998
 30
0.0
 11
2944.6409619999999
 21
8341.0323669999998
 31
0.0
  0
LINE
  5
7B03
  8
4
  6
CONTINUOUS
 10
7400.0
 20
2000.0
 30
0.0
 11
7400.0
 21
1200.0
 31
0.0
  0
LINE
  5
7B04
  8
4
  6
CONTINUOUS
 10
4600.0
 20
2000.0
 30
0.0
 11
4600.0
 21
1200.0
 31
0.0
  0
LINE
  5
7B05
  8
4
  6
CONTINUOUS
 10
2600.0
 20
2000.0
 30
0.0
 11
2600.0
 21
1200.0
 31
0.0
  0
LINE
  5
7B08
  8
4
  6
CONTINUOUS
 10
2600.0
 20
1200.0
 30
0.0
 11
7400.0
 21
1200.0
 31
0.0
  0
LINE
  5
7B09
  8
4
  6
CONTINUOUS
 10
2600.0
 20
1600.0
 30
0.0
 11
7400.0
 21
1600.0
 31
0.0
  0
TEXT
  5
7B0A
  8
4
  6
CONTINUOUS
 10
2754.0083199999999
 20
1726.1721199999999
 30
0.0
 40
200.0
  1
機器名称
  0
TEXT
  5
7B0B
  8
4
  6
CONTINUOUS
 10
2745.03244
 20
1286.5806399999999
 30
0.0
 40
200.0
  1
機器型番
  0
TEXT
  5
7B0C
  8
4
  6
CONTINUOUS
 10
4710.7150000000001
 20
1690.2870800000001
 30
0.0
 40
200.0
  1
ミツヤ多翼送風機
  0
TEXT
  5
7B0D
  8
4
  6
CONTINUOUS
 10
4746.6179999999986
 20
1268.6383199999991
 30
0.0
 40
200.0
  1
MFE#6-4
  0
TEXT
  5
7B0F
  8
4
  6
CONTINUOUS
 10
3119.7158199999999
 20
9533.7153600000001
 30
0.0
 40
216.0
  1
床置防振ベット
  0
TEXT
  5
7B10
  8
4
  6
CONTINUOUS
 10
1264.6703600000001
 20
10135.52392
 30
0.0
 40
288.0
  1
ベルト駆動式片吸込両持排煙ファン
  0
LINE
  5
7B11
  8
4
  6
CONTINUOUS
 10
1000.0
 20
9877.6350000000002
 30
0.0
 11
7400.0
 21
9877.6350000000002
 31
0.0
  0
LINE
  5
7B12
  8
4
  6
CONTINUOUS
 10
1000.0
 20
10677.635
 30
0.0
 11
7400.0
 21
10677.635
 31
0.0
  0
LINE
  5
7B13
  8
4
  6
CONTINUOUS
 10
2600.0
 20
2000.0
 30
0.0
 11
7400.0
 21
2000.0
 31
0.0
  0
LINE
  5
7B14
  8
4
  6
CONTINUOUS
 10
1000.0
 20
10677.635
 30
0.0
 11
1000.0
 21
9877.6350000000002
 31
0.0
  0
TEXT
  5
7B15
  8
4
  6
CONTINUOUS
 10
1376.2804599999999
 20
9529.2779200000004
 30
0.0
 40
216.0
  1
右回転上向
  0
TEXT
  5
7B16
  8
4
  6
CONTINUOUS
 10
5875.87824
 20
10824.24432
 30
0.0
 40
224.0
  1
No.
  0
TEXT
  5
7B17
  8
4
  6
CONTINUOUS
 10
5245.1842399999996
 20
9533.7153600000001
 30
0.0
 40
216.0
  1
縮尺：1/40
  0
LINE
  5
7B18
  8
4
  6
CONTINUOUS
 10
7400.0
 20
10677.635
 30
0.0
 11
7400.0
 21
9877.6350000000002
 31
0.0
  0
LINE
  5
7B1A
  8
4
  6
CONTINUOUS
 10
5762.4696800000002
 20
10725.054319999999
 30
0.0
 11
5762.4696800000002
 21
11146.609039999999
 31
0.0
  0
LINE
  5
7B1B
  8
4
  6
CONTINUOUS
 10
5762.4696800000002
 20
11146.609039999999
 30
0.0
 11
7400.0
 21
11146.609039999999
 31
0.0
  0
LINE
  5
7B1C
  8
4
  6
CONTINUOUS
 10
7400.0
 20
11146.609039999999
 30
0.0
 11
7400.0
 21
10725.054319999999
 31
0.0
  0
LINE
  5
7B1D
  8
4
  6
CONTINUOUS
 10
7400.0
 20
10725.054319999999
 30
0.0
 11
5762.4696800000002
 21
10725.054319999999
 31
0.0
  0
DIMENSION
  5
7B35
  8
3
  6
CONTINUOUS
  2
*D1
 10
2992.6409619999999
 20
5039.656121
 30
0.0
 11
2476.8535360000001
 21
5039.656121
 31
0.0
 70
   128
 13
1962.6409619999999
 23
4772.9111430000003
 33
0.0
 14
2992.6409619999999
 24
4772.9111430000003
 34
0.0
1001
ACAD
1000
DSTYLE
1002
{
1070
   287
1070
     3
1070
   287
1070
     3
1070
    40
1040
40.0
1070
   143
1040
0.039
1070
   172
1070
     1
1070
   271
1070
     0
1070
   279
1070
     0
1070
   288
1070
     1
1002
}
  0
DIMENSION
  5
7B42
  8
3
  6
CONTINUOUS
  2
*D2
 10
2944.6409619999999
 20
5277.3232719999996
 30
0.0
 11
2519.3195850000002
 21
5277.3232719999996
 31
0.0
 70
   128
 13
1962.6409619999999
 23
4772.9111430000003
 33
0.0
 14
2944.6409619999999
 24
4904.3517329999986
 34
0.0
1001
ACAD
1000
DSTYLE
1002
{
1070
   287
1070
     3
1070
   287
1070
     3
1070
    40
1040
40.0
1070
   143
1040
0.039
1070
   172
1070
     1
1070
   271
1070
     0
1070
   279
1070
     0
1070
   288
1070
     1
1002
}
  0
DIMENSION
  5
7B5B
  8
3
  6
CONTINUOUS
  2
*D3
 10
3988.645253000001
 20
4042.9111429999998
 30
0.0
 11
3988.6452529999988
 21
4377.2446060000002
 31
0.0
 70
   128
 13
3042.6409619999999
 23
4772.9111430000003
 33
0.0
 14
3775.1091109999988
 24
4042.9111429999998
 34
0.0
 50
90.0
1001
ACAD
1000
DSTYLE
1002
{
1070
   287
1070
     3
1070
   287
1070
     3
1070
    40
1040
40.0
1070
   143
1040
0.039
1070
   172
1070
     1
1070
   271
1070
     0
1070
   279
1070
     0
1070
   288
1070
     1
1002
}
  0
DIMENSION
  5
7B67
  8
3
  6
CONTINUOUS
  2
*D4
 10
3988.6452529999988
 20
3182.9111429999998
 30
0.0
 11
3888.6452529999988
 21
3612.9111429999998
 31
0.0
 70
     0
 13
3775.1091109999988
 23
4042.9111429999998
 33
0.0
 14
3594.640961999999
 24
3182.9111429999998
 34
0.0
 50
90.0
1001
ACAD
1000
DSTYLE
1002
{
1070
   287
1070
     4
1070
   287
1070
     4
1070
    40
1040
40.0
1070
    75
1070
     1
1070
   143
1040
0.039
1070
   172
1070
     1
1070
   271
1070
     0
1070
   279
1070
     1
1070
   288
1070
     1
1002
}
  0
DIMENSION
  5
7B77
  8
3
  6
CONTINUOUS
  2
*D5
 10
3988.3037899999999
 20
3016.9111429999989
 30
0.0
 11
3988.303789999999
 21
2676.9111429999998
 31
0.0
 70
   128
 13
3594.640961999999
 23
3182.9111429999998
 33
0.0
 14
3594.640961999999
 24
3016.9111429999989
 34
0.0
 50
90.0
1001
ACAD
1000
DSTYLE
1002
{
1070
   287
1070
     3
1070
   287
1070
     3
1070
    40
1040
40.0
1070
   143
1040
0.039
1070
   172
1070
     1
1070
   271
1070
     0
1070
   279
1070
     0
1070
   288
1070
     1
1002
}
  0
DIMENSION
  5
7B84
  8
3
  6
CONTINUOUS
  2
*D6
 10
4258.3069170000008
 20
3016.9111429999989
 30
0.0
 11
4258.3069169999999
 21
3808.5410639999991
 31
0.0
 70
   128
 13
3062.6409619999999
 23
4772.9111430000003
 33
0.0
 14
3594.640961999999
 24
3016.9111429999989
 34
0.0
 50
90.0
1001
ACAD
1000
DSTYLE
1002
{
1070
   287
1070
     3
1070
   287
1070
     3
1070
    40
1040
40.0
1070
   143
1040
0.039
1070
   172
1070
     1
1070
   271
1070
     0
1070
   279
1070
     0
1070
   288
1070
     1
1002
}
  0
DIMENSION
  5
7B91
  8
3
  6
CONTINUOUS
  2
*D7
 10
2944.6409619999999
 20
2713.574548
 30
0.0
 11
2306.9893000000002
 21
2713.574548
 31
0.0
 70
   128
 13
1644.6409619999999
 23
3016.9111429999989
 33
0.0
 14
2944.6409619999999
 24
2852.6725609999999
 34
0.0
1001
ACAD
1000
DSTYLE
1002
{
1070
   287
1070
     3
1070
   287
1070
     3
1070
    40
1040
40.0
1070
   143
1040
0.039
1070
   172
1070
     1
1070
   271
1070
     0
1070
   279
1070
     0
1070
   288
1070
     1
1002
}
  0
DIMENSION
  5
7B9D
  8
3
  6
CONTINUOUS
  2
*D8
 10
3594.640961999999
 20
2713.574548
 30
0.0
 11
3269.640961999999
 21
2813.574548
 31
0.0
 70
     0
 13
2944.6409619999999
 23
2852.6725609999999
 33
0.0
 14
3594.640961999999
 24
3016.9111429999989
 34
0.0
1001
ACAD
1000
DSTYLE
1002
{
1070
   287
1070
     4
1070
   287
1070
     4
1070
    40
1040
40.0
1070
    75
1070
     1
1070
   143
1040
0.039
1070
   172
1070
     1
1070
   271
1070
     0
1070
   279
1070
     1
1070
   288
1070
     1
1002
}
  0
DIMENSION
  5
7BAA
  8
3
  6
CONTINUOUS
  2
*D9
 10
6757.057041
 20
5008.1916770000007
 30
0.0
 11
6383.949540999999
 21
5008.1916770000007
 31
0.0
 70
   128
 13
6007.057041
 23
4772.9111430000003
 33
0.0
 14
6757.057041
 24
4772.9111430000003
 34
0.0
1001
ACAD
1000
DSTYLE
1002
{
1070
   287
1070
     3
1070
   287
1070
     3
1070
    40
1040
40.0
1070
   143
1040
0.039
1070
   172
1070
     1
1070
   271
1070
     0
1070
   279
1070
     0
1070
   288
1070
     1
1002
}
  0
LINE
  5
7BAB
  8
1
  6
CONTINUOUS
 10
6761.057041
 20
3512.9111429999998
 30
0.0
 11
6761.057041
 21
4572.9111430000003
 31
0.0
  0
DIMENSION
  5
7BBA
  8
3
  6
CONTINUOUS
  2
*D10
 10
7102.7921510000006
 20
3512.9111429999998
 30
0.0
 11
7102.7921510000006
 21
4043.338518
 31
0.0
 70
   128
 13
6761.057041
 23
4572.9111430000003
 33
0.0
 14
6761.057041
 24
3512.9111429999998
 34
0.0
 50
90.0
1001
ACAD
1000
DSTYLE
1002
{
1070
   287
1070
     3
1070
   287
1070
     3
1070
     3
1000
φ<>
1070
    40
1040
40.0
1070
   143
1040
0.039
1070
   172
1070
     1
1070
   271
1070
     0
1070
   279
1070
     0
1070
   288
1070
     1
1002
}
  0
DIMENSION
  5
7BC7
  8
3
  6
CONTINUOUS
  2
*D11
 10
6382.057041
 20
2742.216422
 30
0.0
 11
6107.771326
 21
2742.216422
 31
0.0
 70
   128
 13
5799.5570409999991
 23
3016.9111429999989
 33
0.0
 14
6382.057041
 24
2860.852402
 34
0.0
1001
ACAD
1000
DSTYLE
1002
{
1070
   287
1070
     3
1070
   287
1070
     3
1070
    40
1040
40.0
1070
   143
1040
0.039
1070
   172
1070
     1
1070
   271
1070
     0
1070
   279
1070
     0
1070
   288
1070
     1
1002
}
  0
DIMENSION
  5
7BD5
  8
3
  6
CONTINUOUS
  2
*D12
 10
6823.557041
 20
2742.216422
 30
0.0
 11
6602.270469
 21
2750.4725360000002
 31
0.0
 70
   128
 13
6382.057041
 23
2860.852402
 33
0.0
 14
6823.557041
 24
3016.9111429999989
 34
0.0
1001
ACAD
1000
DSTYLE
1002
{
1070
   287
1070
     4
1070
   287
1070
     4
1070
    40
1040
40.0
1070
    75
1070
     1
1070
   143
1040
0.039
1070
   172
1070
     1
1070
   271
1070
     0
1070
   279
1070
     1
1070
   288
1070
     1
1002
}
  0
DIMENSION
  5
7C27
  8
3
  6
CONTINUOUS
  2
*D13
 10
3594.640961999999
 20
8387.8363350000018
 30
0.0
 11
2610.0227620000001
 21
8387.8363350000018
 31
0.0
 70
   128
 13
1644.6409619999999
 23
8144.6846580000001
 33
0.0
 14
3594.640961999999
 24
8144.6846580000001
 34
0.0
1001
ACAD
1000
DSTYLE
1002
{
1070
   287
1070
     3
1070
   287
1070
     3
1070
    40
1040
40.0
1070
   143
1040
0.039
1070
   172
1070
     1
1070
   271
1070
     0
1070
   279
1070
     0
1070
   288
1070
     1
1002
}
  0
DIMENSION
  5
7C34
  8
3
  6
CONTINUOUS
  2
*D14
 10
3951.8622380000011
 20
7119.6846580000001
 30
0.0
 11
3951.8622380000002
 21
7629.5136570000004
 31
0.0
 70
   128
 13
3594.640961999999
 23
8144.6846580000001
 33
0.0
 14
3594.640961999999
 24
7119.6846580000001
 34
0.0
 50
90.0
1001
ACAD
1000
DSTYLE
1002
{
1070
   287
1070
     3
1070
   287
1070
     3
1070
    40
1040
40.0
1070
   143
1040
0.039
1070
   172
1070
     1
1070
   271
1070
     0
1070
   279
1070
     0
1070
   288
1070
     1
1002
}
  0
DIMENSION
  5
7C86
  8
3
  6
CONTINUOUS
  2
*D15
 10
6382.057041
 20
5259.2018070000004
 30
0.0
 11
6013.4856124285716
 21
5259.2018070000004
 31
0.0
 70
   128
  1
MAX\P700
 13
5722.057041
 23
4607.9111430000003
 33
0.0
 14
6382.057041
 24
5197.3642529999988
 34
0.0
1001
ACAD
1000
DSTYLE
1002
{
1070
   287
1070
     3
1070
   287
1070
     3
1070
    40
1040
40.0
1070
   143
1040
0.039
1070
   172
1070
     1
1070
   271
1070
     0
1070
   279
1070
     0
1070
   288
1070
     1
1002
}
  0
DIMENSION
  5
7C94
  8
3
  6
CONTINUOUS
  2
*D16
 10
6761.057041
 20
5259.2018070000004
 30
0.0
 11
6573.303739
 21
5262.0410540000003
 31
0.0
 70
   128
 13
6382.057041
 23
5197.3642529999988
 33
0.0
 14
6761.057041
 24
4572.9111430000003
 34
0.0
1001
ACAD
1000
DSTYLE
1002
{
1070
   287
1070
     4
1070
   287
1070
     4
1070
    40
1040
40.0
1070
    75
1070
     1
1070
   143
1040
0.039
1070
   172
1070
     1
1070
   271
1070
     0
1070
   279
1070
     1
1070
   288
1070
     1
1002
}
  0
DIMENSION
  5
7CD0
  8
3
  6
CONTINUOUS
  2
*D17
 10
3660.6124640646808
 20
5277.3232719999996
 30
0.0
 11
3302.6267130323399
 21
5377.3232719999987
 31
0.0
 70
     0
 13
2944.6409619999999
 23
4904.3517329999986
 33
0.0
 14
3660.6124640646808
 24
4042.9111429999998
 34
0.0
1001
ACAD
1000
DSTYLE
1002
{
1070
   287
1070
     4
1070
   287
1070
     4
1070
    40
1040
40.0
1070
    75
1070
     1
1070
   143
1040
0.039
1070
   172
1070
     1
1070
   271
1070
     0
1070
   279
1070
     1
1070
   288
1070
     1
1002
}
  0
LINE
  5
7D3F
  8
1
 10
3594.640961999999
 20
3182.9111429999998
 30
0.0
 11
3594.640961999999
 21
3307.9111429999998
 31
0.0
  0
LINE
  5
7E8B
  8
1
 10
3569.6409620000009
 20
3307.9111429999998
 30
0.0
 11
3569.6409619999999
 21
4557.9111430000003
 31
0.0
  0
LINE
  5
7E8C
  8
1
  6
CONTINUOUS
 10
2319.6409619999999
 20
4557.9111430000003
 30
0.0
 11
3569.6409619999999
 21
4557.9111430000003
 31
0.0
  0
LINE
  5
7E8D
  8
1
 10
2319.6409619999999
 20
3307.9111429999998
 30
0.0
 11
2319.6409619999999
 21
4557.9111430000003
 31
0.0
  0
ENDSEC
  0
EOF
