  0
SECTION
  2
HEADER
  9
$ACADVER
  1
AC1009
  9
$INSBASE
 10
0.0
 20
0.0
 30
0.0
  9
$EXTMIN
 10
1000.0
 20
1200.0
 30
0.0
  9
$EXTMAX
 10
7400.0
 20
11146.609046
 30
0.0
  9
$LIMMIN
 10
0.0
 20
0.0
  9
$LIMMAX
 10
297.0
 20
210.0
  9
$ORTHOMODE
 70
     0
  9
$REGENMODE
 70
     1
  9
$FILLMODE
 70
     0
  9
$QTEXTMODE
 70
     0
  9
$MIRRTEXT
 70
     1
  9
$DRAGMODE
 70
     2
  9
$LTSCALE
 40
100.0
  9
$OSMODE
 70
    37
  9
$ATTMODE
 70
     1
  9
$TEXTSIZE
 40
180.0
  9
$TRACEWID
 40
0.05
  9
$TEXTSTYLE
  7
STANDARD
  9
$CLAYER
  8
3
  9
$CELTYPE
  6
BYLAYER
  9
$CECOLOR
 62
   256
  9
$DIMSCALE
 40
40.0
  9
$DIMASZ
 40
2.0
  9
$DIMEXO
 40
0.5
  9
$DIMDLI
 40
10.0
  9
$DIMRND
 40
0.0
  9
$DIMDLE
 40
0.0
  9
$DIMEXE
 40
1.0
  9
$DIMTP
 40
1.0
  9
$DIMTM
 40
1.0
  9
$DIMTXT
 40
3.0
  9
$DIMCEN
 40
0.0
  9
$DIMTSZ
 40
0.0
  9
$DIMTOL
 70
     0
  9
$DIMLIM
 70
     0
  9
$DIMTIH
 70
     0
  9
$DIMTOH
 70
     0
  9
$DIMSE1
 70
     0
  9
$DIMSE2
 70
     0
  9
$DIMTAD
 70
     1
  9
$DIMZIN
 70
     8
  9
$DIMBLK
  1

  9
$DIMASO
 70
     1
  9
$DIMSHO
 70
     1
  9
$DIMPOST
  1

  9
$DIMAPOST
  1

  9
$DIMALT
 70
     0
  9
$DIMALTD
 70
     2
  9
$DIMALTF
 40
0.039
  9
$DIMLFAC
 40
1.0
  9
$DIMTOFL
 70
     1
  9
$DIMTVP
 40
0.0
  9
$DIMTIX
 70
     0
  9
$DIMSOXD
 70
     0
  9
$DIMSAH
 70
     1
  9
$DIMBLK1
  1
OPEN
  9
$DIMBLK2
  1
OPEN
  9
$DIMSTYLE
  2
IGA
  9
$DIMCLRD
 70
     0
  9
$DIMCLRE
 70
     0
  9
$DIMCLRT
 70
     0
  9
$DIMTFAC
 40
10.0
  9
$DIMGAP
 40
1.0
  9
$LUNITS
 70
     2
  9
$LUPREC
 70
     3
  9
$SKETCHINC
 40
0.1
  9
$FILLETRAD
 40
50.0
  9
$AUNITS
 70
     0
  9
$AUPREC
 70
     0
  9
$MENU
  1
acad
  9
$ELEVATION
 40
0.0
  9
$PELEVATION
 40
0.0
  9
$THICKNESS
 40
0.0
  9
$LIMCHECK
 70
     0
  9
$BLIPMODE
 70
     0
  9
$CHAMFERA
 40
0.5
  9
$CHAMFERB
 40
0.5
  9
$SKPOLY
 70
     0
  9
$TDCREATE
 40
2450753.4002586799
  9
$TDUPDATE
 40
2454953.8425604161
  9
$TDINDWG
 40
0.0115305324
  9
$TDUSRTIMER
 40
0.0115305324
  9
$USRTIMER
 70
     1
  9
$ANGBASE
 50
0.0
  9
$ANGDIR
 70
     0
  9
$PDMODE
 70
     0
  9
$PDSIZE
 40
0.0
  9
$PLINEWID
 40
0.0
  9
$COORDS
 70
     1
  9
$SPLFRAME
 70
     0
  9
$SPLINETYPE
 70
     6
  9
$SPLINESEGS
 70
     8
  9
$ATTDIA
 70
     0
  9
$ATTREQ
 70
     1
  9
$HANDLING
 70
 10241
  9
$HANDSEED
  5
80E8
  9
$SURFTAB1
 70
     6
  9
$SURFTAB2
 70
     6
  9
$SURFTYPE
 70
     6
  9
$SURFU
 70
     6
  9
$SURFV
 70
     6
  9
$UCSNAME
  2

  9
$UCSORG
 10
0.0
 20
0.0
 30
0.0
  9
$UCSXDIR
 10
1.0
 20
0.0
 30
0.0
  9
$UCSYDIR
 10
0.0
 20
1.0
 30
0.0
  9
$PUCSNAME
  2

  9
$PUCSORG
 10
0.0
 20
0.0
 30
0.0
  9
$PUCSXDIR
 10
1.0
 20
0.0
 30
0.0
  9
$PUCSYDIR
 10
0.0
 20
1.0
 30
0.0
  9
$USERI1
 70
     0
  9
$USERI2
 70
     0
  9
$USERI3
 70
     0
  9
$USERI4
 70
     0
  9
$USERI5
 70
     0
  9
$USERR1
 40
0.0
  9
$USERR2
 40
0.0
  9
$USERR3
 40
0.0
  9
$USERR4
 40
0.0
  9
$USERR5
 40
0.0
  9
$WORLDVIEW
 70
     1
  9
$SHADEDGE
 70
     3
  9
$SHADEDIF
 70
    70
  9
$TILEMODE
 70
     1
  9
$MAXACTVP
 70
    16
  9
$PLIMCHECK
 70
     0
  9
$PEXTMIN
 10
1.0000000000000000E+020
 20
1.0000000000000000E+020
 30
1.0000000000000000E+020
  9
$PEXTMAX
 10
-1.0000000000000000E+020
 20
-1.0000000000000000E+020
 30
-1.0000000000000000E+020
  9
$PLIMMIN
 10
0.0
 20
0.0
  9
$PLIMMAX
 10
12.0
 20
9.0
  9
$UNITMODE
 70
     0
  9
$VISRETAIN
 70
     0
  9
$PLINEGEN
 70
     0
  9
$PSLTSCALE
 70
     1
  0
ENDSEC
  0
SECTION
  2
TABLES
  0
TABLE
  2
VPORT
 70
     2
  0
VPORT
  2
*ACTIVE
 70
     0
 10
0.0
 20
0.0
 11
1.0
 21
1.0
 12
4661.2743671992703
 22
5935.819225856465
 13
0.0
 23
0.0
 14
10.0
 24
10.0
 15
10.0
 25
10.0
 16
0.0
 26
0.0
 36
1.0
 17
0.0
 27
0.0
 37
0.0
 40
12084.896146763171
 41
1.5051150895140659
 42
50.0
 43
0.0
 44
0.0
 50
0.0
 51
0.0
 71
     0
 72
   100
 73
     1
 74
     0
 75
     0
 76
     0
 77
     0
 78
     0
  0
ENDTAB
  0
TABLE
  2
LTYPE
 70
     2
  0
LTYPE
  2
CONTINUOUS
 70
     0
  3
Solid line
 72
    65
 73
     0
 40
0.0
  0
LTYPE
  2
CENTER
 70
     0
  3
____ _ ____ _ ____ _ ____ _ ____ _ ____ _ ____ 
 72
    65
 73
     4
 40
2.0
 49
1.25
 49
-0.25
 49
0.25
 49
-0.25
  0
ENDTAB
  0
TABLE
  2
LAYER
 70
     6
  0
LAYER
  2
0
 70
     0
 62
     7
  6
CONTINUOUS
  0
LAYER
  2
3
 70
     0
 62
     2
  6
CONTINUOUS
  0
LAYER
  2
2
 70
     0
 62
     3
  6
CENTER
  0
LAYER
  2
1
 70
     0
 62
     4
  6
CONTINUOUS
  0
LAYER
  2
4
 70
     0
 62
     7
  6
CONTINUOUS
  0
LAYER
  2
DEFPOINTS
 70
     0
 62
     7
  6
CONTINUOUS
  0
ENDTAB
  0
TABLE
  2
STYLE
 70
     1
  0
STYLE
  2
STANDARD
 70
     0
 40
0.0
 41
1.0
 50
0.0
 71
     0
 42
180.0
  3
simplex.shx
  4
extfont.shx
  0
ENDTAB
  0
TABLE
  2
VIEW
 70
     0
  0
ENDTAB
  0
TABLE
  2
UCS
 70
     0
  0
ENDTAB
  0
TABLE
  2
APPID
 70
     1
  0
APPID
  2
ACAD
 70
     0
  0
ENDTAB
  0
TABLE
  2
DIMSTYLE
 70
     1
  0
DIMSTYLE
  2
IGA
 70
     0
  3

  4

  5

  6
OPEN
  7
OPEN
 40
2.0
 41
2.0
 42
0.5
 43
10.0
 44
1.0
 45
0.0
 46
0.0
 47
1.0
 48
1.0
140
3.0
141
0.0
142
0.0
143
0.03937
144
1.0
145
0.0
146
10.0
147
1.0
 71
     0
 72
     0
 73
     0
 74
     0
 75
     0
 76
     0
 77
     1
 78
     8
170
     0
171
     2
172
     0
173
     1
174
     0
175
     0
176
     0
177
     0
178
     0
  0
ENDTAB
  0
ENDSEC
  0
SECTION
  2
BLOCKS
  0
BLOCK
  8
0
  2
$MODEL_SPACE
 70
     0
 10
0.0
 20
0.0
 30
0.0
  3
$MODEL_SPACE
  1

  0
ENDBLK
  5
1B
  8
0
  0
BLOCK
 67
     1
  8
0
  2
$PAPER_SPACE
 70
     0
 10
0.0
 20
0.0
 30
0.0
  3
$PAPER_SPACE
  1

  0
ENDBLK
  5
18
 67
     1
  8
0
  0
BLOCK
  8
0
  2
_OPEN
 70
     0
 10
0.0
 20
0.0
 30
0.0
  3
_OPEN
  1

  0
LINE
  5
7B50
  8
0
  6
BYBLOCK
 62
     0
 10
-1.0
 20
0.166667
 30
0.0
 11
0.0
 21
0.0
 31
0.0
  0
LINE
  5
7B51
  8
0
  6
BYBLOCK
 62
     0
 10
0.0
 20
0.0
 30
0.0
 11
-1.0
 21
-0.166667
 31
0.0
  0
LINE
  5
7B52
  8
0
  6
BYBLOCK
 62
     0
 10
0.0
 20
0.0
 30
0.0
 11
-1.0
 21
0.0
 31
0.0
  0
ENDBLK
  5
7B53
  8
0
  0
BLOCK
  8
0
  2
*D1
 70
     1
 10
0.0
 20
0.0
 30
0.0
  3
*D1
  1

  0
LINE
  5
8031
  8
3
  6
CONTINUOUS
 62
     0
 10
3493.2974079999999
 20
4635.8399342618613
 30
0.0
 11
3782.4933369999999
 21
4635.8399342618613
 31
0.0
  0
LINE
  5
8032
  8
3
  6
CONTINUOUS
 62
     0
 10
3493.2974079999999
 20
3605.8399342618609
 30
0.0
 11
3782.4933369999999
 21
3605.8399342618609
 31
0.0
  0
LINE
  5
8033
  8
3
  6
CONTINUOUS
 62
     0
 10
3742.4933369999999
 20
4555.8399342618613
 30
0.0
 11
3742.4933369999999
 21
3685.8399342618609
 31
0.0
  0
INSERT
  5
8034
  8
3
  6
CONTINUOUS
 62
     0
  2
_OPEN
 10
3742.4933369999999
 20
4635.8399342618613
 30
0.0
 41
80.0
 42
80.0
 43
80.0
 50
90.0
  0
INSERT
  5
8035
  8
3
  6
CONTINUOUS
 62
     0
  2
_OPEN
 10
3742.4933369999999
 20
3605.8399342618609
 30
0.0
 41
80.0
 42
80.0
 43
80.0
 50
270.0
  0
TEXT
  8
3
  40
120
  5
80D5
  62
0
  72
0
  71
0
 10
3402.49
 20
3875.40
 30
0.000000
  1
1030
  0
POINT
  5
8037
  8
DEFPOINTS
  6
CONTINUOUS
 62
     0
 10
3473.2974079999999
 20
4635.8399342618613
 30
0.0
  0
POINT
  5
8038
  8
DEFPOINTS
  6
CONTINUOUS
 62
     0
 10
3473.2974079999999
 20
3605.8399342618609
 30
0.0
  0
POINT
  5
8039
  8
DEFPOINTS
  6
CONTINUOUS
 62
     0
 10
3742.4933369999999
 20
3605.8399342618609
 30
0.0
  0
ENDBLK
  5
7B60
  8
0
  0
BLOCK
  8
0
  2
*D2
 70
     1
 10
0.0
 20
0.0
 30
0.0
  3
*D2
  1

  0
LINE
  5
803A
  8
3
  6
CONTINUOUS
 62
     0
 10
3660.2929140000001
 20
4587.8399342618613
 30
0.0
 11
4030.0946829999998
 21
4587.8399342618613
 31
0.0
  0
LINE
  5
803B
  8
3
  6
CONTINUOUS
 62
     0
 10
3493.2974079999999
 20
3605.8399342618609
 30
0.0
 11
4030.0946829999998
 21
3605.8399342618609
 31
0.0
  0
LINE
  5
803C
  8
3
  6
CONTINUOUS
 62
     0
 10
3990.0946829999998
 20
4507.8399342618623
 30
0.0
 11
3990.0946829999998
 21
3685.8399342618609
 31
0.0
  0
INSERT
  5
803D
  8
3
  6
CONTINUOUS
 62
     0
  2
_OPEN
 10
3990.0946829999998
 20
4587.8399342618613
 30
0.0
 41
80.0
 42
80.0
 43
80.0
 50
90.0
  0
INSERT
  5
803E
  8
3
  6
CONTINUOUS
 62
     0
  2
_OPEN
 10
3990.0946829999998
 20
3605.8399342618609
 30
0.0
 41
80.0
 42
80.0
 43
80.0
 50
270.0
  0
TEXT
  8
3
  40
120
  5
80D6
  62
0
  72
0
  71
0
 10
3650.09
 20
3915.31
 30
0.000000
  1
982
  0
POINT
  5
8040
  8
DEFPOINTS
  6
CONTINUOUS
 62
     0
 10
3640.2929140000001
 20
4587.8399342618613
 30
0.0
  0
POINT
  5
8041
  8
DEFPOINTS
  6
CONTINUOUS
 62
     0
 10
3473.2974079999999
 20
3605.8399342618609
 30
0.0
  0
POINT
  5
8042
  8
DEFPOINTS
  6
CONTINUOUS
 62
     0
 10
3990.0946829999998
 20
3605.8399342618609
 30
0.0
  0
ENDBLK
  5
7B6D
  8
0
  0
BLOCK
  8
0
  2
*D3
 70
     1
 10
0.0
 20
0.0
 30
0.0
  3
*D3
  1

  0
LINE
  5
8043
  8
3
  6
CONTINUOUS
 62
     0
 10
3660.2929140000001
 20
4587.8399342618613
 30
0.0
 11
4277.6959870000001
 21
4587.8399342618613
 31
0.0
  0
LINE
  5
8044
  8
3
  6
CONTINUOUS
 62
     0
 10
3413.2974079999999
 20
3372.8399342618609
 30
0.0
 11
4277.6959870000001
 21
3372.8399342618609
 31
0.0
  0
LINE
  5
8045
  8
3
  6
CONTINUOUS
 62
     0
 10
4237.6959870000001
 20
4507.8399342618623
 30
0.0
 11
4237.6959870000001
 21
3452.8399342618618
 31
0.0
  0
INSERT
  5
8046
  8
3
  6
CONTINUOUS
 62
     0
  2
_OPEN
 10
4237.6959870000001
 20
4587.8399342618613
 30
0.0
 41
80.0
 42
80.0
 43
80.0
 50
90.0
  0
INSERT
  5
8047
  8
3
  6
CONTINUOUS
 62
     0
  2
_OPEN
 10
4237.6959870000001
 20
3372.8399342618609
 30
0.0
 41
80.0
 42
80.0
 43
80.0
 50
270.0
  0
TEXT
  8
3
  40
120
  5
80D7
  62
0
  72
0
  71
0
 10
3897.70
 20
3767.94
 30
0.000000
  1
1215
  0
POINT
  5
8049
  8
DEFPOINTS
  6
CONTINUOUS
 62
     0
 10
3640.2929140000001
 20
4587.8399342618613
 30
0.0
  0
POINT
  5
804A
  8
DEFPOINTS
  6
CONTINUOUS
 62
     0
 10
3393.2974079999999
 20
3372.8399342618609
 30
0.0
  0
POINT
  5
804B
  8
DEFPOINTS
  6
CONTINUOUS
 62
     0
 10
4237.6959870000001
 20
3372.8399342618609
 30
0.0
  0
ENDBLK
  5
7D6A
  8
0
  0
BLOCK
  8
0
  2
*D4
 70
     1
 10
0.0
 20
0.0
 30
0.0
  3
*D4
  1

  0
LINE
  5
804C
  8
3
  6
CONTINUOUS
 62
     0
 10
3413.2974079999999
 20
3372.8399342618609
 30
0.0
 11
4277.695987000001
 21
3372.8399342618609
 31
0.0
  0
LINE
  5
804D
  8
3
  6
CONTINUOUS
 62
     0
 10
3413.2974079999999
 20
3206.8399342618618
 30
0.0
 11
4277.695987000001
 21
3206.8399342618618
 31
0.0
  0
LINE
  5
804E
  8
3
  6
CONTINUOUS
 62
     0
 10
4237.695987000001
 20
3452.8399342618618
 30
0.0
 11
4237.695987000001
 21
3532.8399342618609
 31
0.0
  0
LINE
  5
804F
  8
3
  6
CONTINUOUS
 62
     0
 10
4237.695987000001
 20
3126.8399342618618
 30
0.0
 11
4237.695987000001
 21
2686.8399342618618
 31
0.0
  0
LINE
  5
8050
  8
3
  6
CONTINUOUS
 62
     0
 10
4237.695987000001
 20
3372.8399342618609
 30
0.0
 11
4237.695987000001
 21
3206.8399342618618
 31
0.0
  0
INSERT
  5
8051
  8
3
  6
CONTINUOUS
 62
     0
  2
_OPEN
 10
4237.695987000001
 20
3372.8399342618609
 30
0.0
 41
80.0
 42
80.0
 43
80.0
 50
270.0
  0
INSERT
  5
8052
  8
3
  6
CONTINUOUS
 62
     0
  2
_OPEN
 10
4237.695987000001
 20
3206.8399342618618
 30
0.0
 41
80.0
 42
80.0
 43
80.0
 50
90.0
  0
TEXT
  8
3
  40
120
  5
80D8
  62
0
  72
0
  71
0
 10
3897.70
 20
2654.44
 30
0.000000
  1
166
  0
POINT
  5
8054
  8
DEFPOINTS
  6
CONTINUOUS
 62
     0
 10
3393.2974079999999
 20
3372.8399342618609
 30
0.0
  0
POINT
  5
8055
  8
DEFPOINTS
  6
CONTINUOUS
 62
     0
 10
3393.2974079999999
 20
3206.8399342618618
 30
0.0
  0
POINT
  5
8056
  8
DEFPOINTS
  6
CONTINUOUS
 62
     0
 10
4237.695987000001
 20
3206.8399342618618
 30
0.0
  0
ENDBLK
  5
7D5F
  8
0
  0
BLOCK
  8
0
  2
*D5
 70
     1
 10
0.0
 20
0.0
 30
0.0
  3
*D5
  1

  0
LINE
  5
8057
  8
3
  6
CONTINUOUS
 62
     0
 10
1443.2974079999999
 20
3186.8399342618618
 30
0.0
 11
1443.2974079999999
 21
2871.5553362618612
 31
0.0
  0
LINE
  5
8058
  8
3
  6
CONTINUOUS
 62
     0
 10
2743.2974079999999
 20
3051.6044582618611
 30
0.0
 11
2743.2974079999999
 21
2871.5553362618612
 31
0.0
  0
LINE
  5
8059
  8
3
  6
CONTINUOUS
 62
     0
 10
1523.2974079999999
 20
2911.5553362618612
 30
0.0
 11
2663.2974079999999
 21
2911.5553362618612
 31
0.0
  0
INSERT
  5
805A
  8
3
  6
CONTINUOUS
 62
     0
  2
_OPEN
 10
1443.2974079999999
 20
2911.5553362618612
 30
0.0
 41
80.0
 42
80.0
 43
80.0
 50
180.0
  0
INSERT
  5
805B
  8
3
  6
CONTINUOUS
 62
     0
  2
_OPEN
 10
2743.2974079999999
 20
2911.5553362618612
 30
0.0
 41
80.0
 42
80.0
 43
80.0
  0
TEXT
  8
3
  40
120
  5
80D9
  62
0
  72
0
  71
0
 10
1900.56
 20
2799.16
 30
0.000000
  1
1300
  0
POINT
  5
805D
  8
DEFPOINTS
  6
CONTINUOUS
 62
     0
 10
1443.2974079999999
 20
3206.8399342618618
 30
0.0
  0
POINT
  5
805E
  8
DEFPOINTS
  6
CONTINUOUS
 62
     0
 10
2743.2974079999999
 20
3071.6044582618611
 30
0.0
  0
POINT
  5
805F
  8
DEFPOINTS
  6
CONTINUOUS
 62
     0
 10
2743.2974079999999
 20
2911.5553362618612
 30
0.0
  0
ENDBLK
  5
7D23
  8
0
  0
BLOCK
  8
0
  2
*D6
 70
     1
 10
0.0
 20
0.0
 30
0.0
  3
*D6
  1

  0
LINE
  5
8060
  8
3
  6
CONTINUOUS
 62
     0
 10
3393.2974079999999
 20
3186.8399342618618
 30
0.0
 11
3393.2974079999999
 21
2871.5553362618612
 31
0.0
  0
LINE
  5
8061
  8
3
  6
CONTINUOUS
 62
     0
 10
2823.2974079999999
 20
2911.5553362618612
 30
0.0
 11
3313.297407999999
 21
2911.5553362618612
 31
0.0
  0
INSERT
  5
8062
  8
3
  6
CONTINUOUS
 62
     0
  2
_OPEN
 10
2743.2974079999999
 20
2911.5553362618612
 30
0.0
 41
80.0
 42
80.0
 43
80.0
 50
180.0
  0
INSERT
  5
8063
  8
3
  6
CONTINUOUS
 62
     0
  2
_OPEN
 10
3393.2974079999999
 20
2911.5553362618612
 30
0.0
 41
80.0
 42
80.0
 43
80.0
  0
TEXT
  8
3
  40
120
  5
80DA
  62
0
  72
0
  71
0
 10
2828.30
 20
2799.16
 30
0.000000
  1
650
  0
POINT
  5
8065
  8
DEFPOINTS
  6
CONTINUOUS
 62
     0
 10
2743.2974079999999
 20
3071.6044582618611
 30
0.0
  0
POINT
  5
8066
  8
DEFPOINTS
  6
CONTINUOUS
 62
     0
 10
3393.2974079999999
 20
3206.8399342618618
 30
0.0
  0
POINT
  5
8067
  8
DEFPOINTS
  6
CONTINUOUS
 62
     0
 10
3393.2974079999999
 20
2911.5553362618612
 30
0.0
  0
ENDBLK
  5
7D2D
  8
0
  0
BLOCK
  8
0
  2
*D7
 70
     1
 10
0.0
 20
0.0
 30
0.0
  3
*D7
  1

  0
LINE
  5
8068
  8
3
  6
CONTINUOUS
 62
     0
 10
3473.2974079999999
 20
4705.8399342618613
 30
0.0
 11
3473.2974079999999
 21
5532.4765132618622
 31
0.0
  0
LINE
  5
8069
  8
3
  6
CONTINUOUS
 62
     0
 10
2743.2974079999999
 20
5456.9322842618612
 30
0.0
 11
2743.2974079999999
 21
5532.4765132618622
 31
0.0
  0
LINE
  5
806A
  8
3
  6
CONTINUOUS
 62
     0
 10
3393.2974079999999
 20
5492.4765132618631
 30
0.0
 11
2823.2974079999999
 21
5492.4765132618631
 31
0.0
  0
INSERT
  5
806B
  8
3
  6
CONTINUOUS
 62
     0
  2
_OPEN
 10
3473.2974079999999
 20
5492.4765132618631
 30
0.0
 41
80.0
 42
80.0
 43
80.0
  0
INSERT
  5
806C
  8
3
  6
CONTINUOUS
 62
     0
  2
_OPEN
 10
2743.2974079999999
 20
5492.4765132618631
 30
0.0
 41
80.0
 42
80.0
 43
80.0
 50
180.0
  0
TEXT
  8
3
  40
120
  5
80DB
  62
0
  72
0
  71
0
 10
2847.62
 20
5380.08
 30
0.000000
  1
730
  0
POINT
  5
806E
  8
DEFPOINTS
  6
CONTINUOUS
 62
     0
 10
3473.2974079999999
 20
4685.8399342618613
 30
0.0
  0
POINT
  5
806F
  8
DEFPOINTS
  6
CONTINUOUS
 62
     0
 10
2743.2974079999999
 20
5436.9322842618612
 30
0.0
  0
POINT
  5
8070
  8
DEFPOINTS
  6
CONTINUOUS
 62
     0
 10
2743.2974079999999
 20
5492.4765132618631
 30
0.0
  0
ENDBLK
  5
7BC9
  8
0
  0
BLOCK
  8
0
  2
*D8
 70
     1
 10
0.0
 20
0.0
 30
0.0
  3
*D8
  1

  0
LINE
  5
8071
  8
3
  6
CONTINUOUS
 62
     0
 10
5954.3350170000003
 20
5323.8399342618623
 30
0.0
 11
5954.3350170000003
 21
5503.127905261862
 31
0.0
  0
LINE
  5
8072
  8
3
  6
CONTINUOUS
 62
     0
 10
6704.3350170000012
 20
5323.8399342618623
 30
0.0
 11
6704.3350170000012
 21
5503.127905261862
 31
0.0
  0
LINE
  5
8073
  8
3
  6
CONTINUOUS
 62
     0
 10
6034.3350170000003
 20
5463.1279052618611
 30
0.0
 11
6624.3350169999994
 21
5463.1279052618611
 31
0.0
  0
INSERT
  5
8074
  8
3
  6
CONTINUOUS
 62
     0
  2
_OPEN
 10
5954.3350170000003
 20
5463.1279052618611
 30
0.0
 41
80.0
 42
80.0
 43
80.0
 50
180.0
  0
INSERT
  5
8075
  8
3
  6
CONTINUOUS
 62
     0
  2
_OPEN
 10
6704.3350170000012
 20
5463.1279052618611
 30
0.0
 41
80.0
 42
80.0
 43
80.0
  0
TEXT
  8
3
  40
120
  5
80DC
  62
0
  72
0
  71
0
 10
6088.30
 20
5350.73
 30
0.000000
  1
750
  0
POINT
  5
8077
  8
DEFPOINTS
  6
CONTINUOUS
 62
     0
 10
5954.3350170000003
 20
5303.8399342618623
 30
0.0
  0
POINT
  5
8078
  8
DEFPOINTS
  6
CONTINUOUS
 62
     0
 10
6704.3350170000012
 20
5303.8399342618623
 30
0.0
  0
POINT
  5
8079
  8
DEFPOINTS
  6
CONTINUOUS
 62
     0
 10
6704.3350170000012
 20
5463.1279052618611
 30
0.0
  0
ENDBLK
  5
7BE2
  8
0
  0
BLOCK
  8
0
  2
*D9
 70
     1
 10
0.0
 20
0.0
 30
0.0
  3
*D9
  1

  0
LINE
  5
807A
  8
3
  6
CONTINUOUS
 62
     0
 10
6728.3350170000003
 20
5117.8399342618613
 30
0.0
 11
7058.4094349999996
 21
5117.8399342618613
 31
0.0
  0
LINE
  5
807B
  8
3
  6
CONTINUOUS
 62
     0
 10
6728.3350170000003
 20
4057.8399342618618
 30
0.0
 11
7058.4094349999996
 21
4057.8399342618618
 31
0.0
  0
LINE
  5
807C
  8
3
  6
CONTINUOUS
 62
     0
 10
7018.4094350000014
 20
5037.8399342618613
 30
0.0
 11
7018.4094350000014
 21
4137.8399342618613
 31
0.0
  0
INSERT
  5
807D
  8
3
  6
CONTINUOUS
 62
     0
  2
_OPEN
 10
7018.4094350000014
 20
5117.8399342618613
 30
0.0
 41
80.0
 42
80.0
 43
80.0
 50
90.0
  0
INSERT
  5
807E
  8
3
  6
CONTINUOUS
 62
     0
  2
_OPEN
 10
7018.4094350000014
 20
4057.8399342618618
 30
0.0
 41
80.0
 42
80.0
 43
80.0
 50
270.0
  0
TEXT
  8
3
  40
120
  5
80DD
  62
0
  72
0
  71
0
 10
6678.41
 20
4370.27
 30
0.000000
  1
φ1060
  0
POINT
  5
8080
  8
DEFPOINTS
  6
CONTINUOUS
 62
     0
 10
6708.3350170000003
 20
5117.8399342618613
 30
0.0
  0
POINT
  5
8081
  8
DEFPOINTS
  6
CONTINUOUS
 62
     0
 10
6708.3350170000003
 20
4057.8399342618618
 30
0.0
  0
POINT
  5
8082
  8
DEFPOINTS
  6
CONTINUOUS
 62
     0
 10
7018.4094350000014
 20
4057.8399342618618
 30
0.0
  0
ENDBLK
  5
7D8B
  8
0
  0
BLOCK
  8
0
  2
*D10
 70
     1
 10
0.0
 20
0.0
 30
0.0
  3
*D10
  1

  0
LINE
  5
8083
  8
3
  6
CONTINUOUS
 62
     0
 10
5746.8350170000012
 20
3186.8399342618618
 30
0.0
 11
5746.8350170000012
 21
2891.8102182618609
 31
0.0
  0
LINE
  5
8084
  8
3
  6
CONTINUOUS
 62
     0
 10
6329.3350170000003
 20
3105.5121822618612
 30
0.0
 11
6329.3350170000003
 21
2891.8102182618609
 31
0.0
  0
LINE
  5
8085
  8
3
  6
CONTINUOUS
 62
     0
 10
5666.8350170000003
 20
2931.8102182618618
 30
0.0
 11
5586.8350170000012
 21
2931.8102182618618
 31
0.0
  0
LINE
  5
8086
  8
3
  6
CONTINUOUS
 62
     0
 10
6409.3350170000003
 20
2931.8102182618618
 30
0.0
 11
6489.3350170000012
 21
2931.8102182618618
 31
0.0
  0
LINE
  5
8087
  8
3
  6
CONTINUOUS
 62
     0
 10
5746.8350170000012
 20
2931.8102182618618
 30
0.0
 11
6329.3350170000003
 21
2931.8102182618618
 31
0.0
  0
INSERT
  5
8088
  8
3
  6
CONTINUOUS
 62
     0
  2
_OPEN
 10
5746.8350170000012
 20
2931.8102182618618
 30
0.0
 41
80.0
 42
80.0
 43
80.0
  0
INSERT
  5
8089
  8
3
  6
CONTINUOUS
 62
     0
  2
_OPEN
 10
6329.3350170000003
 20
2931.8102182618618
 30
0.0
 41
80.0
 42
80.0
 43
80.0
 50
180.0
  0
TEXT
  8
3
  40
120
  5
80DE
  62
0
  72
0
  71
0
 10
5815.05
 20
2819.41
 30
0.000000
  1
583
  0
POINT
  5
808B
  8
DEFPOINTS
  6
CONTINUOUS
 62
     0
 10
5746.8350170000012
 20
3206.8399342618618
 30
0.0
  0
POINT
  5
808C
  8
DEFPOINTS
  6
CONTINUOUS
 62
     0
 10
6329.3350170000003
 20
3125.5121822618612
 30
0.0
  0
POINT
  5
808D
  8
DEFPOINTS
  6
CONTINUOUS
 62
     0
 10
6329.3350170000003
 20
2931.8102182618618
 30
0.0
  0
ENDBLK
  5
7C19
  8
0
  0
BLOCK
  8
0
  2
*D11
 70
     1
 10
0.0
 20
0.0
 30
0.0
  3
*D11
  1

  0
LINE
  5
808E
  8
3
  6
CONTINUOUS
 62
     0
 10
6770.8350170000003
 20
3186.8399342618618
 30
0.0
 11
6770.8350170000003
 21
2891.8102182618609
 31
0.0
  0
LINE
  5
808F
  8
3
  6
CONTINUOUS
 62
     0
 10
6409.3350170000003
 20
2931.8102182618618
 30
0.0
 11
6690.8350170000012
 21
2931.8102182618618
 31
0.0
  0
TEXT
  8
3
  40
120
  5
80DF
  62
0
  72
0
  71
0
 10
6322.99
 20
2813.80
 30
0.000000
  1
442
  0
INSERT
  5
8091
  8
3
  6
CONTINUOUS
 62
     0
  2
_OPEN
 10
6329.3350170000003
 20
2931.8102182618618
 30
0.0
 41
80.0
 42
80.0
 43
80.0
 50
180.0
  0
INSERT
  5
8092
  8
3
  6
CONTINUOUS
 62
     0
  2
_OPEN
 10
6770.8350170000003
 20
2931.8102182618618
 30
0.0
 41
80.0
 42
80.0
 43
80.0
  0
POINT
  5
8093
  8
DEFPOINTS
  6
CONTINUOUS
 62
     0
 10
6329.3350170000003
 20
3125.5121822618612
 30
0.0
  0
POINT
  5
8094
  8
DEFPOINTS
  6
CONTINUOUS
 62
     0
 10
6770.8350170000003
 20
3206.8399342618618
 30
0.0
  0
POINT
  5
8095
  8
DEFPOINTS
  6
CONTINUOUS
 62
     0
 10
6770.8350170000003
 20
2931.8102182618618
 30
0.0
  0
ENDBLK
  5
7D37
  8
0
  0
BLOCK
  8
0
  2
*D12
 70
     1
 10
0.0
 20
0.0
 30
0.0
  3
*D12
  1

  0
LINE
  5
8096
  8
3
  6
CONTINUOUS
 62
     0
 10
1443.2974079999999
 20
8021.1409286906937
 30
0.0
 11
1443.2974079999999
 21
8249.1588776906938
 31
0.0
  0
LINE
  5
8097
  8
3
  6
CONTINUOUS
 62
     0
 10
3393.2974079999999
 20
8021.1409286906937
 30
0.0
 11
3393.2974079999999
 21
8249.1588776906938
 31
0.0
  0
LINE
  5
8098
  8
3
  6
CONTINUOUS
 62
     0
 10
1523.2974079999999
 20
8209.1588776906956
 30
0.0
 11
3313.297407999999
 21
8209.1588776906956
 31
0.0
  0
INSERT
  5
8099
  8
3
  6
CONTINUOUS
 62
     0
  2
_OPEN
 10
1443.2974079999999
 20
8209.1588776906956
 30
0.0
 41
80.0
 42
80.0
 43
80.0
 50
180.0
  0
INSERT
  5
809A
  8
3
  6
CONTINUOUS
 62
     0
  2
_OPEN
 10
3393.2974079999999
 20
8209.1588776906956
 30
0.0
 41
80.0
 42
80.0
 43
80.0
  0
TEXT
  8
3
  40
120
  5
80E0
  62
0
  72
0
  71
0
 10
2172.19
 20
8096.76
 30
0.000000
  1
1950
  0
POINT
  5
809C
  8
DEFPOINTS
  6
CONTINUOUS
 62
     0
 10
1443.2974079999999
 20
8001.1409286906946
 30
0.0
  0
POINT
  5
809D
  8
DEFPOINTS
  6
CONTINUOUS
 62
     0
 10
3393.2974079999999
 20
8001.1409286906946
 30
0.0
  0
POINT
  5
809E
  8
DEFPOINTS
  6
CONTINUOUS
 62
     0
 10
3393.2974079999999
 20
8209.1588776906956
 30
0.0
  0
ENDBLK
  5
7C3E
  8
0
  0
BLOCK
  8
0
  2
*D13
 70
     1
 10
0.0
 20
0.0
 30
0.0
  3
*D13
  1

  0
LINE
  5
809F
  8
3
  6
CONTINUOUS
 62
     0
 10
3413.2974079999999
 20
8001.1409286906946
 30
0.0
 11
3883.7987660000008
 21
8001.1409286906946
 31
0.0
  0
LINE
  5
80A0
  8
3
  6
CONTINUOUS
 62
     0
 10
3413.2974079999999
 20
6976.1409286906946
 30
0.0
 11
3883.7987659999999
 21
6976.1409286906946
 31
0.0
  0
LINE
  5
80A1
  8
3
  6
CONTINUOUS
 62
     0
 10
3843.7987660000008
 20
7921.1409286906937
 30
0.0
 11
3843.7987659999999
 21
7056.1409286906946
 31
0.0
  0
INSERT
  5
80A2
  8
3
  6
CONTINUOUS
 62
     0
  2
_OPEN
 10
3843.7987660000008
 20
8001.1409286906946
 30
0.0
 41
80.0
 42
80.0
 43
80.0
 50
90.0
  0
INSERT
  5
80A3
  8
3
  6
CONTINUOUS
 62
     0
  2
_OPEN
 10
3843.7987659999999
 20
6976.1409286906946
 30
0.0
 41
80.0
 42
80.0
 43
80.0
 50
270.0
  0
TEXT
  8
3
  40
120
  5
80E1
  62
0
  72
0
  71
0
 10
3503.80
 20
7299.73
 30
0.000000
  1
1025
  0
POINT
  5
80A5
  8
DEFPOINTS
  6
CONTINUOUS
 62
     0
 10
3393.2974079999999
 20
8001.1409286906946
 30
0.0
  0
POINT
  5
80A6
  8
DEFPOINTS
  6
CONTINUOUS
 62
     0
 10
3393.2974079999999
 20
6976.1409286906946
 30
0.0
  0
POINT
  5
80A7
  8
DEFPOINTS
  6
CONTINUOUS
 62
     0
 10
3843.7987659999999
 20
6976.1409286906946
 30
0.0
  0
ENDBLK
  5
7C4B
  8
0
  0
BLOCK
  8
0
  2
*D14
 70
     1
 10
0.0
 20
0.0
 30
0.0
  3
*D14
  1

  0
LINE
  5
80A8
  8
3
  6
CONTINUOUS
 62
     0
 10
5669.3350170000003
 20
5117.8399342618613
 30
0.0
 11
5669.3350170000003
 21
5757.6627542618608
 31
0.0
  0
LINE
  5
80A9
  8
3
  6
CONTINUOUS
 62
     0
 10
6329.3350170000003
 20
5664.1104692618619
 30
0.0
 11
6329.3350170000003
 21
5757.6627542618608
 31
0.0
  0
LINE
  5
80AA
  8
3
  6
CONTINUOUS
 62
     0
 10
5749.3350170000003
 20
5717.6627542618617
 30
0.0
 11
6249.3350170000003
 21
5717.6627542618617
 31
0.0
  0
INSERT
  5
80AB
  8
3
  6
CONTINUOUS
 62
     0
  2
_OPEN
 10
5669.3350170000003
 20
5717.6627542618617
 30
0.0
 41
80.0
 42
80.0
 43
80.0
 50
180.0
  0
INSERT
  5
80AC
  8
3
  6
CONTINUOUS
 62
     0
  2
_OPEN
 10
6329.3350170000003
 20
5717.6627542618617
 30
0.0
 41
80.0
 42
80.0
 43
80.0
  0
TEXT
  8
3
  40
120
  5
80E2
  62
0
  72
0
  71
0
 10
5797.91
 20
5705.26
 30
0.000000
  1
MAX
  0
TEXT
  8
3
  40
120
  5
80E3
  62
0
  72
0
  71
0
 10
5797.91
 20
5549.26
 30
0.000000
  1
700
  0
POINT
  5
80AE
  8
DEFPOINTS
  6
CONTINUOUS
 62
     0
 10
5669.3350170000003
 20
5097.8399342618623
 30
0.0
  0
POINT
  5
80AF
  8
DEFPOINTS
  6
CONTINUOUS
 62
     0
 10
6329.3350170000003
 20
5644.1104692618619
 30
0.0
  0
POINT
  5
80B0
  8
DEFPOINTS
  6
CONTINUOUS
 62
     0
 10
6329.3350170000003
 20
5717.6627542618617
 30
0.0
  0
ENDBLK
  5
7D96
  8
0
  0
BLOCK
  8
0
  2
*D15
 70
     1
 10
0.0
 20
0.0
 30
0.0
  3
*D15
  1

  0
LINE
  5
80B1
  8
3
  6
CONTINUOUS
 62
     0
 10
6708.3350170000003
 20
5137.8399342618623
 30
0.0
 11
6708.3350170000003
 21
5757.6627542618608
 31
0.0
  0
LINE
  5
80B2
  8
3
  6
CONTINUOUS
 62
     0
 10
6409.3350170000003
 20
5717.6627542618617
 30
0.0
 11
6628.3350170000012
 21
5717.6627542618617
 31
0.0
  0
TEXT
  8
3
  40
120
  5
80E4
  62
0
  72
0
  71
0
 10
6284.20
 20
5612.76
 30
0.000000
  1
379
  0
INSERT
  5
80B4
  8
3
  6
CONTINUOUS
 62
     0
  2
_OPEN
 10
6329.3350170000003
 20
5717.6627542618617
 30
0.0
 41
80.0
 42
80.0
 43
80.0
 50
180.0
  0
INSERT
  5
80B5
  8
3
  6
CONTINUOUS
 62
     0
  2
_OPEN
 10
6708.3350170000003
 20
5717.6627542618617
 30
0.0
 41
80.0
 42
80.0
 43
80.0
  0
POINT
  5
80B6
  8
DEFPOINTS
  6
CONTINUOUS
 62
     0
 10
6329.3350170000003
 20
5644.1104692618619
 30
0.0
  0
POINT
  5
80B7
  8
DEFPOINTS
  6
CONTINUOUS
 62
     0
 10
6708.3350170000003
 20
5117.8399342618613
 30
0.0
  0
POINT
  5
80B8
  8
DEFPOINTS
  6
CONTINUOUS
 62
     0
 10
6708.3350170000003
 20
5717.6627542618617
 30
0.0
  0
ENDBLK
  5
7CED
  8
0
  0
BLOCK
  8
0
  2
*D16
 70
     1
 10
0.0
 20
0.0
 30
0.0
  3
*D16
  1

  0
LINE
  5
80B9
  8
3
  6
CONTINUOUS
 62
     0
 10
2763.2974079999999
 20
5303.4668739542876
 30
0.0
 11
4277.6959870000001
 21
5303.4668739542876
 31
0.0
  0
LINE
  5
80BA
  8
3
  6
CONTINUOUS
 62
     0
 10
4237.6959870000001
 20
4667.8399342618613
 30
0.0
 11
4237.6959870000001
 21
5223.4668739542876
 31
0.0
  0
INSERT
  5
80BB
  8
3
  6
CONTINUOUS
 62
     0
  2
_OPEN
 10
4237.6959870000001
 20
4587.8399342618613
 30
0.0
 41
80.0
 42
80.0
 43
80.0
 50
270.0
  0
INSERT
  5
80BC
  8
3
  6
CONTINUOUS
 62
     0
  2
_OPEN
 10
4237.6959870000001
 20
5303.4668739542876
 30
0.0
 41
80.0
 42
80.0
 43
80.0
 50
90.0
  0
TEXT
  8
3
  40
120
  5
80E5
  62
0
  72
0
  71
0
 10
3897.70
 20
4733.25
 30
0.000000
  1
716
  0
POINT
  5
80BE
  8
DEFPOINTS
  6
CONTINUOUS
 62
     0
 10
3640.2929140000001
 20
4587.8399342618613
 30
0.0
  0
POINT
  5
80BF
  8
DEFPOINTS
  6
CONTINUOUS
 62
     0
 10
2743.2974079999999
 20
5303.4668739542876
 30
0.0
  0
POINT
  5
80C0
  8
DEFPOINTS
  6
CONTINUOUS
 62
     0
 10
4237.6959870000001
 20
5303.4668739542876
 30
0.0
  0
ENDBLK
  5
7D80
  8
0
  0
BLOCK
  8
0
  2
*D17
 70
     1
 10
0.0
 20
0.0
 30
0.0
  3
*D17
  1

  0
LINE
  5
80C1
  8
3
  6
CONTINUOUS
 62
     0
 10
1915.660863999999
 20
4607.8399342618613
 30
0.0
 11
1915.660863999999
 21
5532.4765132618622
 31
0.0
  0
LINE
  5
80C2
  8
3
  6
CONTINUOUS
 62
     0
 10
2663.2974079999999
 20
5492.4765132618631
 30
0.0
 11
1995.660863999999
 21
5492.4765132618631
 31
0.0
  0
INSERT
  5
80C3
  8
3
  6
CONTINUOUS
 62
     0
  2
_OPEN
 10
2743.2974079999999
 20
5492.4765132618631
 30
0.0
 41
80.0
 42
80.0
 43
80.0
  0
INSERT
  5
80C4
  8
3
  6
CONTINUOUS
 62
     0
  2
_OPEN
 10
1915.660863999999
 20
5492.4765132618631
 30
0.0
 41
80.0
 42
80.0
 43
80.0
 50
180.0
  0
TEXT
  8
3
  40
120
  5
80E6
  62
0
  72
0
  71
0
 10
2089.48
 20
5380.08
 30
0.000000
  1
828
  0
POINT
  5
80C6
  8
DEFPOINTS
  6
CONTINUOUS
 62
     0
 10
2743.2974079999999
 20
5436.9322842618612
 30
0.0
  0
POINT
  5
80C7
  8
DEFPOINTS
  6
CONTINUOUS
 62
     0
 10
1915.660863999999
 20
4587.8399342618613
 30
0.0
  0
POINT
  5
80C8
  8
DEFPOINTS
  6
CONTINUOUS
 62
     0
 10
1915.660863999999
 20
5492.4765132618631
 30
0.0
  0
ENDBLK
  5
7D17
  8
0
  0
BLOCK
  8
0
  2
*D18
 70
     1
 10
0.0
 20
0.0
 30
0.0
  3
*D18
  1

  0
LINE
  5
80C9
  8
3
 62
     0
 10
1443.2974079999999
 20
3517.8399342618609
 30
0.0
 11
1443.2974079999999
 21
5792.6659096600933
 31
0.0
  0
LINE
  5
80CA
  8
3
 62
     0
 10
3473.2974079999999
 20
4705.8399342618613
 30
0.0
 11
3473.2974079999999
 21
5792.6659096600933
 31
0.0
  0
LINE
  5
80CB
  8
3
 62
     0
 10
1523.2974079999999
 20
5752.6659096600924
 30
0.0
 11
3393.2974079999999
 21
5752.6659096600924
 31
0.0
  0
INSERT
  5
80CC
  8
3
 62
     0
  2
_OPEN
 10
1443.2974079999999
 20
5752.6659096600924
 30
0.0
 41
80.0
 42
80.0
 43
80.0
 50
180.0
  0
INSERT
  5
80CD
  8
3
 62
     0
  2
_OPEN
 10
3473.2974079999999
 20
5752.6659096600924
 30
0.0
 41
80.0
 42
80.0
 43
80.0
  0
TEXT
  8
3
  40
120
  5
80E7
  62
0
  72
0
  71
0
 10
2341.30
 20
5640.27
 30
0.000000
  1
2030
  0
POINT
  5
80CF
  8
DEFPOINTS
 62
     0
 10
1443.2974079999999
 20
3497.8399342618609
 30
0.0
  0
POINT
  5
80D0
  8
DEFPOINTS
 62
     0
 10
3473.2974079999999
 20
4685.8399342618613
 30
0.0
  0
POINT
  5
80D1
  8
DEFPOINTS
 62
     0
 10
3473.2974079999999
 20
5752.6659096600924
 30
0.0
  0
ENDBLK
  5
7DA2
  8
0
  0
BLOCK
  8
0
  2
_DOT
 70
     0
 10
0.0
 20
0.0
 30
0.0
  3
_DOT
  1

  0
POLYLINE
  5
7FD4
  8
0
  6
BYBLOCK
 62
     0
 66
     1
 10
0.0
 20
0.0
 30
0.0
 70
     1
 40
0.5
 41
0.5
  0
VERTEX
  5
80D2
  8
0
  6
BYBLOCK
 62
     0
 10
-0.25
 20
0.0
 30
0.0
 42
1.0
  0
VERTEX
  5
80D3
  8
0
  6
BYBLOCK
 62
     0
 10
0.25
 20
0.0
 30
0.0
 42
1.0
  0
SEQEND
  5
80D4
  8
0
  6
BYBLOCK
 62
     0
  0
LINE
  5
7FD5
  8
0
  6
BYBLOCK
 62
     0
 10
-0.5
 20
0.0
 30
0.0
 11
-1.0
 21
0.0
 31
0.0
  0
ENDBLK
  5
7FD7
  8
0
  0
ENDSEC
  0
SECTION
  2
ENTITIES
  0
POLYLINE
  5
7A8A
  8
1
  6
CONTINUOUS
 66
     1
 10
0.0
 20
0.0
 30
0.0
 70
     1
  0
VERTEX
  5
7FFD
  8
1
  6
CONTINUOUS
 10
5746.8350170000012
 20
3206.8399342618618
 30
0.0
  0
VERTEX
  5
7FFE
  8
1
  6
CONTINUOUS
 10
5746.8350170000012
 20
3331.8399342618618
 30
0.0
  0
VERTEX
  5
7FFF
  8
1
  6
CONTINUOUS
 10
6770.8350170000003
 20
3331.8399342618618
 30
0.0
  0
VERTEX
  5
8000
  8
1
  6
CONTINUOUS
 10
6770.8350170000003
 20
3206.8399342618618
 30
0.0
  0
SEQEND
  5
8001
  8
1
  6
CONTINUOUS
  0
LINE
  5
7A90
  8
1
  6
CONTINUOUS
 10
5746.8350170000012
 20
3497.8399342618609
 30
0.0
 11
6770.8350170000003
 21
3497.8399342618609
 31
0.0
  0
LINE
  5
7A91
  8
1
  6
CONTINUOUS
 10
5746.8350170000012
 20
3372.8399342618609
 30
0.0
 11
6770.8350170000003
 21
3372.8399342618609
 31
0.0
  0
LINE
  5
7A92
  8
1
  6
CONTINUOUS
 10
5954.3350170000003
 20
5303.8399342618623
 30
0.0
 11
6704.3350170000012
 21
5303.8399342618623
 31
0.0
  0
LINE
  5
7A93
  8
1
  6
CONTINUOUS
 10
5954.3350170000003
 20
4635.8399342618613
 30
0.0
 11
6704.3350170000012
 21
4635.8399342618613
 31
0.0
  0
LINE
  5
7A94
  8
1
  6
CONTINUOUS
 10
5954.3350170000003
 20
3605.8399342618609
 30
0.0
 11
6704.3350170000012
 21
3605.8399342618609
 31
0.0
  0
LINE
  5
7A95
  8
1
  6
CONTINUOUS
 10
5954.3350170000003
 20
4635.8399342618613
 30
0.0
 11
6704.3350170000012
 21
3605.8399342618609
 31
0.0
  0
LINE
  5
7A96
  8
1
  6
CONTINUOUS
 10
6704.3350170000012
 20
4635.8399342618613
 30
0.0
 11
5954.3350170000003
 21
3605.8399342618609
 31
0.0
  0
POLYLINE
  5
7A97
  8
1
  6
CONTINUOUS
 66
     1
 10
0.0
 20
0.0
 30
0.0
 70
     1
  0
VERTEX
  5
8002
  8
1
  6
CONTINUOUS
 10
1443.2974079999999
 20
3331.8399342618618
 30
0.0
  0
VERTEX
  5
8003
  8
1
  6
CONTINUOUS
 10
3393.2974079999999
 20
3331.8399342618618
 30
0.0
  0
VERTEX
  5
8004
  8
1
  6
CONTINUOUS
 10
3393.2974079999999
 20
3206.8399342618618
 30
0.0
  0
VERTEX
  5
8005
  8
1
  6
CONTINUOUS
 10
1443.2974079999999
 20
3206.8399342618618
 30
0.0
  0
SEQEND
  5
8006
  8
1
  6
CONTINUOUS
  0
LINE
  5
7A9D
  8
2
  6
CENTER
 10
1569.5941640000001
 20
4587.8399342618613
 30
0.0
 11
3640.2929140000001
 21
4587.8399342618613
 31
0.0
  0
CIRCLE
  5
7A9E
  8
1
  6
CONTINUOUS
 10
2743.2974079999999
 20
4587.8399342618613
 30
0.0
 40
192.18405100000001
  0
LINE
  5
7AA1
  8
1
  6
CONTINUOUS
 10
1443.2974079999999
 20
3372.8399342618609
 30
0.0
 11
3393.2974079999999
 21
3372.8399342618609
 31
0.0
  0
LINE
  5
7AA2
  8
1
  6
CONTINUOUS
 10
1443.2974079999999
 20
3497.8399342618609
 30
0.0
 11
3393.2974079999999
 21
3497.8399342618609
 31
0.0
  0
ARC
  5
7AA4
  8
1
  6
CONTINUOUS
 10
2687.2974079999999
 20
4531.8399342618613
 30
0.0
 40
774.0
 50
85.850943999999998
 51
175.850944
  0
ARC
  5
7AA5
  8
1
  6
CONTINUOUS
 10
2808.297407999999
 20
4522.8399342618613
 30
0.0
 40
895.0
 50
175.83518699999999
 51
265.83518700000002
  0
LINE
  5
7AA6
  8
1
  6
CONTINUOUS
 10
2513.2974079999999
 20
5097.8399342618623
 30
0.0
 11
3283.2974079999999
 21
5097.8399342618623
 31
0.0
  0
LINE
  5
7AA7
  8
1
  6
CONTINUOUS
 10
1755.471955
 20
3599.2559112618619
 30
0.0
 11
2859.2720260000001
 21
4434.5930822618611
 31
0.0
  0
POLYLINE
  5
7AA8
  8
1
  6
CONTINUOUS
 66
     1
 10
0.0
 20
0.0
 30
0.0
  0
VERTEX
  5
8007
  8
1
  6
CONTINUOUS
 10
1475.7974079999999
 20
3497.8399342618609
 30
0.0
  0
VERTEX
  5
8008
  8
1
  6
CONTINUOUS
 10
1870.797407999999
 20
3497.8399342618609
 30
0.0
  0
VERTEX
  5
8009
  8
1
  6
CONTINUOUS
 10
1860.797407999999
 20
3547.8399342618609
 30
0.0
  0
VERTEX
  5
800A
  8
1
  6
CONTINUOUS
 10
1827.2974079999999
 20
3547.8399342618609
 30
0.0
  0
SEQEND
  5
800B
  8
1
  6
CONTINUOUS
  0
LINE
  5
7AAE
  8
1
  6
CONTINUOUS
 10
1519.297407999999
 20
3565.8399342618609
 30
0.0
 11
1540.639742999999
 21
3614.856367261862
 31
0.0
  0
ARC
  5
7AAF
  8
1
  6
CONTINUOUS
 10
1673.297407999999
 20
3707.8399342618609
 30
0.0
 40
162.0
 50
324.972283
 51
215.02771699999991
  0
LINE
  5
7AB0
  8
1
  6
CONTINUOUS
 10
1513.297407999999
 20
3897.8399342618609
 30
0.0
 11
2513.2974079999999
 21
5097.8399342618623
 31
0.0
  0
LINE
  5
7AB1
  8
1
  6
CONTINUOUS
 10
1513.297407999999
 20
3897.8399342618609
 30
0.0
 11
1513.297407999999
 21
3497.8399342618609
 31
0.0
  0
POLYLINE
  5
7AB2
  8
1
  6
CONTINUOUS
 66
     1
 10
0.0
 20
0.0
 30
0.0
  0
VERTEX
  5
800C
  8
1
  6
CONTINUOUS
 10
1519.297407999999
 20
3547.8399342618609
 30
0.0
  0
VERTEX
  5
800D
  8
1
  6
CONTINUOUS
 10
1485.797407999999
 20
3547.8399342618609
 30
0.0
  0
VERTEX
  5
800E
  8
1
  6
CONTINUOUS
 10
1475.7974079999999
 20
3497.8399342618609
 30
0.0
  0
SEQEND
  5
800F
  8
1
  6
CONTINUOUS
  0
LINE
  5
7AB7
  8
1
  6
CONTINUOUS
 10
1519.297407999999
 20
3547.8399342618609
 30
0.0
 11
1519.297407999999
 21
3565.8399342618609
 31
0.0
  0
LINE
  5
7AB8
  8
1
  6
CONTINUOUS
 10
1443.2974079999999
 20
3497.8399342618609
 30
0.0
 11
1443.2974079999999
 21
3372.8399342618609
 31
0.0
  0
LINE
  5
7ABA
  8
1
  6
CONTINUOUS
 10
1582.6186399999999
 20
3809.4298292618619
 30
0.0
 11
2615.3206070000001
 21
4731.2158302618618
 31
0.0
  0
LINE
  5
7ABB
  8
1
  6
CONTINUOUS
 10
1827.2974079999999
 20
3565.8399342618609
 30
0.0
 11
1805.9550739999991
 21
3614.856367261862
 31
0.0
  0
LINE
  5
7ABC
  8
2
  6
CENTER
 10
1532.124188
 20
3707.8399342618609
 30
0.0
 11
1814.470628999999
 21
3707.8399342618609
 31
0.0
  0
LINE
  5
7ABD
  8
2
  6
CENTER
 10
1673.297407999999
 20
3566.6667132618618
 30
0.0
 11
1673.297407999999
 21
3849.0131542618619
 31
0.0
  0
CIRCLE
  5
7ABE
  8
1
  6
CONTINUOUS
 10
1673.297407999999
 20
3707.8399342618609
 30
0.0
 40
136.1732199999999
  0
LINE
  5
7ABF
  8
1
  6
CONTINUOUS
 10
1827.2974079999999
 20
3547.8399342618609
 30
0.0
 11
1827.2974079999999
 21
3565.8399342618609
 31
0.0
  0
LINE
  5
7AC0
  8
1
  6
CONTINUOUS
 10
3283.2974079999999
 20
5097.8399342618623
 30
0.0
 11
3283.2974079999999
 21
3497.8399342618609
 31
0.0
  0
ARC
  5
7AC2
  8
1
  6
CONTINUOUS
 10
2700.2974079999999
 20
4630.8399342618613
 30
0.0
 40
674.0
 50
0.425047
 51
86.342146999999997
  0
LINE
  5
7AC3
  8
1
  6
CONTINUOUS
 10
2743.2974079999999
 20
3630.203389261861
 30
0.0
 11
3473.2974079999999
 21
3605.8399342618609
 31
0.0
  0
LINE
  5
7AC4
  8
2
  6
CENTER
 10
2743.2974079999999
 20
3071.6044582618611
 30
0.0
 11
2743.2974079999999
 21
5436.9322842618612
 31
0.0
  0
LINE
  5
7AC5
  8
1
  6
CONTINUOUS
 10
3423.297407999999
 20
3607.5086632618618
 30
0.0
 11
3423.297407999999
 21
4635.8399342618613
 31
0.0
  0
LINE
  5
7AC6
  8
1
  6
CONTINUOUS
 10
3473.2974079999999
 20
3555.8399342618609
 30
0.0
 11
3473.2974079999999
 21
4685.8399342618613
 31
0.0
  0
LINE
  5
7AC7
  8
1
  6
CONTINUOUS
 10
3374.2788620000001
 20
4635.8399342618613
 30
0.0
 11
3473.2974079999999
 21
4635.8399342618613
 31
0.0
  0
LINE
  5
7AC8
  8
1
  6
CONTINUOUS
 10
5883.3350170000003
 20
3497.8399342618609
 30
0.0
 11
5883.3350170000003
 21
5097.8399342618623
 31
0.0
  0
LINE
  5
7AC9
  8
1
  6
CONTINUOUS
 10
5669.3350170000003
 20
3497.8399342618609
 30
0.0
 11
5669.3350170000003
 21
5097.8399342618623
 31
0.0
  0
LINE
  5
7ACA
  8
1
  6
CONTINUOUS
 10
5954.3350170000003
 20
3497.8399342618609
 30
0.0
 11
5954.3350170000003
 21
5303.8399342618623
 31
0.0
  0
POLYLINE
  5
7ACB
  8
1
  6
CONTINUOUS
 66
     1
 10
0.0
 20
0.0
 30
0.0
 70
     1
  0
VERTEX
  5
8010
  8
1
  6
CONTINUOUS
 10
5731.3350170000012
 20
3844.0131542618619
 30
0.0
  0
VERTEX
  5
8011
  8
1
  6
CONTINUOUS
 10
5731.3350170000012
 20
3571.6667132618618
 30
0.0
  0
VERTEX
  5
8012
  8
1
  6
CONTINUOUS
 10
5832.3350170000012
 20
3571.6667132618618
 30
0.0
  0
VERTEX
  5
8013
  8
1
  6
CONTINUOUS
 10
5832.3350170000012
 20
3844.0131542618619
 30
0.0
  0
SEQEND
  5
8014
  8
1
  6
CONTINUOUS
  0
LINE
  5
7AD1
  8
1
  6
CONTINUOUS
 10
5746.8350170000012
 20
3497.8399342618609
 30
0.0
 11
5669.3350170000003
 21
3497.8399342618609
 31
0.0
  0
LINE
  5
7AD2
  8
1
  6
CONTINUOUS
 10
5832.3350170000012
 20
3686.8399342618609
 30
0.0
 11
5954.3350170000003
 21
3686.8399342618609
 31
0.0
  0
LINE
  5
7AD3
  8
1
  6
CONTINUOUS
 10
5832.3350170000012
 20
3728.8399342618609
 30
0.0
 11
5954.3350170000003
 21
3728.8399342618609
 31
0.0
  0
LINE
  5
7AD4
  8
1
  6
CONTINUOUS
 10
5746.8350170000012
 20
3372.8399342618609
 30
0.0
 11
5746.8350170000012
 21
3497.8399342618609
 31
0.0
  0
LINE
  5
7AD5
  8
1
  6
CONTINUOUS
 10
5832.3350170000012
 20
4560.3399342618613
 30
0.0
 11
5954.3350170000003
 21
4560.3399342618613
 31
0.0
  0
LINE
  5
7AD6
  8
1
  6
CONTINUOUS
 10
5832.3350170000012
 20
4615.3399342618613
 30
0.0
 11
5954.3350170000003
 21
4615.3399342618613
 31
0.0
  0
POLYLINE
  5
7AD7
  8
1
  6
CONTINUOUS
 66
     1
 10
0.0
 20
0.0
 30
0.0
 70
     1
  0
VERTEX
  5
8015
  8
1
  6
CONTINUOUS
 10
5731.3350170000012
 20
4395.6558832618621
 30
0.0
  0
VERTEX
  5
8016
  8
1
  6
CONTINUOUS
 10
5832.3350170000012
 20
4395.6558832618621
 30
0.0
  0
VERTEX
  5
8017
  8
1
  6
CONTINUOUS
 10
5832.3350170000012
 20
4780.0239842618621
 30
0.0
  0
VERTEX
  5
8018
  8
1
  6
CONTINUOUS
 10
5731.3350170000012
 20
4780.0239842618621
 30
0.0
  0
SEQEND
  5
8019
  8
1
  6
CONTINUOUS
  0
LINE
  5
7ADD
  8
1
  6
CONTINUOUS
 10
5669.3350170000003
 20
5097.8399342618623
 30
0.0
 11
5883.3350170000003
 21
5097.8399342618623
 31
0.0
  0
POLYLINE
  5
7ADE
  8
1
  6
CONTINUOUS
 66
     1
 10
0.0
 20
0.0
 30
0.0
 70
     1
  0
VERTEX
  5
801A
  8
1
  6
CONTINUOUS
 10
1513.297407999999
 20
7112.6409286906937
 30
0.0
  0
VERTEX
  5
801B
  8
1
  6
CONTINUOUS
 10
1513.297407999999
 20
6932.6409286906946
 30
0.0
  0
VERTEX
  5
801C
  8
1
  6
CONTINUOUS
 10
3283.2974079999999
 20
6932.6409286906946
 30
0.0
  0
VERTEX
  5
801D
  8
1
  6
CONTINUOUS
 10
3283.2974079999999
 20
7112.6409286906937
 30
0.0
  0
SEQEND
  5
801E
  8
1
  6
CONTINUOUS
  0
POLYLINE
  5
7AE4
  8
1
  6
CONTINUOUS
 66
     1
 10
0.0
 20
0.0
 30
0.0
 70
     1
  0
VERTEX
  5
801F
  8
1
  6
CONTINUOUS
 10
2551.0974079999992
 20
7061.6409286906937
 30
0.0
  0
VERTEX
  5
8020
  8
1
  6
CONTINUOUS
 10
2551.0974079999992
 20
6960.6409286906946
 30
0.0
  0
VERTEX
  5
8021
  8
1
  6
CONTINUOUS
 10
2935.4974079999988
 20
6960.6409286906946
 30
0.0
  0
VERTEX
  5
8022
  8
1
  6
CONTINUOUS
 10
2935.4974079999988
 20
7061.6409286906937
 30
0.0
  0
SEQEND
  5
8023
  8
1
  6
CONTINUOUS
  0
LINE
  5
7AEA
  8
1
  6
CONTINUOUS
 10
1915.297407999999
 20
7183.6409286906937
 30
0.0
 11
3473.2974079999999
 21
7183.6409286906937
 31
0.0
  0
LINE
  5
7AEB
  8
1
  6
CONTINUOUS
 10
1915.297407999999
 20
7933.6409286906937
 30
0.0
 11
3473.2974079999999
 21
7933.6409286906937
 31
0.0
  0
LINE
  5
7AEC
  8
1
  6
CONTINUOUS
 10
1443.2974079999999
 20
8001.1409286906946
 30
0.0
 11
3393.2974079999999
 21
8001.1409286906946
 31
0.0
  0
POLYLINE
  5
7AED
  8
1
  6
CONTINUOUS
 66
     1
 10
0.0
 20
0.0
 30
0.0
 70
     1
  0
VERTEX
  5
8024
  8
1
  6
CONTINUOUS
 10
1511.297407999999
 20
7657.7626486906947
 30
0.0
  0
VERTEX
  5
8025
  8
1
  6
CONTINUOUS
 10
1835.297407999999
 20
7657.7626486906947
 30
0.0
  0
VERTEX
  5
8026
  8
1
  6
CONTINUOUS
 10
1835.297407999999
 20
7183.6409286906937
 30
0.0
  0
VERTEX
  5
8027
  8
1
  6
CONTINUOUS
 10
1511.297407999999
 20
7183.6409286906937
 30
0.0
  0
SEQEND
  5
8028
  8
1
  6
CONTINUOUS
  0
POLYLINE
  5
7AF3
  8
1
  6
CONTINUOUS
 66
     1
 10
0.0
 20
0.0
 30
0.0
  0
VERTEX
  5
8029
  8
1
  6
CONTINUOUS
 10
1443.2974079999999
 20
6976.1409286906946
 30
0.0
  0
VERTEX
  5
802A
  8
1
  6
CONTINUOUS
 10
1537.147408
 20
6976.1409286906946
 30
0.0
  0
SEQEND
  5
802B
  8
1
  6
CONTINUOUS
  0
LINE
  5
7AF7
  8
1
  6
CONTINUOUS
 10
1443.2974079999999
 20
6976.1409286906946
 30
0.0
 11
1443.2974079999999
 21
8001.1409286906946
 31
0.0
  0
LINE
  5
7AF8
  8
1
  6
CONTINUOUS
 10
1809.4474079999991
 20
6976.1409286906946
 30
0.0
 11
2551.0974079999992
 21
6976.1409286906946
 31
0.0
  0
LINE
  5
7AF9
  8
1
  6
CONTINUOUS
 10
1915.297407999999
 20
7183.6409286906937
 30
0.0
 11
1915.297407999999
 21
7933.6409286906937
 31
0.0
  0
POLYLINE
  5
7AFA
  8
1
  6
CONTINUOUS
 66
     1
 10
0.0
 20
0.0
 30
0.0
 70
     1
  0
VERTEX
  5
802C
  8
1
  6
CONTINUOUS
 10
1809.4474079999991
 20
7061.6409286906937
 30
0.0
  0
VERTEX
  5
802D
  8
1
  6
CONTINUOUS
 10
1809.4474079999991
 20
6960.6409286906946
 30
0.0
  0
VERTEX
  5
802E
  8
1
  6
CONTINUOUS
 10
1537.147408
 20
6960.6409286906946
 30
0.0
  0
VERTEX
  5
802F
  8
1
  6
CONTINUOUS
 10
1537.147408
 20
7061.6409286906937
 30
0.0
  0
SEQEND
  5
8030
  8
1
  6
CONTINUOUS
  0
LINE
  5
7B00
  8
1
  6
CONTINUOUS
 10
1652.2974079999999
 20
7061.6409286906937
 30
0.0
 11
1652.2974079999999
 21
7183.6409286906937
 31
0.0
  0
LINE
  5
7B01
  8
1
  6
CONTINUOUS
 10
1694.297407999999
 20
7061.6409286906937
 30
0.0
 11
1694.297407999999
 21
7183.6409286906937
 31
0.0
  0
LINE
  5
7B02
  8
1
  6
CONTINUOUS
 10
1835.297407999999
 20
7503.5042446906946
 30
0.0
 11
1835.297407999999
 21
7566.2002056906949
 31
0.0
  0
LINE
  5
7B03
  8
1
  6
CONTINUOUS
 10
2715.7974079999999
 20
7061.6409286906937
 30
0.0
 11
2715.7974079999999
 21
7183.6409286906937
 31
0.0
  0
LINE
  5
7B04
  8
1
  6
CONTINUOUS
 10
2935.4974079999988
 20
6976.1409286906946
 30
0.0
 11
3393.2974079999999
 21
6976.1409286906946
 31
0.0
  0
LINE
  5
7B05
  8
1
  6
CONTINUOUS
 10
2770.797407999999
 20
7061.6409286906937
 30
0.0
 11
2770.797407999999
 21
7183.6409286906937
 31
0.0
  0
LINE
  5
7B06
  8
1
  6
CONTINUOUS
 10
3423.297407999999
 20
7183.6409286906937
 30
0.0
 11
3423.297407999999
 21
7933.6409286906937
 31
0.0
  0
LINE
  5
7B07
  8
1
  6
CONTINUOUS
 10
3473.2974079999999
 20
7133.6409286906937
 30
0.0
 11
3473.2974079999999
 21
7983.6409286906937
 31
0.0
  0
LINE
  5
7B08
  8
1
  6
CONTINUOUS
 10
3393.2974079999999
 20
6976.1409286906946
 30
0.0
 11
3393.2974079999999
 21
7183.6409286906937
 31
0.0
  0
LINE
  5
7B09
  8
1
  6
CONTINUOUS
 10
3393.2974079999999
 20
7933.6409286906937
 30
0.0
 11
3393.2974079999999
 21
8001.1409286906946
 31
0.0
  0
LINE
  5
7B0A
  8
1
  6
CONTINUOUS
 10
6704.3350170000012
 20
3497.8399342618609
 30
0.0
 11
6704.3350170000012
 21
5303.8399342618623
 31
0.0
  0
LINE
  5
7B0B
  8
1
  6
CONTINUOUS
 10
6770.8350170000003
 20
3372.8399342618609
 30
0.0
 11
6770.8350170000003
 21
3497.8399342618609
 31
0.0
  0
LINE
  5
7B0C
  8
2
  6
CENTER
 10
1349.944189999999
 20
7558.6409286906937
 30
0.0
 11
3640.2929140000001
 21
7558.6409286906937
 31
0.0
  0
LINE
  5
7B0D
  8
2
  6
CENTER
 10
6329.3350170000003
 20
5644.1104692618619
 30
0.0
 11
6329.3350170000003
 21
5642.9502452618617
 31
0.0
  0
LINE
  5
7B0E
  8
2
  6
CENTER
 10
2743.2974079999999
 20
6798.3464176906937
 30
0.0
 11
2743.2974079999999
 21
8133.8335846906948
 31
0.0
  0
LINE
  5
7B0F
  8
2
  6
CENTER
 10
5604.4277950000014
 20
4587.8399342618613
 30
0.0
 11
6783.5060840000006
 21
4587.8399342618613
 31
0.0
  0
LINE
  5
7B2F
  8
4
  6
CONTINUOUS
 10
7400.0
 20
2000.0
 30
0.0
 11
7400.0
 21
1200.0
 31
0.0
  0
LINE
  5
7B30
  8
4
  6
CONTINUOUS
 10
4600.0
 20
2000.0
 30
0.0
 11
4600.0
 21
1200.0
 31
0.0
  0
LINE
  5
7B31
  8
4
  6
CONTINUOUS
 10
2600.0
 20
2000.0
 30
0.0
 11
2600.0
 21
1200.0
 31
0.0
  0
LINE
  5
7B34
  8
4
  6
CONTINUOUS
 10
2600.0
 20
1200.0
 30
0.0
 11
7400.0
 21
1200.0
 31
0.0
  0
LINE
  5
7B35
  8
4
  6
CONTINUOUS
 10
2600.0
 20
1600.0
 30
0.0
 11
7400.0
 21
1600.0
 31
0.0
  0
TEXT
  5
7B36
  8
4
  6
CONTINUOUS
 10
2754.008323
 20
1726.1721030000001
 30
0.0
 40
200.0
  1
機器名称
  0
TEXT
  5
7B37
  8
4
  6
CONTINUOUS
 10
2745.032424
 20
1286.580627
 30
0.0
 40
200.0
  1
機器型番
  0
TEXT
  5
7B38
  8
4
  6
CONTINUOUS
 10
4710.7149820000004
 20
1690.2870760000001
 30
0.0
 40
200.0
  1
ミツヤ多翼送風機
  0
TEXT
  5
7B39
  8
4
  6
CONTINUOUS
 10
4746.6179819999998
 20
1268.6383370000001
 30
0.0
 40
200.0
  1
MFE#6-4
  0
TEXT
  5
7B3B
  8
4
  6
CONTINUOUS
 10
3138.9245460000002
 20
9533.715365
 30
0.0
 40
216.0
  1
床置防振ベット
  0
TEXT
  5
7B3C
  8
4
  6
CONTINUOUS
 10
1264.6703729999999
 20
10135.523905
 30
0.0
 40
288.0
  1
ベルト駆動式片吸込両持排煙ファン
  0
LINE
  5
7B3D
  8
4
  6
CONTINUOUS
 10
1000.0
 20
9877.6350170000005
 30
0.0
 11
7400.0
 21
9877.6350170000005
 31
0.0
  0
LINE
  5
7B3E
  8
4
  6
CONTINUOUS
 10
1000.0
 20
10677.635017000001
 30
0.0
 11
7400.0
 21
10677.635017000001
 31
0.0
  0
LINE
  5
7B3F
  8
4
  6
CONTINUOUS
 10
2600.0
 20
2000.0
 30
0.0
 11
7400.0
 21
2000.0
 31
0.0
  0
LINE
  5
7B40
  8
4
  6
CONTINUOUS
 10
1000.0
 20
10677.635017000001
 30
0.0
 11
1000.0
 21
9877.6350170000005
 31
0.0
  0
TEXT
  5
7B41
  8
4
  6
CONTINUOUS
 10
1395.4892170000001
 20
9529.2779099999989
 30
0.0
 40
216.0
  1
左回転右横向
  0
TEXT
  5
7B42
  8
4
  6
CONTINUOUS
 10
5875.8782369999999
 20
10824.244326
 30
0.0
 40
224.0
  1
No.
  0
TEXT
  5
7B43
  8
4
  6
CONTINUOUS
 10
5245.1842500000012
 20
9533.715365
 30
0.0
 40
216.0
  1
縮尺：1/40
  0
LINE
  5
7B44
  8
4
  6
CONTINUOUS
 10
7400.0
 20
10677.635017000001
 30
0.0
 11
7400.0
 21
9877.6350170000005
 31
0.0
  0
LINE
  5
7B46
  8
4
  6
CONTINUOUS
 10
5762.4696889999996
 20
10725.054333
 30
0.0
 11
5762.4696889999996
 21
11146.609046
 31
0.0
  0
LINE
  5
7B47
  8
4
  6
CONTINUOUS
 10
5762.4696889999996
 20
11146.609046
 30
0.0
 11
7400.0
 21
11146.609046
 31
0.0
  0
LINE
  5
7B48
  8
4
  6
CONTINUOUS
 10
7400.0
 20
11146.609046
 30
0.0
 11
7400.0
 21
10725.054333
 31
0.0
  0
LINE
  5
7B49
  8
4
  6
CONTINUOUS
 10
7400.0
 20
10725.054333
 30
0.0
 11
5762.4696889999996
 21
10725.054333
 31
0.0
  0
DIMENSION
  5
7B61
  8
3
  6
CONTINUOUS
  2
*D1
 10
3742.4933369999999
 20
3605.8399342618609
 30
0.0
 11
3742.493336999999
 21
4087.8022022618611
 31
0.0
 70
   128
 13
3473.2974079999999
 23
4635.8399342618613
 33
0.0
 14
3473.2974079999999
 24
3605.8399342618609
 34
0.0
 50
90.0
1001
ACAD
1000
DSTYLE
1002
{
1070
   287
1070
     3
1070
   287
1070
     3
1070
    40
1040
40.0
1070
   143
1040
0.039
1070
   172
1070
     1
1070
   271
1070
     0
1070
   279
1070
     0
1070
   288
1070
     1
1002
}
  0
DIMENSION
  5
7B6E
  8
3
  6
CONTINUOUS
  2
*D2
 10
3990.0946829999998
 20
3605.8399342618609
 30
0.0
 11
3990.0946829999998
 21
4127.7139262618612
 31
0.0
 70
   128
 13
3640.2929140000001
 23
4587.8399342618613
 33
0.0
 14
3473.2974079999999
 24
3605.8399342618609
 34
0.0
 50
90.0
1001
ACAD
1000
DSTYLE
1002
{
1070
   287
1070
     3
1070
   287
1070
     3
1070
    40
1040
40.0
1070
   143
1040
0.039
1070
   172
1070
     1
1070
   271
1070
     0
1070
   279
1070
     0
1070
   288
1070
     1
1002
}
  0
DIMENSION
  5
7B87
  8
3
  6
CONTINUOUS
  2
*D3
 10
4237.6959870000001
 20
3372.8399342618609
 30
0.0
 11
4137.6959869999991
 21
3980.3399342618609
 31
0.0
 70
     0
 13
3640.2929140000001
 23
4587.8399342618613
 33
0.0
 14
3393.2974079999999
 24
3372.8399342618609
 34
0.0
 50
90.0
1001
ACAD
1000
DSTYLE
1002
{
1070
   287
1070
     3
1070
   287
1070
     3
1070
    40
1040
40.0
1070
   143
1040
0.039
1070
   172
1070
     1
1070
   271
1070
     0
1070
   279
1070
     0
1070
   288
1070
     1
1002
}
  0
DIMENSION
  5
7B97
  8
3
  6
CONTINUOUS
  2
*D4
 10
4237.695987000001
 20
3206.8399342618618
 30
0.0
 11
4237.6959870000001
 21
2866.8399342618618
 31
0.0
 70
   128
 13
3393.2974079999999
 23
3372.8399342618609
 33
0.0
 14
3393.2974079999999
 24
3206.8399342618618
 34
0.0
 50
90.0
1001
ACAD
1000
DSTYLE
1002
{
1070
   287
1070
     3
1070
   287
1070
     3
1070
    40
1040
40.0
1070
   143
1040
0.039
1070
   172
1070
     1
1070
   271
1070
     0
1070
   279
1070
     0
1070
   288
1070
     1
1002
}
  0
DIMENSION
  5
7BB1
  8
3
  6
CONTINUOUS
  2
*D5
 10
2743.2974079999999
 20
2911.5553362618612
 30
0.0
 11
2140.5566949999989
 21
2911.5553362618612
 31
0.0
 70
   128
 13
1443.2974079999999
 23
3206.8399342618618
 33
0.0
 14
2743.2974079999999
 24
3071.6044582618611
 34
0.0
1001
ACAD
1000
DSTYLE
1002
{
1070
   287
1070
     3
1070
   287
1070
     3
1070
    40
1040
40.0
1070
   143
1040
0.039
1070
   172
1070
     1
1070
   271
1070
     0
1070
   279
1070
     0
1070
   288
1070
     1
1002
}
  0
DIMENSION
  5
7BBD
  8
3
  6
CONTINUOUS
  2
*D6
 10
3393.2974079999999
 20
2911.5553362618612
 30
0.0
 11
3068.2974079999999
 21
3011.5553362618612
 31
0.0
 70
     0
 13
2743.2974079999999
 23
3071.6044582618611
 33
0.0
 14
3393.2974079999999
 24
3206.8399342618618
 34
0.0
1001
ACAD
1000
DSTYLE
1002
{
1070
   287
1070
     4
1070
   287
1070
     4
1070
    40
1040
40.0
1070
    75
1070
     1
1070
   143
1040
0.039
1070
   172
1070
     1
1070
   271
1070
     0
1070
   279
1070
     1
1070
   288
1070
     1
1002
}
  0
DIMENSION
  5
7BCA
  8
3
  6
CONTINUOUS
  2
*D7
 10
2743.2974079999999
 20
5492.4765132618631
 30
0.0
 11
3087.6180260000001
 21
5492.4765132618631
 31
0.0
 70
   128
 13
3473.2974079999999
 23
4685.8399342618613
 33
0.0
 14
2743.2974079999999
 24
5436.9322842618612
 34
0.0
1001
ACAD
1000
DSTYLE
1002
{
1070
   287
1070
     3
1070
   287
1070
     3
1070
    40
1040
40.0
1070
   143
1040
0.039
1070
   172
1070
     1
1070
   271
1070
     0
1070
   279
1070
     0
1070
   288
1070
     1
1002
}
  0
DIMENSION
  5
7BE3
  8
3
  6
CONTINUOUS
  2
*D8
 10
6704.3350170000012
 20
5463.1279052618611
 30
0.0
 11
6328.3027000000002
 21
5463.1279052618611
 31
0.0
 70
   128
 13
5954.3350170000003
 23
5303.8399342618623
 33
0.0
 14
6704.3350170000012
 24
5303.8399342618623
 34
0.0
1001
ACAD
1000
DSTYLE
1002
{
1070
   287
1070
     3
1070
   287
1070
     3
1070
    40
1040
40.0
1070
   143
1040
0.039
1070
   172
1070
     1
1070
   271
1070
     0
1070
   279
1070
     0
1070
   288
1070
     1
1002
}
  0
LINE
  5
7BE4
  8
1
  6
CONTINUOUS
 10
6708.3350170000003
 20
4057.8399342618618
 30
0.0
 11
6708.3350170000003
 21
5117.8399342618613
 31
0.0
  0
DIMENSION
  5
7BF3
  8
3
  6
CONTINUOUS
  2
*D9
 10
7018.4094350000014
 20
4057.8399342618618
 30
0.0
 11
7018.4094349999987
 21
4582.6695722618624
 31
0.0
 70
   128
 13
6708.3350170000003
 23
5117.8399342618613
 33
0.0
 14
6708.3350170000003
 24
4057.8399342618618
 34
0.0
 50
90.0
1001
ACAD
1000
DSTYLE
1002
{
1070
   287
1070
     3
1070
   287
1070
     3
1070
     3
1000
φ<>
1070
    40
1040
40.0
1070
   143
1040
0.039
1070
   172
1070
     1
1070
   271
1070
     0
1070
   279
1070
     0
1070
   288
1070
     1
1002
}
  0
DIMENSION
  5
7C1A
  8
3
  6
CONTINUOUS
  2
*D10
 10
6329.3350170000003
 20
2931.8102182618618
 30
0.0
 11
6055.0493029999998
 21
2931.8102182618618
 31
0.0
 70
   128
 13
5746.8350170000012
 23
3206.8399342618618
 33
0.0
 14
6329.3350170000003
 24
3125.5121822618612
 34
0.0
1001
ACAD
1000
DSTYLE
1002
{
1070
   287
1070
     3
1070
   287
1070
     3
1070
    40
1040
40.0
1070
   143
1040
0.039
1070
   172
1070
     1
1070
   271
1070
     0
1070
   279
1070
     0
1070
   288
1070
     1
1002
}
  0
DIMENSION
  5
7C28
  8
3
  6
CONTINUOUS
  2
*D11
 10
6770.8350170000003
 20
2931.8102182618618
 30
0.0
 11
6562.9922789999991
 21
2926.2018192618611
 31
0.0
 70
   128
 13
6329.3350170000003
 23
3125.5121822618612
 33
0.0
 14
6770.8350170000003
 24
3206.8399342618618
 34
0.0
1001
ACAD
1000
DSTYLE
1002
{
1070
   287
1070
     4
1070
   287
1070
     4
1070
    40
1040
40.0
1070
    75
1070
     1
1070
   143
1040
0.039
1070
   172
1070
     1
1070
   271
1070
     0
1070
   279
1070
     1
1070
   288
1070
     1
1002
}
  0
DIMENSION
  5
7C3F
  8
3
  6
CONTINUOUS
  2
*D12
 10
3393.2974079999999
 20
8209.1588776906956
 30
0.0
 11
2412.1944170000002
 21
8209.1588776906956
 31
0.0
 70
   128
 13
1443.2974079999999
 23
8001.1409286906946
 33
0.0
 14
3393.2974079999999
 24
8001.1409286906946
 34
0.0
1001
ACAD
1000
DSTYLE
1002
{
1070
   287
1070
     3
1070
   287
1070
     3
1070
    40
1040
40.0
1070
   143
1040
0.039
1070
   172
1070
     1
1070
   271
1070
     0
1070
   279
1070
     0
1070
   288
1070
     1
1002
}
  0
DIMENSION
  5
7C4C
  8
3
  6
CONTINUOUS
  2
*D13
 10
3843.7987659999999
 20
6976.1409286906946
 30
0.0
 11
3843.798765999999
 21
7512.1293626906954
 31
0.0
 70
   128
 13
3393.2974079999999
 23
8001.1409286906946
 33
0.0
 14
3393.2974079999999
 24
6976.1409286906946
 34
0.0
 50
90.0
1001
ACAD
1000
DSTYLE
1002
{
1070
   287
1070
     3
1070
   287
1070
     3
1070
    40
1040
40.0
1070
   143
1040
0.039
1070
   172
1070
     1
1070
   271
1070
     0
1070
   279
1070
     0
1070
   288
1070
     1
1002
}
  0
DIMENSION
  5
7CB4
  8
3
  6
CONTINUOUS
  2
*D14
 10
6329.3350170000003
 20
5717.6627542618617
 30
0.0
 11
6037.9064455714288
 21
5717.6627542618617
 31
0.0
 70
   128
  1
MAX\P700
 13
5669.3350170000003
 23
5097.8399342618623
 33
0.0
 14
6329.3350170000003
 24
5644.1104692618619
 34
0.0
1001
ACAD
1000
DSTYLE
1002
{
1070
   287
1070
     3
1070
   287
1070
     3
1070
    40
1040
40.0
1070
   143
1040
0.039
1070
   172
1070
     1
1070
   271
1070
     0
1070
   279
1070
     0
1070
   288
1070
     1
1002
}
  0
DIMENSION
  5
7CC2
  8
3
  6
CONTINUOUS
  2
*D15
 10
6708.3350170000003
 20
5717.6627542618617
 30
0.0
 11
6524.2034999999996
 21
5725.1641222618618
 31
0.0
 70
   128
 13
6329.3350170000003
 23
5644.1104692618619
 33
0.0
 14
6708.3350170000003
 24
5117.8399342618613
 34
0.0
1001
ACAD
1000
DSTYLE
1002
{
1070
   287
1070
     4
1070
   287
1070
     4
1070
    40
1040
40.0
1070
    75
1070
     1
1070
   143
1040
0.039
1070
   172
1070
     1
1070
   271
1070
     0
1070
   279
1070
     1
1070
   288
1070
     1
1002
}
  0
LINE
  5
7CEE
  8
2
  6
CENTER
 10
6329.3350170000003
 20
5475.9390262618617
 30
0.0
 11
6329.3350170000003
 21
3125.5121822618612
 31
0.0
  0
DIMENSION
  5
7CFF
  8
3
  6
CONTINUOUS
  2
*D16
 10
4237.6959870000001
 20
5303.4668739542876
 30
0.0
 11
4137.6959869999991
 21
4945.6534041080749
 31
0.0
 70
     0
 13
3640.2929140000001
 23
4587.8399342618613
 33
0.0
 14
2743.2974079999999
 24
5303.4668739542876
 34
0.0
 50
90.0
1001
ACAD
1000
DSTYLE
1002
{
1070
   287
1070
     4
1070
   287
1070
     4
1070
    40
1040
40.0
1070
    75
1070
     1
1070
   143
1040
0.039
1070
   172
1070
     1
1070
   271
1070
     0
1070
   279
1070
     1
1070
   288
1070
     1
1002
}
  0
DIMENSION
  5
7D18
  8
3
  6
CONTINUOUS
  2
*D17
 10
1915.660863999999
 20
5492.4765132618631
 30
0.0
 11
2329.4791359999999
 21
5592.4765132618622
 31
0.0
 70
     0
 13
2743.2974079999999
 23
5436.9322842618612
 33
0.0
 14
1915.660863999999
 24
4587.8399342618613
 34
0.0
1001
ACAD
1000
DSTYLE
1002
{
1070
   287
1070
     4
1070
   287
1070
     4
1070
    40
1040
40.0
1070
    75
1070
     1
1070
   143
1040
0.039
1070
   172
1070
     1
1070
   271
1070
     0
1070
   279
1070
     1
1070
   288
1070
     1
1002
}
  0
DIMENSION
  5
7DA3
  8
3
  2
*D18
 10
3473.2974079999999
 20
5752.6659096600924
 30
0.0
 11
2581.2972020341908
 21
5752.6659096600924
 31
0.0
 70
   128
 13
1443.2974079999999
 23
3497.8399342618609
 33
0.0
 14
3473.2974079999999
 24
4685.8399342618613
 34
0.0
1001
ACAD
1000
DSTYLE
1002
{
1070
   287
1070
     3
1070
   287
1070
     3
1070
    40
1040
40.0
1070
   143
1040
0.039
1070
   172
1070
     1
1070
   271
1070
     0
1070
   279
1070
     0
1070
   288
1070
     1
1002
}
  0
LINE
  5
7FDF
  8
1
 10
3368.2974079999999
 20
3497.8399342618609
 30
0.0
 11
3368.2974079999999
 21
4747.8399342618613
 31
0.0
  0
LINE
  5
7FE0
  8
1
  6
CONTINUOUS
 10
2118.2974079999999
 20
4747.8399342618613
 30
0.0
 11
3368.2974079999999
 21
4747.8399342618613
 31
0.0
  0
LINE
  5
7FE1
  8
1
 10
2118.2974079999999
 20
3497.8399342618609
 30
0.0
 11
2118.2974079999999
 21
4747.8399342618613
 31
0.0
  0
LINE
  5
7FEF
  8
1
  6
CONTINUOUS
 10
3393.2974079999999
 20
3497.8399342618609
 30
0.0
 11
3393.2974079999999
 21
3372.8399342618609
 31
0.0
  0
ENDSEC
  0
EOF
