  0
SECTION
  2
HEADER
  9
$ACADVER
  1
AC1009
  9
$INSBASE
 10
0.0
 20
0.0
 30
0.0
  9
$EXTMIN
 10
1000.0
 20
1200.0
 30
0.0
  9
$EXTMAX
 10
7400.0
 20
11146.609046
 30
0.0
  9
$LIMMIN
 10
0.0
 20
0.0
  9
$LIMMAX
 10
297.0
 20
210.0
  9
$ORTHOMODE
 70
     0
  9
$REGENMODE
 70
     1
  9
$FILLMODE
 70
     0
  9
$QTEXTMODE
 70
     0
  9
$MIRRTEXT
 70
     1
  9
$DRAGMODE
 70
     2
  9
$LTSCALE
 40
100.0
  9
$OSMODE
 70
    37
  9
$ATTMODE
 70
     1
  9
$TEXTSIZE
 40
180.0
  9
$TRACEWID
 40
0.05
  9
$TEXTSTYLE
  7
STANDARD
  9
$CLAYER
  8
3
  9
$CELTYPE
  6
BYLAYER
  9
$CECOLOR
 62
   256
  9
$DIMSCALE
 40
40.0
  9
$DIMASZ
 40
2.0
  9
$DIMEXO
 40
0.5
  9
$DIMDLI
 40
10.0
  9
$DIMRND
 40
0.0
  9
$DIMDLE
 40
0.0
  9
$DIMEXE
 40
1.0
  9
$DIMTP
 40
1.0
  9
$DIMTM
 40
1.0
  9
$DIMTXT
 40
3.0
  9
$DIMCEN
 40
0.0
  9
$DIMTSZ
 40
0.0
  9
$DIMTOL
 70
     0
  9
$DIMLIM
 70
     0
  9
$DIMTIH
 70
     0
  9
$DIMTOH
 70
     0
  9
$DIMSE1
 70
     0
  9
$DIMSE2
 70
     0
  9
$DIMTAD
 70
     1
  9
$DIMZIN
 70
     8
  9
$DIMBLK
  1

  9
$DIMASO
 70
     1
  9
$DIMSHO
 70
     1
  9
$DIMPOST
  1

  9
$DIMAPOST
  1

  9
$DIMALT
 70
     0
  9
$DIMALTD
 70
     2
  9
$DIMALTF
 40
0.039
  9
$DIMLFAC
 40
1.0
  9
$DIMTOFL
 70
     1
  9
$DIMTVP
 40
0.0
  9
$DIMTIX
 70
     0
  9
$DIMSOXD
 70
     0
  9
$DIMSAH
 70
     1
  9
$DIMBLK1
  1
OPEN
  9
$DIMBLK2
  1
OPEN
  9
$DIMSTYLE
  2
IGA
  9
$DIMCLRD
 70
     0
  9
$DIMCLRE
 70
     0
  9
$DIMCLRT
 70
     0
  9
$DIMTFAC
 40
10.0
  9
$DIMGAP
 40
1.0
  9
$LUNITS
 70
     2
  9
$LUPREC
 70
     3
  9
$SKETCHINC
 40
0.1
  9
$FILLETRAD
 40
50.0
  9
$AUNITS
 70
     0
  9
$AUPREC
 70
     0
  9
$MENU
  1
acad
  9
$ELEVATION
 40
0.0
  9
$PELEVATION
 40
0.0
  9
$THICKNESS
 40
0.0
  9
$LIMCHECK
 70
     0
  9
$BLIPMODE
 70
     0
  9
$CHAMFERA
 40
0.5
  9
$CHAMFERB
 40
0.5
  9
$SKPOLY
 70
     0
  9
$TDCREATE
 40
2450752.5813252311
  9
$TDUPDATE
 40
2454953.842257685
  9
$TDINDWG
 40
0.0119725347
  9
$TDUSRTIMER
 40
0.0119725347
  9
$USRTIMER
 70
     1
  9
$ANGBASE
 50
0.0
  9
$ANGDIR
 70
     0
  9
$PDMODE
 70
     0
  9
$PDSIZE
 40
0.0
  9
$PLINEWID
 40
0.0
  9
$COORDS
 70
     1
  9
$SPLFRAME
 70
     0
  9
$SPLINETYPE
 70
     6
  9
$SPLINESEGS
 70
     8
  9
$ATTDIA
 70
     0
  9
$ATTREQ
 70
     1
  9
$HANDLING
 70
 10241
  9
$HANDSEED
  5
7EB8
  9
$SURFTAB1
 70
     6
  9
$SURFTAB2
 70
     6
  9
$SURFTYPE
 70
     6
  9
$SURFU
 70
     6
  9
$SURFV
 70
     6
  9
$UCSNAME
  2

  9
$UCSORG
 10
0.0
 20
0.0
 30
0.0
  9
$UCSXDIR
 10
1.0
 20
0.0
 30
0.0
  9
$UCSYDIR
 10
0.0
 20
1.0
 30
0.0
  9
$PUCSNAME
  2

  9
$PUCSORG
 10
0.0
 20
0.0
 30
0.0
  9
$PUCSXDIR
 10
1.0
 20
0.0
 30
0.0
  9
$PUCSYDIR
 10
0.0
 20
1.0
 30
0.0
  9
$USERI1
 70
     0
  9
$USERI2
 70
     0
  9
$USERI3
 70
     0
  9
$USERI4
 70
     0
  9
$USERI5
 70
     0
  9
$USERR1
 40
0.0
  9
$USERR2
 40
0.0
  9
$USERR3
 40
0.0
  9
$USERR4
 40
0.0
  9
$USERR5
 40
0.0
  9
$WORLDVIEW
 70
     1
  9
$SHADEDGE
 70
     3
  9
$SHADEDIF
 70
    70
  9
$TILEMODE
 70
     1
  9
$MAXACTVP
 70
    16
  9
$PLIMCHECK
 70
     0
  9
$PEXTMIN
 10
1.0000000000000000E+020
 20
1.0000000000000000E+020
 30
1.0000000000000000E+020
  9
$PEXTMAX
 10
-1.0000000000000000E+020
 20
-1.0000000000000000E+020
 30
-1.0000000000000000E+020
  9
$PLIMMIN
 10
0.0
 20
0.0
  9
$PLIMMAX
 10
12.0
 20
9.0
  9
$UNITMODE
 70
     0
  9
$VISRETAIN
 70
     0
  9
$PLINEGEN
 70
     0
  9
$PSLTSCALE
 70
     1
  0
ENDSEC
  0
SECTION
  2
TABLES
  0
TABLE
  2
VPORT
 70
     2
  0
VPORT
  2
*ACTIVE
 70
     0
 10
0.0
 20
0.0
 11
1.0
 21
1.0
 12
4603.4820080823374
 22
5892.4005466639901
 13
0.0
 23
0.0
 14
10.0
 24
10.0
 15
10.0
 25
10.0
 16
0.0
 26
0.0
 36
1.0
 17
0.0
 27
0.0
 37
0.0
 40
12084.527353714249
 41
1.5051150895140659
 42
50.0
 43
0.0
 44
0.0
 50
0.0
 51
0.0
 71
     0
 72
   100
 73
     1
 74
     0
 75
     0
 76
     0
 77
     0
 78
     0
  0
ENDTAB
  0
TABLE
  2
LTYPE
 70
     2
  0
LTYPE
  2
CONTINUOUS
 70
     0
  3
Solid line
 72
    65
 73
     0
 40
0.0
  0
LTYPE
  2
CENTER
 70
     0
  3
____ _ ____ _ ____ _ ____ _ ____ _ ____ _ ____ 
 72
    65
 73
     4
 40
2.0
 49
1.25
 49
-0.25
 49
0.25
 49
-0.25
  0
ENDTAB
  0
TABLE
  2
LAYER
 70
     6
  0
LAYER
  2
0
 70
     0
 62
     7
  6
CONTINUOUS
  0
LAYER
  2
3
 70
     0
 62
     2
  6
CONTINUOUS
  0
LAYER
  2
2
 70
     0
 62
     3
  6
CENTER
  0
LAYER
  2
1
 70
     0
 62
     4
  6
CONTINUOUS
  0
LAYER
  2
4
 70
     0
 62
     7
  6
CONTINUOUS
  0
LAYER
  2
DEFPOINTS
 70
     0
 62
     7
  6
CONTINUOUS
  0
ENDTAB
  0
TABLE
  2
STYLE
 70
     1
  0
STYLE
  2
STANDARD
 70
     0
 40
0.0
 41
1.0
 50
0.0
 71
     0
 42
180.0
  3
simplex.shx
  4
extfont.shx
  0
ENDTAB
  0
TABLE
  2
VIEW
 70
     0
  0
ENDTAB
  0
TABLE
  2
UCS
 70
     0
  0
ENDTAB
  0
TABLE
  2
APPID
 70
     1
  0
APPID
  2
ACAD
 70
     0
  0
ENDTAB
  0
TABLE
  2
DIMSTYLE
 70
     1
  0
DIMSTYLE
  2
IGA
 70
     0
  3

  4

  5

  6
OPEN
  7
OPEN
 40
2.0
 41
2.0
 42
0.5
 43
10.0
 44
1.0
 45
0.0
 46
0.0
 47
1.0
 48
1.0
140
3.0
141
0.0
142
0.0
143
0.03937
144
1.0
145
0.0
146
10.0
147
1.0
 71
     0
 72
     0
 73
     0
 74
     0
 75
     0
 76
     0
 77
     1
 78
     8
170
     0
171
     2
172
     0
173
     1
174
     0
175
     0
176
     0
177
     0
178
     0
  0
ENDTAB
  0
ENDSEC
  0
SECTION
  2
BLOCKS
  0
BLOCK
  8
0
  2
$MODEL_SPACE
 70
     0
 10
0.0
 20
0.0
 30
0.0
  3
$MODEL_SPACE
  1

  0
ENDBLK
  5
1B
  8
0
  0
BLOCK
 67
     1
  8
0
  2
$PAPER_SPACE
 70
     0
 10
0.0
 20
0.0
 30
0.0
  3
$PAPER_SPACE
  1

  0
ENDBLK
  5
18
 67
     1
  8
0
  0
BLOCK
  8
0
  2
_OPEN
 70
     0
 10
0.0
 20
0.0
 30
0.0
  3
_OPEN
  1

  0
LINE
  5
7B0A
  8
0
  6
BYBLOCK
 62
     0
 10
-1.0
 20
0.166667
 30
0.0
 11
0.0
 21
0.0
 31
0.0
  0
LINE
  5
7B0B
  8
0
  6
BYBLOCK
 62
     0
 10
0.0
 20
0.0
 30
0.0
 11
-1.0
 21
-0.166667
 31
0.0
  0
LINE
  5
7B0C
  8
0
  6
BYBLOCK
 62
     0
 10
0.0
 20
0.0
 30
0.0
 11
-1.0
 21
0.0
 31
0.0
  0
ENDBLK
  5
7B0D
  8
0
  0
BLOCK
  8
0
  2
*D1
 70
     1
 10
0.0
 20
0.0
 30
0.0
  3
*D1
  1

  0
LINE
  5
7E0F
  8
3
  6
CONTINUOUS
 62
     0
 10
3712.4224389999999
 20
5286.13763212296
 30
0.0
 11
4054.4621760000009
 21
5286.13763212296
 31
0.0
  0
LINE
  5
7E10
  8
3
  6
CONTINUOUS
 62
     0
 10
3712.4224389999999
 20
4256.13763212296
 30
0.0
 11
4054.462176
 21
4256.13763212296
 31
0.0
  0
LINE
  5
7E11
  8
3
  6
CONTINUOUS
 62
     0
 10
4014.4621760000009
 20
5206.13763212296
 30
0.0
 11
4014.4621760000009
 21
4336.13763212296
 31
0.0
  0
INSERT
  5
7E12
  8
3
  6
CONTINUOUS
 62
     0
  2
_OPEN
 10
4014.4621760000009
 20
5286.13763212296
 30
0.0
 41
80.0
 42
80.0
 43
80.0
 50
90.0
  0
INSERT
  5
7E13
  8
3
  6
CONTINUOUS
 62
     0
  2
_OPEN
 10
4014.4621760000009
 20
4256.13763212296
 30
0.0
 41
80.0
 42
80.0
 43
80.0
 50
270.0
  0
TEXT
  8
3
  40
120
  5
7EA6
  62
0
  72
0
  71
0
 10
3674.46
 20
4502.03
 30
0.000000
  1
1030
  0
POINT
  5
7E15
  8
DEFPOINTS
  6
CONTINUOUS
 62
     0
 10
3692.4224389999999
 20
5286.13763212296
 30
0.0
  0
POINT
  5
7E16
  8
DEFPOINTS
  6
CONTINUOUS
 62
     0
 10
3692.4224389999999
 20
4256.13763212296
 30
0.0
  0
POINT
  5
7E17
  8
DEFPOINTS
  6
CONTINUOUS
 62
     0
 10
4014.4621760000009
 20
4256.13763212296
 30
0.0
  0
ENDBLK
  5
7B1A
  8
0
  0
BLOCK
  8
0
  2
*D2
 70
     1
 10
0.0
 20
0.0
 30
0.0
  3
*D2
  1

  0
LINE
  5
7E18
  8
3
  6
CONTINUOUS
 62
     0
 10
3712.4224389999999
 20
5286.13763212296
 30
0.0
 11
4324.4804170000007
 21
5286.13763212296
 31
0.0
  0
LINE
  5
7E19
  8
3
  6
CONTINUOUS
 62
     0
 10
3863.0592909999991
 20
4304.13763212296
 30
0.0
 11
4324.4804170000007
 21
4304.13763212296
 31
0.0
  0
LINE
  5
7E1A
  8
3
  6
CONTINUOUS
 62
     0
 10
4284.4804170000007
 20
5206.13763212296
 30
0.0
 11
4284.4804170000007
 21
4384.13763212296
 31
0.0
  0
INSERT
  5
7E1B
  8
3
  6
CONTINUOUS
 62
     0
  2
_OPEN
 10
4284.4804170000007
 20
5286.13763212296
 30
0.0
 41
80.0
 42
80.0
 43
80.0
 50
90.0
  0
INSERT
  5
7E1C
  8
3
  6
CONTINUOUS
 62
     0
  2
_OPEN
 10
4284.4804170000007
 20
4304.13763212296
 30
0.0
 41
80.0
 42
80.0
 43
80.0
 50
270.0
  0
TEXT
  8
3
  40
120
  5
7EA7
  62
0
  72
0
  71
0
 10
3944.48
 20
4540.58
 30
0.000000
  1
982
  0
POINT
  5
7E1E
  8
DEFPOINTS
  6
CONTINUOUS
 62
     0
 10
3692.4224389999999
 20
5286.13763212296
 30
0.0
  0
POINT
  5
7E1F
  8
DEFPOINTS
  6
CONTINUOUS
 62
     0
 10
3843.0592909999991
 20
4304.13763212296
 30
0.0
  0
POINT
  5
7E20
  8
DEFPOINTS
  6
CONTINUOUS
 62
     0
 10
4284.4804170000007
 20
4304.13763212296
 30
0.0
  0
ENDBLK
  5
7B27
  8
0
  0
BLOCK
  8
0
  2
*D3
 70
     1
 10
0.0
 20
0.0
 30
0.0
  3
*D3
  1

  0
LINE
  5
7E21
  8
3
  6
CONTINUOUS
 62
     0
 10
3632.422438999999
 20
3444.1376321229591
 30
0.0
 11
4324.4804169999998
 21
3444.1376321229591
 31
0.0
  0
LINE
  5
7E22
  8
3
  6
CONTINUOUS
 62
     0
 10
4284.4804169999998
 20
4224.13763212296
 30
0.0
 11
4284.4804169999998
 21
3524.13763212296
 31
0.0
  0
INSERT
  5
7E23
  8
3
  6
CONTINUOUS
 62
     0
  2
_OPEN
 10
4284.4804169999998
 20
4304.13763212296
 30
0.0
 41
80.0
 42
80.0
 43
80.0
 50
90.0
  0
INSERT
  5
7E24
  8
3
  6
CONTINUOUS
 62
     0
  2
_OPEN
 10
4284.4804169999998
 20
3444.1376321229591
 30
0.0
 41
80.0
 42
80.0
 43
80.0
 50
270.0
  0
TEXT
  8
3
  40
120
  5
7EA8
  62
0
  72
0
  71
0
 10
3944.48
 20
3661.74
 30
0.000000
  1
860
  0
POINT
  5
7E26
  8
DEFPOINTS
  6
CONTINUOUS
 62
     0
 10
3843.0592909999991
 20
4304.13763212296
 30
0.0
  0
POINT
  5
7E27
  8
DEFPOINTS
  6
CONTINUOUS
 62
     0
 10
3612.4224389999999
 20
3444.1376321229591
 30
0.0
  0
POINT
  5
7E28
  8
DEFPOINTS
  6
CONTINUOUS
 62
     0
 10
4284.4804169999998
 20
3444.1376321229591
 30
0.0
  0
ENDBLK
  5
7B33
  8
0
  0
BLOCK
  8
0
  2
*D4
 70
     1
 10
0.0
 20
0.0
 30
0.0
  3
*D4
  1

  0
LINE
  5
7E29
  8
3
  6
CONTINUOUS
 62
     0
 10
3712.4224389999999
 20
5336.13763212296
 30
0.0
 11
4623.4292190000006
 21
5336.13763212296
 31
0.0
  0
LINE
  5
7E2A
  8
3
  6
CONTINUOUS
 62
     0
 10
3632.422438999999
 20
3444.1376321229591
 30
0.0
 11
4623.4292190000006
 21
3444.1376321229591
 31
0.0
  0
LINE
  5
7E2B
  8
3
  6
CONTINUOUS
 62
     0
 10
4583.4292189999996
 20
5256.13763212296
 30
0.0
 11
4583.4292189999996
 21
3524.13763212296
 31
0.0
  0
INSERT
  5
7E2C
  8
3
  6
CONTINUOUS
 62
     0
  2
_OPEN
 10
4583.4292189999996
 20
5336.13763212296
 30
0.0
 41
80.0
 42
80.0
 43
80.0
 50
90.0
  0
INSERT
  5
7E2D
  8
3
  6
CONTINUOUS
 62
     0
  2
_OPEN
 10
4583.4292189999996
 20
3444.1376321229591
 30
0.0
 41
80.0
 42
80.0
 43
80.0
 50
270.0
  0
TEXT
  8
3
  40
120
  5
7EA9
  62
0
  72
0
  71
0
 10
4243.43
 20
4106.89
 30
0.000000
  1
1892
  0
POINT
  5
7E2F
  8
DEFPOINTS
  6
CONTINUOUS
 62
     0
 10
3692.4224389999999
 20
5336.13763212296
 30
0.0
  0
POINT
  5
7E30
  8
DEFPOINTS
  6
CONTINUOUS
 62
     0
 10
3612.4224389999999
 20
3444.1376321229591
 30
0.0
  0
POINT
  5
7E31
  8
DEFPOINTS
  6
CONTINUOUS
 62
     0
 10
4583.4292189999996
 20
3444.1376321229591
 30
0.0
  0
ENDBLK
  5
7B40
  8
0
  0
BLOCK
  8
0
  2
*D5
 70
     1
 10
0.0
 20
0.0
 30
0.0
  3
*D5
  1

  0
LINE
  5
7E32
  8
3
  6
CONTINUOUS
 62
     0
 10
1662.4224389999999
 20
3424.13763212296
 30
0.0
 11
1662.4224389999999
 21
3132.3987631229602
 31
0.0
  0
LINE
  5
7E33
  8
3
  6
CONTINUOUS
 62
     0
 10
2962.4224389999999
 20
3260.5751281229591
 30
0.0
 11
2962.4224389999999
 21
3132.3987631229602
 31
0.0
  0
LINE
  5
7E34
  8
3
  6
CONTINUOUS
 62
     0
 10
1742.4224389999999
 20
3172.3987631229588
 30
0.0
 11
2882.4224389999999
 21
3172.3987631229588
 31
0.0
  0
INSERT
  5
7E35
  8
3
  6
CONTINUOUS
 62
     0
  2
_OPEN
 10
1662.4224389999999
 20
3172.3987631229588
 30
0.0
 41
80.0
 42
80.0
 43
80.0
 50
180.0
  0
INSERT
  5
7E36
  8
3
  6
CONTINUOUS
 62
     0
  2
_OPEN
 10
2962.4224389999999
 20
3172.3987631229588
 30
0.0
 41
80.0
 42
80.0
 43
80.0
  0
TEXT
  8
3
  40
120
  5
7EAA
  62
0
  72
0
  71
0
 10
2106.13
 20
3060.00
 30
0.000000
  1
1300
  0
POINT
  5
7E38
  8
DEFPOINTS
  6
CONTINUOUS
 62
     0
 10
1662.4224389999999
 20
3444.1376321229591
 30
0.0
  0
POINT
  5
7E39
  8
DEFPOINTS
  6
CONTINUOUS
 62
     0
 10
2962.4224389999999
 20
3280.57512812296
 30
0.0
  0
POINT
  5
7E3A
  8
DEFPOINTS
  6
CONTINUOUS
 62
     0
 10
2962.4224389999999
 20
3172.3987631229588
 30
0.0
  0
ENDBLK
  5
7B4D
  8
0
  0
BLOCK
  8
0
  2
*D6
 70
     1
 10
0.0
 20
0.0
 30
0.0
  3
*D6
  1

  0
LINE
  5
7E3B
  8
3
  6
CONTINUOUS
 62
     0
 10
3612.4224389999999
 20
3424.13763212296
 30
0.0
 11
3612.4224389999999
 21
3132.3987631229602
 31
0.0
  0
LINE
  5
7E3C
  8
3
  6
CONTINUOUS
 62
     0
 10
3042.4224389999999
 20
3172.3987631229588
 30
0.0
 11
3532.422438999999
 21
3172.3987631229588
 31
0.0
  0
INSERT
  5
7E3D
  8
3
  6
CONTINUOUS
 62
     0
  2
_OPEN
 10
2962.4224389999999
 20
3172.3987631229588
 30
0.0
 41
80.0
 42
80.0
 43
80.0
 50
180.0
  0
INSERT
  5
7E3E
  8
3
  6
CONTINUOUS
 62
     0
  2
_OPEN
 10
3612.4224389999999
 20
3172.3987631229588
 30
0.0
 41
80.0
 42
80.0
 43
80.0
  0
TEXT
  8
3
  40
120
  5
7EAB
  62
0
  72
0
  71
0
 10
3047.42
 20
3060.00
 30
0.000000
  1
650
  0
POINT
  5
7E40
  8
DEFPOINTS
  6
CONTINUOUS
 62
     0
 10
2962.4224389999999
 20
3280.57512812296
 30
0.0
  0
POINT
  5
7E41
  8
DEFPOINTS
  6
CONTINUOUS
 62
     0
 10
3612.4224389999999
 20
3444.1376321229591
 30
0.0
  0
POINT
  5
7E42
  8
DEFPOINTS
  6
CONTINUOUS
 62
     0
 10
3612.4224389999999
 20
3172.3987631229588
 30
0.0
  0
ENDBLK
  5
7B59
  8
0
  0
BLOCK
  8
0
  2
*D7
 70
     1
 10
0.0
 20
0.0
 30
0.0
  3
*D7
  1

  0
LINE
  5
7E43
  8
3
  6
CONTINUOUS
 62
     0
 10
3692.4224389999999
 20
5356.13763212296
 30
0.0
 11
3692.4224389999999
 21
5554.3646471229586
 31
0.0
  0
LINE
  5
7E44
  8
3
  6
CONTINUOUS
 62
     0
 10
2962.4224389999999
 20
5421.5980841229602
 30
0.0
 11
2962.4224389999999
 21
5554.3646471229586
 31
0.0
  0
LINE
  5
7E45
  8
3
  6
CONTINUOUS
 62
     0
 10
3612.4224389999999
 20
5514.3646471229604
 30
0.0
 11
3042.4224389999999
 21
5514.3646471229604
 31
0.0
  0
INSERT
  5
7E46
  8
3
  6
CONTINUOUS
 62
     0
  2
_OPEN
 10
3692.4224389999999
 20
5514.3646471229604
 30
0.0
 41
80.0
 42
80.0
 43
80.0
  0
INSERT
  5
7E47
  8
3
  6
CONTINUOUS
 62
     0
  2
_OPEN
 10
2962.4224389999999
 20
5514.3646471229604
 30
0.0
 41
80.0
 42
80.0
 43
80.0
 50
180.0
  0
TEXT
  8
3
  40
120
  5
7EAC
  62
0
  72
0
  71
0
 10
3080.13
 20
5401.96
 30
0.000000
  1
730
  0
POINT
  5
7E49
  8
DEFPOINTS
  6
CONTINUOUS
 62
     0
 10
3692.4224389999999
 20
5336.13763212296
 30
0.0
  0
POINT
  5
7E4A
  8
DEFPOINTS
  6
CONTINUOUS
 62
     0
 10
2962.4224389999999
 20
5401.5980841229602
 30
0.0
  0
POINT
  5
7E4B
  8
DEFPOINTS
  6
CONTINUOUS
 62
     0
 10
2962.4224389999999
 20
5514.3646471229604
 30
0.0
  0
ENDBLK
  5
7B66
  8
0
  0
BLOCK
  8
0
  2
*D8
 70
     1
 10
0.0
 20
0.0
 30
0.0
  3
*D8
  1

  0
LINE
  5
7E4C
  8
3
  6
CONTINUOUS
 62
     0
 10
6625.1199428342288
 20
5306.13763212296
 30
0.0
 11
6625.1199428342288
 21
5506.1760451229602
 31
0.0
  0
LINE
  5
7E4D
  8
3
  6
CONTINUOUS
 62
     0
 10
5875.1199428342288
 20
5306.13763212296
 30
0.0
 11
5875.1199428342288
 21
5506.1760451229602
 31
0.0
  0
LINE
  5
7E4E
  8
3
  6
CONTINUOUS
 62
     0
 10
6545.1199428342288
 20
5466.1760451229602
 30
0.0
 11
5955.1199428342288
 21
5466.1760451229602
 31
0.0
  0
INSERT
  5
7E4F
  8
3
  6
CONTINUOUS
 62
     0
  2
_OPEN
 10
6625.1199428342288
 20
5466.1760451229602
 30
0.0
 41
80.0
 42
80.0
 43
80.0
  0
INSERT
  5
7E50
  8
3
  6
CONTINUOUS
 62
     0
  2
_OPEN
 10
5875.1199428342288
 20
5466.1760451229602
 30
0.0
 41
80.0
 42
80.0
 43
80.0
 50
180.0
  0
TEXT
  8
3
  40
120
  5
7EAD
  62
0
  72
0
  71
0
 10
6006.59
 20
5353.78
 30
0.000000
  1
750
  0
POINT
  5
7E52
  8
DEFPOINTS
  6
CONTINUOUS
 62
     0
 10
6625.1199428342288
 20
5286.13763212296
 30
0.0
  0
POINT
  5
7E53
  8
DEFPOINTS
  6
CONTINUOUS
 62
     0
 10
5875.1199428342288
 20
5286.13763212296
 30
0.0
  0
POINT
  5
7E54
  8
DEFPOINTS
  6
CONTINUOUS
 62
     0
 10
5875.1199428342288
 20
5466.1760451229602
 30
0.0
  0
ENDBLK
  5
7B7F
  8
0
  0
BLOCK
  8
0
  2
*D9
 70
     1
 10
0.0
 20
0.0
 30
0.0
  3
*D9
  1

  0
LINE
  5
7E55
  8
3
  6
CONTINUOUS
 62
     0
 10
6649.1199428342288
 20
4834.13763212296
 30
0.0
 11
6990.5665598342293
 21
4834.13763212296
 31
0.0
  0
LINE
  5
7E56
  8
3
  6
CONTINUOUS
 62
     0
 10
6649.1199428342288
 20
3774.1376321229591
 30
0.0
 11
6990.5665598342293
 21
3774.1376321229591
 31
0.0
  0
LINE
  5
7E57
  8
3
  6
CONTINUOUS
 62
     0
 10
6950.5665598342284
 20
4754.13763212296
 30
0.0
 11
6950.5665598342284
 21
3854.1376321229591
 31
0.0
  0
INSERT
  5
7E58
  8
3
  6
CONTINUOUS
 62
     0
  2
_OPEN
 10
6950.5665598342284
 20
4834.13763212296
 30
0.0
 41
80.0
 42
80.0
 43
80.0
 50
90.0
  0
INSERT
  5
7E59
  8
3
  6
CONTINUOUS
 62
     0
  2
_OPEN
 10
6950.5665598342284
 20
3774.1376321229591
 30
0.0
 41
80.0
 42
80.0
 43
80.0
 50
270.0
  0
TEXT
  8
3
  40
120
  5
7EAE
  62
0
  72
0
  71
0
 10
6610.57
 20
4097.25
 30
0.000000
  1
φ1060
  0
POINT
  5
7E5B
  8
DEFPOINTS
  6
CONTINUOUS
 62
     0
 10
6629.1199428342288
 20
4834.13763212296
 30
0.0
  0
POINT
  5
7E5C
  8
DEFPOINTS
  6
CONTINUOUS
 62
     0
 10
6629.1199428342288
 20
3774.1376321229591
 30
0.0
  0
POINT
  5
7E5D
  8
DEFPOINTS
  6
CONTINUOUS
 62
     0
 10
6950.5665598342284
 20
3774.1376321229591
 30
0.0
  0
ENDBLK
  5
7CDC
  8
0
  0
BLOCK
  8
0
  2
*D10
 70
     1
 10
0.0
 20
0.0
 30
0.0
  3
*D10
  1

  0
LINE
  5
7E5E
  8
3
  6
CONTINUOUS
 62
     0
 10
5667.6199428342279
 20
3424.13763212296
 30
0.0
 11
5667.6199428342279
 21
3101.2945361229599
 31
0.0
  0
LINE
  5
7E5F
  8
3
  6
CONTINUOUS
 62
     0
 10
6250.1199428342288
 20
3298.4357141229598
 30
0.0
 11
6250.1199428342288
 21
3101.2945361229599
 31
0.0
  0
LINE
  5
7E60
  8
3
  6
CONTINUOUS
 62
     0
 10
5747.6199428342288
 20
3141.2945361229599
 30
0.0
 11
6170.1199428342288
 21
3141.2945361229599
 31
0.0
  0
INSERT
  5
7E61
  8
3
  6
CONTINUOUS
 62
     0
  2
_OPEN
 10
5667.6199428342279
 20
3141.2945361229599
 30
0.0
 41
80.0
 42
80.0
 43
80.0
 50
180.0
  0
INSERT
  5
7E62
  8
3
  6
CONTINUOUS
 62
     0
  2
_OPEN
 10
6250.1199428342288
 20
3141.2945361229599
 30
0.0
 41
80.0
 42
80.0
 43
80.0
  0
TEXT
  8
3
  40
120
  5
7EAF
  62
0
  72
0
  71
0
 10
5735.83
 20
3028.89
 30
0.000000
  1
583
  0
POINT
  5
7E64
  8
DEFPOINTS
  6
CONTINUOUS
 62
     0
 10
5667.6199428342279
 20
3444.1376321229591
 30
0.0
  0
POINT
  5
7E65
  8
DEFPOINTS
  6
CONTINUOUS
 62
     0
 10
6250.1199428342288
 20
3318.4357141229589
 30
0.0
  0
POINT
  5
7E66
  8
DEFPOINTS
  6
CONTINUOUS
 62
     0
 10
6250.1199428342288
 20
3141.2945361229599
 30
0.0
  0
ENDBLK
  5
7BC0
  8
0
  0
BLOCK
  8
0
  2
*D11
 70
     1
 10
0.0
 20
0.0
 30
0.0
  3
*D11
  1

  0
LINE
  5
7E67
  8
3
  6
CONTINUOUS
 62
     0
 10
1662.4224389999999
 20
8153.4534244250253
 30
0.0
 11
1662.4224389999999
 21
8443.9222384250243
 31
0.0
  0
LINE
  5
7E68
  8
3
  6
CONTINUOUS
 62
     0
 10
3612.4224389999999
 20
8153.4534244250253
 30
0.0
 11
3612.4224389999999
 21
8443.9222384250243
 31
0.0
  0
LINE
  5
7E69
  8
3
  6
CONTINUOUS
 62
     0
 10
1742.4224389999999
 20
8403.9222384250224
 30
0.0
 11
3532.422438999999
 21
8403.9222384250224
 31
0.0
  0
INSERT
  5
7E6A
  8
3
  6
CONTINUOUS
 62
     0
  2
_OPEN
 10
1662.4224389999999
 20
8403.9222384250224
 30
0.0
 41
80.0
 42
80.0
 43
80.0
 50
180.0
  0
INSERT
  5
7E6B
  8
3
  6
CONTINUOUS
 62
     0
  2
_OPEN
 10
3612.4224389999999
 20
8403.9222384250224
 30
0.0
 41
80.0
 42
80.0
 43
80.0
  0
TEXT
  8
3
  40
120
  5
7EB0
  62
0
  72
0
  71
0
 10
2370.42
 20
8291.52
 30
0.000000
  1
1950
  0
POINT
  5
7E6D
  8
DEFPOINTS
  6
CONTINUOUS
 62
     0
 10
1662.4224389999999
 20
8133.4534244250262
 30
0.0
  0
POINT
  5
7E6E
  8
DEFPOINTS
  6
CONTINUOUS
 62
     0
 10
3612.4224389999999
 20
8133.4534244250262
 30
0.0
  0
POINT
  5
7E6F
  8
DEFPOINTS
  6
CONTINUOUS
 62
     0
 10
3612.4224389999999
 20
8403.9222384250224
 30
0.0
  0
ENDBLK
  5
7BDB
  8
0
  0
BLOCK
  8
0
  2
*D12
 70
     1
 10
0.0
 20
0.0
 30
0.0
  3
*D12
  1

  0
LINE
  5
7E70
  8
3
  6
CONTINUOUS
 62
     0
 10
3632.422438999999
 20
8133.4534244250262
 30
0.0
 11
4076.0483700000009
 21
8133.4534244250262
 31
0.0
  0
LINE
  5
7E71
  8
3
  6
CONTINUOUS
 62
     0
 10
3632.422438999999
 20
7108.4534244250253
 30
0.0
 11
4076.0483700000009
 21
7108.4534244250253
 31
0.0
  0
LINE
  5
7E72
  8
3
  6
CONTINUOUS
 62
     0
 10
4036.0483700000018
 20
8053.4534244250253
 30
0.0
 11
4036.0483700000018
 21
7188.4534244250262
 31
0.0
  0
INSERT
  5
7E73
  8
3
  6
CONTINUOUS
 62
     0
  2
_OPEN
 10
4036.0483700000018
 20
8133.4534244250262
 30
0.0
 41
80.0
 42
80.0
 43
80.0
 50
90.0
  0
INSERT
  5
7E74
  8
3
  6
CONTINUOUS
 62
     0
  2
_OPEN
 10
4036.0483700000018
 20
7108.4534244250253
 30
0.0
 41
80.0
 42
80.0
 43
80.0
 50
270.0
  0
TEXT
  8
3
  40
120
  5
7EB1
  62
0
  72
0
  71
0
 10
3696.05
 20
7463.48
 30
0.000000
  1
1025
  0
POINT
  5
7E76
  8
DEFPOINTS
  6
CONTINUOUS
 62
     0
 10
3612.4224389999999
 20
8133.4534244250262
 30
0.0
  0
POINT
  5
7E77
  8
DEFPOINTS
  6
CONTINUOUS
 62
     0
 10
3612.4224389999999
 20
7108.4534244250253
 30
0.0
  0
POINT
  5
7E78
  8
DEFPOINTS
  6
CONTINUOUS
 62
     0
 10
4036.0483700000018
 20
7108.4534244250253
 30
0.0
  0
ENDBLK
  5
7BE8
  8
0
  0
BLOCK
  8
0
  2
*D13
 70
     1
 10
0.0
 20
0.0
 30
0.0
  3
*D13
  1

  0
LINE
  5
7E79
  8
3
  6
CONTINUOUS
 62
     0
 10
5590.1199428342279
 20
4889.13763212296
 30
0.0
 11
5590.1199428342279
 21
5768.55019012296
 31
0.0
  0
LINE
  5
7E7A
  8
3
  6
CONTINUOUS
 62
     0
 10
6250.1199428342288
 20
5672.0604891229596
 30
0.0
 11
6250.1199428342288
 21
5768.55019012296
 31
0.0
  0
LINE
  5
7E7B
  8
3
  6
CONTINUOUS
 62
     0
 10
5670.1199428342288
 20
5728.55019012296
 30
0.0
 11
6170.1199428342288
 21
5728.55019012296
 31
0.0
  0
INSERT
  5
7E7C
  8
3
  6
CONTINUOUS
 62
     0
  2
_OPEN
 10
5590.1199428342279
 20
5728.55019012296
 30
0.0
 41
80.0
 42
80.0
 43
80.0
 50
180.0
  0
INSERT
  5
7E7D
  8
3
  6
CONTINUOUS
 62
     0
  2
_OPEN
 10
6250.1199428342288
 20
5728.55019012296
 30
0.0
 41
80.0
 42
80.0
 43
80.0
  0
TEXT
  8
3
  40
120
  5
7EB2
  62
0
  72
0
  71
0
 10
5718.69
 20
5716.15
 30
0.000000
  1
MAX
  0
TEXT
  8
3
  40
120
  5
7EB3
  62
0
  72
0
  71
0
 10
5718.69
 20
5560.15
 30
0.000000
  1
700
  0
POINT
  5
7E7F
  8
DEFPOINTS
  6
CONTINUOUS
 62
     0
 10
5590.1199428342279
 20
4869.13763212296
 30
0.0
  0
POINT
  5
7E80
  8
DEFPOINTS
  6
CONTINUOUS
 62
     0
 10
6250.1199428342288
 20
5652.0604891229586
 30
0.0
  0
POINT
  5
7E81
  8
DEFPOINTS
  6
CONTINUOUS
 62
     0
 10
6250.1199428342288
 20
5728.55019012296
 30
0.0
  0
ENDBLK
  5
7CD1
  8
0
  0
BLOCK
  8
0
  2
*D14
 70
     1
 10
0.0
 20
0.0
 30
0.0
  3
*D14
  1

  0
LINE
  5
7E82
  8
3
  6
CONTINUOUS
 62
     0
 10
6629.1199428342288
 20
4854.1376321229591
 30
0.0
 11
6629.1199428342288
 21
5768.55019012296
 31
0.0
  0
LINE
  5
7E83
  8
3
  6
CONTINUOUS
 62
     0
 10
6330.1199428342288
 20
5728.55019012296
 30
0.0
 11
6549.1199428342279
 21
5728.55019012296
 31
0.0
  0
TEXT
  8
3
  40
120
  5
7EB4
  62
0
  72
0
  71
0
 10
6201.29
 20
5616.15
 30
0.000000
  1
379
  0
INSERT
  5
7E85
  8
3
  6
CONTINUOUS
 62
     0
  2
_OPEN
 10
6250.1199428342288
 20
5728.55019012296
 30
0.0
 41
80.0
 42
80.0
 43
80.0
 50
180.0
  0
INSERT
  5
7E86
  8
3
  6
CONTINUOUS
 62
     0
  2
_OPEN
 10
6629.1199428342288
 20
5728.55019012296
 30
0.0
 41
80.0
 42
80.0
 43
80.0
  0
POINT
  5
7E87
  8
DEFPOINTS
  6
CONTINUOUS
 62
     0
 10
6250.1199428342288
 20
5652.0604891229586
 30
0.0
  0
POINT
  5
7E88
  8
DEFPOINTS
  6
CONTINUOUS
 62
     0
 10
6629.1199428342288
 20
4834.13763212296
 30
0.0
  0
POINT
  5
7E89
  8
DEFPOINTS
  6
CONTINUOUS
 62
     0
 10
6629.1199428342288
 20
5728.55019012296
 30
0.0
  0
ENDBLK
  5
7C6C
  8
0
  0
BLOCK
  8
0
  2
*D15
 70
     1
 10
0.0
 20
0.0
 30
0.0
  3
*D15
  1

  0
LINE
  5
7E8A
  8
3
  6
CONTINUOUS
 62
     0
 10
2134.7858949999991
 20
4324.13763212296
 30
0.0
 11
2134.7858949999991
 21
5554.3646471229586
 31
0.0
  0
LINE
  5
7E8B
  8
3
  6
CONTINUOUS
 62
     0
 10
2882.4224389999999
 20
5514.3646471229604
 30
0.0
 11
2214.7858949999991
 21
5514.3646471229604
 31
0.0
  0
INSERT
  5
7E8C
  8
3
  6
CONTINUOUS
 62
     0
  2
_OPEN
 10
2962.4224389999999
 20
5514.3646471229604
 30
0.0
 41
80.0
 42
80.0
 43
80.0
  0
INSERT
  5
7E8D
  8
3
  6
CONTINUOUS
 62
     0
  2
_OPEN
 10
2134.7858949999991
 20
5514.3646471229604
 30
0.0
 41
80.0
 42
80.0
 43
80.0
 50
180.0
  0
TEXT
  8
3
  40
120
  5
7EB5
  62
0
  72
0
  71
0
 10
2308.60
 20
5401.96
 30
0.000000
  1
828
  0
POINT
  5
7E8F
  8
DEFPOINTS
  6
CONTINUOUS
 62
     0
 10
2962.4224389999999
 20
5401.5980841229602
 30
0.0
  0
POINT
  5
7E90
  8
DEFPOINTS
  6
CONTINUOUS
 62
     0
 10
2134.7858949999991
 20
4304.13763212296
 30
0.0
  0
POINT
  5
7E91
  8
DEFPOINTS
  6
CONTINUOUS
 62
     0
 10
2134.7858949999991
 20
5514.3646471229604
 30
0.0
  0
ENDBLK
  5
7C7C
  8
0
  0
BLOCK
  8
0
  2
*D16
 70
     1
 10
0.0
 20
0.0
 30
0.0
  3
*D16
  1

  0
LINE
  5
7E92
  8
3
  6
CONTINUOUS
 62
     0
 10
6691.6199428342288
 20
3424.13763212296
 30
0.0
 11
6691.6199428342288
 21
3101.2945361229599
 31
0.0
  0
LINE
  5
7E93
  8
3
  6
CONTINUOUS
 62
     0
 10
6330.1199428342288
 20
3141.2945361229599
 30
0.0
 11
6611.6199428342279
 21
3141.2945361229599
 31
0.0
  0
TEXT
  8
3
  40
120
  5
7EB6
  62
0
  72
0
  71
0
 10
6245.31
 20
3030.85
 30
0.000000
  1
442
  0
INSERT
  5
7E95
  8
3
  6
CONTINUOUS
 62
     0
  2
_OPEN
 10
6250.1199428342288
 20
3141.2945361229599
 30
0.0
 41
80.0
 42
80.0
 43
80.0
 50
180.0
  0
INSERT
  5
7E96
  8
3
  6
CONTINUOUS
 62
     0
  2
_OPEN
 10
6691.6199428342288
 20
3141.2945361229599
 30
0.0
 41
80.0
 42
80.0
 43
80.0
  0
POINT
  5
7E97
  8
DEFPOINTS
  6
CONTINUOUS
 62
     0
 10
6250.1199428342288
 20
3318.4357141229589
 30
0.0
  0
POINT
  5
7E98
  8
DEFPOINTS
  6
CONTINUOUS
 62
     0
 10
6691.6199428342288
 20
3444.1376321229591
 30
0.0
  0
POINT
  5
7E99
  8
DEFPOINTS
  6
CONTINUOUS
 62
     0
 10
6691.6199428342288
 20
3141.2945361229599
 30
0.0
  0
ENDBLK
  5
7CAF
  8
0
  0
BLOCK
  8
0
  2
*D17
 70
     1
 10
0.0
 20
0.0
 30
0.0
  3
*D17
  1

  0
LINE
  5
7E9A
  8
3
 62
     0
 10
3692.4224389999999
 20
5356.13763212296
 30
0.0
 11
3692.4224389999999
 21
5805.8086363143884
 31
0.0
  0
LINE
  5
7E9B
  8
3
 62
     0
 10
1662.4224389999999
 20
3589.1376321229591
 30
0.0
 11
1662.4224389999999
 21
5805.8086363143884
 31
0.0
  0
LINE
  5
7E9C
  8
3
 62
     0
 10
3612.4224389999999
 20
5765.8086363143893
 30
0.0
 11
1742.4224389999999
 21
5765.8086363143893
 31
0.0
  0
INSERT
  5
7E9D
  8
3
 62
     0
  2
_OPEN
 10
3692.4224389999999
 20
5765.8086363143893
 30
0.0
 41
80.0
 42
80.0
 43
80.0
  0
INSERT
  5
7E9E
  8
3
 62
     0
  2
_OPEN
 10
1662.4224389999999
 20
5765.8086363143893
 30
0.0
 41
80.0
 42
80.0
 43
80.0
 50
180.0
  0
TEXT
  8
3
  40
120
  5
7EB7
  62
0
  72
0
  71
0
 10
2461.96
 20
5653.41
 30
0.000000
  1
2030
  0
POINT
  5
7EA0
  8
DEFPOINTS
 62
     0
 10
3692.4224389999999
 20
5336.13763212296
 30
0.0
  0
POINT
  5
7EA1
  8
DEFPOINTS
 62
     0
 10
1662.4224389999999
 20
3569.1376321229591
 30
0.0
  0
POINT
  5
7EA2
  8
DEFPOINTS
 62
     0
 10
1662.4224389999999
 20
5765.8086363143893
 30
0.0
  0
ENDBLK
  5
7CC5
  8
0
  0
BLOCK
  8
0
  2
_DOT
 70
     0
 10
0.0
 20
0.0
 30
0.0
  3
_DOT
  1

  0
POLYLINE
  5
7DD6
  8
0
  6
BYBLOCK
 62
     0
 66
     1
 10
0.0
 20
0.0
 30
0.0
 70
     1
 40
0.5
 41
0.5
  0
VERTEX
  5
7EA3
  8
0
  6
BYBLOCK
 62
     0
 10
-0.25
 20
0.0
 30
0.0
 42
1.0
  0
VERTEX
  5
7EA4
  8
0
  6
BYBLOCK
 62
     0
 10
0.25
 20
0.0
 30
0.0
 42
1.0
  0
SEQEND
  5
7EA5
  8
0
  6
BYBLOCK
 62
     0
  0
LINE
  5
7DD7
  8
0
  6
BYBLOCK
 62
     0
 10
-0.5
 20
0.0
 30
0.0
 11
-1.0
 21
0.0
 31
0.0
  0
ENDBLK
  5
7DD9
  8
0
  0
ENDSEC
  0
SECTION
  2
ENTITIES
  0
POLYLINE
  5
7A76
  8
1
  6
CONTINUOUS
 66
     1
 10
0.0
 20
0.0
 30
0.0
  0
VERTEX
  5
7DF2
  8
1
  6
CONTINUOUS
 10
1738.422438999999
 20
3619.13763212296
 30
0.0
  0
VERTEX
  5
7DF3
  8
1
  6
CONTINUOUS
 10
1704.922438999999
 20
3619.13763212296
 30
0.0
  0
VERTEX
  5
7DF4
  8
1
  6
CONTINUOUS
 10
1694.9224389999999
 20
3569.1376321229591
 30
0.0
  0
SEQEND
  5
7DF5
  8
1
  6
CONTINUOUS
  0
POLYLINE
  5
7A7B
  8
1
  6
CONTINUOUS
 66
     1
 10
0.0
 20
0.0
 30
0.0
  0
VERTEX
  5
7DF6
  8
1
  6
CONTINUOUS
 10
1694.9224389999999
 20
3569.1376321229591
 30
0.0
  0
VERTEX
  5
7DF7
  8
1
  6
CONTINUOUS
 10
2089.922438999999
 20
3569.1376321229591
 30
0.0
  0
VERTEX
  5
7DF8
  8
1
  6
CONTINUOUS
 10
2079.9224389999999
 20
3619.13763212296
 30
0.0
  0
VERTEX
  5
7DF9
  8
1
  6
CONTINUOUS
 10
2046.4224389999999
 20
3619.13763212296
 30
0.0
  0
SEQEND
  5
7DFA
  8
1
  6
CONTINUOUS
  0
LINE
  5
7A81
  8
1
  6
CONTINUOUS
 10
1662.4224389999999
 20
3444.1376321229591
 30
0.0
 11
3612.4224389999999
 21
3444.1376321229591
 31
0.0
  0
LINE
  5
7A82
  8
1
  6
CONTINUOUS
 10
1662.4224389999999
 20
3569.1376321229591
 30
0.0
 11
3612.4224389999999
 21
3569.1376321229591
 31
0.0
  0
LINE
  5
7A83
  8
1
  6
CONTINUOUS
 10
1662.4224389999999
 20
3569.1376321229591
 30
0.0
 11
1662.4224389999999
 21
3444.1376321229591
 31
0.0
  0
ARC
  5
7A84
  8
1
  6
CONTINUOUS
 10
2919.422438999999
 20
4261.1376321229591
 30
0.0
 40
674.0
 50
273.65785299999999
 51
359.57495299999988
  0
ARC
  5
7A85
  8
1
  6
CONTINUOUS
 10
2906.422438999999
 20
4360.13763212296
 30
0.0
 40
774.0
 50
184.149056
 51
274.14905599999997
  0
LINE
  5
7A87
  8
1
  6
CONTINUOUS
 10
2732.4224389999999
 20
4869.13763212296
 30
0.0
 11
3502.4224389999999
 21
4869.13763212296
 31
0.0
  0
LINE
  5
7A88
  8
2
  6
CENTER
 10
1827.551661
 20
4304.13763212296
 30
0.0
 11
3843.0592909999991
 21
4304.13763212296
 31
0.0
  0
LINE
  5
7A89
  8
1
  6
CONTINUOUS
 10
1946.5938309999999
 20
3654.2032241229599
 30
0.0
 11
3038.8756320000002
 21
4127.8151471229594
 31
0.0
  0
CIRCLE
  5
7A8A
  8
1
  6
CONTINUOUS
 10
2962.4224389999999
 20
4304.13763212296
 30
0.0
 40
192.18405100000001
  0
ARC
  5
7A8E
  8
1
  6
CONTINUOUS
 10
3027.4224389999999
 20
4369.1376321229591
 30
0.0
 40
895.0
 50
94.164812999999995
 51
184.1648129999999
  0
LINE
  5
7A8F
  8
1
  6
CONTINUOUS
 10
2732.4224389999999
 20
4869.13763212296
 30
0.0
 11
1732.4224389999999
 21
3969.13763212296
 31
0.0
  0
LINE
  5
7A90
  8
1
  6
CONTINUOUS
 10
1826.7608209999989
 20
3898.4343121229599
 30
0.0
 11
2869.7528539999998
 21
4472.5034761229599
 31
0.0
  0
LINE
  5
7A92
  8
2
  6
CENTER
 10
1751.249219
 20
3779.13763212296
 30
0.0
 11
2033.5956590000001
 21
3779.13763212296
 31
0.0
  0
CIRCLE
  5
7A93
  8
1
  6
CONTINUOUS
 10
1892.422438999999
 20
3779.13763212296
 30
0.0
 40
136.1732199999999
  0
ARC
  5
7A94
  8
1
  6
CONTINUOUS
 10
1892.422438999999
 20
3779.13763212296
 30
0.0
 40
162.0
 50
324.972283
 51
215.02771699999991
  0
LINE
  5
7A95
  8
1
  6
CONTINUOUS
 10
1732.4224389999999
 20
3969.13763212296
 30
0.0
 11
1732.4224389999999
 21
3569.1376321229591
 31
0.0
  0
LINE
  5
7A96
  8
2
  6
CENTER
 10
1892.422438999999
 20
3637.9644121229589
 30
0.0
 11
1892.422438999999
 21
3920.3108521229592
 31
0.0
  0
LINE
  5
7A97
  8
1
  6
CONTINUOUS
 10
1738.422438999999
 20
3637.1376321229591
 30
0.0
 11
1759.764772999999
 21
3686.1540651229602
 31
0.0
  0
LINE
  5
7A98
  8
1
  6
CONTINUOUS
 10
1738.422438999999
 20
3619.13763212296
 30
0.0
 11
1738.422438999999
 21
3637.1376321229591
 31
0.0
  0
LINE
  5
7A99
  8
1
  6
CONTINUOUS
 10
2046.4224389999999
 20
3619.13763212296
 30
0.0
 11
2046.4224389999999
 21
3637.1376321229591
 31
0.0
  0
LINE
  5
7A9A
  8
1
  6
CONTINUOUS
 10
2046.4224389999999
 20
3637.1376321229591
 30
0.0
 11
2025.080105
 21
3686.1540651229602
 31
0.0
  0
LINE
  5
7A9B
  8
1
  6
CONTINUOUS
 10
3692.4224389999999
 20
5336.13763212296
 30
0.0
 11
3692.4224389999999
 21
4206.13763212296
 31
0.0
  0
LINE
  5
7A9C
  8
1
  6
CONTINUOUS
 10
2962.4224389999999
 20
5261.7741761229599
 30
0.0
 11
3692.4224389999999
 21
5286.13763212296
 31
0.0
  0
LINE
  5
7A9D
  8
1
  6
CONTINUOUS
 10
3502.4224389999999
 20
4869.13763212296
 30
0.0
 11
3502.4224389999999
 21
3569.1376321229591
 31
0.0
  0
LINE
  5
7A9E
  8
2
  6
CENTER
 10
2962.4224389999999
 20
3280.57512812296
 30
0.0
 11
2962.4224389999999
 21
5401.5980841229602
 31
0.0
  0
LINE
  5
7A9F
  8
1
  6
CONTINUOUS
 10
3642.4224389999999
 20
5284.4689021229588
 30
0.0
 11
3642.4224389999999
 21
4256.13763212296
 31
0.0
  0
LINE
  5
7AA0
  8
1
  6
CONTINUOUS
 10
3593.4038930000002
 20
4256.13763212296
 30
0.0
 11
3692.4224389999999
 21
4256.13763212296
 31
0.0
  0
LINE
  5
7AA1
  8
1
  6
CONTINUOUS
 10
5667.6199428342279
 20
3444.1376321229591
 30
0.0
 11
5667.6199428342279
 21
3569.1376321229591
 31
0.0
  0
LINE
  5
7AA2
  8
1
  6
CONTINUOUS
 10
6691.6199428342288
 20
3444.1376321229591
 30
0.0
 11
6691.6199428342288
 21
3569.1376321229591
 31
0.0
  0
LINE
  5
7AA3
  8
1
  6
CONTINUOUS
 10
5667.6199428342279
 20
3444.1376321229591
 30
0.0
 11
6691.6199428342288
 21
3444.1376321229591
 31
0.0
  0
LINE
  5
7AA4
  8
1
  6
CONTINUOUS
 10
6625.1199428342288
 20
5286.13763212296
 30
0.0
 11
5875.1199428342288
 21
4256.13763212296
 31
0.0
  0
LINE
  5
7AA5
  8
1
  6
CONTINUOUS
 10
5875.1199428342288
 20
5286.13763212296
 30
0.0
 11
6625.1199428342288
 21
4256.13763212296
 31
0.0
  0
LINE
  5
7AA6
  8
1
  6
CONTINUOUS
 10
5875.1199428342288
 20
4256.13763212296
 30
0.0
 11
6625.1199428342288
 21
4256.13763212296
 31
0.0
  0
LINE
  5
7AA7
  8
1
  6
CONTINUOUS
 10
5875.1199428342288
 20
5286.13763212296
 30
0.0
 11
6625.1199428342288
 21
5286.13763212296
 31
0.0
  0
LINE
  5
7AA8
  8
1
  6
CONTINUOUS
 10
5667.6199428342279
 20
3569.1376321229591
 30
0.0
 11
6691.6199428342288
 21
3569.1376321229591
 31
0.0
  0
LINE
  5
7AA9
  8
1
  6
CONTINUOUS
 10
5804.1199428342288
 20
3569.1376321229591
 30
0.0
 11
5804.1199428342288
 21
4869.13763212296
 31
0.0
  0
LINE
  5
7AAA
  8
1
  6
CONTINUOUS
 10
5590.1199428342279
 20
3569.1376321229591
 30
0.0
 11
5590.1199428342279
 21
4869.13763212296
 31
0.0
  0
LINE
  5
7AAB
  8
1
  6
CONTINUOUS
 10
5652.1199428342288
 20
4111.9535821229601
 30
0.0
 11
5652.1199428342288
 21
4496.3216831229593
 31
0.0
  0
LINE
  5
7AAC
  8
1
  6
CONTINUOUS
 10
5753.1199428342288
 20
4111.9535821229601
 30
0.0
 11
5753.1199428342288
 21
4496.3216831229593
 31
0.0
  0
LINE
  5
7AAD
  8
1
  6
CONTINUOUS
 10
5875.1199428342288
 20
3569.1376321229591
 30
0.0
 11
5875.1199428342288
 21
5286.13763212296
 31
0.0
  0
POLYLINE
  5
7AAE
  8
1
  6
CONTINUOUS
 66
     1
 10
0.0
 20
0.0
 30
0.0
 70
     1
  0
VERTEX
  5
7DFB
  8
1
  6
CONTINUOUS
 10
5652.1199428342288
 20
3915.3108521229601
 30
0.0
  0
VERTEX
  5
7DFC
  8
1
  6
CONTINUOUS
 10
5652.1199428342288
 20
3642.9644121229599
 30
0.0
  0
VERTEX
  5
7DFD
  8
1
  6
CONTINUOUS
 10
5753.1199428342288
 20
3642.9644121229599
 30
0.0
  0
VERTEX
  5
7DFE
  8
1
  6
CONTINUOUS
 10
5753.1199428342288
 20
3915.3108521229601
 30
0.0
  0
SEQEND
  5
7DFF
  8
1
  6
CONTINUOUS
  0
LINE
  5
7AB4
  8
1
  6
CONTINUOUS
 10
5667.6199428342279
 20
3569.1376321229591
 30
0.0
 11
5590.1199428342279
 21
3569.1376321229591
 31
0.0
  0
LINE
  5
7AB5
  8
1
  6
CONTINUOUS
 10
5753.1199428342288
 20
3758.1376321229591
 30
0.0
 11
5875.1199428342288
 21
3758.1376321229591
 31
0.0
  0
LINE
  5
7AB6
  8
1
  6
CONTINUOUS
 10
5753.1199428342288
 20
3800.1376321229591
 30
0.0
 11
5875.1199428342288
 21
3800.1376321229591
 31
0.0
  0
LINE
  5
7AB7
  8
1
  6
CONTINUOUS
 10
5652.1199428342288
 20
4111.9535821229601
 30
0.0
 11
5753.1199428342288
 21
4111.9535821229601
 31
0.0
  0
LINE
  5
7AB8
  8
1
  6
CONTINUOUS
 10
5753.1199428342288
 20
4276.63763212296
 30
0.0
 11
5875.1199428342288
 21
4276.63763212296
 31
0.0
  0
LINE
  5
7AB9
  8
1
  6
CONTINUOUS
 10
5753.1199428342288
 20
4331.6376321229591
 30
0.0
 11
5875.1199428342288
 21
4331.6376321229591
 31
0.0
  0
LINE
  5
7ABA
  8
1
  6
CONTINUOUS
 10
5590.1199428342279
 20
4869.13763212296
 30
0.0
 11
5804.1199428342288
 21
4869.13763212296
 31
0.0
  0
LINE
  5
7ABB
  8
1
  6
CONTINUOUS
 10
5652.1199428342288
 20
4496.3216831229593
 30
0.0
 11
5753.1199428342288
 21
4496.3216831229593
 31
0.0
  0
LINE
  5
7ABC
  8
1
  6
CONTINUOUS
 10
6625.1199428342288
 20
3569.1376321229591
 30
0.0
 11
6625.1199428342288
 21
5286.13763212296
 31
0.0
  0
LINE
  5
7ABD
  8
1
  6
CONTINUOUS
 10
1662.4224389999999
 20
8133.4534244250262
 30
0.0
 11
3612.4224389999999
 21
8133.4534244250262
 31
0.0
  0
LINE
  5
7ABE
  8
1
  6
CONTINUOUS
 10
1662.4224389999999
 20
7108.4534244250253
 30
0.0
 11
1756.2724390000001
 21
7108.4534244250253
 31
0.0
  0
LINE
  5
7ABF
  8
1
  6
CONTINUOUS
 10
1662.4224389999999
 20
7108.4534244250253
 30
0.0
 11
1662.4224389999999
 21
8133.4534244250262
 31
0.0
  0
POLYLINE
  5
7AC0
  8
1
  6
CONTINUOUS
 66
     1
 10
0.0
 20
0.0
 30
0.0
 70
     1
  0
VERTEX
  5
7E00
  8
1
  6
CONTINUOUS
 10
1732.4224389999999
 20
7244.9534244250262
 30
0.0
  0
VERTEX
  5
7E01
  8
1
  6
CONTINUOUS
 10
1732.4224389999999
 20
7064.9534244250262
 30
0.0
  0
VERTEX
  5
7E02
  8
1
  6
CONTINUOUS
 10
3502.4224389999999
 20
7064.9534244250262
 30
0.0
  0
VERTEX
  5
7E03
  8
1
  6
CONTINUOUS
 10
3502.4224389999999
 20
7244.9534244250262
 30
0.0
  0
SEQEND
  5
7E04
  8
1
  6
CONTINUOUS
  0
POLYLINE
  5
7AC6
  8
1
  6
CONTINUOUS
 66
     1
 10
0.0
 20
0.0
 30
0.0
 70
     1
  0
VERTEX
  5
7E05
  8
1
  6
CONTINUOUS
 10
2770.2224390000001
 20
7193.9534244250253
 30
0.0
  0
VERTEX
  5
7E06
  8
1
  6
CONTINUOUS
 10
2770.2224390000001
 20
7092.9534244250253
 30
0.0
  0
VERTEX
  5
7E07
  8
1
  6
CONTINUOUS
 10
3154.6224390000002
 20
7092.9534244250253
 30
0.0
  0
VERTEX
  5
7E08
  8
1
  6
CONTINUOUS
 10
3154.6224390000002
 20
7193.9534244250253
 30
0.0
  0
SEQEND
  5
7E09
  8
1
  6
CONTINUOUS
  0
LINE
  5
7ACC
  8
1
  6
CONTINUOUS
 10
2134.4224389999999
 20
7315.9534244250253
 30
0.0
 11
3692.4224389999999
 21
7315.9534244250253
 31
0.0
  0
LINE
  5
7ACD
  8
1
  6
CONTINUOUS
 10
2134.4224389999999
 20
8065.9534244250253
 30
0.0
 11
3692.4224389999999
 21
8065.9534244250253
 31
0.0
  0
LINE
  5
7ACE
  8
1
  6
CONTINUOUS
 10
2028.572439
 20
7108.4534244250253
 30
0.0
 11
2770.2224390000001
 21
7108.4534244250253
 31
0.0
  0
LINE
  5
7ACF
  8
1
  6
CONTINUOUS
 10
2134.4224389999999
 20
7315.9534244250253
 30
0.0
 11
2134.4224389999999
 21
8065.9534244250253
 31
0.0
  0
POLYLINE
  5
7AD0
  8
1
  6
CONTINUOUS
 66
     1
 10
0.0
 20
0.0
 30
0.0
 70
     1
  0
VERTEX
  5
7E0A
  8
1
  6
CONTINUOUS
 10
2028.572439
 20
7193.9534244250253
 30
0.0
  0
VERTEX
  5
7E0B
  8
1
  6
CONTINUOUS
 10
2028.572439
 20
7092.9534244250253
 30
0.0
  0
VERTEX
  5
7E0C
  8
1
  6
CONTINUOUS
 10
1756.2724390000001
 20
7092.9534244250253
 30
0.0
  0
VERTEX
  5
7E0D
  8
1
  6
CONTINUOUS
 10
1756.2724390000001
 20
7193.9534244250253
 30
0.0
  0
SEQEND
  5
7E0E
  8
1
  6
CONTINUOUS
  0
LINE
  5
7AD6
  8
1
  6
CONTINUOUS
 10
2054.4224389999999
 20
7315.9534244250253
 30
0.0
 11
1730.422438999999
 21
7315.9534244250253
 31
0.0
  0
LINE
  5
7AD7
  8
1
  6
CONTINUOUS
 10
1730.422438999999
 20
7790.0751444250263
 30
0.0
 11
2054.4224389999999
 21
7790.0751444250263
 31
0.0
  0
LINE
  5
7AD8
  8
1
  6
CONTINUOUS
 10
1730.422438999999
 20
7315.9534244250253
 30
0.0
 11
1730.422438999999
 21
7790.0751444250263
 31
0.0
  0
LINE
  5
7AD9
  8
1
  6
CONTINUOUS
 10
1871.422438999999
 20
7193.9534244250253
 30
0.0
 11
1871.422438999999
 21
7315.9534244250253
 31
0.0
  0
LINE
  5
7ADA
  8
1
  6
CONTINUOUS
 10
1913.422438999999
 20
7193.9534244250253
 30
0.0
 11
1913.422438999999
 21
7315.9534244250253
 31
0.0
  0
LINE
  5
7ADB
  8
1
  6
CONTINUOUS
 10
2054.4224389999999
 20
7315.9534244250253
 30
0.0
 11
2054.4224389999999
 21
7790.0751444250263
 31
0.0
  0
LINE
  5
7ADC
  8
1
  6
CONTINUOUS
 10
2054.4224389999999
 20
7635.8167404250271
 30
0.0
 11
2054.4224389999999
 21
7698.5127014250247
 31
0.0
  0
LINE
  5
7ADD
  8
1
  6
CONTINUOUS
 10
3154.6224390000002
 20
7108.4534244250253
 30
0.0
 11
3612.4224389999999
 21
7108.4534244250253
 31
0.0
  0
LINE
  5
7ADE
  8
1
  6
CONTINUOUS
 10
2989.9224389999999
 20
7193.9534244250253
 30
0.0
 11
2989.9224389999999
 21
7315.9534244250253
 31
0.0
  0
LINE
  5
7ADF
  8
1
  6
CONTINUOUS
 10
2934.9224389999999
 20
7193.9534244250253
 30
0.0
 11
2934.9224389999999
 21
7315.9534244250253
 31
0.0
  0
LINE
  5
7AE0
  8
1
  6
CONTINUOUS
 10
3642.4224389999999
 20
7315.9534244250253
 30
0.0
 11
3642.4224389999999
 21
8065.9534244250253
 31
0.0
  0
LINE
  5
7AE1
  8
1
  6
CONTINUOUS
 10
3692.4224389999999
 20
7265.9534244250253
 30
0.0
 11
3692.4224389999999
 21
8115.9534244250253
 31
0.0
  0
LINE
  5
7AE2
  8
1
  6
CONTINUOUS
 10
3612.4224389999999
 20
7108.4534244250253
 30
0.0
 11
3612.4224389999999
 21
7315.9534244250253
 31
0.0
  0
LINE
  5
7AE3
  8
1
  6
CONTINUOUS
 10
3612.4224389999999
 20
8065.9534244250253
 30
0.0
 11
3612.4224389999999
 21
8133.4534244250262
 31
0.0
  0
LINE
  5
7AE4
  8
2
  6
CENTER
 10
1531.4928050000001
 20
7690.9534244250253
 30
0.0
 11
3843.0592909999991
 21
7690.9534244250253
 31
0.0
  0
LINE
  5
7AE5
  8
2
  6
CENTER
 10
6250.1199428342288
 20
5482.28772712296
 30
0.0
 11
6250.1199428342288
 21
3318.4357141229589
 31
0.0
  0
LINE
  5
7AE7
  8
2
  6
CENTER
 10
2962.4224389999999
 20
6906.7979004250255
 30
0.0
 11
2962.4224389999999
 21
8284.0953304250233
 31
0.0
  0
LINE
  5
7AE8
  8
2
  6
CENTER
 10
5479.396985834228
 20
4304.13763212296
 30
0.0
 11
6724.8658878342276
 21
4304.13763212296
 31
0.0
  0
LINE
  5
7AE9
  8
4
  6
CONTINUOUS
 10
7400.0
 20
2000.0
 30
0.0
 11
7400.0
 21
1200.0
 31
0.0
  0
LINE
  5
7AEA
  8
4
  6
CONTINUOUS
 10
4600.0
 20
2000.0
 30
0.0
 11
4600.0
 21
1200.0
 31
0.0
  0
LINE
  5
7AEB
  8
4
  6
CONTINUOUS
 10
2600.0
 20
2000.0
 30
0.0
 11
2600.0
 21
1200.0
 31
0.0
  0
LINE
  5
7AEE
  8
4
  6
CONTINUOUS
 10
2600.0
 20
1200.0
 30
0.0
 11
7400.0
 21
1200.0
 31
0.0
  0
LINE
  5
7AEF
  8
4
  6
CONTINUOUS
 10
2600.0
 20
1600.0
 30
0.0
 11
7400.0
 21
1600.0
 31
0.0
  0
TEXT
  5
7AF0
  8
4
  6
CONTINUOUS
 10
2754.008323
 20
1726.1721030000001
 30
0.0
 40
200.0
  1
機器名称
  0
TEXT
  5
7AF1
  8
4
  6
CONTINUOUS
 10
2745.032424
 20
1286.580627
 30
0.0
 40
200.0
  1
機器型番
  0
TEXT
  5
7AF2
  8
4
  6
CONTINUOUS
 10
4710.7149820000004
 20
1690.2870760000001
 30
0.0
 40
200.0
  1
ミツヤ多翼送風機
  0
TEXT
  5
7AF3
  8
4
  6
CONTINUOUS
 10
4746.6179819999998
 20
1268.6383370000001
 30
0.0
 40
200.0
  1
MFE#6-4
  0
TEXT
  5
7AF5
  8
4
  6
CONTINUOUS
 10
3619.1430620000001
 20
9533.715365
 30
0.0
 40
216.0
  1
床置ベット
  0
TEXT
  5
7AF6
  8
4
  6
CONTINUOUS
 10
1264.6703729999999
 20
10135.523905
 30
0.0
 40
288.0
  1
ベルト駆動式片吸込両持排煙ファン
  0
LINE
  5
7AF7
  8
4
  6
CONTINUOUS
 10
1000.0
 20
9877.6350170000005
 30
0.0
 11
7400.0
 21
9877.6350170000005
 31
0.0
  0
LINE
  5
7AF8
  8
4
  6
CONTINUOUS
 10
1000.0
 20
10677.635017000001
 30
0.0
 11
7400.0
 21
10677.635017000001
 31
0.0
  0
LINE
  5
7AF9
  8
4
  6
CONTINUOUS
 10
2600.0
 20
2000.0
 30
0.0
 11
7400.0
 21
2000.0
 31
0.0
  0
LINE
  5
7AFA
  8
4
  6
CONTINUOUS
 10
1000.0
 20
10677.635017000001
 30
0.0
 11
1000.0
 21
9877.6350170000005
 31
0.0
  0
TEXT
  5
7AFB
  8
4
  6
CONTINUOUS
 10
1754.300641
 20
9529.2779099999989
 30
0.0
 40
216.0
  1
右回転右横向
  0
TEXT
  5
7AFC
  8
4
  6
CONTINUOUS
 10
5875.8782369999999
 20
10824.244326
 30
0.0
 40
224.0
  1
No.
  0
TEXT
  5
7AFD
  8
4
  6
CONTINUOUS
 10
5245.1842500000012
 20
9533.715365
 30
0.0
 40
216.0
  1
縮尺：1/40
  0
LINE
  5
7AFE
  8
4
  6
CONTINUOUS
 10
7400.0
 20
10677.635017000001
 30
0.0
 11
7400.0
 21
9877.6350170000005
 31
0.0
  0
LINE
  5
7B00
  8
4
  6
CONTINUOUS
 10
5762.4696889999996
 20
10725.054333
 30
0.0
 11
5762.4696889999996
 21
11146.609046
 31
0.0
  0
LINE
  5
7B01
  8
4
  6
CONTINUOUS
 10
5762.4696889999996
 20
11146.609046
 30
0.0
 11
7400.0
 21
11146.609046
 31
0.0
  0
LINE
  5
7B02
  8
4
  6
CONTINUOUS
 10
7400.0
 20
11146.609046
 30
0.0
 11
7400.0
 21
10725.054333
 31
0.0
  0
LINE
  5
7B03
  8
4
  6
CONTINUOUS
 10
7400.0
 20
10725.054333
 30
0.0
 11
5762.4696889999996
 21
10725.054333
 31
0.0
  0
DIMENSION
  5
7B1B
  8
3
  6
CONTINUOUS
  2
*D1
 10
4014.4621760000009
 20
4256.13763212296
 30
0.0
 11
4014.462176
 21
4714.4339151229606
 31
0.0
 70
   128
 13
3692.4224389999999
 23
5286.13763212296
 33
0.0
 14
3692.4224389999999
 24
4256.13763212296
 34
0.0
 50
90.0
1001
ACAD
1000
DSTYLE
1002
{
1070
   287
1070
     3
1070
   287
1070
     3
1070
    40
1040
40.0
1070
   143
1040
0.039
1070
   172
1070
     1
1070
   271
1070
     0
1070
   279
1070
     0
1070
   288
1070
     1
1002
}
  0
DIMENSION
  5
7B28
  8
3
  6
CONTINUOUS
  2
*D2
 10
4284.4804170000007
 20
4304.13763212296
 30
0.0
 11
4284.4804169999998
 21
4752.9847791229586
 31
0.0
 70
   128
 13
3692.4224389999999
 23
5286.13763212296
 33
0.0
 14
3843.0592909999991
 24
4304.13763212296
 34
0.0
 50
90.0
1001
ACAD
1000
DSTYLE
1002
{
1070
   287
1070
     3
1070
   287
1070
     3
1070
    40
1040
40.0
1070
   143
1040
0.039
1070
   172
1070
     1
1070
   271
1070
     0
1070
   279
1070
     0
1070
   288
1070
     1
1002
}
  0
DIMENSION
  5
7B34
  8
3
  6
CONTINUOUS
  2
*D3
 10
4284.4804169999998
 20
3444.1376321229591
 30
0.0
 11
4184.4804169999979
 21
3874.13763212296
 31
0.0
 70
     0
 13
3843.0592909999991
 23
4304.13763212296
 33
0.0
 14
3612.4224389999999
 24
3444.1376321229591
 34
0.0
 50
90.0
1001
ACAD
1000
DSTYLE
1002
{
1070
   287
1070
     4
1070
   287
1070
     4
1070
    40
1040
40.0
1070
    75
1070
     1
1070
   143
1040
0.039
1070
   172
1070
     1
1070
   271
1070
     0
1070
   279
1070
     1
1070
   288
1070
     1
1002
}
  0
DIMENSION
  5
7B41
  8
3
  6
CONTINUOUS
  2
*D4
 10
4583.4292189999996
 20
3444.1376321229591
 30
0.0
 11
4583.4292189999996
 21
4319.2874191229603
 31
0.0
 70
   128
 13
3692.4224389999999
 23
5336.13763212296
 33
0.0
 14
3612.4224389999999
 24
3444.1376321229591
 34
0.0
 50
90.0
1001
ACAD
1000
DSTYLE
1002
{
1070
   287
1070
     3
1070
   287
1070
     3
1070
    40
1040
40.0
1070
   143
1040
0.039
1070
   172
1070
     1
1070
   271
1070
     0
1070
   279
1070
     0
1070
   288
1070
     1
1002
}
  0
DIMENSION
  5
7B4E
  8
3
  6
CONTINUOUS
  2
*D5
 10
2962.4224389999999
 20
3172.3987631229588
 30
0.0
 11
2346.1349420000001
 21
3172.3987631229588
 31
0.0
 70
   128
 13
1662.4224389999999
 23
3444.1376321229591
 33
0.0
 14
2962.4224389999999
 24
3280.57512812296
 34
0.0
1001
ACAD
1000
DSTYLE
1002
{
1070
   287
1070
     3
1070
   287
1070
     3
1070
    40
1040
40.0
1070
   143
1040
0.039
1070
   172
1070
     1
1070
   271
1070
     0
1070
   279
1070
     0
1070
   288
1070
     1
1002
}
  0
DIMENSION
  5
7B5A
  8
3
  6
CONTINUOUS
  2
*D6
 10
3612.4224389999999
 20
3172.3987631229588
 30
0.0
 11
3287.4224389999999
 21
3272.3987631229588
 31
0.0
 70
     0
 13
2962.4224389999999
 23
3280.57512812296
 33
0.0
 14
3612.4224389999999
 24
3444.1376321229591
 34
0.0
1001
ACAD
1000
DSTYLE
1002
{
1070
   287
1070
     4
1070
   287
1070
     4
1070
    40
1040
40.0
1070
    75
1070
     1
1070
   143
1040
0.039
1070
   172
1070
     1
1070
   271
1070
     0
1070
   279
1070
     1
1070
   288
1070
     1
1002
}
  0
DIMENSION
  5
7B67
  8
3
  6
CONTINUOUS
  2
*D7
 10
2962.4224389999999
 20
5514.3646471229604
 30
0.0
 11
3320.1294630000002
 21
5514.3646471229604
 31
0.0
 70
   128
 13
3692.4224389999999
 23
5336.13763212296
 33
0.0
 14
2962.4224389999999
 24
5401.5980841229602
 34
0.0
1001
ACAD
1000
DSTYLE
1002
{
1070
   287
1070
     3
1070
   287
1070
     3
1070
    40
1040
40.0
1070
   143
1040
0.039
1070
   172
1070
     1
1070
   271
1070
     0
1070
   279
1070
     0
1070
   288
1070
     1
1002
}
  0
DIMENSION
  5
7B80
  8
3
  6
CONTINUOUS
  2
*D8
 10
5875.1199428342288
 20
5466.1760451229602
 30
0.0
 11
6246.5903258342287
 21
5466.1760451229602
 31
0.0
 70
   128
 13
6625.1199428342288
 23
5286.13763212296
 33
0.0
 14
5875.1199428342288
 24
5286.13763212296
 34
0.0
1001
ACAD
1000
DSTYLE
1002
{
1070
   287
1070
     3
1070
   287
1070
     3
1070
    40
1040
40.0
1070
   143
1040
0.039
1070
   172
1070
     1
1070
   271
1070
     0
1070
   279
1070
     0
1070
   288
1070
     1
1002
}
  0
LINE
  5
7B81
  8
1
  6
CONTINUOUS
 10
6629.1199428342288
 20
3774.1376321229591
 30
0.0
 11
6629.1199428342288
 21
4834.13763212296
 31
0.0
  0
DIMENSION
  5
7B90
  8
3
  6
CONTINUOUS
  2
*D9
 10
6950.5665598342284
 20
3774.1376321229591
 30
0.0
 11
6950.5665598342284
 21
4309.6496801229596
 31
0.0
 70
   128
 13
6629.1199428342288
 23
4834.13763212296
 33
0.0
 14
6629.1199428342288
 24
3774.1376321229591
 34
0.0
 50
90.0
1001
ACAD
1000
DSTYLE
1002
{
1070
   287
1070
     3
1070
   287
1070
     3
1070
     3
1000
φ<>
1070
    40
1040
40.0
1070
   143
1040
0.039
1070
   172
1070
     1
1070
   271
1070
     0
1070
   279
1070
     0
1070
   288
1070
     1
1002
}
  0
DIMENSION
  5
7BC1
  8
3
  6
CONTINUOUS
  2
*D10
 10
6250.1199428342288
 20
3141.2945361229599
 30
0.0
 11
5975.8342278342279
 21
3141.2945361229599
 31
0.0
 70
   128
 13
5667.6199428342279
 23
3444.1376321229591
 33
0.0
 14
6250.1199428342288
 24
3318.4357141229589
 34
0.0
1001
ACAD
1000
DSTYLE
1002
{
1070
   287
1070
     3
1070
   287
1070
     3
1070
    40
1040
40.0
1070
   143
1040
0.039
1070
   172
1070
     1
1070
   271
1070
     0
1070
   279
1070
     0
1070
   288
1070
     1
1002
}
  0
DIMENSION
  5
7BDC
  8
3
  6
CONTINUOUS
  2
*D11
 10
3612.4224389999999
 20
8403.9222384250224
 30
0.0
 11
2610.420932
 21
8403.9222384250224
 31
0.0
 70
   128
 13
1662.4224389999999
 23
8133.4534244250262
 33
0.0
 14
3612.4224389999999
 24
8133.4534244250262
 34
0.0
1001
ACAD
1000
DSTYLE
1002
{
1070
   287
1070
     3
1070
   287
1070
     3
1070
    40
1040
40.0
1070
   143
1040
0.039
1070
   172
1070
     1
1070
   271
1070
     0
1070
   279
1070
     0
1070
   288
1070
     1
1002
}
  0
DIMENSION
  5
7BE9
  8
3
  6
CONTINUOUS
  2
*D12
 10
4036.0483700000018
 20
7108.4534244250253
 30
0.0
 11
4036.04837
 21
7675.8796684250274
 31
0.0
 70
   128
 13
3612.4224389999999
 23
8133.4534244250262
 33
0.0
 14
3612.4224389999999
 24
7108.4534244250253
 34
0.0
 50
90.0
1001
ACAD
1000
DSTYLE
1002
{
1070
   287
1070
     3
1070
   287
1070
     3
1070
    40
1040
40.0
1070
   143
1040
0.039
1070
   172
1070
     1
1070
   271
1070
     0
1070
   279
1070
     0
1070
   288
1070
     1
1002
}
  0
DIMENSION
  5
7C33
  8
3
  6
CONTINUOUS
  2
*D13
 10
6250.1199428342288
 20
5728.55019012296
 30
0.0
 11
5958.6913714056573
 21
5728.55019012296
 31
0.0
 70
   128
  1
MAX\P700
 13
5590.1199428342279
 23
4869.13763212296
 33
0.0
 14
6250.1199428342288
 24
5652.0604891229586
 34
0.0
1001
ACAD
1000
DSTYLE
1002
{
1070
   287
1070
     3
1070
   287
1070
     3
1070
    40
1040
40.0
1070
   143
1040
0.039
1070
   172
1070
     1
1070
   271
1070
     0
1070
   279
1070
     0
1070
   288
1070
     1
1002
}
  0
DIMENSION
  5
7C41
  8
3
  6
CONTINUOUS
  2
*D14
 10
6629.1199428342288
 20
5728.55019012296
 30
0.0
 11
6441.2862148342283
 21
5728.55019012296
 31
0.0
 70
   128
 13
6250.1199428342288
 23
5652.0604891229586
 33
0.0
 14
6629.1199428342288
 24
4834.13763212296
 34
0.0
1001
ACAD
1000
DSTYLE
1002
{
1070
   287
1070
     4
1070
   287
1070
     4
1070
    40
1040
40.0
1070
    75
1070
     1
1070
   143
1040
0.039
1070
   172
1070
     1
1070
   271
1070
     0
1070
   279
1070
     1
1070
   288
1070
     1
1002
}
  0
DIMENSION
  5
7C7D
  8
3
  6
CONTINUOUS
  2
*D15
 10
2134.7858949999991
 20
5514.3646471229604
 30
0.0
 11
2548.604167
 21
5614.3646471229586
 31
0.0
 70
     0
 13
2962.4224389999999
 23
5401.5980841229602
 33
0.0
 14
2134.7858949999991
 24
4304.13763212296
 34
0.0
1001
ACAD
1000
DSTYLE
1002
{
1070
   287
1070
     4
1070
   287
1070
     4
1070
    40
1040
40.0
1070
    75
1070
     1
1070
   143
1040
0.039
1070
   172
1070
     1
1070
   271
1070
     0
1070
   279
1070
     1
1070
   288
1070
     1
1002
}
  0
DIMENSION
  5
7C99
  8
3
  6
CONTINUOUS
  2
*D16
 10
6691.6199428342288
 20
3141.2945361229599
 30
0.0
 11
6485.3079118342284
 21
3143.2527781229601
 31
0.0
 70
   128
 13
6250.1199428342288
 23
3318.4357141229589
 33
0.0
 14
6691.6199428342288
 24
3444.1376321229591
 34
0.0
1001
ACAD
1000
DSTYLE
1002
{
1070
   287
1070
     4
1070
   287
1070
     4
1070
    40
1040
40.0
1070
    75
1070
     1
1070
   143
1040
0.039
1070
   172
1070
     1
1070
   271
1070
     0
1070
   279
1070
     1
1070
   288
1070
     1
1002
}
  0
DIMENSION
  5
7CC6
  8
3
  2
*D17
 10
1662.4224389999999
 20
5765.8086363143893
 30
0.0
 11
2701.964168883248
 21
5765.8086363143893
 31
0.0
 70
   128
 13
3692.4224389999999
 23
5336.13763212296
 33
0.0
 14
1662.4224389999999
 24
3569.1376321229591
 34
0.0
1001
ACAD
1000
DSTYLE
1002
{
1070
   287
1070
     3
1070
   287
1070
     3
1070
    40
1040
40.0
1070
   143
1040
0.039
1070
   172
1070
     1
1070
   271
1070
     0
1070
   279
1070
     0
1070
   288
1070
     1
1002
}
  0
LINE
  5
7DE1
  8
1
 10
3587.4224389999999
 20
3569.1376321229591
 30
0.0
 11
3587.4224389999999
 21
4819.1376321229591
 31
0.0
  0
LINE
  5
7DE2
  8
1
  6
CONTINUOUS
 10
2337.4224389999999
 20
4819.1376321229591
 30
0.0
 11
3587.4224389999999
 21
4819.1376321229591
 31
0.0
  0
LINE
  5
7DE3
  8
1
 10
2337.4224389999999
 20
3569.1376321229591
 30
0.0
 11
2337.4224389999999
 21
4819.1376321229591
 31
0.0
  0
LINE
  5
7DE4
  8
1
  6
CONTINUOUS
 10
3612.4224389999999
 20
3569.1376321229591
 30
0.0
 11
3612.4224389999999
 21
3444.1376321229591
 31
0.0
  0
ENDSEC
  0
EOF
