  0
SECTION
  2
HEADER
  9
$ACADVER
  1
AC1009
  9
$INSBASE
 10
0.0
 20
0.0
 30
0.0
  9
$EXTMIN
 10
1000.0
 20
1200.0
 30
0.0
  9
$EXTMAX
 10
7400.0
 20
11146.609046
 30
0.0
  9
$LIMMIN
 10
0.0
 20
0.0
  9
$LIMMAX
 10
297.0
 20
210.0
  9
$ORTHOMODE
 70
     0
  9
$REGENMODE
 70
     1
  9
$FILLMODE
 70
     0
  9
$QTEXTMODE
 70
     0
  9
$MIRRTEXT
 70
     1
  9
$DRAGMODE
 70
     2
  9
$LTSCALE
 40
100.0
  9
$OSMODE
 70
    37
  9
$ATTMODE
 70
     1
  9
$TEXTSIZE
 40
180.0
  9
$TRACEWID
 40
0.05
  9
$TEXTSTYLE
  7
STANDARD
  9
$CLAYER
  8
3
  9
$CELTYPE
  6
BYLAYER
  9
$CECOLOR
 62
   256
  9
$DIMSCALE
 40
40.0
  9
$DIMASZ
 40
2.0
  9
$DIMEXO
 40
0.5
  9
$DIMDLI
 40
10.0
  9
$DIMRND
 40
0.0
  9
$DIMDLE
 40
0.0
  9
$DIMEXE
 40
1.0
  9
$DIMTP
 40
1.0
  9
$DIMTM
 40
1.0
  9
$DIMTXT
 40
3.0
  9
$DIMCEN
 40
0.0
  9
$DIMTSZ
 40
0.0
  9
$DIMTOL
 70
     0
  9
$DIMLIM
 70
     0
  9
$DIMTIH
 70
     0
  9
$DIMTOH
 70
     0
  9
$DIMSE1
 70
     0
  9
$DIMSE2
 70
     0
  9
$DIMTAD
 70
     1
  9
$DIMZIN
 70
     8
  9
$DIMBLK
  1

  9
$DIMASO
 70
     1
  9
$DIMSHO
 70
     1
  9
$DIMPOST
  1

  9
$DIMAPOST
  1

  9
$DIMALT
 70
     0
  9
$DIMALTD
 70
     2
  9
$DIMALTF
 40
0.039
  9
$DIMLFAC
 40
1.0
  9
$DIMTOFL
 70
     1
  9
$DIMTVP
 40
0.0
  9
$DIMTIX
 70
     0
  9
$DIMSOXD
 70
     0
  9
$DIMSAH
 70
     1
  9
$DIMBLK1
  1
OPEN
  9
$DIMBLK2
  1
OPEN
  9
$DIMSTYLE
  2
IGA
  9
$DIMCLRD
 70
     0
  9
$DIMCLRE
 70
     0
  9
$DIMCLRT
 70
     0
  9
$DIMTFAC
 40
10.0
  9
$DIMGAP
 40
1.0
  9
$LUNITS
 70
     2
  9
$LUPREC
 70
     3
  9
$SKETCHINC
 40
0.1
  9
$FILLETRAD
 40
50.0
  9
$AUNITS
 70
     0
  9
$AUPREC
 70
     0
  9
$MENU
  1
acad
  9
$ELEVATION
 40
0.0
  9
$PELEVATION
 40
0.0
  9
$THICKNESS
 40
0.0
  9
$LIMCHECK
 70
     0
  9
$BLIPMODE
 70
     0
  9
$CHAMFERA
 40
0.5
  9
$CHAMFERB
 40
0.5
  9
$SKPOLY
 70
     0
  9
$TDCREATE
 40
2450752.6153739579
  9
$TDUPDATE
 40
2454953.8421969209
  9
$TDINDWG
 40
0.0106004051
  9
$TDUSRTIMER
 40
0.0106004051
  9
$USRTIMER
 70
     1
  9
$ANGBASE
 50
0.0
  9
$ANGDIR
 70
     0
  9
$PDMODE
 70
     0
  9
$PDSIZE
 40
0.0
  9
$PLINEWID
 40
0.0
  9
$COORDS
 70
     1
  9
$SPLFRAME
 70
     0
  9
$SPLINETYPE
 70
     6
  9
$SPLINESEGS
 70
     8
  9
$ATTDIA
 70
     0
  9
$ATTREQ
 70
     1
  9
$HANDLING
 70
 10241
  9
$HANDSEED
  5
7F47
  9
$SURFTAB1
 70
     6
  9
$SURFTAB2
 70
     6
  9
$SURFTYPE
 70
     6
  9
$SURFU
 70
     6
  9
$SURFV
 70
     6
  9
$UCSNAME
  2

  9
$UCSORG
 10
0.0
 20
0.0
 30
0.0
  9
$UCSXDIR
 10
1.0
 20
0.0
 30
0.0
  9
$UCSYDIR
 10
0.0
 20
1.0
 30
0.0
  9
$PUCSNAME
  2

  9
$PUCSORG
 10
0.0
 20
0.0
 30
0.0
  9
$PUCSXDIR
 10
1.0
 20
0.0
 30
0.0
  9
$PUCSYDIR
 10
0.0
 20
1.0
 30
0.0
  9
$USERI1
 70
     0
  9
$USERI2
 70
     0
  9
$USERI3
 70
     0
  9
$USERI4
 70
     0
  9
$USERI5
 70
     0
  9
$USERR1
 40
0.0
  9
$USERR2
 40
0.0
  9
$USERR3
 40
0.0
  9
$USERR4
 40
0.0
  9
$USERR5
 40
0.0
  9
$WORLDVIEW
 70
     1
  9
$SHADEDGE
 70
     3
  9
$SHADEDIF
 70
    70
  9
$TILEMODE
 70
     1
  9
$MAXACTVP
 70
    16
  9
$PLIMCHECK
 70
     0
  9
$PEXTMIN
 10
1.0000000000000000E+020
 20
1.0000000000000000E+020
 30
1.0000000000000000E+020
  9
$PEXTMAX
 10
-1.0000000000000000E+020
 20
-1.0000000000000000E+020
 30
-1.0000000000000000E+020
  9
$PLIMMIN
 10
0.0
 20
0.0
  9
$PLIMMAX
 10
12.0
 20
9.0
  9
$UNITMODE
 70
     0
  9
$VISRETAIN
 70
     0
  9
$PLINEGEN
 70
     0
  9
$PSLTSCALE
 70
     1
  0
ENDSEC
  0
SECTION
  2
TABLES
  0
TABLE
  2
VPORT
 70
     2
  0
VPORT
  2
*ACTIVE
 70
     0
 10
0.0
 20
0.0
 11
1.0
 21
1.0
 12
4617.8945479787544
 22
6094.1758655391068
 13
0.0
 23
0.0
 14
10.0
 24
10.0
 15
10.0
 25
10.0
 16
0.0
 26
0.0
 36
1.0
 17
0.0
 27
0.0
 37
0.0
 40
12084.52732811942
 41
1.5051150895140659
 42
50.0
 43
0.0
 44
0.0
 50
0.0
 51
0.0
 71
     0
 72
   100
 73
     1
 74
     0
 75
     0
 76
     0
 77
     0
 78
     0
  0
ENDTAB
  0
TABLE
  2
LTYPE
 70
     2
  0
LTYPE
  2
CONTINUOUS
 70
     0
  3
Solid line
 72
    65
 73
     0
 40
0.0
  0
LTYPE
  2
CENTER
 70
     0
  3
____ _ ____ _ ____ _ ____ _ ____ _ ____ _ ____ 
 72
    65
 73
     4
 40
2.0
 49
1.25
 49
-0.25
 49
0.25
 49
-0.25
  0
ENDTAB
  0
TABLE
  2
LAYER
 70
     6
  0
LAYER
  2
0
 70
     0
 62
     7
  6
CONTINUOUS
  0
LAYER
  2
3
 70
     0
 62
     2
  6
CONTINUOUS
  0
LAYER
  2
2
 70
     0
 62
     3
  6
CENTER
  0
LAYER
  2
1
 70
     0
 62
     4
  6
CONTINUOUS
  0
LAYER
  2
4
 70
     0
 62
     7
  6
CONTINUOUS
  0
LAYER
  2
DEFPOINTS
 70
     0
 62
     7
  6
CONTINUOUS
  0
ENDTAB
  0
TABLE
  2
STYLE
 70
     1
  0
STYLE
  2
STANDARD
 70
     0
 40
0.0
 41
1.0
 50
0.0
 71
     0
 42
180.0
  3
simplex.shx
  4
extfont.shx
  0
ENDTAB
  0
TABLE
  2
VIEW
 70
     0
  0
ENDTAB
  0
TABLE
  2
UCS
 70
     0
  0
ENDTAB
  0
TABLE
  2
APPID
 70
     1
  0
APPID
  2
ACAD
 70
     0
  0
ENDTAB
  0
TABLE
  2
DIMSTYLE
 70
     1
  0
DIMSTYLE
  2
IGA
 70
     0
  3

  4

  5

  6
OPEN
  7
OPEN
 40
2.0
 41
2.0
 42
0.5
 43
10.0
 44
1.0
 45
0.0
 46
0.0
 47
1.0
 48
1.0
140
3.0
141
0.0
142
0.0
143
0.03937
144
1.0
145
0.0
146
10.0
147
1.0
 71
     0
 72
     0
 73
     0
 74
     0
 75
     0
 76
     0
 77
     1
 78
     8
170
     0
171
     2
172
     0
173
     1
174
     0
175
     0
176
     0
177
     0
178
     0
  0
ENDTAB
  0
ENDSEC
  0
SECTION
  2
BLOCKS
  0
BLOCK
  8
0
  2
$MODEL_SPACE
 70
     0
 10
0.0
 20
0.0
 30
0.0
  3
$MODEL_SPACE
  1

  0
ENDBLK
  5
1B
  8
0
  0
BLOCK
 67
     1
  8
0
  2
$PAPER_SPACE
 70
     0
 10
0.0
 20
0.0
 30
0.0
  3
$PAPER_SPACE
  1

  0
ENDBLK
  5
18
 67
     1
  8
0
  0
BLOCK
  8
0
  2
_OPEN
 70
     0
 10
0.0
 20
0.0
 30
0.0
  3
_OPEN
  1

  0
LINE
  5
7B19
  8
0
  6
BYBLOCK
 62
     0
 10
-1.0
 20
0.166667
 30
0.0
 11
0.0
 21
0.0
 31
0.0
  0
LINE
  5
7B1A
  8
0
  6
BYBLOCK
 62
     0
 10
0.0
 20
0.0
 30
0.0
 11
-1.0
 21
-0.166667
 31
0.0
  0
LINE
  5
7B1B
  8
0
  6
BYBLOCK
 62
     0
 10
0.0
 20
0.0
 30
0.0
 11
-1.0
 21
0.0
 31
0.0
  0
ENDBLK
  5
7B1C
  8
0
  0
BLOCK
  8
0
  2
*D1
 70
     1
 10
0.0
 20
0.0
 30
0.0
  3
*D1
  1

  0
LINE
  5
7E9C
  8
3
  6
CONTINUOUS
 62
     0
 10
3360.9718039999998
 20
4414.2895449999996
 30
0.0
 11
3717.0925900000002
 21
4414.2895449999996
 31
0.0
  0
LINE
  5
7E9D
  8
3
  6
CONTINUOUS
 62
     0
 10
3360.9718039999998
 20
3384.2895450000001
 30
0.0
 11
3717.0925900000002
 21
3384.2895450000001
 31
0.0
  0
LINE
  5
7E9E
  8
3
  6
CONTINUOUS
 62
     0
 10
3677.0925900000002
 20
4334.2895449999996
 30
0.0
 11
3677.0925900000002
 21
3464.2895450000001
 31
0.0
  0
INSERT
  5
7E9F
  8
3
  6
CONTINUOUS
 62
     0
  2
_OPEN
 10
3677.0925900000002
 20
4414.2895449999996
 30
0.0
 41
80.0
 42
80.0
 43
80.0
 50
90.0
  0
INSERT
  5
7EA0
  8
3
  6
CONTINUOUS
 62
     0
  2
_OPEN
 10
3677.0925900000002
 20
3384.2895450000001
 30
0.0
 41
80.0
 42
80.0
 43
80.0
 50
270.0
  0
TEXT
  8
3
  40
120
  5
7F35
  62
0
  72
0
  71
0
 10
3337.09
 20
3652.37
 30
0.000000
  1
1030
  0
POINT
  5
7EA2
  8
DEFPOINTS
  6
CONTINUOUS
 62
     0
 10
3340.9718039999998
 20
4414.2895449999996
 30
0.0
  0
POINT
  5
7EA3
  8
DEFPOINTS
  6
CONTINUOUS
 62
     0
 10
3340.9718039999998
 20
3384.2895450000001
 30
0.0
  0
POINT
  5
7EA4
  8
DEFPOINTS
  6
CONTINUOUS
 62
     0
 10
3677.0925900000002
 20
3384.2895450000001
 30
0.0
  0
ENDBLK
  5
7B29
  8
0
  0
BLOCK
  8
0
  2
*D2
 70
     1
 10
0.0
 20
0.0
 30
0.0
  3
*D2
  1

  0
LINE
  5
7EA5
  8
3
  6
CONTINUOUS
 62
     0
 10
3561.1970959999999
 20
4366.2895449999996
 30
0.0
 11
3988.5312880000001
 21
4366.2895449999996
 31
0.0
  0
LINE
  5
7EA6
  8
3
  6
CONTINUOUS
 62
     0
 10
3360.9718039999998
 20
3384.2895450000001
 30
0.0
 11
3988.5312880000001
 21
3384.2895450000001
 31
0.0
  0
LINE
  5
7EA7
  8
3
  6
CONTINUOUS
 62
     0
 10
3948.531288000001
 20
4286.2895449999996
 30
0.0
 11
3948.531288000001
 21
3464.2895450000001
 31
0.0
  0
INSERT
  5
7EA8
  8
3
  6
CONTINUOUS
 62
     0
  2
_OPEN
 10
3948.531288000001
 20
4366.2895449999996
 30
0.0
 41
80.0
 42
80.0
 43
80.0
 50
90.0
  0
INSERT
  5
7EA9
  8
3
  6
CONTINUOUS
 62
     0
  2
_OPEN
 10
3948.531288000001
 20
3384.2895450000001
 30
0.0
 41
80.0
 42
80.0
 43
80.0
 50
270.0
  0
TEXT
  8
3
  40
120
  5
7F36
  62
0
  72
0
  71
0
 10
3608.53
 20
3684.92
 30
0.000000
  1
982
  0
POINT
  5
7EAB
  8
DEFPOINTS
  6
CONTINUOUS
 62
     0
 10
3541.197095999999
 20
4366.2895449999996
 30
0.0
  0
POINT
  5
7EAC
  8
DEFPOINTS
  6
CONTINUOUS
 62
     0
 10
3340.9718039999998
 20
3384.2895450000001
 30
0.0
  0
POINT
  5
7EAD
  8
DEFPOINTS
  6
CONTINUOUS
 62
     0
 10
3948.531288000001
 20
3384.2895450000001
 30
0.0
  0
ENDBLK
  5
7B36
  8
0
  0
BLOCK
  8
0
  2
*D3
 70
     1
 10
0.0
 20
0.0
 30
0.0
  3
*D3
  1

  0
LINE
  5
7EAE
  8
3
  6
CONTINUOUS
 62
     0
 10
3561.1970959999999
 20
4366.2895449999996
 30
0.0
 11
4281.6851319999987
 21
4366.2895449999996
 31
0.0
  0
LINE
  5
7EAF
  8
3
  6
CONTINUOUS
 62
     0
 10
3280.9718039999989
 20
3151.2895450000001
 30
0.0
 11
4281.6851319999987
 21
3151.2895450000001
 31
0.0
  0
LINE
  5
7EB0
  8
3
  6
CONTINUOUS
 62
     0
 10
4241.6851319999987
 20
4286.2895449999996
 30
0.0
 11
4241.6851319999987
 21
3231.2895450000001
 31
0.0
  0
INSERT
  5
7EB1
  8
3
  6
CONTINUOUS
 62
     0
  2
_OPEN
 10
4241.6851319999987
 20
4366.2895449999996
 30
0.0
 41
80.0
 42
80.0
 43
80.0
 50
90.0
  0
INSERT
  5
7EB2
  8
3
  6
CONTINUOUS
 62
     0
  2
_OPEN
 10
4241.6851319999987
 20
3151.2895450000001
 30
0.0
 41
80.0
 42
80.0
 43
80.0
 50
270.0
  0
TEXT
  8
3
  40
120
  5
7F37
  62
0
  72
0
  71
0
 10
3901.69
 20
3546.39
 30
0.000000
  1
1215
  0
POINT
  5
7EB4
  8
DEFPOINTS
  6
CONTINUOUS
 62
     0
 10
3541.197095999999
 20
4366.2895449999996
 30
0.0
  0
POINT
  5
7EB5
  8
DEFPOINTS
  6
CONTINUOUS
 62
     0
 10
3260.9718039999989
 20
3151.2895450000001
 30
0.0
  0
POINT
  5
7EB6
  8
DEFPOINTS
  6
CONTINUOUS
 62
     0
 10
4241.6851319999987
 20
3151.2895450000001
 30
0.0
  0
ENDBLK
  5
7CEF
  8
0
  0
BLOCK
  8
0
  2
*D4
 70
     1
 10
0.0
 20
0.0
 30
0.0
  3
*D4
  1

  0
LINE
  5
7EB7
  8
3
  6
CONTINUOUS
 62
     0
 10
1310.971804
 20
3131.2895450000001
 30
0.0
 11
1310.971804
 21
2783.0724089999999
 31
0.0
  0
LINE
  5
7EB8
  8
3
  6
CONTINUOUS
 62
     0
 10
2610.9718039999998
 20
2976.1865419999999
 30
0.0
 11
2610.9718039999998
 21
2783.0724089999999
 31
0.0
  0
LINE
  5
7EB9
  8
3
  6
CONTINUOUS
 62
     0
 10
1390.971804
 20
2823.072408999999
 30
0.0
 11
2530.9718039999989
 21
2823.072408999999
 31
0.0
  0
INSERT
  5
7EBA
  8
3
  6
CONTINUOUS
 62
     0
  2
_OPEN
 10
1310.971804
 20
2823.072408999999
 30
0.0
 41
80.0
 42
80.0
 43
80.0
 50
180.0
  0
INSERT
  5
7EBB
  8
3
  6
CONTINUOUS
 62
     0
  2
_OPEN
 10
2610.9718039999998
 20
2823.072408999999
 30
0.0
 41
80.0
 42
80.0
 43
80.0
  0
TEXT
  8
3
  40
120
  5
7F38
  62
0
  72
0
  71
0
 10
1689.03
 20
2710.67
 30
0.000000
  1
1300
  0
POINT
  5
7EBD
  8
DEFPOINTS
  6
CONTINUOUS
 62
     0
 10
1310.971804
 20
3151.2895450000001
 30
0.0
  0
POINT
  5
7EBE
  8
DEFPOINTS
  6
CONTINUOUS
 62
     0
 10
2610.9718039999998
 20
2996.1865419999999
 30
0.0
  0
POINT
  5
7EBF
  8
DEFPOINTS
  6
CONTINUOUS
 62
     0
 10
2610.9718039999998
 20
2823.072408999999
 30
0.0
  0
ENDBLK
  5
7B69
  8
0
  0
BLOCK
  8
0
  2
*D5
 70
     1
 10
0.0
 20
0.0
 30
0.0
  3
*D5
  1

  0
LINE
  5
7EC0
  8
3
  6
CONTINUOUS
 62
     0
 10
3260.9718039999989
 20
3131.2895450000001
 30
0.0
 11
3260.9718039999989
 21
2783.0724089999999
 31
0.0
  0
LINE
  5
7EC1
  8
3
  6
CONTINUOUS
 62
     0
 10
2690.9718039999998
 20
2823.072408999999
 30
0.0
 11
3180.9718039999998
 21
2823.072408999999
 31
0.0
  0
INSERT
  5
7EC2
  8
3
  6
CONTINUOUS
 62
     0
  2
_OPEN
 10
2610.9718039999998
 20
2823.072408999999
 30
0.0
 41
80.0
 42
80.0
 43
80.0
 50
180.0
  0
INSERT
  5
7EC3
  8
3
  6
CONTINUOUS
 62
     0
  2
_OPEN
 10
3260.9718039999989
 20
2823.072408999999
 30
0.0
 41
80.0
 42
80.0
 43
80.0
  0
TEXT
  8
3
  40
120
  5
7F39
  62
0
  72
0
  71
0
 10
2695.97
 20
2710.67
 30
0.000000
  1
650
  0
POINT
  5
7EC5
  8
DEFPOINTS
  6
CONTINUOUS
 62
     0
 10
2610.9718039999998
 20
2996.1865419999999
 30
0.0
  0
POINT
  5
7EC6
  8
DEFPOINTS
  6
CONTINUOUS
 62
     0
 10
3260.9718039999989
 20
3151.2895450000001
 30
0.0
  0
POINT
  5
7EC7
  8
DEFPOINTS
  6
CONTINUOUS
 62
     0
 10
3260.9718039999989
 20
2823.072408999999
 30
0.0
  0
ENDBLK
  5
7B75
  8
0
  0
BLOCK
  8
0
  2
*D6
 70
     1
 10
0.0
 20
0.0
 30
0.0
  3
*D6
  1

  0
LINE
  5
7EC8
  8
3
  6
CONTINUOUS
 62
     0
 10
3340.9718039999998
 20
4484.2895450000015
 30
0.0
 11
3340.9718039999998
 21
5402.2134930000002
 31
0.0
  0
LINE
  5
7EC9
  8
3
  6
CONTINUOUS
 62
     0
 10
2610.9718039999998
 20
5270.3199119999999
 30
0.0
 11
2610.9718039999998
 21
5402.2134930000002
 31
0.0
  0
LINE
  5
7ECA
  8
3
  6
CONTINUOUS
 62
     0
 10
3260.9718039999989
 20
5362.2134930000002
 30
0.0
 11
2690.9718039999998
 21
5362.2134930000002
 31
0.0
  0
INSERT
  5
7ECB
  8
3
  6
CONTINUOUS
 62
     0
  2
_OPEN
 10
3340.9718039999998
 20
5362.2134930000002
 30
0.0
 41
80.0
 42
80.0
 43
80.0
  0
INSERT
  5
7ECC
  8
3
  6
CONTINUOUS
 62
     0
  2
_OPEN
 10
2610.9718039999998
 20
5362.2134930000002
 30
0.0
 41
80.0
 42
80.0
 43
80.0
 50
180.0
  0
TEXT
  8
3
  40
120
  5
7F3A
  62
0
  72
0
  71
0
 10
2731.35
 20
5249.81
 30
0.000000
  1
730
  0
POINT
  5
7ECE
  8
DEFPOINTS
  6
CONTINUOUS
 62
     0
 10
3340.9718039999998
 20
4464.2895449999996
 30
0.0
  0
POINT
  5
7ECF
  8
DEFPOINTS
  6
CONTINUOUS
 62
     0
 10
2610.9718039999998
 20
5250.3199119999999
 30
0.0
  0
POINT
  5
7ED0
  8
DEFPOINTS
  6
CONTINUOUS
 62
     0
 10
2610.9718039999998
 20
5362.2134930000002
 30
0.0
  0
ENDBLK
  5
7B82
  8
0
  0
BLOCK
  8
0
  2
*D7
 70
     1
 10
0.0
 20
0.0
 30
0.0
  3
*D7
  1

  0
LINE
  5
7ED1
  8
3
  6
CONTINUOUS
 62
     0
 10
5796.5598669999999
 20
5102.2895450000015
 30
0.0
 11
5796.5598669999999
 21
5315.4052389999997
 31
0.0
  0
LINE
  5
7ED2
  8
3
  6
CONTINUOUS
 62
     0
 10
6546.5598669999999
 20
5102.2895450000015
 30
0.0
 11
6546.5598669999999
 21
5315.4052389999997
 31
0.0
  0
LINE
  5
7ED3
  8
3
  6
CONTINUOUS
 62
     0
 10
5876.5598669999999
 20
5275.4052389999997
 30
0.0
 11
6466.559866999999
 21
5275.4052389999997
 31
0.0
  0
INSERT
  5
7ED4
  8
3
  6
CONTINUOUS
 62
     0
  2
_OPEN
 10
5796.5598669999999
 20
5275.4052389999997
 30
0.0
 41
80.0
 42
80.0
 43
80.0
 50
180.0
  0
INSERT
  5
7ED5
  8
3
  6
CONTINUOUS
 62
     0
  2
_OPEN
 10
6546.5598669999999
 20
5275.4052389999997
 30
0.0
 41
80.0
 42
80.0
 43
80.0
  0
TEXT
  8
3
  40
120
  5
7F3B
  62
0
  72
0
  71
0
 10
5943.21
 20
5163.01
 30
0.000000
  1
750
  0
POINT
  5
7ED7
  8
DEFPOINTS
  6
CONTINUOUS
 62
     0
 10
5796.5598669999999
 20
5082.2895449999996
 30
0.0
  0
POINT
  5
7ED8
  8
DEFPOINTS
  6
CONTINUOUS
 62
     0
 10
6546.5598669999999
 20
5082.2895449999996
 30
0.0
  0
POINT
  5
7ED9
  8
DEFPOINTS
  6
CONTINUOUS
 62
     0
 10
6546.5598669999999
 20
5275.4052389999997
 30
0.0
  0
ENDBLK
  5
7B9B
  8
0
  0
BLOCK
  8
0
  2
*D8
 70
     1
 10
0.0
 20
0.0
 30
0.0
  3
*D8
  1

  0
LINE
  5
7EDA
  8
3
  6
CONTINUOUS
 62
     0
 10
6570.5598669999999
 20
4896.2895450000015
 30
0.0
 11
6972.3831440000013
 21
4896.2895450000015
 31
0.0
  0
LINE
  5
7EDB
  8
3
  6
CONTINUOUS
 62
     0
 10
6570.5598669999999
 20
3836.2895450000001
 30
0.0
 11
6972.3831440000013
 21
3836.2895450000001
 31
0.0
  0
LINE
  5
7EDC
  8
3
  6
CONTINUOUS
 62
     0
 10
6932.3831440000004
 20
4816.2895449999996
 30
0.0
 11
6932.3831440000004
 21
3916.2895450000001
 31
0.0
  0
INSERT
  5
7EDD
  8
3
  6
CONTINUOUS
 62
     0
  2
_OPEN
 10
6932.3831440000004
 20
4896.2895450000015
 30
0.0
 41
80.0
 42
80.0
 43
80.0
 50
90.0
  0
INSERT
  5
7EDE
  8
3
  6
CONTINUOUS
 62
     0
  2
_OPEN
 10
6932.3831440000004
 20
3836.2895450000001
 30
0.0
 41
80.0
 42
80.0
 43
80.0
 50
270.0
  0
TEXT
  8
3
  40
120
  5
7F3C
  62
0
  72
0
  71
0
 10
6592.38
 20
4140.67
 30
0.000000
  1
φ1060
  0
POINT
  5
7EE0
  8
DEFPOINTS
  6
CONTINUOUS
 62
     0
 10
6550.5598669999999
 20
4896.2895450000015
 30
0.0
  0
POINT
  5
7EE1
  8
DEFPOINTS
  6
CONTINUOUS
 62
     0
 10
6550.5598669999999
 20
3836.2895450000001
 30
0.0
  0
POINT
  5
7EE2
  8
DEFPOINTS
  6
CONTINUOUS
 62
     0
 10
6932.3831440000004
 20
3836.2895450000001
 30
0.0
  0
ENDBLK
  5
7D31
  8
0
  0
BLOCK
  8
0
  2
*D9
 70
     1
 10
0.0
 20
0.0
 30
0.0
  3
*D9
  1

  0
LINE
  5
7EE3
  8
3
  6
CONTINUOUS
 62
     0
 10
5589.0598669999999
 20
3131.2895450000001
 30
0.0
 11
5589.0598669999999
 21
2763.818949
 31
0.0
  0
LINE
  5
7EE4
  8
3
  6
CONTINUOUS
 62
     0
 10
6171.5598669999999
 20
2917.2124709999998
 30
0.0
 11
6171.5598669999999
 21
2763.818949
 31
0.0
  0
LINE
  5
7EE5
  8
3
  6
CONTINUOUS
 62
     0
 10
5509.0598669999999
 20
2803.818949
 30
0.0
 11
5429.0598669999999
 21
2803.818949
 31
0.0
  0
LINE
  5
7EE6
  8
3
  6
CONTINUOUS
 62
     0
 10
6251.5598669999999
 20
2803.818949
 30
0.0
 11
6331.5598669999999
 21
2803.818949
 31
0.0
  0
LINE
  5
7EE7
  8
3
  6
CONTINUOUS
 62
     0
 10
5589.0598669999999
 20
2803.818949
 30
0.0
 11
6171.5598669999999
 21
2803.818949
 31
0.0
  0
INSERT
  5
7EE8
  8
3
  6
CONTINUOUS
 62
     0
  2
_OPEN
 10
5589.0598669999999
 20
2803.818949
 30
0.0
 41
80.0
 42
80.0
 43
80.0
  0
INSERT
  5
7EE9
  8
3
  6
CONTINUOUS
 62
     0
  2
_OPEN
 10
6171.5598669999999
 20
2803.818949
 30
0.0
 41
80.0
 42
80.0
 43
80.0
 50
180.0
  0
TEXT
  8
3
  40
120
  5
7F3D
  62
0
  72
0
  71
0
 10
5657.27
 20
2691.42
 30
0.000000
  1
583
  0
POINT
  5
7EEB
  8
DEFPOINTS
  6
CONTINUOUS
 62
     0
 10
5589.0598669999999
 20
3151.2895450000001
 30
0.0
  0
POINT
  5
7EEC
  8
DEFPOINTS
  6
CONTINUOUS
 62
     0
 10
6171.5598669999999
 20
2937.2124709999998
 30
0.0
  0
POINT
  5
7EED
  8
DEFPOINTS
  6
CONTINUOUS
 62
     0
 10
6171.5598669999999
 20
2803.818949
 30
0.0
  0
ENDBLK
  5
7CD0
  8
0
  0
BLOCK
  8
0
  2
*D10
 70
     1
 10
0.0
 20
0.0
 30
0.0
  3
*D10
  1

  0
LINE
  5
7EEE
  8
3
  6
CONTINUOUS
 62
     0
 10
1310.971804
 20
8502.4696499999991
 30
0.0
 11
1310.971804
 21
8673.7221209999989
 31
0.0
  0
LINE
  5
7EEF
  8
3
  6
CONTINUOUS
 62
     0
 10
3260.9718039999989
 20
8502.4696499999991
 30
0.0
 11
3260.9718039999989
 21
8673.7221209999989
 31
0.0
  0
LINE
  5
7EF0
  8
3
  6
CONTINUOUS
 62
     0
 10
1390.971804
 20
8633.7221209999989
 30
0.0
 11
3180.9718039999998
 21
8633.7221209999989
 31
0.0
  0
INSERT
  5
7EF1
  8
3
  6
CONTINUOUS
 62
     0
  2
_OPEN
 10
1310.971804
 20
8633.7221209999989
 30
0.0
 41
80.0
 42
80.0
 43
80.0
 50
180.0
  0
INSERT
  5
7EF2
  8
3
  6
CONTINUOUS
 62
     0
  2
_OPEN
 10
3260.9718039999989
 20
8633.7221209999989
 30
0.0
 41
80.0
 42
80.0
 43
80.0
  0
TEXT
  8
3
  40
120
  5
7F3E
  62
0
  72
0
  71
0
 10
2016.25
 20
8521.32
 30
0.000000
  1
1950
  0
POINT
  5
7EF4
  8
DEFPOINTS
  6
CONTINUOUS
 62
     0
 10
1310.971804
 20
8482.4696499999973
 30
0.0
  0
POINT
  5
7EF5
  8
DEFPOINTS
  6
CONTINUOUS
 62
     0
 10
3260.9718039999989
 20
8482.4696499999973
 30
0.0
  0
POINT
  5
7EF6
  8
DEFPOINTS
  6
CONTINUOUS
 62
     0
 10
3260.9718039999989
 20
8633.7221209999989
 30
0.0
  0
ENDBLK
  5
7BF7
  8
0
  0
BLOCK
  8
0
  2
*D11
 70
     1
 10
0.0
 20
0.0
 30
0.0
  3
*D11
  1

  0
LINE
  5
7EF7
  8
3
  6
CONTINUOUS
 62
     0
 10
3280.9718039999989
 20
8482.4696499999973
 30
0.0
 11
3708.697560000001
 21
8482.4696499999973
 31
0.0
  0
LINE
  5
7EF8
  8
3
  6
CONTINUOUS
 62
     0
 10
3280.9718039999989
 20
7457.46965
 30
0.0
 11
3708.697560000001
 21
7457.46965
 31
0.0
  0
LINE
  5
7EF9
  8
3
  6
CONTINUOUS
 62
     0
 10
3668.697560000001
 20
8402.4696499999973
 30
0.0
 11
3668.697560000001
 21
7537.46965
 31
0.0
  0
INSERT
  5
7EFA
  8
3
  6
CONTINUOUS
 62
     0
  2
_OPEN
 10
3668.697560000001
 20
8482.4696499999973
 30
0.0
 41
80.0
 42
80.0
 43
80.0
 50
90.0
  0
INSERT
  5
7EFB
  8
3
  6
CONTINUOUS
 62
     0
  2
_OPEN
 10
3668.697560000001
 20
7457.46965
 30
0.0
 41
80.0
 42
80.0
 43
80.0
 50
270.0
  0
TEXT
  8
3
  40
120
  5
7F3F
  62
0
  72
0
  71
0
 10
3328.70
 20
7763.03
 30
0.000000
  1
1025
  0
POINT
  5
7EFD
  8
DEFPOINTS
  6
CONTINUOUS
 62
     0
 10
3260.9718039999989
 20
8482.4696499999973
 30
0.0
  0
POINT
  5
7EFE
  8
DEFPOINTS
  6
CONTINUOUS
 62
     0
 10
3260.9718039999989
 20
7457.46965
 30
0.0
  0
POINT
  5
7EFF
  8
DEFPOINTS
  6
CONTINUOUS
 62
     0
 10
3668.697560000001
 20
7457.46965
 30
0.0
  0
ENDBLK
  5
7C04
  8
0
  0
BLOCK
  8
0
  2
*D12
 70
     1
 10
0.0
 20
0.0
 30
0.0
  3
*D12
  1

  0
LINE
  5
7F00
  8
3
  6
CONTINUOUS
 62
     0
 10
6613.0598669999999
 20
3131.2895450000001
 30
0.0
 11
6613.0598669999999
 21
2763.818949
 31
0.0
  0
LINE
  5
7F01
  8
3
  6
CONTINUOUS
 62
     0
 10
6251.5598669999999
 20
2803.818949
 30
0.0
 11
6533.0598669999999
 21
2803.818949
 31
0.0
  0
TEXT
  8
3
  40
120
  5
7F40
  62
0
  72
0
  71
0
 10
6150.53
 20
2692.61
 30
0.000000
  1
442
  0
INSERT
  5
7F03
  8
3
  6
CONTINUOUS
 62
     0
  2
_OPEN
 10
6171.5598669999999
 20
2803.818949
 30
0.0
 41
80.0
 42
80.0
 43
80.0
 50
180.0
  0
INSERT
  5
7F04
  8
3
  6
CONTINUOUS
 62
     0
  2
_OPEN
 10
6613.0598669999999
 20
2803.818949
 30
0.0
 41
80.0
 42
80.0
 43
80.0
  0
POINT
  5
7F05
  8
DEFPOINTS
  6
CONTINUOUS
 62
     0
 10
6171.5598669999999
 20
2937.2124709999998
 30
0.0
  0
POINT
  5
7F06
  8
DEFPOINTS
  6
CONTINUOUS
 62
     0
 10
6613.0598669999999
 20
3151.2895450000001
 30
0.0
  0
POINT
  5
7F07
  8
DEFPOINTS
  6
CONTINUOUS
 62
     0
 10
6613.0598669999999
 20
2803.818949
 30
0.0
  0
ENDBLK
  5
7CDA
  8
0
  0
BLOCK
  8
0
  2
*D13
 70
     1
 10
0.0
 20
0.0
 30
0.0
  3
*D13
  1

  0
LINE
  5
7F08
  8
3
  6
CONTINUOUS
 62
     0
 10
5511.559866999999
 20
4896.2895450000015
 30
0.0
 11
5511.559866999999
 21
5608.888833
 31
0.0
  0
LINE
  5
7F09
  8
3
  6
CONTINUOUS
 62
     0
 10
6171.5598669999999
 20
5470.2669669999996
 30
0.0
 11
6171.5598669999999
 21
5608.888833
 31
0.0
  0
LINE
  5
7F0A
  8
3
  6
CONTINUOUS
 62
     0
 10
5591.5598669999999
 20
5568.8888329999991
 30
0.0
 11
6091.5598669999999
 21
5568.8888329999991
 31
0.0
  0
INSERT
  5
7F0B
  8
3
  6
CONTINUOUS
 62
     0
  2
_OPEN
 10
5511.559866999999
 20
5568.8888329999991
 30
0.0
 41
80.0
 42
80.0
 43
80.0
 50
180.0
  0
INSERT
  5
7F0C
  8
3
  6
CONTINUOUS
 62
     0
  2
_OPEN
 10
6171.5598669999999
 20
5568.8888329999991
 30
0.0
 41
80.0
 42
80.0
 43
80.0
  0
TEXT
  8
3
  40
120
  5
7F41
  62
0
  72
0
  71
0
 10
5640.13
 20
5556.49
 30
0.000000
  1
MAX
  0
TEXT
  8
3
  40
120
  5
7F42
  62
0
  72
0
  71
0
 10
5640.13
 20
5400.49
 30
0.000000
  1
700
  0
POINT
  5
7F0E
  8
DEFPOINTS
  6
CONTINUOUS
 62
     0
 10
5511.559866999999
 20
4876.2895450000015
 30
0.0
  0
POINT
  5
7F0F
  8
DEFPOINTS
  6
CONTINUOUS
 62
     0
 10
6171.5598669999999
 20
5450.2669670000014
 30
0.0
  0
POINT
  5
7F10
  8
DEFPOINTS
  6
CONTINUOUS
 62
     0
 10
6171.5598669999999
 20
5568.8888329999991
 30
0.0
  0
ENDBLK
  5
7D26
  8
0
  0
BLOCK
  8
0
  2
*D14
 70
     1
 10
0.0
 20
0.0
 30
0.0
  3
*D14
  1

  0
LINE
  5
7F11
  8
3
  6
CONTINUOUS
 62
     0
 10
6550.5598669999999
 20
4916.2895450000015
 30
0.0
 11
6550.5598669999999
 21
5608.888833
 31
0.0
  0
LINE
  5
7F12
  8
3
  6
CONTINUOUS
 62
     0
 10
6251.5598669999999
 20
5568.8888329999991
 30
0.0
 11
6470.5598669999999
 21
5568.8888329999991
 31
0.0
  0
TEXT
  8
3
  40
120
  5
7F43
  62
0
  72
0
  71
0
 10
6118.60
 20
5456.49
 30
0.000000
  1
379
  0
INSERT
  5
7F14
  8
3
  6
CONTINUOUS
 62
     0
  2
_OPEN
 10
6171.5598669999999
 20
5568.8888329999991
 30
0.0
 41
80.0
 42
80.0
 43
80.0
 50
180.0
  0
INSERT
  5
7F15
  8
3
  6
CONTINUOUS
 62
     0
  2
_OPEN
 10
6550.5598669999999
 20
5568.8888329999991
 30
0.0
 41
80.0
 42
80.0
 43
80.0
  0
POINT
  5
7F16
  8
DEFPOINTS
  6
CONTINUOUS
 62
     0
 10
6171.5598669999999
 20
5450.2669670000014
 30
0.0
  0
POINT
  5
7F17
  8
DEFPOINTS
  6
CONTINUOUS
 62
     0
 10
6550.5598669999999
 20
4896.2895450000015
 30
0.0
  0
POINT
  5
7F18
  8
DEFPOINTS
  6
CONTINUOUS
 62
     0
 10
6550.5598669999999
 20
5568.8888329999991
 30
0.0
  0
ENDBLK
  5
7C91
  8
0
  0
BLOCK
  8
0
  2
*D15
 70
     1
 10
0.0
 20
0.0
 30
0.0
  3
*D15
  1

  0
LINE
  5
7F19
  8
3
  6
CONTINUOUS
 62
     0
 10
2630.971804427641
 20
5081.9164846650892
 30
0.0
 11
4281.6851319999987
 21
5081.9164846650892
 31
0.0
  0
LINE
  5
7F1A
  8
3
  6
CONTINUOUS
 62
     0
 10
4241.6851319999987
 20
4446.2895449999996
 30
0.0
 11
4241.6851319999987
 21
5001.9164846650892
 31
0.0
  0
INSERT
  5
7F1B
  8
3
  6
CONTINUOUS
 62
     0
  2
_OPEN
 10
4241.6851319999987
 20
4366.2895449999996
 30
0.0
 41
80.0
 42
80.0
 43
80.0
 50
270.0
  0
INSERT
  5
7F1C
  8
3
  6
CONTINUOUS
 62
     0
  2
_OPEN
 10
4241.6851319999987
 20
5081.9164846650892
 30
0.0
 41
80.0
 42
80.0
 43
80.0
 50
90.0
  0
TEXT
  8
3
  40
120
  5
7F44
  62
0
  72
0
  71
0
 10
3901.69
 20
4511.70
 30
0.000000
  1
716
  0
POINT
  5
7F1E
  8
DEFPOINTS
  6
CONTINUOUS
 62
     0
 10
3541.197095999999
 20
4366.2895449999996
 30
0.0
  0
POINT
  5
7F1F
  8
DEFPOINTS
  6
CONTINUOUS
 62
     0
 10
2610.971804427641
 20
5081.9164846650892
 30
0.0
  0
POINT
  5
7F20
  8
DEFPOINTS
  6
CONTINUOUS
 62
     0
 10
4241.6851319999987
 20
5081.9164846650892
 30
0.0
  0
ENDBLK
  5
7D10
  8
0
  0
BLOCK
  8
0
  2
*D16
 70
     1
 10
0.0
 20
0.0
 30
0.0
  3
*D16
  1

  0
LINE
  5
7F21
  8
3
  6
CONTINUOUS
 62
     0
 10
1783.0003019999999
 20
4386.2895449999996
 30
0.0
 11
1783.0003019999999
 21
5402.2134930000002
 31
0.0
  0
LINE
  5
7F22
  8
3
  6
CONTINUOUS
 62
     0
 10
2530.9718039999989
 20
5362.2134930000002
 30
0.0
 11
1863.0003019999999
 21
5362.2134930000002
 31
0.0
  0
INSERT
  5
7F23
  8
3
  6
CONTINUOUS
 62
     0
  2
_OPEN
 10
2610.9718039999998
 20
5362.2134930000002
 30
0.0
 41
80.0
 42
80.0
 43
80.0
  0
INSERT
  5
7F24
  8
3
  6
CONTINUOUS
 62
     0
  2
_OPEN
 10
1783.0003019999999
 20
5362.2134930000002
 30
0.0
 41
80.0
 42
80.0
 43
80.0
 50
180.0
  0
TEXT
  8
3
  40
120
  5
7F45
  62
0
  72
0
  71
0
 10
1956.99
 20
5249.81
 30
0.000000
  1
828
  0
POINT
  5
7F26
  8
DEFPOINTS
  6
CONTINUOUS
 62
     0
 10
2610.9718039999998
 20
5250.3199119999999
 30
0.0
  0
POINT
  5
7F27
  8
DEFPOINTS
  6
CONTINUOUS
 62
     0
 10
1783.0003019999999
 20
4366.2895449999996
 30
0.0
  0
POINT
  5
7F28
  8
DEFPOINTS
  6
CONTINUOUS
 62
     0
 10
1783.0003019999999
 20
5362.2134930000002
 30
0.0
  0
ENDBLK
  5
7CBA
  8
0
  0
BLOCK
  8
0
  2
*D17
 70
     1
 10
0.0
 20
0.0
 30
0.0
  3
*D17
  1

  0
LINE
  5
7F29
  8
3
 62
     0
 10
3340.9718039999998
 20
4484.2895450000015
 30
0.0
 11
3340.9718039999998
 21
5661.345386245921
 31
0.0
  0
LINE
  5
7F2A
  8
3
 62
     0
 10
1310.971804
 20
3296.2895450000001
 30
0.0
 11
1310.971804
 21
5661.345386245921
 31
0.0
  0
LINE
  5
7F2B
  8
3
 62
     0
 10
3260.9718039999989
 20
5621.345386245921
 30
0.0
 11
1390.971804
 21
5621.345386245921
 31
0.0
  0
INSERT
  5
7F2C
  8
3
 62
     0
  2
_OPEN
 10
3340.9718039999998
 20
5621.345386245921
 30
0.0
 41
80.0
 42
80.0
 43
80.0
  0
INSERT
  5
7F2D
  8
3
 62
     0
  2
_OPEN
 10
1310.971804
 20
5621.345386245921
 30
0.0
 41
80.0
 42
80.0
 43
80.0
 50
180.0
  0
TEXT
  8
3
  40
120
  5
7F46
  62
0
  72
0
  71
0
 10
2180.14
 20
5508.95
 30
0.000000
  1
2030
  0
POINT
  5
7F2F
  8
DEFPOINTS
 62
     0
 10
3340.9718039999998
 20
4464.2895449999996
 30
0.0
  0
POINT
  5
7F30
  8
DEFPOINTS
 62
     0
 10
1310.971804
 20
3276.2895450000001
 30
0.0
  0
POINT
  5
7F31
  8
DEFPOINTS
 62
     0
 10
1310.971804
 20
5621.345386245921
 30
0.0
  0
ENDBLK
  5
7D3D
  8
0
  0
BLOCK
  8
0
  2
_DOT
 70
     0
 10
0.0
 20
0.0
 30
0.0
  3
_DOT
  1

  0
POLYLINE
  5
7E4E
  8
0
  6
BYBLOCK
 62
     0
 66
     1
 10
0.0
 20
0.0
 30
0.0
 70
     1
 40
0.5
 41
0.5
  0
VERTEX
  5
7F32
  8
0
  6
BYBLOCK
 62
     0
 10
-0.25
 20
0.0
 30
0.0
 42
1.0
  0
VERTEX
  5
7F33
  8
0
  6
BYBLOCK
 62
     0
 10
0.25
 20
0.0
 30
0.0
 42
1.0
  0
SEQEND
  5
7F34
  8
0
  6
BYBLOCK
 62
     0
  0
LINE
  5
7E4F
  8
0
  6
BYBLOCK
 62
     0
 10
-0.5
 20
0.0
 30
0.0
 11
-1.0
 21
0.0
 31
0.0
  0
ENDBLK
  5
7E51
  8
0
  0
ENDSEC
  0
SECTION
  2
ENTITIES
  0
LINE
  5
7A7E
  8
1
  6
CONTINUOUS
 10
6546.5598669999999
 20
4414.2895449999996
 30
0.0
 11
5796.5598669999999
 21
3384.2895450000001
 31
0.0
  0
LINE
  5
7A7F
  8
1
  6
CONTINUOUS
 10
5796.5598669999999
 20
4414.2895449999996
 30
0.0
 11
6546.5598669999999
 21
3384.2895450000001
 31
0.0
  0
LINE
  5
7A80
  8
1
  6
CONTINUOUS
 10
5796.5598669999999
 20
3384.2895450000001
 30
0.0
 11
6546.5598669999999
 21
3384.2895450000001
 31
0.0
  0
LINE
  5
7A81
  8
1
  6
CONTINUOUS
 10
5796.5598669999999
 20
4414.2895449999996
 30
0.0
 11
6546.5598669999999
 21
4414.2895449999996
 31
0.0
  0
LINE
  5
7A82
  8
1
  6
CONTINUOUS
 10
5796.5598669999999
 20
5082.2895449999996
 30
0.0
 11
6546.5598669999999
 21
5082.2895449999996
 31
0.0
  0
LINE
  5
7A83
  8
1
  6
CONTINUOUS
 10
5589.0598669999999
 20
3151.2895450000001
 30
0.0
 11
6613.0598669999999
 21
3151.2895450000001
 31
0.0
  0
LINE
  5
7A84
  8
1
  6
CONTINUOUS
 10
5589.0598669999999
 20
3276.2895450000001
 30
0.0
 11
6613.0598669999999
 21
3276.2895450000001
 31
0.0
  0
LINE
  5
7A85
  8
1
  6
CONTINUOUS
 10
1623.146350999999
 20
3377.7055229999992
 30
0.0
 11
2726.946422
 21
4213.0426939999998
 31
0.0
  0
LINE
  5
7A86
  8
1
  6
CONTINUOUS
 10
2380.9718039999998
 20
4876.2895450000015
 30
0.0
 11
3150.9718039999998
 21
4876.2895450000015
 31
0.0
  0
ARC
  5
7A87
  8
1
  6
CONTINUOUS
 10
2675.9718039999998
 20
4301.2895450000015
 30
0.0
 40
895.0
 50
175.83518699999999
 51
265.83518700000002
  0
ARC
  5
7A88
  8
1
  6
CONTINUOUS
 10
2554.9718039999998
 20
4310.2895449999996
 30
0.0
 40
774.0
 50
85.850943999999998
 51
175.850944
  0
LINE
  5
7A8A
  8
1
  6
CONTINUOUS
 10
1310.971804
 20
3276.2895450000001
 30
0.0
 11
3260.9718039999989
 21
3276.2895450000001
 31
0.0
  0
LINE
  5
7A8B
  8
1
  6
CONTINUOUS
 10
1310.971804
 20
3151.2895450000001
 30
0.0
 11
3260.9718039999989
 21
3151.2895450000001
 31
0.0
  0
CIRCLE
  5
7A8E
  8
1
  6
CONTINUOUS
 10
2610.9718039999998
 20
4366.2895449999996
 30
0.0
 40
192.18405100000001
  0
LINE
  5
7A8F
  8
2
  6
CENTER
 10
1529.2709059999991
 20
4366.2895449999996
 30
0.0
 11
3541.197095999999
 21
4366.2895449999996
 31
0.0
  0
LINE
  5
7A90
  8
1
  6
CONTINUOUS
 10
1310.971804
 20
3276.2895450000001
 30
0.0
 11
1310.971804
 21
3151.2895450000001
 31
0.0
  0
LINE
  5
7A91
  8
1
  6
CONTINUOUS
 10
1380.971804
 20
3676.2895450000001
 30
0.0
 11
2380.9718039999998
 21
4876.2895450000015
 31
0.0
  0
ARC
  5
7A92
  8
1
  6
CONTINUOUS
 10
1540.971804
 20
3486.2895450000001
 30
0.0
 40
162.0
 50
324.972283
 51
215.02771699999991
  0
LINE
  5
7A93
  8
1
  6
CONTINUOUS
 10
1386.971804
 20
3344.2895450000001
 30
0.0
 11
1408.3141390000001
 21
3393.3059779999999
 31
0.0
  0
POLYLINE
  5
7A94
  8
1
  6
CONTINUOUS
 66
     1
 10
0.0
 20
0.0
 30
0.0
  0
VERTEX
  5
7E72
  8
1
  6
CONTINUOUS
 10
1343.4718039999991
 20
3276.2895450000001
 30
0.0
  0
VERTEX
  5
7E73
  8
1
  6
CONTINUOUS
 10
1738.471804
 20
3276.2895450000001
 30
0.0
  0
VERTEX
  5
7E74
  8
1
  6
CONTINUOUS
 10
1728.471804
 20
3326.2895450000001
 30
0.0
  0
VERTEX
  5
7E75
  8
1
  6
CONTINUOUS
 10
1694.971804
 20
3326.2895450000001
 30
0.0
  0
SEQEND
  5
7E76
  8
1
  6
CONTINUOUS
  0
LINE
  5
7A9A
  8
1
  6
CONTINUOUS
 10
1386.971804
 20
3326.2895450000001
 30
0.0
 11
1386.971804
 21
3344.2895450000001
 31
0.0
  0
POLYLINE
  5
7A9B
  8
1
  6
CONTINUOUS
 66
     1
 10
0.0
 20
0.0
 30
0.0
  0
VERTEX
  5
7E77
  8
1
  6
CONTINUOUS
 10
1386.971804
 20
3326.2895450000001
 30
0.0
  0
VERTEX
  5
7E78
  8
1
  6
CONTINUOUS
 10
1353.471804
 20
3326.2895450000001
 30
0.0
  0
VERTEX
  5
7E79
  8
1
  6
CONTINUOUS
 10
1343.4718039999991
 20
3276.2895450000001
 30
0.0
  0
SEQEND
  5
7E7A
  8
1
  6
CONTINUOUS
  0
LINE
  5
7AA0
  8
1
  6
CONTINUOUS
 10
1380.971804
 20
3676.2895450000001
 30
0.0
 11
1380.971804
 21
3276.2895450000001
 31
0.0
  0
LINE
  5
7AA2
  8
1
  6
CONTINUOUS
 10
1450.293036
 20
3587.8794400000002
 30
0.0
 11
2482.995003
 21
4509.6654420000013
 31
0.0
  0
LINE
  5
7AA3
  8
1
  6
CONTINUOUS
 10
1694.971804
 20
3344.2895450000001
 30
0.0
 11
1673.6294699999989
 21
3393.3059779999999
 31
0.0
  0
CIRCLE
  5
7AA4
  8
1
  6
CONTINUOUS
 10
1540.971804
 20
3486.2895450000001
 30
0.0
 40
136.1732199999999
  0
LINE
  5
7AA5
  8
2
  6
CENTER
 10
1540.971804
 20
3345.116325
 30
0.0
 11
1540.971804
 21
3627.4627650000002
 31
0.0
  0
LINE
  5
7AA6
  8
2
  6
CENTER
 10
1399.7985839999999
 20
3486.2895450000001
 30
0.0
 11
1682.145025
 21
3486.2895450000001
 31
0.0
  0
LINE
  5
7AA7
  8
1
  6
CONTINUOUS
 10
1694.971804
 20
3326.2895450000001
 30
0.0
 11
1694.971804
 21
3344.2895450000001
 31
0.0
  0
LINE
  5
7AA9
  8
1
  6
CONTINUOUS
 10
5589.0598669999999
 20
3151.2895450000001
 30
0.0
 11
5589.0598669999999
 21
3276.2895450000001
 31
0.0
  0
ARC
  5
7AAA
  8
1
  6
CONTINUOUS
 10
2567.9718039999989
 20
4409.2895449999996
 30
0.0
 40
674.0
 50
0.425047
 51
86.342146999999997
  0
LINE
  5
7AAB
  8
1
  6
CONTINUOUS
 10
2610.9718039999998
 20
3408.6530009999992
 30
0.0
 11
3340.9718039999998
 21
3384.2895450000001
 31
0.0
  0
LINE
  5
7AAC
  8
1
  6
CONTINUOUS
 10
3150.9718039999998
 20
4876.2895450000015
 30
0.0
 11
3150.9718039999998
 21
3276.2895450000001
 31
0.0
  0
LINE
  5
7AAD
  8
2
  6
CENTER
 10
2610.9718039999998
 20
2996.1865419999999
 30
0.0
 11
2610.9718039999998
 21
5250.3199119999999
 31
0.0
  0
LINE
  5
7AAE
  8
1
  6
CONTINUOUS
 10
3340.9718039999998
 20
3334.2895450000001
 30
0.0
 11
3340.9718039999998
 21
4464.2895449999996
 31
0.0
  0
LINE
  5
7AAF
  8
1
  6
CONTINUOUS
 10
3290.9718039999998
 20
3385.958275
 30
0.0
 11
3290.9718039999998
 21
4414.2895449999996
 31
0.0
  0
LINE
  5
7AB0
  8
1
  6
CONTINUOUS
 10
3241.953258
 20
4414.2895449999996
 30
0.0
 11
3340.9718039999998
 21
4414.2895449999996
 31
0.0
  0
LINE
  5
7AB1
  8
1
  6
CONTINUOUS
 10
5796.5598669999999
 20
3276.2895450000001
 30
0.0
 11
5796.5598669999999
 21
5082.2895449999996
 31
0.0
  0
LINE
  5
7AB2
  8
1
  6
CONTINUOUS
 10
5511.559866999999
 20
3276.2895450000001
 30
0.0
 11
5511.559866999999
 21
4876.2895450000015
 31
0.0
  0
LINE
  5
7AB3
  8
1
  6
CONTINUOUS
 10
5725.5598669999999
 20
3276.2895450000001
 30
0.0
 11
5725.5598669999999
 21
4876.2895450000015
 31
0.0
  0
LINE
  5
7AB4
  8
1
  6
CONTINUOUS
 10
5674.5598669999999
 20
3507.2895450000001
 30
0.0
 11
5796.5598669999999
 21
3507.2895450000001
 31
0.0
  0
LINE
  5
7AB5
  8
1
  6
CONTINUOUS
 10
5674.5598669999999
 20
3465.2895450000001
 30
0.0
 11
5796.5598669999999
 21
3465.2895450000001
 31
0.0
  0
LINE
  5
7AB6
  8
1
  6
CONTINUOUS
 10
5589.0598669999999
 20
3276.2895450000001
 30
0.0
 11
5511.559866999999
 21
3276.2895450000001
 31
0.0
  0
POLYLINE
  5
7AB7
  8
1
  6
CONTINUOUS
 66
     1
 10
0.0
 20
0.0
 30
0.0
 70
     1
  0
VERTEX
  5
7E7B
  8
1
  6
CONTINUOUS
 10
5573.5598669999999
 20
3622.4627649999989
 30
0.0
  0
VERTEX
  5
7E7C
  8
1
  6
CONTINUOUS
 10
5573.5598669999999
 20
3350.116325
 30
0.0
  0
VERTEX
  5
7E7D
  8
1
  6
CONTINUOUS
 10
5674.5598669999999
 20
3350.116325
 30
0.0
  0
VERTEX
  5
7E7E
  8
1
  6
CONTINUOUS
 10
5674.5598669999999
 20
3622.4627649999989
 30
0.0
  0
SEQEND
  5
7E7F
  8
1
  6
CONTINUOUS
  0
POLYLINE
  5
7ABD
  8
1
  6
CONTINUOUS
 66
     1
 10
0.0
 20
0.0
 30
0.0
 70
     1
  0
VERTEX
  5
7E80
  8
1
  6
CONTINUOUS
 10
5573.5598669999999
 20
4174.1054949999998
 30
0.0
  0
VERTEX
  5
7E81
  8
1
  6
CONTINUOUS
 10
5674.5598669999999
 20
4174.1054949999998
 30
0.0
  0
VERTEX
  5
7E82
  8
1
  6
CONTINUOUS
 10
5674.5598669999999
 20
4558.4735959999989
 30
0.0
  0
VERTEX
  5
7E83
  8
1
  6
CONTINUOUS
 10
5573.5598669999999
 20
4558.4735959999989
 30
0.0
  0
SEQEND
  5
7E84
  8
1
  6
CONTINUOUS
  0
LINE
  5
7AC3
  8
1
  6
CONTINUOUS
 10
5674.5598669999999
 20
4393.7895449999996
 30
0.0
 11
5796.5598669999999
 21
4393.7895449999996
 31
0.0
  0
LINE
  5
7AC4
  8
1
  6
CONTINUOUS
 10
5674.5598669999999
 20
4338.7895449999996
 30
0.0
 11
5796.5598669999999
 21
4338.7895449999996
 31
0.0
  0
LINE
  5
7AC5
  8
1
  6
CONTINUOUS
 10
5511.559866999999
 20
4876.2895450000015
 30
0.0
 11
5725.5598669999999
 21
4876.2895450000015
 31
0.0
  0
LINE
  5
7AC6
  8
1
  6
CONTINUOUS
 10
6613.0598669999999
 20
3151.2895450000001
 30
0.0
 11
6613.0598669999999
 21
3276.2895450000001
 31
0.0
  0
LINE
  5
7AC7
  8
1
  6
CONTINUOUS
 10
6546.5598669999999
 20
3276.2895450000001
 30
0.0
 11
6546.5598669999999
 21
5082.2895449999996
 31
0.0
  0
LINE
  5
7AC8
  8
1
  6
CONTINUOUS
 10
1310.971804
 20
8482.4696499999973
 30
0.0
 11
3260.9718039999989
 21
8482.4696499999973
 31
0.0
  0
LINE
  5
7AC9
  8
1
  6
CONTINUOUS
 10
1782.9718039999991
 20
8414.9696499999991
 30
0.0
 11
3340.9718039999998
 21
8414.9696499999991
 31
0.0
  0
LINE
  5
7ACA
  8
1
  6
CONTINUOUS
 10
1782.9718039999991
 20
7664.96965
 30
0.0
 11
3340.9718039999998
 21
7664.96965
 31
0.0
  0
POLYLINE
  5
7ACB
  8
1
  6
CONTINUOUS
 66
     1
 10
0.0
 20
0.0
 30
0.0
 70
     1
  0
VERTEX
  5
7E85
  8
1
  6
CONTINUOUS
 10
2418.771804
 20
7542.96965
 30
0.0
  0
VERTEX
  5
7E86
  8
1
  6
CONTINUOUS
 10
2418.771804
 20
7441.96965
 30
0.0
  0
VERTEX
  5
7E87
  8
1
  6
CONTINUOUS
 10
2803.1718040000001
 20
7441.96965
 30
0.0
  0
VERTEX
  5
7E88
  8
1
  6
CONTINUOUS
 10
2803.1718040000001
 20
7542.96965
 30
0.0
  0
SEQEND
  5
7E89
  8
1
  6
CONTINUOUS
  0
POLYLINE
  5
7AD1
  8
1
  6
CONTINUOUS
 66
     1
 10
0.0
 20
0.0
 30
0.0
 70
     1
  0
VERTEX
  5
7E8A
  8
1
  6
CONTINUOUS
 10
1380.971804
 20
7593.96965
 30
0.0
  0
VERTEX
  5
7E8B
  8
1
  6
CONTINUOUS
 10
1380.971804
 20
7413.96965
 30
0.0
  0
VERTEX
  5
7E8C
  8
1
  6
CONTINUOUS
 10
3150.9718039999998
 20
7413.96965
 30
0.0
  0
VERTEX
  5
7E8D
  8
1
  6
CONTINUOUS
 10
3150.9718039999998
 20
7593.96965
 30
0.0
  0
SEQEND
  5
7E8E
  8
1
  6
CONTINUOUS
  0
POLYLINE
  5
7AD7
  8
1
  6
CONTINUOUS
 66
     1
 10
0.0
 20
0.0
 30
0.0
  0
VERTEX
  5
7E8F
  8
1
  6
CONTINUOUS
 10
1310.971804
 20
7457.46965
 30
0.0
  0
VERTEX
  5
7E90
  8
1
  6
CONTINUOUS
 10
1404.8218039999999
 20
7457.46965
 30
0.0
  0
SEQEND
  5
7E91
  8
1
  6
CONTINUOUS
  0
POLYLINE
  5
7ADB
  8
1
  6
CONTINUOUS
 66
     1
 10
0.0
 20
0.0
 30
0.0
 70
     1
  0
VERTEX
  5
7E92
  8
1
  6
CONTINUOUS
 10
1378.971804
 20
8139.0913700000001
 30
0.0
  0
VERTEX
  5
7E93
  8
1
  6
CONTINUOUS
 10
1702.9718039999991
 20
8139.0913700000001
 30
0.0
  0
VERTEX
  5
7E94
  8
1
  6
CONTINUOUS
 10
1702.9718039999991
 20
7664.96965
 30
0.0
  0
VERTEX
  5
7E95
  8
1
  6
CONTINUOUS
 10
1378.971804
 20
7664.96965
 30
0.0
  0
SEQEND
  5
7E96
  8
1
  6
CONTINUOUS
  0
LINE
  5
7AE1
  8
1
  6
CONTINUOUS
 10
1310.971804
 20
7457.46965
 30
0.0
 11
1310.971804
 21
8482.4696499999973
 31
0.0
  0
LINE
  5
7AE2
  8
1
  6
CONTINUOUS
 10
1677.1218040000001
 20
7457.46965
 30
0.0
 11
2418.771804
 21
7457.46965
 31
0.0
  0
LINE
  5
7AE3
  8
1
  6
CONTINUOUS
 10
1782.9718039999991
 20
7664.96965
 30
0.0
 11
1782.9718039999991
 21
8414.9696499999991
 31
0.0
  0
LINE
  5
7AE4
  8
1
  6
CONTINUOUS
 10
1561.971804
 20
7542.96965
 30
0.0
 11
1561.971804
 21
7664.96965
 31
0.0
  0
LINE
  5
7AE5
  8
1
  6
CONTINUOUS
 10
1519.971804
 20
7542.96965
 30
0.0
 11
1519.971804
 21
7664.96965
 31
0.0
  0
POLYLINE
  5
7AE6
  8
1
  6
CONTINUOUS
 66
     1
 10
0.0
 20
0.0
 30
0.0
 70
     1
  0
VERTEX
  5
7E97
  8
1
  6
CONTINUOUS
 10
1677.1218040000001
 20
7542.96965
 30
0.0
  0
VERTEX
  5
7E98
  8
1
  6
CONTINUOUS
 10
1677.1218040000001
 20
7441.96965
 30
0.0
  0
VERTEX
  5
7E99
  8
1
  6
CONTINUOUS
 10
1404.8218039999999
 20
7441.96965
 30
0.0
  0
VERTEX
  5
7E9A
  8
1
  6
CONTINUOUS
 10
1404.8218039999999
 20
7542.96965
 30
0.0
  0
SEQEND
  5
7E9B
  8
1
  6
CONTINUOUS
  0
LINE
  5
7AEC
  8
1
  6
CONTINUOUS
 10
1702.9718039999991
 20
7984.8329659999999
 30
0.0
 11
1702.9718039999991
 21
8047.5289270000003
 31
0.0
  0
LINE
  5
7AED
  8
1
  6
CONTINUOUS
 10
2583.4718039999998
 20
7542.96965
 30
0.0
 11
2583.4718039999998
 21
7664.96965
 31
0.0
  0
LINE
  5
7AEE
  8
1
  6
CONTINUOUS
 10
2803.1718040000001
 20
7457.46965
 30
0.0
 11
3260.9718039999989
 21
7457.46965
 31
0.0
  0
LINE
  5
7AEF
  8
1
  6
CONTINUOUS
 10
2638.4718039999989
 20
7542.96965
 30
0.0
 11
2638.4718039999989
 21
7664.96965
 31
0.0
  0
LINE
  5
7AF0
  8
1
  6
CONTINUOUS
 10
3340.9718039999998
 20
7614.96965
 30
0.0
 11
3340.9718039999998
 21
8464.9696499999973
 31
0.0
  0
LINE
  5
7AF1
  8
1
  6
CONTINUOUS
 10
3290.9718039999998
 20
7664.96965
 30
0.0
 11
3290.9718039999998
 21
8414.9696499999991
 31
0.0
  0
LINE
  5
7AF2
  8
1
  6
CONTINUOUS
 10
3260.9718039999989
 20
7457.46965
 30
0.0
 11
3260.9718039999989
 21
7664.96965
 31
0.0
  0
LINE
  5
7AF3
  8
1
  6
CONTINUOUS
 10
3260.9718039999989
 20
8414.9696499999991
 30
0.0
 11
3260.9718039999989
 21
8482.4696499999973
 31
0.0
  0
LINE
  5
7AF4
  8
2
  6
CENTER
 10
1196.159997
 20
8039.9696500000009
 30
0.0
 11
3451.3973449999999
 21
8039.9696500000009
 31
0.0
  0
LINE
  5
7AF5
  8
2
  6
CENTER
 10
6171.5598669999999
 20
5489.3957060000002
 30
0.0
 11
6171.5598669999999
 21
5469.3941290000012
 31
0.0
  0
LINE
  5
7AF6
  8
2
  6
CENTER
 10
2610.9718039999998
 20
7241.4795029999996
 30
0.0
 11
2610.9718039999998
 21
8565.8565820000003
 31
0.0
  0
LINE
  5
7AF7
  8
2
  6
CENTER
 10
5315.1500689999993
 20
4366.2895449999996
 30
0.0
 11
6732.8228150000004
 21
4366.2895449999996
 31
0.0
  0
LINE
  5
7AF8
  8
4
  6
CONTINUOUS
 10
7400.0
 20
2000.0
 30
0.0
 11
7400.0
 21
1200.0
 31
0.0
  0
LINE
  5
7AF9
  8
4
  6
CONTINUOUS
 10
4600.0
 20
2000.0
 30
0.0
 11
4600.0
 21
1200.0
 31
0.0
  0
LINE
  5
7AFA
  8
4
  6
CONTINUOUS
 10
2600.0
 20
2000.0
 30
0.0
 11
2600.0
 21
1200.0
 31
0.0
  0
LINE
  5
7AFD
  8
4
  6
CONTINUOUS
 10
2600.0
 20
1200.0
 30
0.0
 11
7400.0
 21
1200.0
 31
0.0
  0
LINE
  5
7AFE
  8
4
  6
CONTINUOUS
 10
2600.0
 20
1600.0
 30
0.0
 11
7400.0
 21
1600.0
 31
0.0
  0
TEXT
  5
7AFF
  8
4
  6
CONTINUOUS
 10
2754.008323
 20
1726.1721030000001
 30
0.0
 40
200.0
  1
機器名称
  0
TEXT
  5
7B00
  8
4
  6
CONTINUOUS
 10
2745.032424
 20
1286.580627
 30
0.0
 40
200.0
  1
機器型番
  0
TEXT
  5
7B01
  8
4
  6
CONTINUOUS
 10
4710.7149820000004
 20
1690.2870760000001
 30
0.0
 40
200.0
  1
ミツヤ多翼送風機
  0
TEXT
  5
7B02
  8
4
  6
CONTINUOUS
 10
4746.6179819999998
 20
1268.6383370000001
 30
0.0
 40
200.0
  1
MFE#6-4
  0
TEXT
  5
7B04
  8
4
  6
CONTINUOUS
 10
3619.1430620000001
 20
9533.715365
 30
0.0
 40
216.0
  1
床置ベット
  0
TEXT
  5
7B05
  8
4
  6
CONTINUOUS
 10
1264.6703729999999
 20
10135.523905
 30
0.0
 40
288.0
  1
ベルト駆動式片吸込両持排煙ファン
  0
LINE
  5
7B06
  8
4
  6
CONTINUOUS
 10
1000.0
 20
9877.6350170000005
 30
0.0
 11
7400.0
 21
9877.6350170000005
 31
0.0
  0
LINE
  5
7B07
  8
4
  6
CONTINUOUS
 10
1000.0
 20
10677.635017000001
 30
0.0
 11
7400.0
 21
10677.635017000001
 31
0.0
  0
LINE
  5
7B08
  8
4
  6
CONTINUOUS
 10
2600.0
 20
2000.0
 30
0.0
 11
7400.0
 21
2000.0
 31
0.0
  0
LINE
  5
7B09
  8
4
  6
CONTINUOUS
 10
1000.0
 20
10677.635017000001
 30
0.0
 11
1000.0
 21
9877.6350170000005
 31
0.0
  0
TEXT
  5
7B0A
  8
4
  6
CONTINUOUS
 10
1734.0661050000001
 20
9529.2779099999989
 30
0.0
 40
216.0
  1
左回転右横向
  0
TEXT
  5
7B0B
  8
4
  6
CONTINUOUS
 10
5875.8782369999999
 20
10824.244326
 30
0.0
 40
224.0
  1
No.
  0
TEXT
  5
7B0C
  8
4
  6
CONTINUOUS
 10
5245.1842500000012
 20
9533.715365
 30
0.0
 40
216.0
  1
縮尺：1/40
  0
LINE
  5
7B0D
  8
4
  6
CONTINUOUS
 10
7400.0
 20
10677.635017000001
 30
0.0
 11
7400.0
 21
9877.6350170000005
 31
0.0
  0
LINE
  5
7B0F
  8
4
  6
CONTINUOUS
 10
5762.4696889999996
 20
10725.054333
 30
0.0
 11
5762.4696889999996
 21
11146.609046
 31
0.0
  0
LINE
  5
7B10
  8
4
  6
CONTINUOUS
 10
5762.4696889999996
 20
11146.609046
 30
0.0
 11
7400.0
 21
11146.609046
 31
0.0
  0
LINE
  5
7B11
  8
4
  6
CONTINUOUS
 10
7400.0
 20
11146.609046
 30
0.0
 11
7400.0
 21
10725.054333
 31
0.0
  0
LINE
  5
7B12
  8
4
  6
CONTINUOUS
 10
7400.0
 20
10725.054333
 30
0.0
 11
5762.4696889999996
 21
10725.054333
 31
0.0
  0
DIMENSION
  5
7B2A
  8
3
  6
CONTINUOUS
  2
*D1
 10
3677.0925900000002
 20
3384.2895450000001
 30
0.0
 11
3677.0925900000002
 21
3864.7713159999998
 31
0.0
 70
   128
 13
3340.9718039999998
 23
4414.2895449999996
 33
0.0
 14
3340.9718039999998
 24
3384.2895450000001
 34
0.0
 50
90.0
1001
ACAD
1000
DSTYLE
1002
{
1070
   287
1070
     3
1070
   287
1070
     3
1070
    40
1040
40.0
1070
   143
1040
0.039
1070
   172
1070
     1
1070
   271
1070
     0
1070
   279
1070
     0
1070
   288
1070
     1
1002
}
  0
DIMENSION
  5
7B37
  8
3
  6
CONTINUOUS
  2
*D2
 10
3948.531288000001
 20
3384.2895450000001
 30
0.0
 11
3948.5312880000001
 21
3897.3244009999999
 31
0.0
 70
   128
 13
3541.197095999999
 23
4366.2895449999996
 33
0.0
 14
3340.9718039999998
 24
3384.2895450000001
 34
0.0
 50
90.0
1001
ACAD
1000
DSTYLE
1002
{
1070
   287
1070
     3
1070
   287
1070
     3
1070
    40
1040
40.0
1070
   143
1040
0.039
1070
   172
1070
     1
1070
   271
1070
     0
1070
   279
1070
     0
1070
   288
1070
     1
1002
}
  0
DIMENSION
  5
7B50
  8
3
  6
CONTINUOUS
  2
*D3
 10
4241.6851319999987
 20
3151.2895450000001
 30
0.0
 11
4141.6851319999978
 21
3758.789545000001
 31
0.0
 70
     0
 13
3541.197095999999
 23
4366.2895449999996
 33
0.0
 14
3260.9718039999989
 24
3151.2895450000001
 34
0.0
 50
90.0
1001
ACAD
1000
DSTYLE
1002
{
1070
   287
1070
     3
1070
   287
1070
     3
1070
    40
1040
40.0
1070
   143
1040
0.039
1070
   172
1070
     1
1070
   271
1070
     0
1070
   279
1070
     0
1070
   288
1070
     1
1002
}
  0
DIMENSION
  5
7B6A
  8
3
  6
CONTINUOUS
  2
*D4
 10
2610.9718039999998
 20
2823.072408999999
 30
0.0
 11
1929.0271419999999
 21
2823.072408999999
 31
0.0
 70
   128
 13
1310.971804
 23
3151.2895450000001
 33
0.0
 14
2610.9718039999998
 24
2996.1865419999999
 34
0.0
1001
ACAD
1000
DSTYLE
1002
{
1070
   287
1070
     3
1070
   287
1070
     3
1070
    40
1040
40.0
1070
   143
1040
0.039
1070
   172
1070
     1
1070
   271
1070
     0
1070
   279
1070
     0
1070
   288
1070
     1
1002
}
  0
DIMENSION
  5
7B76
  8
3
  6
CONTINUOUS
  2
*D5
 10
3260.9718039999989
 20
2823.072408999999
 30
0.0
 11
2935.9718039999989
 21
2923.072408999999
 31
0.0
 70
     0
 13
2610.9718039999998
 23
2996.1865419999999
 33
0.0
 14
3260.9718039999989
 24
3151.2895450000001
 34
0.0
1001
ACAD
1000
DSTYLE
1002
{
1070
   287
1070
     4
1070
   287
1070
     4
1070
    40
1040
40.0
1070
    75
1070
     1
1070
   143
1040
0.039
1070
   172
1070
     1
1070
   271
1070
     0
1070
   279
1070
     1
1070
   288
1070
     1
1002
}
  0
DIMENSION
  5
7B83
  8
3
  6
CONTINUOUS
  2
*D6
 10
2610.9718039999998
 20
5362.2134930000002
 30
0.0
 11
2971.3518669999999
 21
5362.2134930000002
 31
0.0
 70
   128
 13
3340.9718039999998
 23
4464.2895449999996
 33
0.0
 14
2610.9718039999998
 24
5250.3199119999999
 34
0.0
1001
ACAD
1000
DSTYLE
1002
{
1070
   287
1070
     3
1070
   287
1070
     3
1070
    40
1040
40.0
1070
   143
1040
0.039
1070
   172
1070
     1
1070
   271
1070
     0
1070
   279
1070
     0
1070
   288
1070
     1
1002
}
  0
DIMENSION
  5
7B9C
  8
3
  6
CONTINUOUS
  2
*D7
 10
6546.5598669999999
 20
5275.4052389999997
 30
0.0
 11
6183.212219
 21
5275.4052389999997
 31
0.0
 70
   128
 13
5796.5598669999999
 23
5082.2895449999996
 33
0.0
 14
6546.5598669999999
 24
5082.2895449999996
 34
0.0
1001
ACAD
1000
DSTYLE
1002
{
1070
   287
1070
     3
1070
   287
1070
     3
1070
    40
1040
40.0
1070
   143
1040
0.039
1070
   172
1070
     1
1070
   271
1070
     0
1070
   279
1070
     0
1070
   288
1070
     1
1002
}
  0
LINE
  5
7B9D
  8
1
  6
CONTINUOUS
 10
6550.5598669999999
 20
3836.2895450000001
 30
0.0
 11
6550.5598669999999
 21
4896.2895450000015
 31
0.0
  0
DIMENSION
  5
7BAC
  8
3
  6
CONTINUOUS
  2
*D8
 10
6932.3831440000004
 20
3836.2895450000001
 30
0.0
 11
6932.3831439999994
 21
4353.0676709999998
 31
0.0
 70
   128
 13
6550.5598669999999
 23
4896.2895450000015
 33
0.0
 14
6550.5598669999999
 24
3836.2895450000001
 34
0.0
 50
90.0
1001
ACAD
1000
DSTYLE
1002
{
1070
   287
1070
     3
1070
   287
1070
     3
1070
     3
1000
φ<>
1070
    40
1040
40.0
1070
   143
1040
0.039
1070
   172
1070
     1
1070
   271
1070
     0
1070
   279
1070
     0
1070
   288
1070
     1
1002
}
  0
DIMENSION
  5
7BD3
  8
3
  6
CONTINUOUS
  2
*D9
 10
6171.5598669999999
 20
2803.818949
 30
0.0
 11
5897.2741530000012
 21
2803.818949
 31
0.0
 70
   128
 13
5589.0598669999999
 23
3151.2895450000001
 33
0.0
 14
6171.5598669999999
 24
2937.2124709999998
 34
0.0
1001
ACAD
1000
DSTYLE
1002
{
1070
   287
1070
     3
1070
   287
1070
     3
1070
    40
1040
40.0
1070
   143
1040
0.039
1070
   172
1070
     1
1070
   271
1070
     0
1070
   279
1070
     0
1070
   288
1070
     1
1002
}
  0
DIMENSION
  5
7BF8
  8
3
  6
CONTINUOUS
  2
*D10
 10
3260.9718039999989
 20
8633.7221209999989
 30
0.0
 11
2256.2460489999999
 21
8633.7221209999989
 31
0.0
 70
   128
 13
1310.971804
 23
8482.4696499999973
 33
0.0
 14
3260.9718039999989
 24
8482.4696499999973
 34
0.0
1001
ACAD
1000
DSTYLE
1002
{
1070
   287
1070
     3
1070
   287
1070
     3
1070
    40
1040
40.0
1070
   143
1040
0.039
1070
   172
1070
     1
1070
   271
1070
     0
1070
   279
1070
     0
1070
   288
1070
     1
1002
}
  0
DIMENSION
  5
7C05
  8
3
  6
CONTINUOUS
  2
*D11
 10
3668.697560000001
 20
7457.46965
 30
0.0
 11
3668.6975600000001
 21
7975.4262959999987
 31
0.0
 70
   128
 13
3260.9718039999989
 23
8482.4696499999973
 33
0.0
 14
3260.9718039999989
 24
7457.46965
 34
0.0
 50
90.0
1001
ACAD
1000
DSTYLE
1002
{
1070
   287
1070
     3
1070
   287
1070
     3
1070
    40
1040
40.0
1070
   143
1040
0.039
1070
   172
1070
     1
1070
   271
1070
     0
1070
   279
1070
     0
1070
   288
1070
     1
1002
}
  0
LINE
  5
7C1C
  8
2
  6
CENTER
 10
6171.5598669999999
 20
5291.9228929999999
 30
0.0
 11
6171.5598669999999
 21
2937.2124709999998
 31
0.0
  0
DIMENSION
  5
7C30
  8
3
  6
CONTINUOUS
  2
*D12
 10
6613.0598669999999
 20
2803.818949
 30
0.0
 11
6390.5327109999998
 21
2805.0057109999989
 31
0.0
 70
   128
 13
6171.5598669999999
 23
2937.2124709999998
 33
0.0
 14
6613.0598669999999
 24
3151.2895450000001
 34
0.0
1001
ACAD
1000
DSTYLE
1002
{
1070
   287
1070
     4
1070
   287
1070
     4
1070
    40
1040
40.0
1070
    75
1070
     1
1070
   143
1040
0.039
1070
   172
1070
     1
1070
   271
1070
     0
1070
   279
1070
     1
1070
   288
1070
     1
1002
}
  0
DIMENSION
  5
7C58
  8
3
  6
CONTINUOUS
  2
*D13
 10
6171.5598669999999
 20
5568.8888329999991
 30
0.0
 11
5880.1312955714293
 21
5568.8888329999991
 31
0.0
 70
   128
  1
MAX\P700
 13
5511.559866999999
 23
4876.2895450000015
 33
0.0
 14
6171.5598669999999
 24
5450.2669670000014
 34
0.0
1001
ACAD
1000
DSTYLE
1002
{
1070
   287
1070
     3
1070
   287
1070
     3
1070
    40
1040
40.0
1070
   143
1040
0.039
1070
   172
1070
     1
1070
   271
1070
     0
1070
   279
1070
     0
1070
   288
1070
     1
1002
}
  0
DIMENSION
  5
7C66
  8
3
  6
CONTINUOUS
  2
*D14
 10
6550.5598669999999
 20
5568.8888329999991
 30
0.0
 11
6358.5992079999996
 21
5568.8888329999991
 31
0.0
 70
   128
 13
6171.5598669999999
 23
5450.2669670000014
 33
0.0
 14
6550.5598669999999
 24
4896.2895450000015
 34
0.0
1001
ACAD
1000
DSTYLE
1002
{
1070
   287
1070
     4
1070
   287
1070
     4
1070
    40
1040
40.0
1070
    75
1070
     1
1070
   143
1040
0.039
1070
   172
1070
     1
1070
   271
1070
     0
1070
   279
1070
     1
1070
   288
1070
     1
1002
}
  0
DIMENSION
  5
7CA2
  8
3
  6
CONTINUOUS
  2
*D15
 10
4241.6851319999987
 20
5081.9164846650892
 30
0.0
 11
4141.6851319999978
 21
4724.1030148325463
 31
0.0
 70
     0
 13
3541.197095999999
 23
4366.2895449999996
 33
0.0
 14
2610.971804427641
 24
5081.9164846650892
 34
0.0
 50
90.0
1001
ACAD
1000
DSTYLE
1002
{
1070
   287
1070
     4
1070
   287
1070
     4
1070
    40
1040
40.0
1070
    75
1070
     1
1070
   143
1040
0.039
1070
   172
1070
     1
1070
   271
1070
     0
1070
   279
1070
     1
1070
   288
1070
     1
1002
}
  0
DIMENSION
  5
7CBB
  8
3
  6
CONTINUOUS
  2
*D16
 10
1783.0003019999999
 20
5362.2134930000002
 30
0.0
 11
2196.9860529999992
 21
5462.2134930000002
 31
0.0
 70
     0
 13
2610.9718039999998
 23
5250.3199119999999
 33
0.0
 14
1783.0003019999999
 24
4366.2895449999996
 34
0.0
1001
ACAD
1000
DSTYLE
1002
{
1070
   287
1070
     4
1070
   287
1070
     4
1070
    40
1040
40.0
1070
    75
1070
     1
1070
   143
1040
0.039
1070
   172
1070
     1
1070
   271
1070
     0
1070
   279
1070
     1
1070
   288
1070
     1
1002
}
  0
DIMENSION
  5
7D3E
  8
3
  2
*D17
 10
1310.971804
 20
5621.345386245921
 30
0.0
 11
2420.1380911913652
 21
5621.345386245921
 31
0.0
 70
   128
 13
3340.9718039999998
 23
4464.2895449999996
 33
0.0
 14
1310.971804
 24
3276.2895450000001
 34
0.0
1001
ACAD
1000
DSTYLE
1002
{
1070
   287
1070
     3
1070
   287
1070
     3
1070
    40
1040
40.0
1070
   143
1040
0.039
1070
   172
1070
     1
1070
   271
1070
     0
1070
   279
1070
     0
1070
   288
1070
     1
1002
}
  0
LINE
  5
7E59
  8
1
 10
3235.9718039999998
 20
3276.2895450000001
 30
0.0
 11
3235.9718039999998
 21
4522.9051018884038
 31
0.0
  0
LINE
  5
7E5A
  8
1
  6
CONTINUOUS
 10
1985.9718039999991
 20
4522.9051018884038
 30
0.0
 11
3235.9718039999998
 21
4522.9051018884038
 31
0.0
  0
LINE
  5
7E5B
  8
1
 10
1985.9718039999991
 20
3272.9051018884029
 30
0.0
 11
1985.9718039999991
 21
4522.9051018884038
 31
0.0
  0
LINE
  5
7E64
  8
1
 10
3260.9718039999989
 20
3276.2895450000001
 30
0.0
 11
3260.9718039999989
 21
3151.2895450000001
 31
0.0
  0
ENDSEC
  0
EOF
