  0
SECTION
  2
HEADER
  9
$ACADVER
  1
AC1009
  9
$INSBASE
 10
0.0
 20
0.0
 30
0.0
  9
$EXTMIN
 10
1000.0
 20
1200.0
 30
0.0
  9
$EXTMAX
 10
7400.0
 20
11146.609046
 30
0.0
  9
$LIMMIN
 10
0.0
 20
0.0
  9
$LIMMAX
 10
297.0
 20
210.0
  9
$ORTHOMODE
 70
     0
  9
$REGENMODE
 70
     1
  9
$FILLMODE
 70
     0
  9
$QTEXTMODE
 70
     0
  9
$MIRRTEXT
 70
     1
  9
$DRAGMODE
 70
     2
  9
$LTSCALE
 40
100.0
  9
$OSMODE
 70
    37
  9
$ATTMODE
 70
     1
  9
$TEXTSIZE
 40
180.0
  9
$TRACEWID
 40
0.05
  9
$TEXTSTYLE
  7
STANDARD
  9
$CLAYER
  8
3
  9
$CELTYPE
  6
BYLAYER
  9
$CECOLOR
 62
   256
  9
$DIMSCALE
 40
40.0
  9
$DIMASZ
 40
2.0
  9
$DIMEXO
 40
0.5
  9
$DIMDLI
 40
10.0
  9
$DIMRND
 40
0.0
  9
$DIMDLE
 40
0.0
  9
$DIMEXE
 40
1.0
  9
$DIMTP
 40
1.0
  9
$DIMTM
 40
1.0
  9
$DIMTXT
 40
3.0
  9
$DIMCEN
 40
0.0
  9
$DIMTSZ
 40
0.0
  9
$DIMTOL
 70
     0
  9
$DIMLIM
 70
     0
  9
$DIMTIH
 70
     0
  9
$DIMTOH
 70
     0
  9
$DIMSE1
 70
     0
  9
$DIMSE2
 70
     0
  9
$DIMTAD
 70
     1
  9
$DIMZIN
 70
     8
  9
$DIMBLK
  1

  9
$DIMASO
 70
     1
  9
$DIMSHO
 70
     1
  9
$DIMPOST
  1

  9
$DIMAPOST
  1

  9
$DIMALT
 70
     0
  9
$DIMALTD
 70
     2
  9
$DIMALTF
 40
0.039
  9
$DIMLFAC
 40
1.0
  9
$DIMTOFL
 70
     1
  9
$DIMTVP
 40
0.0
  9
$DIMTIX
 70
     0
  9
$DIMSOXD
 70
     0
  9
$DIMSAH
 70
     1
  9
$DIMBLK1
  1
OPEN
  9
$DIMBLK2
  1
OPEN
  9
$DIMSTYLE
  2
IGA
  9
$DIMCLRD
 70
     0
  9
$DIMCLRE
 70
     0
  9
$DIMCLRT
 70
     0
  9
$DIMTFAC
 40
10.0
  9
$DIMGAP
 40
1.0
  9
$LUNITS
 70
     2
  9
$LUPREC
 70
     3
  9
$SKETCHINC
 40
0.1
  9
$FILLETRAD
 40
50.0
  9
$AUNITS
 70
     0
  9
$AUPREC
 70
     0
  9
$MENU
  1
acad
  9
$ELEVATION
 40
0.0
  9
$PELEVATION
 40
0.0
  9
$THICKNESS
 40
0.0
  9
$LIMCHECK
 70
     0
  9
$BLIPMODE
 70
     0
  9
$CHAMFERA
 40
0.5
  9
$CHAMFERB
 40
0.5
  9
$SKPOLY
 70
     0
  9
$TDCREATE
 40
2450723.4547880781
  9
$TDUPDATE
 40
2454953.8420768399
  9
$TDINDWG
 40
0.0450640046
  9
$TDUSRTIMER
 40
0.0450640046
  9
$USRTIMER
 70
     1
  9
$ANGBASE
 50
0.0
  9
$ANGDIR
 70
     0
  9
$PDMODE
 70
     0
  9
$PDSIZE
 40
0.0
  9
$PLINEWID
 40
0.0
  9
$COORDS
 70
     1
  9
$SPLFRAME
 70
     0
  9
$SPLINETYPE
 70
     6
  9
$SPLINESEGS
 70
     8
  9
$ATTDIA
 70
     0
  9
$ATTREQ
 70
     1
  9
$HANDLING
 70
 10241
  9
$HANDSEED
  5
80C9
  9
$SURFTAB1
 70
     6
  9
$SURFTAB2
 70
     6
  9
$SURFTYPE
 70
     6
  9
$SURFU
 70
     6
  9
$SURFV
 70
     6
  9
$UCSNAME
  2

  9
$UCSORG
 10
0.0
 20
0.0
 30
0.0
  9
$UCSXDIR
 10
1.0
 20
0.0
 30
0.0
  9
$UCSYDIR
 10
0.0
 20
1.0
 30
0.0
  9
$PUCSNAME
  2

  9
$PUCSORG
 10
0.0
 20
0.0
 30
0.0
  9
$PUCSXDIR
 10
1.0
 20
0.0
 30
0.0
  9
$PUCSYDIR
 10
0.0
 20
1.0
 30
0.0
  9
$USERI1
 70
     0
  9
$USERI2
 70
     0
  9
$USERI3
 70
     0
  9
$USERI4
 70
     0
  9
$USERI5
 70
     0
  9
$USERR1
 40
0.0
  9
$USERR2
 40
0.0
  9
$USERR3
 40
0.0
  9
$USERR4
 40
0.0
  9
$USERR5
 40
0.0
  9
$WORLDVIEW
 70
     1
  9
$SHADEDGE
 70
     3
  9
$SHADEDIF
 70
    70
  9
$TILEMODE
 70
     1
  9
$MAXACTVP
 70
    16
  9
$PLIMCHECK
 70
     0
  9
$PEXTMIN
 10
1.0000000000000000E+020
 20
1.0000000000000000E+020
 30
1.0000000000000000E+020
  9
$PEXTMAX
 10
-1.0000000000000000E+020
 20
-1.0000000000000000E+020
 30
-1.0000000000000000E+020
  9
$PLIMMIN
 10
0.0
 20
0.0
  9
$PLIMMAX
 10
12.0
 20
9.0
  9
$UNITMODE
 70
     0
  9
$VISRETAIN
 70
     0
  9
$PLINEGEN
 70
     0
  9
$PSLTSCALE
 70
     1
  0
ENDSEC
  0
SECTION
  2
TABLES
  0
TABLE
  2
VPORT
 70
     2
  0
VPORT
  2
*ACTIVE
 70
     0
 10
0.0
 20
0.0
 11
1.0
 21
1.0
 12
5349.6690704271368
 22
5342.9798764058951
 13
0.0
 23
0.0
 14
10.0
 24
10.0
 15
10.0
 25
10.0
 16
0.0
 26
0.0
 36
1.0
 17
0.0
 27
0.0
 37
0.0
 40
13284.55879698512
 41
1.5051150895140659
 42
50.0
 43
0.0
 44
0.0
 50
0.0
 51
0.0
 71
     0
 72
   100
 73
     1
 74
     0
 75
     0
 76
     0
 77
     0
 78
     0
  0
ENDTAB
  0
TABLE
  2
LTYPE
 70
     2
  0
LTYPE
  2
CONTINUOUS
 70
     0
  3
Solid line
 72
    65
 73
     0
 40
0.0
  0
LTYPE
  2
CENTER
 70
     0
  3
____ _ ____ _ ____ _ ____ _ ____ _ ____ _ ____ 
 72
    65
 73
     4
 40
2.0
 49
1.25
 49
-0.25
 49
0.25
 49
-0.25
  0
ENDTAB
  0
TABLE
  2
LAYER
 70
     6
  0
LAYER
  2
0
 70
     0
 62
     7
  6
CONTINUOUS
  0
LAYER
  2
3
 70
     0
 62
     2
  6
CONTINUOUS
  0
LAYER
  2
2
 70
     0
 62
     3
  6
CENTER
  0
LAYER
  2
1
 70
     0
 62
     4
  6
CONTINUOUS
  0
LAYER
  2
4
 70
     0
 62
     7
  6
CONTINUOUS
  0
LAYER
  2
DEFPOINTS
 70
     0
 62
     7
  6
CONTINUOUS
  0
ENDTAB
  0
TABLE
  2
STYLE
 70
     1
  0
STYLE
  2
STANDARD
 70
     0
 40
0.0
 41
1.0
 50
0.0
 71
     0
 42
180.0
  3
simplex.shx
  4
extfont.shx
  0
ENDTAB
  0
TABLE
  2
VIEW
 70
     0
  0
ENDTAB
  0
TABLE
  2
UCS
 70
     0
  0
ENDTAB
  0
TABLE
  2
APPID
 70
     1
  0
APPID
  2
ACAD
 70
     0
  0
ENDTAB
  0
TABLE
  2
DIMSTYLE
 70
     1
  0
DIMSTYLE
  2
IGA
 70
     0
  3

  4

  5

  6
OPEN
  7
OPEN
 40
2.0
 41
2.0
 42
0.5
 43
10.0
 44
1.0
 45
0.0
 46
0.0
 47
1.0
 48
1.0
140
3.0
141
0.0
142
0.0
143
0.03937
144
1.0
145
0.0
146
10.0
147
1.0
 71
     0
 72
     0
 73
     0
 74
     0
 75
     0
 76
     0
 77
     1
 78
     8
170
     0
171
     2
172
     0
173
     1
174
     0
175
     0
176
     0
177
     0
178
     0
  0
ENDTAB
  0
ENDSEC
  0
SECTION
  2
BLOCKS
  0
BLOCK
  8
0
  2
$MODEL_SPACE
 70
     0
 10
0.0
 20
0.0
 30
0.0
  3
$MODEL_SPACE
  1

  0
ENDBLK
  5
1B
  8
0
  0
BLOCK
 67
     1
  8
0
  2
$PAPER_SPACE
 70
     0
 10
0.0
 20
0.0
 30
0.0
  3
$PAPER_SPACE
  1

  0
ENDBLK
  5
18
 67
     1
  8
0
  0
BLOCK
  8
0
  2
_OPEN
 70
     0
 10
0.0
 20
0.0
 30
0.0
  3
_OPEN
  1

  0
LINE
  5
7BC3
  8
0
  6
BYBLOCK
 62
     0
 10
-1.0
 20
0.166667
 30
0.0
 11
0.0
 21
0.0
 31
0.0
  0
LINE
  5
7BC4
  8
0
  6
BYBLOCK
 62
     0
 10
0.0
 20
0.0
 30
0.0
 11
-1.0
 21
-0.166667
 31
0.0
  0
LINE
  5
7BC5
  8
0
  6
BYBLOCK
 62
     0
 10
0.0
 20
0.0
 30
0.0
 11
-1.0
 21
0.0
 31
0.0
  0
ENDBLK
  5
7BC6
  8
0
  0
BLOCK
  8
0
  2
*D1
 70
     1
 10
0.0
 20
0.0
 30
0.0
  3
*D1
  1

  0
LINE
  5
8020
  8
3
  6
CONTINUOUS
 62
     0
 10
2199.6210021462139
 20
5250.4952210000001
 30
0.0
 11
1480.686677523192
 21
5250.495221000001
 31
0.0
  0
LINE
  5
8021
  8
3
  6
CONTINUOUS
 62
     0
 10
2279.6210021462139
 20
3358.4952210000001
 30
0.0
 11
1480.6866775231911
 21
3358.4952210000001
 31
0.0
  0
LINE
  5
8022
  8
3
  6
CONTINUOUS
 62
     0
 10
1520.6866775231911
 20
5170.495221000001
 30
0.0
 11
1520.6866775231911
 21
3438.4952210000001
 31
0.0
  0
INSERT
  5
8023
  8
3
  6
CONTINUOUS
 62
     0
  2
_OPEN
 10
1520.6866775231911
 20
5250.495221000001
 30
0.0
 41
80.0
 42
80.0
 43
80.0
 50
90.0
  0
INSERT
  5
8024
  8
3
  6
CONTINUOUS
 62
     0
  2
_OPEN
 10
1520.6866775231911
 20
3358.4952210000001
 30
0.0
 41
80.0
 42
80.0
 43
80.0
 50
270.0
  0
TEXT
  8
3
  40
120
  5
80B7
  62
0
  72
0
  71
0
 10
1180.69
 20
4002.80
 30
0.000000
  1
1892
  0
POINT
  5
8026
  8
DEFPOINTS
  6
CONTINUOUS
 62
     0
 10
2219.6210021462139
 20
5250.4952210000001
 30
0.0
  0
POINT
  5
8027
  8
DEFPOINTS
  6
CONTINUOUS
 62
     0
 10
2299.6210021462139
 20
3358.4952210000001
 30
0.0
  0
POINT
  5
8028
  8
DEFPOINTS
  6
CONTINUOUS
 62
     0
 10
1520.6866775231911
 20
3358.4952210000001
 30
0.0
  0
ENDBLK
  5
7EDB
  8
0
  0
BLOCK
  8
0
  2
*D2
 70
     1
 10
0.0
 20
0.0
 30
0.0
  3
*D2
  1

  0
LINE
  5
8029
  8
3
  6
CONTINUOUS
 62
     0
 10
2299.6210021462139
 20
3338.4952210000001
 30
0.0
 11
2299.6210021462139
 21
3017.628115
 31
0.0
  0
LINE
  5
802A
  8
3
  6
CONTINUOUS
 62
     0
 10
2949.6210021462139
 20
3202.9486720757368
 30
0.0
 11
2949.6210021462139
 21
3017.628115
 31
0.0
  0
LINE
  5
802B
  8
3
  6
CONTINUOUS
 62
     0
 10
2379.6210021462139
 20
3057.6281149999991
 30
0.0
 11
2869.6210021462148
 21
3057.6281149999991
 31
0.0
  0
INSERT
  5
802C
  8
3
  6
CONTINUOUS
 62
     0
  2
_OPEN
 10
2299.6210021462139
 20
3057.6281149999991
 30
0.0
 41
80.0
 42
80.0
 43
80.0
 50
180.0
  0
INSERT
  5
802D
  8
3
  6
CONTINUOUS
 62
     0
  2
_OPEN
 10
2949.6210021462139
 20
3057.6281149999991
 30
0.0
 41
80.0
 42
80.0
 43
80.0
  0
TEXT
  8
3
  40
120
  5
80B8
  62
0
  72
0
  71
0
 10
2389.53
 20
2945.23
 30
0.000000
  1
650
  0
POINT
  5
802F
  8
DEFPOINTS
  6
CONTINUOUS
 62
     0
 10
2299.6210021462139
 20
3358.4952210000001
 30
0.0
  0
POINT
  5
8030
  8
DEFPOINTS
  6
CONTINUOUS
 62
     0
 10
2949.6210021462139
 20
3222.9486720757368
 30
0.0
  0
POINT
  5
8031
  8
DEFPOINTS
  6
CONTINUOUS
 62
     0
 10
2949.6210021462139
 20
3057.6281149999991
 30
0.0
  0
ENDBLK
  5
7F27
  8
0
  0
BLOCK
  8
0
  2
*D3
 70
     1
 10
0.0
 20
0.0
 30
0.0
  3
*D3
  1

  0
LINE
  5
8032
  8
3
  6
CONTINUOUS
 62
     0
 10
4249.6210021462148
 20
3338.4952210000001
 30
0.0
 11
4249.6210021462148
 21
3017.628115
 31
0.0
  0
LINE
  5
8033
  8
3
  6
CONTINUOUS
 62
     0
 10
3029.6210021462139
 20
3057.6281149999991
 30
0.0
 11
4169.6210021462148
 21
3057.6281149999991
 31
0.0
  0
INSERT
  5
8034
  8
3
  6
CONTINUOUS
 62
     0
  2
_OPEN
 10
2949.6210021462139
 20
3057.6281149999991
 30
0.0
 41
80.0
 42
80.0
 43
80.0
 50
180.0
  0
INSERT
  5
8035
  8
3
  6
CONTINUOUS
 62
     0
  2
_OPEN
 10
4249.6210021462148
 20
3057.6281149999991
 30
0.0
 41
80.0
 42
80.0
 43
80.0
  0
TEXT
  8
3
  40
120
  5
80B9
  62
0
  72
0
  71
0
 10
3359.62
 20
2945.23
 30
0.000000
  1
1300
  0
POINT
  5
8037
  8
DEFPOINTS
  6
CONTINUOUS
 62
     0
 10
2949.6210021462139
 20
3222.9486720757368
 30
0.0
  0
POINT
  5
8038
  8
DEFPOINTS
  6
CONTINUOUS
 62
     0
 10
4249.6210021462148
 20
3358.4952210000001
 30
0.0
  0
POINT
  5
8039
  8
DEFPOINTS
  6
CONTINUOUS
 62
     0
 10
4249.6210021462148
 20
3057.6281149999991
 30
0.0
  0
ENDBLK
  5
7F1C
  8
0
  0
BLOCK
  8
0
  2
*D4
 70
     1
 10
0.0
 20
0.0
 30
0.0
  3
*D4
  1

  0
LINE
  5
803A
  8
3
  6
CONTINUOUS
 62
     0
 10
2219.6210021462139
 20
5270.4952210000001
 30
0.0
 11
2219.6210021462139
 21
5478.9279479999987
 31
0.0
  0
LINE
  5
803B
  8
3
  6
CONTINUOUS
 62
     0
 10
2949.6210021462139
 20
5424.4451799999997
 30
0.0
 11
2949.6210021462139
 21
5478.9279479999987
 31
0.0
  0
LINE
  5
803C
  8
3
  6
CONTINUOUS
 62
     0
 10
2299.6210021462139
 20
5438.9279479999987
 30
0.0
 11
2869.6210021462148
 21
5438.9279479999987
 31
0.0
  0
INSERT
  5
803D
  8
3
  6
CONTINUOUS
 62
     0
  2
_OPEN
 10
2219.6210021462139
 20
5438.9279479999987
 30
0.0
 41
80.0
 42
80.0
 43
80.0
 50
180.0
  0
INSERT
  5
803E
  8
3
  6
CONTINUOUS
 62
     0
  2
_OPEN
 10
2949.6210021462139
 20
5438.9279479999987
 30
0.0
 41
80.0
 42
80.0
 43
80.0
  0
TEXT
  8
3
  40
120
  5
80BA
  62
0
  72
0
  71
0
 10
2348.16
 20
5326.53
 30
0.000000
  1
730
  0
POINT
  5
8040
  8
DEFPOINTS
  6
CONTINUOUS
 62
     0
 10
2219.6210021462139
 20
5250.4952210000001
 30
0.0
  0
POINT
  5
8041
  8
DEFPOINTS
  6
CONTINUOUS
 62
     0
 10
2949.6210021462139
 20
5404.4451799999988
 30
0.0
  0
POINT
  5
8042
  8
DEFPOINTS
  6
CONTINUOUS
 62
     0
 10
2949.6210021462139
 20
5438.9279479999987
 30
0.0
  0
ENDBLK
  5
7C3B
  8
0
  0
BLOCK
  8
0
  2
*D5
 70
     1
 10
0.0
 20
0.0
 30
0.0
  3
*D5
  1

  0
LINE
  5
8043
  8
3
  6
CONTINUOUS
 62
     0
 10
5929.3637801462146
 20
5220.4952210000001
 30
0.0
 11
5929.3637801462146
 21
5330.0967030000002
 31
0.0
  0
LINE
  5
8044
  8
3
  6
CONTINUOUS
 62
     0
 10
6679.3637801462146
 20
5220.4952210000001
 30
0.0
 11
6679.3637801462146
 21
5330.0967030000002
 31
0.0
  0
LINE
  5
8045
  8
3
  6
CONTINUOUS
 62
     0
 10
6009.3637801462164
 20
5290.0967030000002
 30
0.0
 11
6599.3637801462164
 21
5290.0967030000002
 31
0.0
  0
INSERT
  5
8046
  8
3
  6
CONTINUOUS
 62
     0
  2
_OPEN
 10
5929.3637801462146
 20
5290.0967030000002
 30
0.0
 41
80.0
 42
80.0
 43
80.0
 50
180.0
  0
INSERT
  5
8047
  8
3
  6
CONTINUOUS
 62
     0
  2
_OPEN
 10
6679.3637801462146
 20
5290.0967030000002
 30
0.0
 41
80.0
 42
80.0
 43
80.0
  0
TEXT
  8
3
  40
120
  5
80BB
  62
0
  72
0
  71
0
 10
6063.22
 20
5177.70
 30
0.000000
  1
750
  0
POINT
  5
8049
  8
DEFPOINTS
  6
CONTINUOUS
 62
     0
 10
5929.3637801462146
 20
5200.4952210000001
 30
0.0
  0
POINT
  5
804A
  8
DEFPOINTS
  6
CONTINUOUS
 62
     0
 10
6679.3637801462146
 20
5200.4952210000001
 30
0.0
  0
POINT
  5
804B
  8
DEFPOINTS
  6
CONTINUOUS
 62
     0
 10
6679.3637801462146
 20
5290.0967030000002
 30
0.0
  0
ENDBLK
  5
7C7C
  8
0
  0
BLOCK
  8
0
  2
*D6
 70
     1
 10
0.0
 20
0.0
 30
0.0
  3
*D6
  1

  0
LINE
  5
804C
  8
3
  6
CONTINUOUS
 62
     0
 10
2299.6210021462139
 20
8487.2488680000006
 30
0.0
 11
2299.6210021462139
 21
8778.7654349999993
 31
0.0
  0
LINE
  5
804D
  8
3
  6
CONTINUOUS
 62
     0
 10
4249.6210021462148
 20
8487.2488680000006
 30
0.0
 11
4249.6210021462148
 21
8778.7654349999993
 31
0.0
  0
LINE
  5
804E
  8
3
  6
CONTINUOUS
 62
     0
 10
2379.6210021462139
 20
8738.7654349999993
 30
0.0
 11
4169.6210021462148
 21
8738.7654349999993
 31
0.0
  0
INSERT
  5
804F
  8
3
  6
CONTINUOUS
 62
     0
  2
_OPEN
 10
2299.6210021462139
 20
8738.7654349999993
 30
0.0
 41
80.0
 42
80.0
 43
80.0
 50
180.0
  0
INSERT
  5
8050
  8
3
  6
CONTINUOUS
 62
     0
  2
_OPEN
 10
4249.6210021462148
 20
8738.7654349999993
 30
0.0
 41
80.0
 42
80.0
 43
80.0
  0
TEXT
  8
3
  40
120
  5
80BC
  62
0
  72
0
  71
0
 10
3034.21
 20
8626.37
 30
0.000000
  1
1950
  0
POINT
  5
8052
  8
DEFPOINTS
  6
CONTINUOUS
 62
     0
 10
2299.6210021462139
 20
8467.2488680000006
 30
0.0
  0
POINT
  5
8053
  8
DEFPOINTS
  6
CONTINUOUS
 62
     0
 10
4249.6210021462148
 20
8467.2488680000006
 30
0.0
  0
POINT
  5
8054
  8
DEFPOINTS
  6
CONTINUOUS
 62
     0
 10
4249.6210021462148
 20
8738.7654349999993
 30
0.0
  0
ENDBLK
  5
7D90
  8
0
  0
BLOCK
  8
0
  2
*D7
 70
     1
 10
0.0
 20
0.0
 30
0.0
  3
*D7
  1

  0
LINE
  5
8055
  8
3
  6
CONTINUOUS
 62
     0
 10
4269.6210021462148
 20
8467.2488680000006
 30
0.0
 11
4633.3205901462161
 21
8467.2488680000006
 31
0.0
  0
LINE
  5
8056
  8
3
  6
CONTINUOUS
 62
     0
 10
4269.6210021462148
 20
7442.2488679999997
 30
0.0
 11
4633.3205901462161
 21
7442.2488679999997
 31
0.0
  0
LINE
  5
8057
  8
3
  6
CONTINUOUS
 62
     0
 10
4593.3205901462152
 20
8387.2488680000006
 30
0.0
 11
4593.3205901462152
 21
7522.2488680000006
 31
0.0
  0
INSERT
  5
8058
  8
3
  6
CONTINUOUS
 62
     0
  2
_OPEN
 10
4593.3205901462152
 20
8467.2488680000006
 30
0.0
 41
80.0
 42
80.0
 43
80.0
 50
90.0
  0
INSERT
  5
8059
  8
3
  6
CONTINUOUS
 62
     0
  2
_OPEN
 10
4593.3205901462152
 20
7442.2488679999997
 30
0.0
 41
80.0
 42
80.0
 43
80.0
 50
270.0
  0
TEXT
  8
3
  40
120
  5
80BD
  62
0
  72
0
  71
0
 10
4253.32
 20
7780.73
 30
0.000000
  1
1025
  0
POINT
  5
805B
  8
DEFPOINTS
  6
CONTINUOUS
 62
     0
 10
4249.6210021462148
 20
8467.2488680000006
 30
0.0
  0
POINT
  5
805C
  8
DEFPOINTS
  6
CONTINUOUS
 62
     0
 10
4249.6210021462148
 20
7442.2488679999997
 30
0.0
  0
POINT
  5
805D
  8
DEFPOINTS
  6
CONTINUOUS
 62
     0
 10
4593.3205901462152
 20
7442.2488679999997
 30
0.0
  0
ENDBLK
  5
7D9D
  8
0
  0
BLOCK
  8
0
  2
*D8
 70
     1
 10
0.0
 20
0.0
 30
0.0
  3
*D8
  1

  0
LINE
  5
805E
  8
3
  6
CONTINUOUS
 62
     0
 10
2199.6210021462139
 20
5200.4952210000001
 30
0.0
 11
2023.4108421462149
 21
5200.495221000001
 31
0.0
  0
LINE
  5
805F
  8
3
  6
CONTINUOUS
 62
     0
 10
2199.6210021462139
 20
4170.4952210000001
 30
0.0
 11
2023.4108421462149
 21
4170.495221000001
 31
0.0
  0
LINE
  5
8060
  8
3
  6
CONTINUOUS
 62
     0
 10
2063.4108421462151
 20
5120.4952210000001
 30
0.0
 11
2063.4108421462151
 21
4250.4952210000001
 31
0.0
  0
INSERT
  5
8061
  8
3
  6
CONTINUOUS
 62
     0
  2
_OPEN
 10
2063.4108421462151
 20
5200.4952210000001
 30
0.0
 41
80.0
 42
80.0
 43
80.0
 50
90.0
  0
INSERT
  5
8062
  8
3
  6
CONTINUOUS
 62
     0
  2
_OPEN
 10
2063.4108421462151
 20
4170.4952210000001
 30
0.0
 41
80.0
 42
80.0
 43
80.0
 50
270.0
  0
TEXT
  8
3
  40
120
  5
80BE
  62
0
  72
0
  71
0
 10
1723.41
 20
4423.39
 30
0.000000
  1
1030
  0
POINT
  5
8064
  8
DEFPOINTS
  6
CONTINUOUS
 62
     0
 10
2219.6210021462139
 20
5200.4952210000001
 30
0.0
  0
POINT
  5
8065
  8
DEFPOINTS
  6
CONTINUOUS
 62
     0
 10
2219.6210021462139
 20
4170.4952210000001
 30
0.0
  0
POINT
  5
8066
  8
DEFPOINTS
  6
CONTINUOUS
 62
     0
 10
2063.4108421462151
 20
4170.4952210000001
 30
0.0
  0
ENDBLK
  5
7CEB
  8
0
  0
BLOCK
  8
0
  2
*D9
 70
     1
 10
0.0
 20
0.0
 30
0.0
  3
*D9
  1

  0
LINE
  5
8067
  8
3
  6
CONTINUOUS
 62
     0
 10
2199.6210021462139
 20
5200.4952210000001
 30
0.0
 11
1750.9258805231909
 21
5200.495221000001
 31
0.0
  0
LINE
  5
8068
  8
3
  6
CONTINUOUS
 62
     0
 10
1857.888369146214
 20
4218.4952210000001
 30
0.0
 11
1750.9258805231909
 21
4218.4952210000001
 31
0.0
  0
LINE
  5
8069
  8
3
  6
CONTINUOUS
 62
     0
 10
1790.9258805231921
 20
5120.495221000001
 30
0.0
 11
1790.9258805231909
 21
4298.4952210000001
 31
0.0
  0
INSERT
  5
806A
  8
3
  6
CONTINUOUS
 62
     0
  2
_OPEN
 10
1790.9258805231921
 20
5200.495221000001
 30
0.0
 41
80.0
 42
80.0
 43
80.0
 50
90.0
  0
INSERT
  5
806B
  8
3
  6
CONTINUOUS
 62
     0
  2
_OPEN
 10
1790.9258805231909
 20
4218.4952210000001
 30
0.0
 41
80.0
 42
80.0
 43
80.0
 50
270.0
  0
TEXT
  8
3
  40
120
  5
80BF
  62
0
  72
0
  71
0
 10
1450.93
 20
4460.47
 30
0.000000
  1
982
  0
POINT
  5
806D
  8
DEFPOINTS
  6
CONTINUOUS
 62
     0
 10
2219.6210021462139
 20
5200.4952210000001
 30
0.0
  0
POINT
  5
806E
  8
DEFPOINTS
  6
CONTINUOUS
 62
     0
 10
1877.888369146214
 20
4218.4952210000001
 30
0.0
  0
POINT
  5
806F
  8
DEFPOINTS
  6
CONTINUOUS
 62
     0
 10
1790.9258805231909
 20
4218.4952210000001
 30
0.0
  0
ENDBLK
  5
7EF0
  8
0
  0
BLOCK
  8
0
  2
*D10
 70
     1
 10
0.0
 20
0.0
 30
0.0
  3
*D10
  1

  0
LINE
  5
8070
  8
3
  6
CONTINUOUS
 62
     0
 10
2279.6210021462139
 20
3358.4952210000001
 30
0.0
 11
1750.9258805231909
 21
3358.4952210000001
 31
0.0
  0
LINE
  5
8071
  8
3
  6
CONTINUOUS
 62
     0
 10
1790.9258805231909
 20
4138.4952210000001
 30
0.0
 11
1790.9258805231909
 21
3438.4952210000001
 31
0.0
  0
INSERT
  5
8072
  8
3
  6
CONTINUOUS
 62
     0
  2
_OPEN
 10
1790.9258805231909
 20
4218.4952210000001
 30
0.0
 41
80.0
 42
80.0
 43
80.0
 50
90.0
  0
INSERT
  5
8073
  8
3
  6
CONTINUOUS
 62
     0
  2
_OPEN
 10
1790.9258805231909
 20
3358.4952210000001
 30
0.0
 41
80.0
 42
80.0
 43
80.0
 50
270.0
  0
TEXT
  8
3
  40
120
  5
80C0
  62
0
  72
0
  71
0
 10
1450.93
 20
3576.10
 30
0.000000
  1
860
  0
POINT
  5
8075
  8
DEFPOINTS
  6
CONTINUOUS
 62
     0
 10
1877.888369146214
 20
4218.4952210000001
 30
0.0
  0
POINT
  5
8076
  8
DEFPOINTS
  6
CONTINUOUS
 62
     0
 10
2299.6210021462139
 20
3358.4952210000001
 30
0.0
  0
POINT
  5
8077
  8
DEFPOINTS
  6
CONTINUOUS
 62
     0
 10
1790.9258805231909
 20
3358.4952210000001
 30
0.0
  0
ENDBLK
  5
7EE5
  8
0
  0
BLOCK
  8
0
  2
*D11
 70
     1
 10
0.0
 20
0.0
 30
0.0
  3
*D11
  1

  0
LINE
  5
8078
  8
3
  6
CONTINUOUS
 62
     0
 10
6703.3637801462164
 20
4748.4952210000001
 30
0.0
 11
7019.7563711462153
 21
4748.4952210000001
 31
0.0
  0
LINE
  5
8079
  8
3
  6
CONTINUOUS
 62
     0
 10
6703.3637801462164
 20
3688.4952210000001
 30
0.0
 11
7019.7563711462153
 21
3688.4952210000001
 31
0.0
  0
LINE
  5
807A
  8
3
  6
CONTINUOUS
 62
     0
 10
6979.7563711462162
 20
4668.4952209999992
 30
0.0
 11
6979.7563711462162
 21
3768.4952210000001
 31
0.0
  0
INSERT
  5
807B
  8
3
  6
CONTINUOUS
 62
     0
  2
_OPEN
 10
6979.7563711462162
 20
4748.4952210000001
 30
0.0
 41
80.0
 42
80.0
 43
80.0
 50
90.0
  0
INSERT
  5
807C
  8
3
  6
CONTINUOUS
 62
     0
  2
_OPEN
 10
6979.7563711462162
 20
3688.4952210000001
 30
0.0
 41
80.0
 42
80.0
 43
80.0
 50
270.0
  0
TEXT
  8
3
  40
120
  5
80C1
  62
0
  72
0
  71
0
 10
6639.76
 20
4024.76
 30
0.000000
  1
φ1060
  0
POINT
  5
807E
  8
DEFPOINTS
  6
CONTINUOUS
 62
     0
 10
6683.3637801462164
 20
4748.4952210000001
 30
0.0
  0
POINT
  5
807F
  8
DEFPOINTS
  6
CONTINUOUS
 62
     0
 10
6683.3637801462164
 20
3688.4952210000001
 30
0.0
  0
POINT
  5
8080
  8
DEFPOINTS
  6
CONTINUOUS
 62
     0
 10
6979.7563711462162
 20
3688.4952210000001
 30
0.0
  0
ENDBLK
  5
7E9B
  8
0
  0
BLOCK
  8
0
  2
*D12
 70
     1
 10
0.0
 20
0.0
 30
0.0
  3
*D12
  1

  0
LINE
  5
8081
  8
3
  6
CONTINUOUS
 62
     0
 10
5721.8637801462146
 20
3338.4952210000001
 30
0.0
 11
5721.8637801462146
 21
3012.1583919999998
 31
0.0
  0
LINE
  5
8082
  8
3
  6
CONTINUOUS
 62
     0
 10
6304.3637801462146
 20
3183.569049461782
 30
0.0
 11
6304.3637801462146
 21
3012.1583919999998
 31
0.0
  0
LINE
  5
8083
  8
3
  6
CONTINUOUS
 62
     0
 10
5801.8637801462164
 20
3052.1583919999998
 30
0.0
 11
6224.3637801462164
 21
3052.1583919999998
 31
0.0
  0
INSERT
  5
8084
  8
3
  6
CONTINUOUS
 62
     0
  2
_OPEN
 10
5721.8637801462146
 20
3052.1583919999998
 30
0.0
 41
80.0
 42
80.0
 43
80.0
 50
180.0
  0
INSERT
  5
8085
  8
3
  6
CONTINUOUS
 62
     0
  2
_OPEN
 10
6304.3637801462146
 20
3052.1583919999998
 30
0.0
 41
80.0
 42
80.0
 43
80.0
  0
TEXT
  8
3
  40
120
  5
80C2
  62
0
  72
0
  71
0
 10
5756.15
 20
2939.76
 30
0.000000
  1
583
  0
POINT
  5
8087
  8
DEFPOINTS
  6
CONTINUOUS
 62
     0
 10
5721.8637801462146
 20
3358.4952210000001
 30
0.0
  0
POINT
  5
8088
  8
DEFPOINTS
  6
CONTINUOUS
 62
     0
 10
6304.3637801462146
 20
3203.569049461782
 30
0.0
  0
POINT
  5
8089
  8
DEFPOINTS
  6
CONTINUOUS
 62
     0
 10
6304.3637801462146
 20
3052.1583919999998
 30
0.0
  0
ENDBLK
  5
7F08
  8
0
  0
BLOCK
  8
0
  2
*D13
 70
     1
 10
0.0
 20
0.0
 30
0.0
  3
*D13
  1

  0
LINE
  5
808A
  8
3
  6
CONTINUOUS
 62
     0
 10
6745.8637801462164
 20
3338.4952210000001
 30
0.0
 11
6745.8637801462164
 21
3012.1583919999998
 31
0.0
  0
LINE
  5
808B
  8
3
  6
CONTINUOUS
 62
     0
 10
6384.3637801462164
 20
3052.1583919999998
 30
0.0
 11
6665.8637801462164
 21
3052.1583919999998
 31
0.0
  0
TEXT
  8
3
  40
120
  5
80C3
  62
0
  72
0
  71
0
 10
6284.89
 20
2939.76
 30
0.000000
  1
442
  0
INSERT
  5
808D
  8
3
  6
CONTINUOUS
 62
     0
  2
_OPEN
 10
6304.3637801462146
 20
3052.1583919999998
 30
0.0
 41
80.0
 42
80.0
 43
80.0
 50
180.0
  0
INSERT
  5
808E
  8
3
  6
CONTINUOUS
 62
     0
  2
_OPEN
 10
6745.8637801462164
 20
3052.1583919999998
 30
0.0
 41
80.0
 42
80.0
 43
80.0
  0
POINT
  5
808F
  8
DEFPOINTS
  6
CONTINUOUS
 62
     0
 10
6304.3637801462146
 20
3203.569049461782
 30
0.0
  0
POINT
  5
8090
  8
DEFPOINTS
  6
CONTINUOUS
 62
     0
 10
6745.8637801462164
 20
3358.4952210000001
 30
0.0
  0
POINT
  5
8091
  8
DEFPOINTS
  6
CONTINUOUS
 62
     0
 10
6745.8637801462164
 20
3052.1583919999998
 30
0.0
  0
ENDBLK
  5
7F12
  8
0
  0
BLOCK
  8
0
  2
*D14
 70
     1
 10
0.0
 20
0.0
 30
0.0
  3
*D14
  1

  0
LINE
  5
8092
  8
3
  6
CONTINUOUS
 62
     0
 10
5644.3637801462164
 20
4803.4952210000001
 30
0.0
 11
5644.3637801462164
 21
5600.7948622922531
 31
0.0
  0
LINE
  5
8093
  8
3
  6
CONTINUOUS
 62
     0
 10
6304.3637801462146
 20
5484.8742199999997
 30
0.0
 11
6304.3637801462146
 21
5600.7948622922531
 31
0.0
  0
LINE
  5
8094
  8
3
  6
CONTINUOUS
 62
     0
 10
5724.3637801462164
 20
5560.7948622922522
 30
0.0
 11
6224.3637801462164
 21
5560.7948622922522
 31
0.0
  0
INSERT
  5
8095
  8
3
  6
CONTINUOUS
 62
     0
  2
_OPEN
 10
5644.3637801462164
 20
5560.7948622922522
 30
0.0
 41
80.0
 42
80.0
 43
80.0
 50
180.0
  0
INSERT
  5
8096
  8
3
  6
CONTINUOUS
 62
     0
  2
_OPEN
 10
6304.3637801462146
 20
5560.7948622922522
 30
0.0
 41
80.0
 42
80.0
 43
80.0
  0
TEXT
  8
3
  40
120
  5
80C4
  62
0
  72
0
  71
0
 10
5772.94
 20
5548.39
 30
0.000000
  1
MAX
  0
TEXT
  8
3
  40
120
  5
80C5
  62
0
  72
0
  71
0
 10
5772.94
 20
5392.39
 30
0.000000
  1
700
  0
POINT
  5
8098
  8
DEFPOINTS
  6
CONTINUOUS
 62
     0
 10
5644.3637801462164
 20
4783.4952210000001
 30
0.0
  0
POINT
  5
8099
  8
DEFPOINTS
  6
CONTINUOUS
 62
     0
 10
6304.3637801462146
 20
5464.8742200000006
 30
0.0
  0
POINT
  5
809A
  8
DEFPOINTS
  6
CONTINUOUS
 62
     0
 10
6304.3637801462146
 20
5560.7948622922522
 30
0.0
  0
ENDBLK
  5
7ED0
  8
0
  0
BLOCK
  8
0
  2
*D15
 70
     1
 10
0.0
 20
0.0
 30
0.0
  3
*D15
  1

  0
LINE
  5
809B
  8
3
  6
CONTINUOUS
 62
     0
 10
6683.3637801462164
 20
4768.4952210000001
 30
0.0
 11
6683.3637801462164
 21
5600.7948622922531
 31
0.0
  0
LINE
  5
809C
  8
3
  6
CONTINUOUS
 62
     0
 10
6384.3637801462164
 20
5560.7948622922522
 30
0.0
 11
6603.3637801462164
 21
5560.7948622922522
 31
0.0
  0
TEXT
  8
3
  40
120
  5
80C6
  62
0
  72
0
  71
0
 10
6249.18
 20
5457.45
 30
0.000000
  1
379
  0
INSERT
  5
809E
  8
3
  6
CONTINUOUS
 62
     0
  2
_OPEN
 10
6304.3637801462146
 20
5560.7948622922522
 30
0.0
 41
80.0
 42
80.0
 43
80.0
 50
180.0
  0
INSERT
  5
809F
  8
3
  6
CONTINUOUS
 62
     0
  2
_OPEN
 10
6683.3637801462164
 20
5560.7948622922522
 30
0.0
 41
80.0
 42
80.0
 43
80.0
  0
POINT
  5
80A0
  8
DEFPOINTS
  6
CONTINUOUS
 62
     0
 10
6304.3637801462146
 20
5464.8742200000006
 30
0.0
  0
POINT
  5
80A1
  8
DEFPOINTS
  6
CONTINUOUS
 62
     0
 10
6683.3637801462164
 20
4748.4952210000001
 30
0.0
  0
POINT
  5
80A2
  8
DEFPOINTS
  6
CONTINUOUS
 62
     0
 10
6683.3637801462164
 20
5560.7948622922522
 30
0.0
  0
ENDBLK
  5
7EC5
  8
0
  0
BLOCK
  8
0
  2
*D16
 70
     1
 10
0.0
 20
0.0
 30
0.0
  3
*D16
  1

  0
LINE
  5
80A3
  8
3
  6
CONTINUOUS
 62
     0
 10
3777.2575471462151
 20
4238.4952209999992
 30
0.0
 11
3777.2575471462151
 21
5478.9279479999987
 31
0.0
  0
LINE
  5
80A4
  8
3
  6
CONTINUOUS
 62
     0
 10
3029.6210021462139
 20
5438.9279479999987
 30
0.0
 11
3697.2575471462151
 21
5438.9279479999987
 31
0.0
  0
INSERT
  5
80A5
  8
3
  6
CONTINUOUS
 62
     0
  2
_OPEN
 10
2949.6210021462139
 20
5438.9279479999987
 30
0.0
 41
80.0
 42
80.0
 43
80.0
 50
180.0
  0
INSERT
  5
80A6
  8
3
  6
CONTINUOUS
 62
     0
  2
_OPEN
 10
3777.2575471462151
 20
5438.9279479999987
 30
0.0
 41
80.0
 42
80.0
 43
80.0
  0
TEXT
  8
3
  40
120
  5
80C7
  62
0
  72
0
  71
0
 10
3123.44
 20
5326.53
 30
0.000000
  1
828
  0
POINT
  5
80A8
  8
DEFPOINTS
  6
CONTINUOUS
 62
     0
 10
2949.6210021462139
 20
5404.4451799999988
 30
0.0
  0
POINT
  5
80A9
  8
DEFPOINTS
  6
CONTINUOUS
 62
     0
 10
3777.2575471462151
 20
4218.4952210000001
 30
0.0
  0
POINT
  5
80AA
  8
DEFPOINTS
  6
CONTINUOUS
 62
     0
 10
3777.2575471462151
 20
5438.9279479999987
 30
0.0
  0
ENDBLK
  5
7E50
  8
0
  0
BLOCK
  8
0
  2
*D17
 70
     1
 10
0.0
 20
0.0
 30
0.0
  3
*D17
  1

  0
LINE
  5
80AB
  8
3
 62
     0
 10
2219.6210021462139
 20
5270.4952210000001
 30
0.0
 11
2219.6210021462139
 21
5708.7012731109207
 31
0.0
  0
LINE
  5
80AC
  8
3
 62
     0
 10
4249.6210021462148
 20
3503.4952210000001
 30
0.0
 11
4249.6210021462148
 21
5708.7012731109207
 31
0.0
  0
LINE
  5
80AD
  8
3
 62
     0
 10
2299.6210021462139
 20
5668.7012731109198
 30
0.0
 11
4169.6210021462148
 21
5668.7012731109198
 31
0.0
  0
INSERT
  5
80AE
  8
3
 62
     0
  2
_OPEN
 10
2219.6210021462139
 20
5668.7012731109198
 30
0.0
 41
80.0
 42
80.0
 43
80.0
 50
180.0
  0
INSERT
  5
80AF
  8
3
 62
     0
  2
_OPEN
 10
4249.6210021462148
 20
5668.7012731109198
 30
0.0
 41
80.0
 42
80.0
 43
80.0
  0
TEXT
  8
3
  40
120
  5
80C8
  62
0
  72
0
  71
0
 10
2998.46
 20
5556.30
 30
0.000000
  1
2030
  0
POINT
  5
80B1
  8
DEFPOINTS
 62
     0
 10
2219.6210021462139
 20
5250.4952210000001
 30
0.0
  0
POINT
  5
80B2
  8
DEFPOINTS
 62
     0
 10
4249.6210021462148
 20
3483.4952210000001
 30
0.0
  0
POINT
  5
80B3
  8
DEFPOINTS
 62
     0
 10
4249.6210021462148
 20
5668.7012731109198
 30
0.0
  0
ENDBLK
  5
7EFC
  8
0
  0
BLOCK
  8
0
  2
_DOT
 70
     0
 10
0.0
 20
0.0
 30
0.0
  3
_DOT
  1

  0
POLYLINE
  5
8004
  8
0
  6
BYBLOCK
 62
     0
 66
     1
 10
0.0
 20
0.0
 30
0.0
 70
     1
 40
0.5
 41
0.5
  0
VERTEX
  5
80B4
  8
0
  6
BYBLOCK
 62
     0
 10
-0.25
 20
0.0
 30
0.0
 42
1.0
  0
VERTEX
  5
80B5
  8
0
  6
BYBLOCK
 62
     0
 10
0.25
 20
0.0
 30
0.0
 42
1.0
  0
SEQEND
  5
80B6
  8
0
  6
BYBLOCK
 62
     0
  0
LINE
  5
8005
  8
0
  6
BYBLOCK
 62
     0
 10
-0.5
 20
0.0
 30
0.0
 11
-1.0
 21
0.0
 31
0.0
  0
ENDBLK
  5
8007
  8
0
  0
ENDSEC
  0
SECTION
  2
ENTITIES
  0
ARC
  5
7AC8
  8
1
  6
CONTINUOUS
 10
2992.6210021462148
 20
4175.4952210000001
 30
0.0
 40
674.0
 50
180.42504700000001
 51
266.34214700000001
  0
LINE
  5
7AC9
  8
1
  6
CONTINUOUS
 10
2949.6210021462139
 20
5176.1317650000001
 30
0.0
 11
2219.6210021462139
 21
5200.4952210000001
 31
0.0
  0
LINE
  5
7ACB
  8
1
  6
CONTINUOUS
 10
4249.6210021462148
 20
3483.4952210000001
 30
0.0
 11
2299.6210021462139
 21
3483.4952210000001
 31
0.0
  0
LINE
  5
7ACC
  8
1
  6
CONTINUOUS
 10
4249.6210021462148
 20
3358.4952210000001
 30
0.0
 11
2299.6210021462139
 21
3358.4952210000001
 31
0.0
  0
CIRCLE
  5
7ACF
  8
1
  6
CONTINUOUS
 10
2949.6210021462139
 20
4218.4952210000001
 30
0.0
 40
192.18405100000001
  0
LINE
  5
7AD0
  8
1
  6
CONTINUOUS
 10
3965.4496111462149
 20
3568.5608129999991
 30
0.0
 11
2873.1678091462149
 21
4042.172736
 31
0.0
  0
LINE
  5
7AD1
  8
2
  6
CENTER
 10
6766.4055191462148
 20
4218.4952210000001
 30
0.0
 11
5545.0616851462137
 21
4218.4952210000001
 31
0.0
  0
LINE
  5
7AD2
  8
1
  6
CONTINUOUS
 10
4249.6210021462148
 20
8467.2488680000006
 30
0.0
 11
2299.6210021462139
 21
8467.2488680000006
 31
0.0
  0
LINE
  5
7AD3
  8
1
  6
CONTINUOUS
 10
3777.6210021462148
 20
8399.7488680000006
 30
0.0
 11
2219.6210021462139
 21
8399.7488680000006
 31
0.0
  0
LINE
  5
7AD4
  8
1
  6
CONTINUOUS
 10
3777.6210021462148
 20
7649.7488679999997
 30
0.0
 11
2219.6210021462139
 21
7649.7488679999997
 31
0.0
  0
LINE
  5
7ADB
  8
1
  6
CONTINUOUS
 10
3179.6210021462139
 20
4783.4952210000001
 30
0.0
 11
2409.6210021462148
 21
4783.4952210000001
 31
0.0
  0
LINE
  5
7AE3
  8
1
  6
CONTINUOUS
 10
2219.6210021462139
 20
5250.4952210000001
 30
0.0
 11
2219.6210021462139
 21
4120.4952210000001
 31
0.0
  0
LINE
  5
7AE4
  8
1
  6
CONTINUOUS
 10
2318.639548146215
 20
4170.4952210000001
 30
0.0
 11
2219.6210021462139
 21
4170.4952210000001
 31
0.0
  0
LINE
  5
7AE5
  8
1
  6
CONTINUOUS
 10
2269.6210021462139
 20
5198.8264909999998
 30
0.0
 11
2269.6210021462139
 21
4170.4952210000001
 31
0.0
  0
LINE
  5
7AE6
  8
1
  6
CONTINUOUS
 10
2409.6210021462148
 20
4783.4952210000001
 30
0.0
 11
2409.6210021462148
 21
3483.4952210000001
 31
0.0
  0
LINE
  5
7AE7
  8
1
  6
CONTINUOUS
 10
2219.6210021462139
 20
7599.7488679999997
 30
0.0
 11
2219.6210021462139
 21
8449.7488680000006
 31
0.0
  0
LINE
  5
7AE8
  8
1
  6
CONTINUOUS
 10
2269.6210021462139
 20
7649.7488679999997
 30
0.0
 11
2269.6210021462139
 21
8399.7488680000006
 31
0.0
  0
LINE
  5
7AE9
  8
1
  6
CONTINUOUS
 10
2757.421002146215
 20
7442.2488679999997
 30
0.0
 11
2299.6210021462139
 21
7442.2488679999997
 31
0.0
  0
LINE
  5
7AEA
  8
1
  6
CONTINUOUS
 10
2299.6210021462139
 20
7442.2488679999997
 30
0.0
 11
2299.6210021462139
 21
7649.7488679999997
 31
0.0
  0
LINE
  5
7AEB
  8
1
  6
CONTINUOUS
 10
2299.6210021462139
 20
8399.7488680000006
 30
0.0
 11
2299.6210021462139
 21
8467.2488680000006
 31
0.0
  0
ARC
  5
7AF9
  8
1
  6
CONTINUOUS
 10
3005.6210021462148
 20
4274.4952210000001
 30
0.0
 40
774.0
 50
265.85094399999991
 51
355.85094399999991
  0
LINE
  5
7AFA
  8
1
  6
CONTINUOUS
 10
4249.6210021462148
 20
3483.4952210000001
 30
0.0
 11
4249.6210021462148
 21
3358.4952210000001
 31
0.0
  0
ARC
  5
7AFC
  8
1
  6
CONTINUOUS
 10
4019.6210021462148
 20
3693.4952210000001
 30
0.0
 40
162.0
 50
324.972283
 51
215.02771699999991
  0
CIRCLE
  5
7AFD
  8
1
  6
CONTINUOUS
 10
4019.6210021462148
 20
3693.4952210000001
 30
0.0
 40
136.1732199999999
  0
LINE
  5
7B04
  8
2
  6
CENTER
 10
4160.7942221462154
 20
3693.4952210000001
 30
0.0
 11
3878.4477821462142
 21
3693.4952210000001
 31
0.0
  0
LINE
  5
7B05
  8
1
  6
CONTINUOUS
 10
3179.6210021462139
 20
4783.4952210000001
 30
0.0
 11
4179.6210021462148
 21
3883.4952210000001
 31
0.0
  0
ARC
  5
7B06
  8
1
  6
CONTINUOUS
 10
2884.6210021462139
 20
4283.4952210000001
 30
0.0
 40
895.0
 50
355.83518700000002
 51
85.835187000000005
  0
LINE
  5
7B07
  8
1
  6
CONTINUOUS
 10
4085.2826211462152
 20
3812.7919010000001
 30
0.0
 11
3042.2905871462149
 21
4386.8610650000001
 31
0.0
  0
LINE
  5
7B08
  8
2
  6
CENTER
 10
2949.6210021462139
 20
3222.9486720757368
 30
0.0
 11
2949.6210021462139
 21
5404.4451799999988
 31
0.0
  0
LINE
  5
7B0A
  8
1
  6
CONTINUOUS
 10
3865.6210021462148
 20
3551.4952210000001
 30
0.0
 11
3886.9633361462138
 21
3600.5116539999999
 31
0.0
  0
LINE
  5
7B0B
  8
1
  6
CONTINUOUS
 10
3865.6210021462148
 20
3533.4952210000001
 30
0.0
 11
3865.6210021462148
 21
3551.4952210000001
 31
0.0
  0
LINE
  5
7B0C
  8
2
  6
CENTER
 10
4019.6210021462148
 20
3552.322001
 30
0.0
 11
4019.6210021462148
 21
3834.6684409999998
 31
0.0
  0
LINE
  5
7B0D
  8
1
  6
CONTINUOUS
 10
4173.6210021462148
 20
3533.4952210000001
 30
0.0
 11
4173.6210021462148
 21
3551.4952210000001
 31
0.0
  0
LINE
  5
7B0E
  8
1
  6
CONTINUOUS
 10
4173.6210021462148
 20
3551.4952210000001
 30
0.0
 11
4152.2786681462148
 21
3600.5116539999999
 31
0.0
  0
LINE
  5
7B14
  8
1
  6
CONTINUOUS
 10
4179.6210021462148
 20
3883.4952210000001
 30
0.0
 11
4179.6210021462148
 21
3483.4952210000001
 31
0.0
  0
LINE
  5
7B32
  8
1
  6
CONTINUOUS
 10
5721.8637801462146
 20
3358.4952210000001
 30
0.0
 11
5721.8637801462146
 21
3483.4952210000001
 31
0.0
  0
LINE
  5
7B33
  8
1
  6
CONTINUOUS
 10
6745.8637801462164
 20
3358.4952210000001
 30
0.0
 11
6745.8637801462164
 21
3483.4952210000001
 31
0.0
  0
LINE
  5
7B34
  8
1
  6
CONTINUOUS
 10
5721.8637801462146
 20
3358.4952210000001
 30
0.0
 11
6745.8637801462164
 21
3358.4952210000001
 31
0.0
  0
LINE
  5
7B35
  8
1
  6
CONTINUOUS
 10
6679.3637801462146
 20
5200.4952210000001
 30
0.0
 11
5929.3637801462146
 21
4170.4952210000001
 31
0.0
  0
LINE
  5
7B36
  8
1
  6
CONTINUOUS
 10
5929.3637801462146
 20
5200.4952210000001
 30
0.0
 11
6679.3637801462146
 21
4170.4952210000001
 31
0.0
  0
LINE
  5
7B37
  8
1
  6
CONTINUOUS
 10
5929.3637801462146
 20
4170.4952210000001
 30
0.0
 11
6679.3637801462146
 21
4170.4952210000001
 31
0.0
  0
LINE
  5
7B38
  8
1
  6
CONTINUOUS
 10
5929.3637801462146
 20
5200.4952210000001
 30
0.0
 11
6679.3637801462146
 21
5200.4952210000001
 31
0.0
  0
LINE
  5
7B39
  8
1
  6
CONTINUOUS
 10
5721.8637801462146
 20
3483.4952210000001
 30
0.0
 11
6745.8637801462164
 21
3483.4952210000001
 31
0.0
  0
LINE
  5
7B3A
  8
1
  6
CONTINUOUS
 10
5858.3637801462146
 20
3483.4952210000001
 30
0.0
 11
5858.3637801462146
 21
4783.4952210000001
 31
0.0
  0
LINE
  5
7B3B
  8
1
  6
CONTINUOUS
 10
5644.3637801462164
 20
3483.4952210000001
 30
0.0
 11
5644.3637801462164
 21
4783.4952210000001
 31
0.0
  0
LINE
  5
7B3C
  8
1
  6
CONTINUOUS
 10
5706.3637801462146
 20
4026.3111709999998
 30
0.0
 11
5706.3637801462146
 21
4410.6792720000003
 31
0.0
  0
LINE
  5
7B3D
  8
1
  6
CONTINUOUS
 10
5807.3637801462146
 20
4026.3111709999998
 30
0.0
 11
5807.3637801462146
 21
4410.6792720000003
 31
0.0
  0
LINE
  5
7B3E
  8
1
  6
CONTINUOUS
 10
5929.3637801462146
 20
3483.4952210000001
 30
0.0
 11
5929.3637801462146
 21
5200.4952210000001
 31
0.0
  0
LINE
  5
7B45
  8
1
  6
CONTINUOUS
 10
5721.8637801462146
 20
3483.4952210000001
 30
0.0
 11
5644.3637801462164
 21
3483.4952210000001
 31
0.0
  0
LINE
  5
7B46
  8
1
  6
CONTINUOUS
 10
5807.3637801462146
 20
3672.4952210000001
 30
0.0
 11
5929.3637801462146
 21
3672.4952210000001
 31
0.0
  0
LINE
  5
7B47
  8
1
  6
CONTINUOUS
 10
5807.3637801462146
 20
3714.4952209999992
 30
0.0
 11
5929.3637801462146
 21
3714.4952209999992
 31
0.0
  0
LINE
  5
7B48
  8
1
  6
CONTINUOUS
 10
5706.3637801462146
 20
4026.3111709999998
 30
0.0
 11
5807.3637801462146
 21
4026.3111709999998
 31
0.0
  0
LINE
  5
7B49
  8
1
  6
CONTINUOUS
 10
5807.3637801462146
 20
4190.9952210000001
 30
0.0
 11
5929.3637801462146
 21
4190.9952210000001
 31
0.0
  0
LINE
  5
7B4A
  8
1
  6
CONTINUOUS
 10
5807.3637801462146
 20
4245.9952210000001
 30
0.0
 11
5929.3637801462146
 21
4245.9952210000001
 31
0.0
  0
LINE
  5
7B4B
  8
1
  6
CONTINUOUS
 10
5644.3637801462164
 20
4783.4952210000001
 30
0.0
 11
5858.3637801462146
 21
4783.4952210000001
 31
0.0
  0
LINE
  5
7B4C
  8
1
  6
CONTINUOUS
 10
5706.3637801462146
 20
4410.6792720000003
 30
0.0
 11
5807.3637801462146
 21
4410.6792720000003
 31
0.0
  0
LINE
  5
7B4D
  8
1
  6
CONTINUOUS
 10
6679.3637801462146
 20
3483.4952210000001
 30
0.0
 11
6679.3637801462146
 21
5200.4952210000001
 31
0.0
  0
LINE
  5
7B50
  8
1
  6
CONTINUOUS
 10
4181.6210021462139
 20
8123.8705879999998
 30
0.0
 11
3857.6210021462139
 21
8123.8705879999998
 31
0.0
  0
LINE
  5
7B51
  8
1
  6
CONTINUOUS
 10
3857.6210021462139
 20
7649.7488679999997
 30
0.0
 11
4181.6210021462139
 21
7649.7488679999997
 31
0.0
  0
LINE
  5
7B58
  8
1
  6
CONTINUOUS
 10
3883.4710021462151
 20
7442.2488679999997
 30
0.0
 11
3141.8210021462151
 21
7442.2488679999997
 31
0.0
  0
LINE
  5
7B59
  8
1
  6
CONTINUOUS
 10
2977.1210021462148
 20
7527.7488679999997
 30
0.0
 11
2977.1210021462148
 21
7649.7488679999997
 31
0.0
  0
LINE
  5
7B5A
  8
1
  6
CONTINUOUS
 10
2922.1210021462139
 20
7527.7488679999997
 30
0.0
 11
2922.1210021462139
 21
7649.7488679999997
 31
0.0
  0
LINE
  5
7B5B
  8
1
  6
CONTINUOUS
 10
3777.6210021462148
 20
7649.7488679999997
 30
0.0
 11
3777.6210021462148
 21
8399.7488680000006
 31
0.0
  0
LINE
  5
7B5C
  8
1
  6
CONTINUOUS
 10
3857.6210021462139
 20
7969.6121839999996
 30
0.0
 11
3857.6210021462139
 21
8032.308145
 31
0.0
  0
LINE
  5
7B5D
  8
1
  6
CONTINUOUS
 10
3998.6210021462148
 20
7527.7488679999997
 30
0.0
 11
3998.6210021462148
 21
7649.7488679999997
 31
0.0
  0
LINE
  5
7B5E
  8
1
  6
CONTINUOUS
 10
4040.6210021462148
 20
7527.7488679999997
 30
0.0
 11
4040.6210021462148
 21
7649.7488679999997
 31
0.0
  0
LINE
  5
7B5F
  8
1
  6
CONTINUOUS
 10
3857.6210021462139
 20
7649.7488679999997
 30
0.0
 11
3857.6210021462139
 21
8123.8705879999998
 31
0.0
  0
LINE
  5
7B60
  8
1
  6
CONTINUOUS
 10
4249.6210021462148
 20
7442.2488679999997
 30
0.0
 11
4249.6210021462148
 21
8467.2488680000006
 31
0.0
  0
LINE
  5
7B61
  8
1
  6
CONTINUOUS
 10
4249.6210021462148
 20
7442.2488679999997
 30
0.0
 11
4155.7710021462162
 21
7442.2488679999997
 31
0.0
  0
LINE
  5
7B62
  8
1
  6
CONTINUOUS
 10
4181.6210021462139
 20
7649.7488679999997
 30
0.0
 11
4181.6210021462139
 21
8123.8705879999998
 31
0.0
  0
LINE
  5
7B88
  8
2
  6
CENTER
 10
6304.3637801462146
 20
5285.1450590000013
 30
0.0
 11
6304.3637801462146
 21
3203.569049461782
 31
0.0
  0
LINE
  5
7B8A
  8
2
  6
CENTER
 10
4354.6133311462136
 20
8024.7488680000006
 30
0.0
 11
2119.067517146214
 21
8024.7488680000006
 31
0.0
  0
LINE
  5
7B8B
  8
2
  6
CENTER
 10
2949.6210021462139
 20
7308.4673389999998
 30
0.0
 11
2949.6210021462139
 21
8569.2626799999998
 31
0.0
  0
LINE
  5
7B8C
  8
2
  6
CENTER
 10
4027.882262450948
 20
4218.4952210000001
 30
0.0
 11
1877.888369146214
 21
4218.4952210000001
 31
0.0
  0
LINE
  5
7B8D
  8
4
  6
CONTINUOUS
 10
7400.0
 20
2000.0
 30
0.0
 11
7400.0
 21
1200.0
 31
0.0
  0
LINE
  5
7B8E
  8
4
  6
CONTINUOUS
 10
4600.0
 20
2000.0
 30
0.0
 11
4600.0
 21
1200.0
 31
0.0
  0
LINE
  5
7B8F
  8
4
  6
CONTINUOUS
 10
2600.0
 20
2000.0
 30
0.0
 11
2600.0
 21
1200.0
 31
0.0
  0
LINE
  5
7B92
  8
4
  6
CONTINUOUS
 10
2600.0
 20
1200.0
 30
0.0
 11
7400.0
 21
1200.0
 31
0.0
  0
LINE
  5
7B93
  8
4
  6
CONTINUOUS
 10
2600.0
 20
1600.0
 30
0.0
 11
7400.0
 21
1600.0
 31
0.0
  0
TEXT
  5
7B94
  8
4
  6
CONTINUOUS
 10
2754.008323
 20
1726.1721030000001
 30
0.0
 40
200.0
  1
機器名称
  0
TEXT
  5
7B95
  8
4
  6
CONTINUOUS
 10
2745.032424
 20
1286.580627
 30
0.0
 40
200.0
  1
機器型番
  0
TEXT
  5
7B96
  8
4
  6
CONTINUOUS
 10
4710.7149820000004
 20
1690.2870760000001
 30
0.0
 40
200.0
  1
ミツヤ多翼送風機
  0
TEXT
  5
7B97
  8
4
  6
CONTINUOUS
 10
4746.6179819999998
 20
1268.6383370000001
 30
0.0
 40
200.0
  1
MFE#6-4
  0
TEXT
  5
7B99
  8
4
  6
CONTINUOUS
 10
3619.1430620000001
 20
9533.715365
 30
0.0
 40
216.0
  1
床置ベット
  0
TEXT
  5
7B9A
  8
4
  6
CONTINUOUS
 10
1264.6703729999999
 20
10135.523905
 30
0.0
 40
288.0
  1
ベルト駆動式片吸込両持排煙ファン
  0
LINE
  5
7B9B
  8
4
  6
CONTINUOUS
 10
1000.0
 20
9877.6350170000005
 30
0.0
 11
7400.0
 21
9877.6350170000005
 31
0.0
  0
LINE
  5
7B9C
  8
4
  6
CONTINUOUS
 10
1000.0
 20
10677.635017000001
 30
0.0
 11
7400.0
 21
10677.635017000001
 31
0.0
  0
LINE
  5
7B9D
  8
4
  6
CONTINUOUS
 10
2600.0
 20
2000.0
 30
0.0
 11
7400.0
 21
2000.0
 31
0.0
  0
LINE
  5
7B9E
  8
4
  6
CONTINUOUS
 10
1000.0
 20
10677.635017000001
 30
0.0
 11
1000.0
 21
9877.6350170000005
 31
0.0
  0
TEXT
  5
7B9F
  8
4
  6
CONTINUOUS
 10
1673.362578999999
 20
9529.2779099999989
 30
0.0
 40
216.0
  1
左回転左横向
  0
TEXT
  5
7BA0
  8
4
  6
CONTINUOUS
 10
5875.8782369999999
 20
10824.244326
 30
0.0
 40
224.0
  1
No.
  0
TEXT
  5
7BA1
  8
4
  6
CONTINUOUS
 10
5245.1842500000012
 20
9533.715365
 30
0.0
 40
216.0
  1
縮尺：1/40
  0
LINE
  5
7BA2
  8
4
  6
CONTINUOUS
 10
7400.0
 20
10677.635017000001
 30
0.0
 11
7400.0
 21
9877.6350170000005
 31
0.0
  0
LINE
  5
7BA4
  8
4
  6
CONTINUOUS
 10
5762.4696889999996
 20
10725.054333
 30
0.0
 11
5762.4696889999996
 21
11146.609046
 31
0.0
  0
LINE
  5
7BA5
  8
4
  6
CONTINUOUS
 10
5762.4696889999996
 20
11146.609046
 30
0.0
 11
7400.0
 21
11146.609046
 31
0.0
  0
LINE
  5
7BA6
  8
4
  6
CONTINUOUS
 10
7400.0
 20
11146.609046
 30
0.0
 11
7400.0
 21
10725.054333
 31
0.0
  0
LINE
  5
7BA7
  8
4
  6
CONTINUOUS
 10
7400.0
 20
10725.054333
 30
0.0
 11
5762.4696889999996
 21
10725.054333
 31
0.0
  0
LINE
  5
7BAC
  8
1
  6
CONTINUOUS
 10
4217.1210021462148
 20
3483.4952210000001
 30
0.0
 11
3822.1210021462139
 21
3483.4952210000001
 31
0.0
  0
LINE
  5
7BAD
  8
1
  6
CONTINUOUS
 10
3822.1210021462139
 20
3483.4952210000001
 30
0.0
 11
3832.1210021462148
 21
3533.4952210000001
 31
0.0
  0
LINE
  5
7BAE
  8
1
  6
CONTINUOUS
 10
3832.1210021462148
 20
3533.4952210000001
 30
0.0
 11
3865.6210021462148
 21
3533.4952210000001
 31
0.0
  0
LINE
  5
7BAF
  8
1
  6
CONTINUOUS
 10
4173.6210021462148
 20
3533.4952210000001
 30
0.0
 11
4207.1210021462148
 21
3533.4952210000001
 31
0.0
  0
LINE
  5
7BB0
  8
1
  6
CONTINUOUS
 10
4207.1210021462148
 20
3533.4952210000001
 30
0.0
 11
4217.1210021462148
 21
3483.4952210000001
 31
0.0
  0
LINE
  5
7BB1
  8
1
  6
CONTINUOUS
 10
3141.8210021462151
 20
7527.7488679999997
 30
0.0
 11
3141.8210021462151
 21
7426.7488680000006
 31
0.0
  0
LINE
  5
7BB2
  8
1
  6
CONTINUOUS
 10
3141.8210021462151
 20
7426.7488680000006
 30
0.0
 11
2757.421002146215
 21
7426.7488680000006
 31
0.0
  0
LINE
  5
7BB3
  8
1
  6
CONTINUOUS
 10
2757.421002146215
 20
7426.7488680000006
 30
0.0
 11
2757.421002146215
 21
7527.7488679999997
 31
0.0
  0
LINE
  5
7BB4
  8
1
  6
CONTINUOUS
 10
2757.421002146215
 20
7527.7488679999997
 30
0.0
 11
3141.8210021462151
 21
7527.7488679999997
 31
0.0
  0
LINE
  5
7BB5
  8
1
  6
CONTINUOUS
 10
4179.6210021462148
 20
7578.7488680000006
 30
0.0
 11
4179.6210021462148
 21
7398.7488680000006
 31
0.0
  0
LINE
  5
7BB6
  8
1
  6
CONTINUOUS
 10
4179.6210021462148
 20
7398.7488680000006
 30
0.0
 11
2409.6210021462148
 21
7398.7488680000006
 31
0.0
  0
LINE
  5
7BB7
  8
1
  6
CONTINUOUS
 10
2409.6210021462148
 20
7398.7488680000006
 30
0.0
 11
2409.6210021462148
 21
7578.7488680000006
 31
0.0
  0
LINE
  5
7BB8
  8
1
  6
CONTINUOUS
 10
2409.6210021462148
 20
7578.7488680000006
 30
0.0
 11
4179.6210021462148
 21
7578.7488680000006
 31
0.0
  0
LINE
  5
7BB9
  8
1
  6
CONTINUOUS
 10
3883.4710021462151
 20
7527.7488679999997
 30
0.0
 11
3883.4710021462151
 21
7426.7488680000006
 31
0.0
  0
LINE
  5
7BBA
  8
1
  6
CONTINUOUS
 10
3883.4710021462151
 20
7426.7488680000006
 30
0.0
 11
4155.7710021462162
 21
7426.7488680000006
 31
0.0
  0
LINE
  5
7BBB
  8
1
  6
CONTINUOUS
 10
4155.7710021462162
 20
7426.7488680000006
 30
0.0
 11
4155.7710021462162
 21
7527.7488679999997
 31
0.0
  0
LINE
  5
7BBC
  8
1
  6
CONTINUOUS
 10
4155.7710021462162
 20
7527.7488679999997
 30
0.0
 11
3883.4710021462151
 21
7527.7488679999997
 31
0.0
  0
LINE
  5
7BBD
  8
1
  6
CONTINUOUS
 10
5706.3637801462146
 20
3829.6684409999989
 30
0.0
 11
5706.3637801462146
 21
3557.322001
 31
0.0
  0
LINE
  5
7BBE
  8
1
  6
CONTINUOUS
 10
5706.3637801462146
 20
3557.322001
 30
0.0
 11
5807.3637801462146
 21
3557.322001
 31
0.0
  0
LINE
  5
7BBF
  8
1
  6
CONTINUOUS
 10
5807.3637801462146
 20
3557.322001
 30
0.0
 11
5807.3637801462146
 21
3829.6684409999989
 31
0.0
  0
LINE
  5
7BC0
  8
1
  6
CONTINUOUS
 10
5807.3637801462146
 20
3829.6684409999989
 30
0.0
 11
5706.3637801462146
 21
3829.6684409999989
 31
0.0
  0
DIMENSION
  5
7C0A
  8
3
  6
CONTINUOUS
  2
*D1
 10
1520.6866775231911
 20
3358.4952210000001
 30
0.0
 11
1520.6866775231911
 21
4215.2044130000013
 31
0.0
 70
   128
 13
2219.6210021462139
 23
5250.4952210000001
 33
0.0
 14
2299.6210021462139
 24
3358.4952210000001
 34
0.0
 50
90.0
1001
ACAD
1000
DSTYLE
1002
{
1070
   287
1070
     3
1070
   287
1070
     3
1070
    40
1040
40.0
1070
   143
1040
0.039
1070
   172
1070
     1
1070
   271
1070
     0
1070
   279
1070
     0
1070
   288
1070
     1
1002
}
  0
DIMENSION
  5
7C17
  8
3
  6
CONTINUOUS
  2
*D2
 10
2949.6210021462139
 20
3057.6281149999991
 30
0.0
 11
2629.5261551462149
 21
3057.6281149999991
 31
0.0
 70
   128
 13
2299.6210021462139
 23
3358.4952210000001
 33
0.0
 14
2949.6210021462139
 24
3222.9486720757368
 34
0.0
1001
ACAD
1000
DSTYLE
1002
{
1070
   287
1070
     3
1070
   287
1070
     3
1070
    40
1040
40.0
1070
   143
1040
0.039
1070
   172
1070
     1
1070
   271
1070
     0
1070
   279
1070
     0
1070
   288
1070
     1
1002
}
  0
DIMENSION
  5
7C23
  8
3
  6
CONTINUOUS
  2
*D3
 10
4249.6210021462148
 20
3057.6281149999991
 30
0.0
 11
3599.6210021462139
 21
3157.628115
 31
0.0
 70
     0
 13
2949.6210021462139
 23
3222.9486720757368
 33
0.0
 14
4249.6210021462148
 24
3358.4952210000001
 34
0.0
1001
ACAD
1000
DSTYLE
1002
{
1070
   287
1070
     4
1070
   287
1070
     4
1070
    40
1040
40.0
1070
    75
1070
     1
1070
   143
1040
0.039
1070
   172
1070
     1
1070
   271
1070
     0
1070
   279
1070
     1
1070
   288
1070
     1
1002
}
  0
DIMENSION
  5
7C3C
  8
3
  6
CONTINUOUS
  2
*D4
 10
2949.6210021462139
 20
5438.9279479999987
 30
0.0
 11
2588.1556981462149
 21
5438.9279479999987
 31
0.0
 70
   128
 13
2219.6210021462139
 23
5250.4952210000001
 33
0.0
 14
2949.6210021462139
 24
5404.4451799999988
 34
0.0
1001
ACAD
1000
DSTYLE
1002
{
1070
   287
1070
     3
1070
   287
1070
     3
1070
    40
1040
40.0
1070
   143
1040
0.039
1070
   172
1070
     1
1070
   271
1070
     0
1070
   279
1070
     0
1070
   288
1070
     1
1002
}
  0
DIMENSION
  5
7C7D
  8
3
  6
CONTINUOUS
  2
*D5
 10
6679.3637801462146
 20
5290.0967030000002
 30
0.0
 11
6303.2198611462154
 21
5290.0967030000002
 31
0.0
 70
   128
 13
5929.3637801462146
 23
5200.4952210000001
 33
0.0
 14
6679.3637801462146
 24
5200.4952210000001
 34
0.0
1001
ACAD
1000
DSTYLE
1002
{
1070
   287
1070
     3
1070
   287
1070
     3
1070
    40
1040
40.0
1070
   143
1040
0.039
1070
   172
1070
     1
1070
   271
1070
     0
1070
   279
1070
     0
1070
   288
1070
     1
1002
}
  0
DIMENSION
  5
7CCD
  8
3
  6
CONTINUOUS
  2
*D6
 10
4249.6210021462148
 20
8738.7654349999993
 30
0.0
 11
3274.2111541462141
 21
8738.7654349999993
 31
0.0
 70
   128
 13
2299.6210021462139
 23
8467.2488680000006
 33
0.0
 14
4249.6210021462148
 24
8467.2488680000006
 34
0.0
1001
ACAD
1000
DSTYLE
1002
{
1070
   287
1070
     3
1070
   287
1070
     3
1070
    40
1040
40.0
1070
   143
1040
0.039
1070
   172
1070
     1
1070
   271
1070
     0
1070
   279
1070
     0
1070
   288
1070
     1
1002
}
  0
DIMENSION
  5
7CDA
  8
3
  6
CONTINUOUS
  2
*D7
 10
4593.3205901462152
 20
7442.2488679999997
 30
0.0
 11
4593.3205901462152
 21
7993.1311359999991
 31
0.0
 70
   128
 13
4249.6210021462148
 23
8467.2488680000006
 33
0.0
 14
4249.6210021462148
 24
7442.2488679999997
 34
0.0
 50
90.0
1001
ACAD
1000
DSTYLE
1002
{
1070
   287
1070
     3
1070
   287
1070
     3
1070
    40
1040
40.0
1070
   143
1040
0.039
1070
   172
1070
     1
1070
   271
1070
     0
1070
   279
1070
     0
1070
   288
1070
     1
1002
}
  0
DIMENSION
  5
7CEC
  8
3
  6
CONTINUOUS
  2
*D8
 10
2063.4108421462151
 20
4170.4952210000001
 30
0.0
 11
2063.4108421462138
 21
4635.7924060000014
 31
0.0
 70
   128
 13
2219.6210021462139
 23
5200.4952210000001
 33
0.0
 14
2219.6210021462139
 24
4170.4952210000001
 34
0.0
 50
90.0
1001
ACAD
1000
DSTYLE
1002
{
1070
   287
1070
     3
1070
   287
1070
     3
1070
    40
1040
40.0
1070
   143
1040
0.039
1070
   172
1070
     1
1070
   271
1070
     0
1070
   279
1070
     0
1070
   288
1070
     1
1002
}
  0
DIMENSION
  5
7D1E
  8
3
  6
CONTINUOUS
  2
*D9
 10
1790.9258805231909
 20
4218.4952210000001
 30
0.0
 11
1790.9258805231909
 21
4672.8746350000001
 31
0.0
 70
   128
 13
2219.6210021462139
 23
5200.4952210000001
 33
0.0
 14
1877.888369146214
 24
4218.4952210000001
 34
0.0
 50
90.0
1001
ACAD
1000
DSTYLE
1002
{
1070
   287
1070
     3
1070
   287
1070
     3
1070
    40
1040
40.0
1070
   143
1040
0.039
1070
   172
1070
     1
1070
   271
1070
     0
1070
   279
1070
     0
1070
   288
1070
     1
1002
}
  0
DIMENSION
  5
7D2A
  8
3
  6
CONTINUOUS
  2
*D10
 10
1790.9258805231909
 20
3358.4952210000001
 30
0.0
 11
1690.92588052319
 21
3788.4952210000001
 31
0.0
 70
     0
 13
1877.888369146214
 23
4218.4952210000001
 33
0.0
 14
2299.6210021462139
 24
3358.4952210000001
 34
0.0
 50
90.0
1001
ACAD
1000
DSTYLE
1002
{
1070
   287
1070
     4
1070
   287
1070
     4
1070
    40
1040
40.0
1070
    75
1070
     1
1070
   143
1040
0.039
1070
   172
1070
     1
1070
   271
1070
     0
1070
   279
1070
     1
1070
   288
1070
     1
1002
}
  0
LINE
  5
7D45
  8
1
  6
CONTINUOUS
 10
6683.3637801462164
 20
3688.4952210000001
 30
0.0
 11
6683.3637801462164
 21
4748.4952210000001
 31
0.0
  0
DIMENSION
  5
7D55
  8
3
  6
CONTINUOUS
  2
*D11
 10
6979.7563711462162
 20
3688.4952210000001
 30
0.0
 11
6979.7563711462153
 21
4237.1585829999995
 31
0.0
 70
   128
 13
6683.3637801462164
 23
4748.4952210000001
 33
0.0
 14
6683.3637801462164
 24
3688.4952210000001
 34
0.0
 50
90.0
1001
ACAD
1000
DSTYLE
1002
{
1070
   287
1070
     3
1070
   287
1070
     3
1070
     3
1000
φ<>
1070
    40
1040
40.0
1070
   143
1040
0.039
1070
   172
1070
     1
1070
   271
1070
     0
1070
   279
1070
     0
1070
   288
1070
     1
1002
}
  0
LINE
  5
7D92
  8
2
  6
CENTER
 10
2949.6210021462139
 20
8569.2626799999998
 30
0.0
 11
2949.6210021462139
 21
8578.5332369999996
 31
0.0
  0
DIMENSION
  5
7DD1
  8
3
  6
CONTINUOUS
  2
*D12
 10
6304.3637801462146
 20
3052.1583919999998
 30
0.0
 11
5996.1494944319302
 21
3052.1583919999998
 31
0.0
 70
   128
 13
5721.8637801462146
 23
3358.4952210000001
 33
0.0
 14
6304.3637801462146
 24
3203.569049461782
 34
0.0
1001
ACAD
1000
DSTYLE
1002
{
1070
   287
1070
     3
1070
   287
1070
     3
1070
    40
1040
40.0
1070
   143
1040
0.039
1070
   172
1070
     1
1070
   271
1070
     0
1070
   279
1070
     0
1070
   288
1070
     1
1002
}
  0
DIMENSION
  5
7DDF
  8
3
  6
CONTINUOUS
  2
*D13
 10
6745.8637801462164
 20
3052.1583919999998
 30
0.0
 11
6524.8941101462151
 21
3052.1583919999998
 31
0.0
 70
   128
 13
6304.3637801462146
 23
3203.569049461782
 33
0.0
 14
6745.8637801462164
 24
3358.4952210000001
 34
0.0
1001
ACAD
1000
DSTYLE
1002
{
1070
   287
1070
     4
1070
   287
1070
     4
1070
    40
1040
40.0
1070
    75
1070
     1
1070
   143
1040
0.039
1070
   172
1070
     1
1070
   271
1070
     0
1070
   279
1070
     1
1070
   288
1070
     1
1002
}
  0
DIMENSION
  5
7E07
  8
3
  6
CONTINUOUS
  2
*D14
 10
6304.3637801462146
 20
5560.7948622922522
 30
0.0
 11
6012.9352087176439
 21
5560.7948622922522
 31
0.0
 70
   128
  1
MAX\P700
 13
5644.3637801462164
 23
4783.4952210000001
 33
0.0
 14
6304.3637801462146
 24
5464.8742200000006
 34
0.0
1001
ACAD
1000
DSTYLE
1002
{
1070
   287
1070
     3
1070
   287
1070
     3
1070
    40
1040
40.0
1070
   143
1040
0.039
1070
   172
1070
     1
1070
   271
1070
     0
1070
   279
1070
     0
1070
   288
1070
     1
1002
}
  0
DIMENSION
  5
7E15
  8
3
  6
CONTINUOUS
  2
*D15
 10
6683.3637801462164
 20
5560.7948622922522
 30
0.0
 11
6489.1846861462136
 21
5569.8516442922519
 31
0.0
 70
   128
 13
6304.3637801462146
 23
5464.8742200000006
 33
0.0
 14
6683.3637801462164
 24
4748.4952210000001
 34
0.0
1001
ACAD
1000
DSTYLE
1002
{
1070
   287
1070
     4
1070
   287
1070
     4
1070
    40
1040
40.0
1070
    75
1070
     1
1070
   143
1040
0.039
1070
   172
1070
     1
1070
   271
1070
     0
1070
   279
1070
     1
1070
   288
1070
     1
1002
}
  0
DIMENSION
  5
7E51
  8
3
  6
CONTINUOUS
  2
*D16
 10
3777.2575471462151
 20
5438.9279479999987
 30
0.0
 11
3363.439274646214
 21
5538.9279479999996
 31
0.0
 70
     0
 13
2949.6210021462139
 23
5404.4451799999988
 33
0.0
 14
3777.2575471462151
 24
4218.4952210000001
 34
0.0
1001
ACAD
1000
DSTYLE
1002
{
1070
   287
1070
     4
1070
   287
1070
     4
1070
    40
1040
40.0
1070
    75
1070
     1
1070
   143
1040
0.039
1070
   172
1070
     1
1070
   271
1070
     0
1070
   279
1070
     1
1070
   288
1070
     1
1002
}
  0
DIMENSION
  5
7EFD
  8
3
  2
*D17
 10
4249.6210021462148
 20
5668.7012731109198
 30
0.0
 11
3238.4623166773308
 21
5668.7012731109198
 31
0.0
 70
   128
 13
2219.6210021462139
 23
5250.4952210000001
 33
0.0
 14
4249.6210021462148
 24
3483.4952210000001
 34
0.0
1001
ACAD
1000
DSTYLE
1002
{
1070
   287
1070
     3
1070
   287
1070
     3
1070
    40
1040
40.0
1070
   143
1040
0.039
1070
   172
1070
     1
1070
   271
1070
     0
1070
   279
1070
     0
1070
   288
1070
     1
1002
}
  0
LINE
  5
800F
  8
1
 10
3574.6210021462148
 20
3483.4952210000001
 30
0.0
 11
3574.6210021462148
 21
4733.4952210000001
 31
0.0
  0
LINE
  5
8010
  8
1
  6
CONTINUOUS
 10
2324.6210021462139
 20
4733.4952210000001
 30
0.0
 11
3574.6210021462148
 21
4733.4952210000001
 31
0.0
  0
LINE
  5
8011
  8
1
 10
2324.6210021462139
 20
3483.4952210000001
 30
0.0
 11
2324.6210021462139
 21
4733.4952210000001
 31
0.0
  0
LINE
  5
8012
  8
1
 10
2299.6210021462139
 20
3483.4952210000001
 30
0.0
 11
2299.6210021462139
 21
3358.4952210000001
 31
0.0
  0
ENDSEC
  0
EOF
