  0
SECTION
  2
HEADER
  9
$ACADVER
  1
AC1009
  9
$INSBASE
 10
0.0
 20
0.0
 30
0.0
  9
$EXTMIN
 10
750.0
 20
900.0
 30
0.0
  9
$EXTMAX
 10
5550.0
 20
8359.9567849999985
 30
0.0
  9
$LIMMIN
 10
0.0
 20
0.0
  9
$LIMMAX
 10
297.0
 20
210.0
  9
$ORTHOMODE
 70
     0
  9
$REGENMODE
 70
     1
  9
$FILLMODE
 70
     0
  9
$QTEXTMODE
 70
     0
  9
$MIRRTEXT
 70
     1
  9
$DRAGMODE
 70
     2
  9
$LTSCALE
 40
100.0
  9
$OSMODE
 70
    37
  9
$ATTMODE
 70
     1
  9
$TEXTSIZE
 40
180.0
  9
$TRACEWID
 40
0.05
  9
$TEXTSTYLE
  7
STANDARD
  9
$CLAYER
  8
3
  9
$CELTYPE
  6
BYLAYER
  9
$CECOLOR
 62
   256
  9
$DIMSCALE
 40
30.0
  9
$DIMASZ
 40
2.0
  9
$DIMEXO
 40
0.5
  9
$DIMDLI
 40
10.0
  9
$DIMRND
 40
0.0
  9
$DIMDLE
 40
0.0
  9
$DIMEXE
 40
1.0
  9
$DIMTP
 40
1.0
  9
$DIMTM
 40
1.0
  9
$DIMTXT
 40
3.0
  9
$DIMCEN
 40
0.0
  9
$DIMTSZ
 40
0.0
  9
$DIMTOL
 70
     0
  9
$DIMLIM
 70
     0
  9
$DIMTIH
 70
     0
  9
$DIMTOH
 70
     0
  9
$DIMSE1
 70
     0
  9
$DIMSE2
 70
     0
  9
$DIMTAD
 70
     1
  9
$DIMZIN
 70
     8
  9
$DIMBLK
  1

  9
$DIMASO
 70
     1
  9
$DIMSHO
 70
     1
  9
$DIMPOST
  1
(<>)
  9
$DIMAPOST
  1

  9
$DIMALT
 70
     0
  9
$DIMALTD
 70
     2
  9
$DIMALTF
 40
0.039
  9
$DIMLFAC
 40
1.0
  9
$DIMTOFL
 70
     1
  9
$DIMTVP
 40
0.0
  9
$DIMTIX
 70
     0
  9
$DIMSOXD
 70
     0
  9
$DIMSAH
 70
     1
  9
$DIMBLK1
  1
DOT
  9
$DIMBLK2
  1
OPEN
  9
$DIMSTYLE
  2
IGA
  9
$DIMCLRD
 70
     0
  9
$DIMCLRE
 70
     0
  9
$DIMCLRT
 70
     0
  9
$DIMTFAC
 40
10.0
  9
$DIMGAP
 40
1.0
  9
$LUNITS
 70
     2
  9
$LUPREC
 70
     3
  9
$SKETCHINC
 40
0.1
  9
$FILLETRAD
 40
0.0
  9
$AUNITS
 70
     0
  9
$AUPREC
 70
     0
  9
$MENU
  1
acad
  9
$ELEVATION
 40
0.0
  9
$PELEVATION
 40
0.0
  9
$THICKNESS
 40
0.0
  9
$LIMCHECK
 70
     0
  9
$BLIPMODE
 70
     0
  9
$CHAMFERA
 40
0.5
  9
$CHAMFERB
 40
0.5
  9
$SKPOLY
 70
     0
  9
$TDCREATE
 40
2450751.5798204858
  9
$TDUPDATE
 40
2454953.8419563998
  9
$TDINDWG
 40
0.008829919
  9
$TDUSRTIMER
 40
0.008829919
  9
$USRTIMER
 70
     1
  9
$ANGBASE
 50
0.0
  9
$ANGDIR
 70
     0
  9
$PDMODE
 70
     0
  9
$PDSIZE
 40
0.0
  9
$PLINEWID
 40
0.0
  9
$COORDS
 70
     1
  9
$SPLFRAME
 70
     0
  9
$SPLINETYPE
 70
     6
  9
$SPLINESEGS
 70
     8
  9
$ATTDIA
 70
     0
  9
$ATTREQ
 70
     1
  9
$HANDLING
 70
 10241
  9
$HANDSEED
  5
7FAF
  9
$SURFTAB1
 70
     6
  9
$SURFTAB2
 70
     6
  9
$SURFTYPE
 70
     6
  9
$SURFU
 70
     6
  9
$SURFV
 70
     6
  9
$UCSNAME
  2

  9
$UCSORG
 10
0.0
 20
0.0
 30
0.0
  9
$UCSXDIR
 10
1.0
 20
0.0
 30
0.0
  9
$UCSYDIR
 10
0.0
 20
1.0
 30
0.0
  9
$PUCSNAME
  2

  9
$PUCSORG
 10
0.0
 20
0.0
 30
0.0
  9
$PUCSXDIR
 10
1.0
 20
0.0
 30
0.0
  9
$PUCSYDIR
 10
0.0
 20
1.0
 30
0.0
  9
$USERI1
 70
     0
  9
$USERI2
 70
     0
  9
$USERI3
 70
     0
  9
$USERI4
 70
     0
  9
$USERI5
 70
     0
  9
$USERR1
 40
0.0
  9
$USERR2
 40
0.0
  9
$USERR3
 40
0.0
  9
$USERR4
 40
0.0
  9
$USERR5
 40
0.0
  9
$WORLDVIEW
 70
     1
  9
$SHADEDGE
 70
     3
  9
$SHADEDIF
 70
    70
  9
$TILEMODE
 70
     1
  9
$MAXACTVP
 70
    16
  9
$PLIMCHECK
 70
     0
  9
$PEXTMIN
 10
1.0000000000000000E+020
 20
1.0000000000000000E+020
 30
1.0000000000000000E+020
  9
$PEXTMAX
 10
-1.0000000000000000E+020
 20
-1.0000000000000000E+020
 30
-1.0000000000000000E+020
  9
$PLIMMIN
 10
0.0
 20
0.0
  9
$PLIMMAX
 10
12.0
 20
9.0
  9
$UNITMODE
 70
     0
  9
$VISRETAIN
 70
     0
  9
$PLINEGEN
 70
     0
  9
$PSLTSCALE
 70
     1
  0
ENDSEC
  0
SECTION
  2
TABLES
  0
TABLE
  2
VPORT
 70
     2
  0
VPORT
  2
*ACTIVE
 70
     0
 10
0.0
 20
0.0
 11
1.0
 21
1.0
 12
3517.5752161768578
 22
4527.5325067040703
 13
0.0
 23
0.0
 14
10.0
 24
10.0
 15
10.0
 25
10.0
 16
0.0
 26
0.0
 36
1.0
 17
0.0
 27
0.0
 37
0.0
 40
9063.6721106144687
 41
1.5051150895140659
 42
50.0
 43
0.0
 44
0.0
 50
0.0
 51
0.0
 71
     0
 72
   100
 73
     1
 74
     0
 75
     0
 76
     0
 77
     0
 78
     0
  0
ENDTAB
  0
TABLE
  2
LTYPE
 70
     2
  0
LTYPE
  2
CONTINUOUS
 70
     0
  3
Solid line
 72
    65
 73
     0
 40
0.0
  0
LTYPE
  2
CENTER
 70
     0
  3
____ _ ____ _ ____ _ ____ _ ____ _ ____ _ ____ 
 72
    65
 73
     4
 40
2.0
 49
1.25
 49
-0.25
 49
0.25
 49
-0.25
  0
ENDTAB
  0
TABLE
  2
LAYER
 70
     6
  0
LAYER
  2
0
 70
     0
 62
     7
  6
CONTINUOUS
  0
LAYER
  2
3
 70
     0
 62
     2
  6
CONTINUOUS
  0
LAYER
  2
2
 70
     0
 62
     3
  6
CENTER
  0
LAYER
  2
1
 70
     0
 62
     4
  6
CONTINUOUS
  0
LAYER
  2
4
 70
     0
 62
     7
  6
CONTINUOUS
  0
LAYER
  2
DEFPOINTS
 70
     0
 62
    -7
  6
CONTINUOUS
  0
ENDTAB
  0
TABLE
  2
STYLE
 70
     1
  0
STYLE
  2
STANDARD
 70
     0
 40
0.0
 41
1.0
 50
0.0
 71
     0
 42
180.0
  3
simplex.shx
  4
extfont.shx
  0
ENDTAB
  0
TABLE
  2
VIEW
 70
     0
  0
ENDTAB
  0
TABLE
  2
UCS
 70
     0
  0
ENDTAB
  0
TABLE
  2
APPID
 70
     1
  0
APPID
  2
ACAD
 70
     0
  0
ENDTAB
  0
TABLE
  2
DIMSTYLE
 70
     1
  0
DIMSTYLE
  2
IGA
 70
     0
  3

  4

  5

  6
OPEN
  7
OPEN
 40
2.0
 41
2.0
 42
0.5
 43
10.0
 44
1.0
 45
0.0
 46
0.0
 47
1.0
 48
1.0
140
3.0
141
0.0
142
0.0
143
0.03937
144
1.0
145
0.0
146
10.0
147
1.0
 71
     0
 72
     0
 73
     0
 74
     0
 75
     0
 76
     0
 77
     1
 78
     8
170
     0
171
     2
172
     0
173
     1
174
     0
175
     0
176
     0
177
     0
178
     0
  0
ENDTAB
  0
ENDSEC
  0
SECTION
  2
BLOCKS
  0
BLOCK
  8
0
  2
$MODEL_SPACE
 70
     0
 10
0.0
 20
0.0
 30
0.0
  3
$MODEL_SPACE
  1

  0
ENDBLK
  5
1B
  8
0
  0
BLOCK
 67
     1
  8
0
  2
$PAPER_SPACE
 70
     0
 10
0.0
 20
0.0
 30
0.0
  3
$PAPER_SPACE
  1

  0
ENDBLK
  5
18
 67
     1
  8
0
  0
BLOCK
  8
0
  2
_OPEN
 70
     0
 10
0.0
 20
0.0
 30
0.0
  3
_OPEN
  1

  0
LINE
  5
7AEE
  8
0
  6
BYBLOCK
 62
     0
 10
-1.0
 20
0.166667
 30
0.0
 11
0.0
 21
0.0
 31
0.0
  0
LINE
  5
7AEF
  8
0
  6
BYBLOCK
 62
     0
 10
0.0
 20
0.0
 30
0.0
 11
-1.0
 21
-0.166667
 31
0.0
  0
LINE
  5
7AF0
  8
0
  6
BYBLOCK
 62
     0
 10
0.0
 20
0.0
 30
0.0
 11
-1.0
 21
0.0
 31
0.0
  0
ENDBLK
  5
7AF1
  8
0
  0
BLOCK
  8
0
  2
*D1
 70
     1
 10
0.0
 20
0.0
 30
0.0
  3
*D1
  1

  0
LINE
  5
7F16
  8
3
  6
CONTINUOUS
 62
     0
 10
1310.2445210000001
 20
3925.4315339999998
 30
0.0
 11
1310.2445210000001
 21
4111.4354810000004
 31
0.0
  0
LINE
  5
7F17
  8
3
  6
CONTINUOUS
 62
     0
 10
2235.2445210000001
 20
3925.4315339999998
 30
0.0
 11
2235.2445210000001
 21
4111.4354810000004
 31
0.0
  0
LINE
  5
7F18
  8
3
  6
CONTINUOUS
 62
     0
 10
1370.2445210000001
 20
4081.435481
 30
0.0
 11
2175.2445210000001
 21
4081.435481
 31
0.0
  0
INSERT
  5
7F19
  8
3
  6
CONTINUOUS
 62
     0
  2
_OPEN
 10
1310.2445210000001
 20
4081.435481
 30
0.0
 41
60.0
 42
60.0
 43
60.0
 50
180.0
  0
INSERT
  5
7F1A
  8
3
  6
CONTINUOUS
 62
     0
  2
_OPEN
 10
2235.2445210000001
 20
4081.435481
 30
0.0
 41
60.0
 42
60.0
 43
60.0
  0
TEXT
  8
3
  40
90
  5
7F9F
  62
0
  72
0
  71
0
 10
1557.96
 20
3997.14
 30
0.000000
  1
925
  0
POINT
  5
7F1C
  8
DEFPOINTS
  6
CONTINUOUS
 62
     0
 10
1310.2445210000001
 20
3910.4315339999998
 30
0.0
  0
POINT
  5
7F1D
  8
DEFPOINTS
  6
CONTINUOUS
 62
     0
 10
2235.2445210000001
 20
3910.4315339999998
 30
0.0
  0
POINT
  5
7F1E
  8
DEFPOINTS
  6
CONTINUOUS
 62
     0
 10
2235.2445210000001
 20
4081.435481
 30
0.0
  0
ENDBLK
  5
7B37
  8
0
  0
BLOCK
  8
0
  2
*D2
 70
     1
 10
0.0
 20
0.0
 30
0.0
  3
*D2
  1

  0
LINE
  5
7F1F
  8
3
  6
CONTINUOUS
 62
     0
 10
1310.2445210000001
 20
3925.4315339999998
 30
0.0
 11
1310.2445210000001
 21
4308.7847919999986
 31
0.0
  0
LINE
  5
7F20
  8
3
  6
CONTINUOUS
 62
     0
 10
2193.2445210000001
 20
4077.9761669999998
 30
0.0
 11
2193.2445210000001
 21
4308.7847919999986
 31
0.0
  0
LINE
  5
7F21
  8
3
  6
CONTINUOUS
 62
     0
 10
1370.2445210000001
 20
4278.7847920000004
 30
0.0
 11
2133.2445209999992
 21
4278.7847920000004
 31
0.0
  0
INSERT
  5
7F22
  8
3
  6
CONTINUOUS
 62
     0
  2
_OPEN
 10
1310.2445210000001
 20
4278.7847920000004
 30
0.0
 41
60.0
 42
60.0
 43
60.0
 50
180.0
  0
INSERT
  5
7F23
  8
3
  6
CONTINUOUS
 62
     0
  2
_OPEN
 10
2193.2445210000001
 20
4278.7847920000004
 30
0.0
 41
60.0
 42
60.0
 43
60.0
  0
TEXT
  8
3
  40
90
  5
7FA0
  62
0
  72
0
  71
0
 10
1552.15
 20
4194.48
 30
0.000000
  1
883
  0
POINT
  5
7F25
  8
DEFPOINTS
  6
CONTINUOUS
 62
     0
 10
1310.2445210000001
 20
3910.4315339999998
 30
0.0
  0
POINT
  5
7F26
  8
DEFPOINTS
  6
CONTINUOUS
 62
     0
 10
2193.2445210000001
 20
4062.9761669999998
 30
0.0
  0
POINT
  5
7F27
  8
DEFPOINTS
  6
CONTINUOUS
 62
     0
 10
2193.2445210000001
 20
4278.7847920000004
 30
0.0
  0
ENDBLK
  5
7B44
  8
0
  0
BLOCK
  8
0
  2
*D3
 70
     1
 10
0.0
 20
0.0
 30
0.0
  3
*D3
  1

  0
LINE
  5
7F28
  8
3
  6
CONTINUOUS
 62
     0
 10
2292.7445210000001
 20
3910.4315339999998
 30
0.0
 11
3185.0803990000009
 21
3910.4315339999998
 31
0.0
  0
LINE
  5
7F29
  8
3
  6
CONTINUOUS
 62
     0
 10
3027.2319400000001
 20
3255.4315339999998
 30
0.0
 11
3185.0803990000009
 21
3255.4315339999989
 31
0.0
  0
LINE
  5
7F2A
  8
3
  6
CONTINUOUS
 62
     0
 10
3155.0803989999999
 20
3850.4315339999998
 30
0.0
 11
3155.0803989999999
 21
3315.4315339999998
 31
0.0
  0
INSERT
  5
7F2B
  8
3
  6
CONTINUOUS
 62
     0
  2
_OPEN
 10
3155.0803989999999
 20
3910.4315339999998
 30
0.0
 41
60.0
 42
60.0
 43
60.0
 50
90.0
  0
INSERT
  5
7F2C
  8
3
  6
CONTINUOUS
 62
     0
  2
_OPEN
 10
3155.0803989999999
 20
3255.4315339999989
 30
0.0
 41
60.0
 42
60.0
 43
60.0
 50
270.0
  0
TEXT
  8
3
  40
90
  5
7FA1
  62
0
  72
0
  71
0
 10
2900.08
 20
3405.54
 30
0.000000
  1
655
  0
POINT
  5
7F2E
  8
DEFPOINTS
  6
CONTINUOUS
 62
     0
 10
2277.7445210000001
 20
3910.4315339999998
 30
0.0
  0
POINT
  5
7F2F
  8
DEFPOINTS
  6
CONTINUOUS
 62
     0
 10
3012.2319399999992
 20
3255.4315339999998
 30
0.0
  0
POINT
  5
7F30
  8
DEFPOINTS
  6
CONTINUOUS
 62
     0
 10
3155.0803989999999
 20
3255.4315339999989
 30
0.0
  0
ENDBLK
  5
7B5D
  8
0
  0
BLOCK
  8
0
  2
*D4
 70
     1
 10
0.0
 20
0.0
 30
0.0
  3
*D4
  1

  0
LINE
  5
7F31
  8
3
  6
CONTINUOUS
 62
     0
 10
2778.2445210000001
 20
2490.4315339999998
 30
0.0
 11
3185.0803989999999
 21
2490.4315339999989
 31
0.0
  0
LINE
  5
7F32
  8
3
  6
CONTINUOUS
 62
     0
 10
3155.0803989999999
 20
3195.4315339999989
 30
0.0
 11
3155.0803989999999
 21
2550.4315339999989
 31
0.0
  0
INSERT
  5
7F33
  8
3
  6
CONTINUOUS
 62
     0
  2
_OPEN
 10
3155.0803989999999
 20
3255.4315339999989
 30
0.0
 41
60.0
 42
60.0
 43
60.0
 50
90.0
  0
INSERT
  5
7F34
  8
3
  6
CONTINUOUS
 62
     0
  2
_OPEN
 10
3155.0803989999999
 20
2490.4315339999989
 30
0.0
 41
60.0
 42
60.0
 43
60.0
 50
270.0
  0
TEXT
  8
3
  40
90
  5
7FA2
  62
0
  72
0
  71
0
 10
2900.08
 20
2713.63
 30
0.000000
  1
765
  0
POINT
  5
7F36
  8
DEFPOINTS
  6
CONTINUOUS
 62
     0
 10
3012.2319399999992
 20
3255.4315339999998
 30
0.0
  0
POINT
  5
7F37
  8
DEFPOINTS
  6
CONTINUOUS
 62
     0
 10
2763.2445210000001
 20
2490.4315339999998
 30
0.0
  0
POINT
  5
7F38
  8
DEFPOINTS
  6
CONTINUOUS
 62
     0
 10
3155.0803989999999
 20
2490.4315339999989
 30
0.0
  0
ENDBLK
  5
7B69
  8
0
  0
BLOCK
  8
0
  2
*D5
 70
     1
 10
0.0
 20
0.0
 30
0.0
  3
*D5
  1

  0
LINE
  5
7F39
  8
3
  6
CONTINUOUS
 62
     0
 10
5168.7006849999998
 20
3925.4315339999998
 30
0.0
 11
5168.7006849999998
 21
4094.0223189999988
 31
0.0
  0
LINE
  5
7F3A
  8
3
  6
CONTINUOUS
 62
     0
 10
4498.7006849999998
 20
3925.4315339999998
 30
0.0
 11
4498.7006849999998
 21
4094.0223189999988
 31
0.0
  0
LINE
  5
7F3B
  8
3
  6
CONTINUOUS
 62
     0
 10
5108.7006849999998
 20
4064.0223190000002
 30
0.0
 11
4558.7006849999998
 21
4064.0223190000002
 31
0.0
  0
INSERT
  5
7F3C
  8
3
  6
CONTINUOUS
 62
     0
  2
_OPEN
 10
5168.7006849999998
 20
4064.0223190000002
 30
0.0
 41
60.0
 42
60.0
 43
60.0
  0
INSERT
  5
7F3D
  8
3
  6
CONTINUOUS
 62
     0
  2
_OPEN
 10
4498.7006849999998
 20
4064.0223190000002
 30
0.0
 41
60.0
 42
60.0
 43
60.0
 50
180.0
  0
TEXT
  8
3
  40
90
  5
7FA3
  62
0
  72
0
  71
0
 10
4656.56
 20
3979.72
 30
0.000000
  1
670
  0
POINT
  5
7F3F
  8
DEFPOINTS
  6
CONTINUOUS
 62
     0
 10
5168.7006849999998
 20
3910.4315339999998
 30
0.0
  0
POINT
  5
7F40
  8
DEFPOINTS
  6
CONTINUOUS
 62
     0
 10
4498.7006849999998
 20
3910.4315339999998
 30
0.0
  0
POINT
  5
7F41
  8
DEFPOINTS
  6
CONTINUOUS
 62
     0
 10
4498.7006849999998
 20
4064.0223190000002
 30
0.0
  0
ENDBLK
  5
7BAC
  8
0
  0
BLOCK
  8
0
  2
*D6
 70
     1
 10
0.0
 20
0.0
 30
0.0
  3
*D6
  1

  0
LINE
  5
7F42
  8
3
  6
CONTINUOUS
 62
     0
 10
5187.7006849999998
 20
3730.4315339999998
 30
0.0
 11
5470.5784130000011
 21
3730.4315339999998
 31
0.0
  0
LINE
  5
7F43
  8
3
  6
CONTINUOUS
 62
     0
 10
5187.7006849999998
 20
2780.4315339999989
 30
0.0
 11
5470.5784130000011
 21
2780.4315339999989
 31
0.0
  0
LINE
  5
7F44
  8
3
  6
CONTINUOUS
 62
     0
 10
5440.5784130000011
 20
3670.4315339999998
 30
0.0
 11
5440.5784130000011
 21
2840.4315339999998
 31
0.0
  0
INSERT
  5
7F45
  8
3
  6
CONTINUOUS
 62
     0
  2
_OPEN
 10
5440.5784130000011
 20
3730.4315339999998
 30
0.0
 41
60.0
 42
60.0
 43
60.0
 50
90.0
  0
INSERT
  5
7F46
  8
3
  6
CONTINUOUS
 62
     0
  2
_OPEN
 10
5440.5784130000011
 20
2780.4315339999989
 30
0.0
 41
60.0
 42
60.0
 43
60.0
 50
270.0
  0
TEXT
  8
3
  40
90
  5
7FA4
  62
0
  72
0
  71
0
 10
5185.58
 20
3097.91
 30
0.000000
  1
φ950
  0
POINT
  5
7F48
  8
DEFPOINTS
  6
CONTINUOUS
 62
     0
 10
5172.7006849999998
 20
3730.4315339999998
 30
0.0
  0
POINT
  5
7F49
  8
DEFPOINTS
  6
CONTINUOUS
 62
     0
 10
5172.7006849999998
 20
2780.4315339999989
 30
0.0
  0
POINT
  5
7F4A
  8
DEFPOINTS
  6
CONTINUOUS
 62
     0
 10
5440.5784130000011
 20
2780.4315339999989
 30
0.0
  0
ENDBLK
  5
7CAF
  8
0
  0
BLOCK
  8
0
  2
*D7
 70
     1
 10
0.0
 20
0.0
 30
0.0
  3
*D7
  1

  0
LINE
  5
7C9B
  8
0
  6
BYBLOCK
 62
     0
 10
5172.7006849999998
 20
3745.4315339999998
 30
0.0
 11
5172.7006849999998
 21
4285.567223
 31
0.0
  0
LINE
  5
7C9C
  8
0
  6
BYBLOCK
 62
     0
 10
4833.7006849999998
 20
4213.0944039999986
 30
0.0
 11
4833.7006849999998
 21
4285.567223
 31
0.0
  0
LINE
  5
7C9D
  8
0
  6
BYBLOCK
 62
     0
 10
5112.7006849999998
 20
4255.5672229999991
 30
0.0
 11
4893.7006849999989
 21
4255.5672229999991
 31
0.0
  0
TEXT
  5
7C9E
  8
3
 62
     0
 10
4889.6292564285714
 20
4294.5830198349568
 30
0.0
 40
90.0
  1
339
  0
INSERT
  5
7C9F
  8
0
  6
BYBLOCK
 62
     0
  2
_OPEN
 10
5172.7006849999998
 20
4255.5672229999991
 30
0.0
 41
60.0
 42
60.0
 43
60.0
  0
INSERT
  5
7CA0
  8
0
  6
BYBLOCK
 62
     0
  2
_OPEN
 10
4833.7006849999998
 20
4255.5672229999991
 30
0.0
 41
60.0
 42
60.0
 43
60.0
 50
180.0
  0
POINT
  5
7CA1
  8
DEFPOINTS
  6
BYBLOCK
 62
     0
 10
5172.7006849999998
 20
3730.4315339999998
 30
0.0
  0
POINT
  5
7CA2
  8
DEFPOINTS
  6
BYBLOCK
 62
     0
 10
4833.7006849999998
 20
4198.0944039999986
 30
0.0
  0
POINT
  5
7CA3
  8
DEFPOINTS
  6
BYBLOCK
 62
     0
 10
4833.7006849999998
 20
4255.5672229999991
 30
0.0
  0
ENDBLK
  5
7CA4
  8
0
  0
BLOCK
  8
0
  2
*D8
 70
     1
 10
0.0
 20
0.0
 30
0.0
  3
*D8
  1

  0
LINE
  5
7F4B
  8
3
  6
CONTINUOUS
 62
     0
 10
4223.7006849999989
 20
3775.4315339999998
 30
0.0
 11
4223.7006849999989
 21
4285.567223
 31
0.0
  0
LINE
  5
7F4C
  8
3
  6
CONTINUOUS
 62
     0
 10
4773.7006849999998
 20
4255.5672229999991
 30
0.0
 11
4283.7006849999998
 21
4255.5672229999991
 31
0.0
  0
INSERT
  5
7F4D
  8
3
  6
CONTINUOUS
 62
     0
  2
_OPEN
 10
4833.7006849999998
 20
4255.5672229999991
 30
0.0
 41
60.0
 42
60.0
 43
60.0
  0
INSERT
  5
7F4E
  8
3
  6
CONTINUOUS
 62
     0
  2
_OPEN
 10
4223.7006849999989
 20
4255.5672229999991
 30
0.0
 41
60.0
 42
60.0
 43
60.0
 50
180.0
  0
TEXT
  8
3
  40
90
  5
7FA5
  62
0
  72
0
  71
0
 10
4348.70
 20
4246.27
 30
0.000000
  1
MAX
  0
TEXT
  8
3
  40
90
  5
7FA6
  62
0
  72
0
  71
0
 10
4348.70
 20
4129.27
 30
0.000000
  1
640
  0
POINT
  5
7F50
  8
DEFPOINTS
  6
CONTINUOUS
 62
     0
 10
4833.7006849999998
 20
4198.0944039999986
 30
0.0
  0
POINT
  5
7F51
  8
DEFPOINTS
  6
CONTINUOUS
 62
     0
 10
4223.7006849999989
 20
3760.4315339999998
 30
0.0
  0
POINT
  5
7F52
  8
DEFPOINTS
  6
CONTINUOUS
 62
     0
 10
4223.7006849999989
 20
4255.5672229999991
 30
0.0
  0
ENDBLK
  5
7CEB
  8
0
  0
BLOCK
  8
0
  2
*D9
 70
     1
 10
0.0
 20
0.0
 30
0.0
  3
*D9
  1

  0
LINE
  5
7F53
  8
3
  6
CONTINUOUS
 62
     0
 10
1013.244521
 20
6336.7026109999988
 30
0.0
 11
1013.244521
 21
6547.3160479999997
 31
0.0
  0
LINE
  5
7F54
  8
3
  6
CONTINUOUS
 62
     0
 10
2763.2445210000001
 20
6336.7026109999988
 30
0.0
 11
2763.2445210000001
 21
6547.3160479999997
 31
0.0
  0
LINE
  5
7F55
  8
3
  6
CONTINUOUS
 62
     0
 10
1073.2445210000001
 20
6517.3160479999988
 30
0.0
 11
2703.2445210000001
 21
6517.3160479999988
 31
0.0
  0
INSERT
  5
7F56
  8
3
  6
CONTINUOUS
 62
     0
  2
_OPEN
 10
1013.244521
 20
6517.3160479999988
 30
0.0
 41
60.0
 42
60.0
 43
60.0
 50
180.0
  0
INSERT
  5
7F57
  8
3
  6
CONTINUOUS
 62
     0
  2
_OPEN
 10
2763.2445210000001
 20
6517.3160479999988
 30
0.0
 41
60.0
 42
60.0
 43
60.0
  0
TEXT
  8
3
  40
90
  5
7FA7
  62
0
  72
0
  71
0
 10
1621.84
 20
6433.02
 30
0.000000
  1
1750
  0
POINT
  5
7F59
  8
DEFPOINTS
  6
CONTINUOUS
 62
     0
 10
1013.244521
 20
6321.7026109999997
 30
0.0
  0
POINT
  5
7F5A
  8
DEFPOINTS
  6
CONTINUOUS
 62
     0
 10
2763.2445210000001
 20
6321.7026109999997
 30
0.0
  0
POINT
  5
7F5B
  8
DEFPOINTS
  6
CONTINUOUS
 62
     0
 10
2763.2445210000001
 20
6517.3160479999988
 30
0.0
  0
ENDBLK
  5
7C16
  8
0
  0
BLOCK
  8
0
  2
*D10
 70
     1
 10
0.0
 20
0.0
 30
0.0
  3
*D10
  1

  0
LINE
  5
7F5C
  8
3
  6
CONTINUOUS
 62
     0
 10
2778.2445210000001
 20
6321.7026109999997
 30
0.0
 11
3144.4253030000009
 21
6321.7026109999997
 31
0.0
  0
LINE
  5
7F5D
  8
3
  6
CONTINUOUS
 62
     0
 10
2778.2445210000001
 20
5401.7026109999997
 30
0.0
 11
3144.4253030000009
 21
5401.7026109999997
 31
0.0
  0
LINE
  5
7F5E
  8
3
  6
CONTINUOUS
 62
     0
 10
3114.425303
 20
6261.7026109999997
 30
0.0
 11
3114.425303
 21
5461.7026109999988
 31
0.0
  0
INSERT
  5
7F5F
  8
3
  6
CONTINUOUS
 62
     0
  2
_OPEN
 10
3114.425303
 20
6321.7026109999997
 30
0.0
 41
60.0
 42
60.0
 43
60.0
 50
90.0
  0
INSERT
  5
7F60
  8
3
  6
CONTINUOUS
 62
     0
  2
_OPEN
 10
3114.425303
 20
5401.7026109999997
 30
0.0
 41
60.0
 42
60.0
 43
60.0
 50
270.0
  0
TEXT
  8
3
  40
90
  5
7FA8
  62
0
  72
0
  71
0
 10
2859.43
 20
5707.92
 30
0.000000
  1
920
  0
POINT
  5
7F62
  8
DEFPOINTS
  6
CONTINUOUS
 62
     0
 10
2763.2445210000001
 20
6321.7026109999997
 30
0.0
  0
POINT
  5
7F63
  8
DEFPOINTS
  6
CONTINUOUS
 62
     0
 10
2763.2445210000001
 20
5401.7026109999997
 30
0.0
  0
POINT
  5
7F64
  8
DEFPOINTS
  6
CONTINUOUS
 62
     0
 10
3114.425303
 20
5401.7026109999997
 30
0.0
  0
ENDBLK
  5
7C23
  8
0
  0
BLOCK
  8
0
  2
*D11
 70
     1
 10
0.0
 20
0.0
 30
0.0
  3
*D11
  1

  0
LINE
  5
7F65
  8
3
  6
CONTINUOUS
 62
     0
 10
2836.2394629917312
 20
3270.4315339999998
 30
0.0
 11
2836.2394629917312
 21
4308.7847919999986
 31
0.0
  0
LINE
  5
7F66
  8
3
  6
CONTINUOUS
 62
     0
 10
2253.2445210000001
 20
4278.7847920000004
 30
0.0
 11
2776.2394629917312
 21
4278.7847920000004
 31
0.0
  0
INSERT
  5
7F67
  8
3
  6
CONTINUOUS
 62
     0
  2
_OPEN
 10
2193.2445210000001
 20
4278.7847920000004
 30
0.0
 41
60.0
 42
60.0
 43
60.0
 50
180.0
  0
INSERT
  5
7F68
  8
3
  6
CONTINUOUS
 62
     0
  2
_OPEN
 10
2836.2394629917312
 20
4278.7847920000004
 30
0.0
 41
60.0
 42
60.0
 43
60.0
  0
TEXT
  8
3
  40
90
  5
7FA9
  62
0
  72
0
  71
0
 10
2334.74
 20
4194.48
 30
0.000000
  1
643
  0
POINT
  5
7F6A
  8
DEFPOINTS
  6
CONTINUOUS
 62
     0
 10
2193.2445210000001
 20
4062.9761669999998
 30
0.0
  0
POINT
  5
7F6B
  8
DEFPOINTS
  6
CONTINUOUS
 62
     0
 10
2836.2394629917312
 20
3255.4315339999998
 30
0.0
  0
POINT
  5
7F6C
  8
DEFPOINTS
  6
CONTINUOUS
 62
     0
 10
2836.2394629917312
 20
4278.7847920000004
 30
0.0
  0
ENDBLK
  5
7CD4
  8
0
  0
BLOCK
  8
0
  2
*D12
 70
     1
 10
0.0
 20
0.0
 30
0.0
  3
*D12
  1

  0
LINE
  5
7F6D
  8
3
 62
     0
 10
1013.244521
 20
2277.4315339999989
 30
0.0
 11
1013.244521
 21
2050.1306877010711
 31
0.0
  0
LINE
  5
7F6E
  8
3
 62
     0
 10
2193.2445210000001
 20
2277.4315339999989
 30
0.0
 11
2193.2445210000001
 21
2050.1306877010711
 31
0.0
  0
LINE
  5
7F6F
  8
3
 62
     0
 10
1073.2445210000001
 20
2080.130687701072
 30
0.0
 11
2133.2445209999992
 21
2080.130687701072
 31
0.0
  0
INSERT
  5
7F70
  8
3
 62
     0
  2
_OPEN
 10
1013.244521
 20
2080.130687701072
 30
0.0
 41
60.0
 42
60.0
 43
60.0
 50
180.0
  0
INSERT
  5
7F71
  8
3
 62
     0
  2
_OPEN
 10
2193.2445210000001
 20
2080.130687701072
 30
0.0
 41
60.0
 42
60.0
 43
60.0
  0
TEXT
  8
3
  40
90
  5
7FAA
  62
0
  72
0
  71
0
 10
1423.24
 20
1995.83
 30
0.000000
  1
1180
  0
POINT
  5
7F73
  8
DEFPOINTS
 62
     0
 10
1013.244521
 20
2292.4315339999989
 30
0.0
  0
POINT
  5
7F74
  8
DEFPOINTS
 62
     0
 10
2193.2445210000001
 20
2292.4315339999989
 30
0.0
  0
POINT
  5
7F75
  8
DEFPOINTS
 62
     0
 10
2193.2445210000001
 20
2080.130687701072
 30
0.0
  0
ENDBLK
  5
7CFF
  8
0
  0
BLOCK
  8
0
  2
*D13
 70
     1
 10
0.0
 20
0.0
 30
0.0
  3
*D13
  1

  0
LINE
  5
7F76
  8
3
 62
     0
 10
2193.2445210000001
 20
2277.4315339999989
 30
0.0
 11
2193.2445210000001
 21
2050.1306877010711
 31
0.0
  0
LINE
  5
7F77
  8
3
 62
     0
 10
2763.2445210000001
 20
2277.4315339999989
 30
0.0
 11
2763.2445210000001
 21
2050.1306877010711
 31
0.0
  0
LINE
  5
7F78
  8
3
 62
     0
 10
2253.2445210000001
 20
2080.130687701072
 30
0.0
 11
2703.2445210000001
 21
2080.130687701072
 31
0.0
  0
INSERT
  5
7F79
  8
3
 62
     0
  2
_OPEN
 10
2193.2445210000001
 20
2080.130687701072
 30
0.0
 41
60.0
 42
60.0
 43
60.0
 50
180.0
  0
INSERT
  5
7F7A
  8
3
 62
     0
  2
_OPEN
 10
2763.2445210000001
 20
2080.130687701072
 30
0.0
 41
60.0
 42
60.0
 43
60.0
  0
TEXT
  8
3
  40
90
  5
7FAB
  62
0
  72
0
  71
0
 10
2298.24
 20
1995.83
 30
0.000000
  1
570
  0
POINT
  5
7F7C
  8
DEFPOINTS
 62
     0
 10
2193.2445210000001
 20
2292.4315339999989
 30
0.0
  0
POINT
  5
7F7D
  8
DEFPOINTS
 62
     0
 10
2763.2445210000001
 20
2292.4315339999989
 30
0.0
  0
POINT
  5
7F7E
  8
DEFPOINTS
 62
     0
 10
2763.2445210000001
 20
2080.130687701072
 30
0.0
  0
ENDBLK
  5
7D0C
  8
0
  0
BLOCK
  8
0
  2
*D14
 70
     1
 10
0.0
 20
0.0
 30
0.0
  3
*D14
  1

  0
LINE
  5
7F7F
  8
3
 62
     0
 10
4300.7006849999989
 20
2277.4315339999989
 30
0.0
 11
4300.7006849999989
 21
2050.1306877010711
 31
0.0
  0
LINE
  5
7F80
  8
3
 62
     0
 10
4833.7006850000007
 20
2277.4315339999989
 30
0.0
 11
4833.7006850000007
 21
2050.1306877010711
 31
0.0
  0
LINE
  5
7F81
  8
3
 62
     0
 10
4360.7006849999998
 20
2080.130687701072
 30
0.0
 11
4773.7006849999998
 21
2080.130687701072
 31
0.0
  0
INSERT
  5
7F82
  8
3
 62
     0
  2
_OPEN
 10
4300.7006849999989
 20
2080.130687701072
 30
0.0
 41
60.0
 42
60.0
 43
60.0
 50
180.0
  0
INSERT
  5
7F83
  8
3
 62
     0
  2
_OPEN
 10
4833.7006850000007
 20
2080.130687701072
 30
0.0
 41
60.0
 42
60.0
 43
60.0
  0
TEXT
  8
3
  40
90
  5
7FAC
  62
0
  72
0
  71
0
 10
4387.20
 20
1995.83
 30
0.000000
  1
533
  0
POINT
  5
7F85
  8
DEFPOINTS
 62
     0
 10
4300.7006849999989
 20
2292.4315339999989
 30
0.0
  0
POINT
  5
7F86
  8
DEFPOINTS
 62
     0
 10
4833.7006850000007
 20
2292.4315339999989
 30
0.0
  0
POINT
  5
7F87
  8
DEFPOINTS
 62
     0
 10
4833.7006850000007
 20
2080.130687701072
 30
0.0
  0
ENDBLK
  5
7D19
  8
0
  0
BLOCK
  8
0
  2
*D15
 70
     1
 10
0.0
 20
0.0
 30
0.0
  3
*D15
  1

  0
LINE
  5
7F88
  8
3
 62
     0
 10
4833.7006850000007
 20
2277.4315339999989
 30
0.0
 11
4833.7006850000007
 21
2050.1306877010711
 31
0.0
  0
LINE
  5
7F89
  8
3
 62
     0
 10
5220.7006849999998
 20
2277.4315339999989
 30
0.0
 11
5220.7006849999998
 21
2050.1306877010711
 31
0.0
  0
LINE
  5
7F8A
  8
3
 62
     0
 10
4893.7006850000007
 20
2080.130687701072
 30
0.0
 11
5160.7006849999998
 21
2080.130687701072
 31
0.0
  0
INSERT
  5
7F8B
  8
3
 62
     0
  2
_OPEN
 10
4833.7006850000007
 20
2080.130687701072
 30
0.0
 41
60.0
 42
60.0
 43
60.0
 50
180.0
  0
INSERT
  5
7F8C
  8
3
 62
     0
  2
_OPEN
 10
5220.7006849999998
 20
2080.130687701072
 30
0.0
 41
60.0
 42
60.0
 43
60.0
  0
TEXT
  8
3
  40
90
  5
7FAD
  62
0
  72
0
  71
0
 10
4847.20
 20
1995.83
 30
0.000000
  1
387
  0
POINT
  5
7F8E
  8
DEFPOINTS
 62
     0
 10
4833.7006850000007
 20
2292.4315339999989
 30
0.0
  0
POINT
  5
7F8F
  8
DEFPOINTS
 62
     0
 10
5220.7006849999998
 20
2292.4315339999989
 30
0.0
  0
POINT
  5
7F90
  8
DEFPOINTS
 62
     0
 10
5220.7006849999998
 20
2080.130687701072
 30
0.0
  0
ENDBLK
  5
7D28
  8
0
  0
BLOCK
  8
0
  2
_DOT
 70
     0
 10
0.0
 20
0.0
 30
0.0
  3
_DOT
  1

  0
POLYLINE
  5
7D2C
  8
0
  6
BYBLOCK
 62
     0
 66
     1
 10
0.0
 20
0.0
 30
0.0
 70
     1
 40
0.5
 41
0.5
  0
VERTEX
  5
7F91
  8
0
  6
BYBLOCK
 62
     0
 10
-0.25
 20
0.0
 30
0.0
 42
1.0
  0
VERTEX
  5
7F92
  8
0
  6
BYBLOCK
 62
     0
 10
0.25
 20
0.0
 30
0.0
 42
1.0
  0
SEQEND
  5
7F93
  8
0
  6
BYBLOCK
 62
     0
  0
LINE
  5
7D30
  8
0
  6
BYBLOCK
 62
     0
 10
-0.5
 20
0.0
 30
0.0
 11
-1.0
 21
0.0
 31
0.0
  0
ENDBLK
  5
7D31
  8
0
  0
BLOCK
  8
0
  2
*D17
 70
     1
 10
0.0
 20
0.0
 30
0.0
  3
*D17
  1

  0
LINE
  5
7F94
  8
3
 62
     0
 10
2778.2445210000001
 20
2395.4315339999989
 30
0.0
 11
3185.9137701722539
 21
2395.4315339999989
 31
0.0
  0
LINE
  5
7F95
  8
3
 62
     0
 10
2778.2445210000001
 20
2295.4315339999989
 30
0.0
 11
3185.9137701722539
 21
2295.4315339999989
 31
0.0
  0
LINE
  5
7F96
  8
3
 62
     0
 10
3155.913770172253
 20
2455.4315339999989
 30
0.0
 11
3155.913770172253
 21
2515.4315339999989
 31
0.0
  0
LINE
  5
7F97
  8
3
 62
     0
 10
3155.913770172253
 20
2235.4315339999989
 30
0.0
 11
3155.913770172253
 21
1901.1458197142849
 31
0.0
  0
LINE
  5
7F98
  8
3
 62
     0
 10
3155.913770172253
 20
2395.4315339999989
 30
0.0
 11
3155.913770172253
 21
2295.4315339999989
 31
0.0
  0
INSERT
  5
7F99
  8
3
 62
     0
  2
_DOT
 10
3155.913770172253
 20
2395.4315339999989
 30
0.0
 41
60.0
 42
60.0
 43
60.0
 50
270.0
  0
INSERT
  5
7F9A
  8
3
 62
     0
  2
_OPEN
 10
3155.913770172253
 20
2295.4315339999989
 30
0.0
 41
60.0
 42
60.0
 43
60.0
 50
90.0
  0
TEXT
  8
3
  40
90
  5
7FAE
  62
0
  72
0
  71
0
 10
2900.91
 20
1878.99
 30
0.000000
  1
100
  0
POINT
  5
7F9C
  8
DEFPOINTS
 62
     0
 10
2763.2445210000001
 20
2395.4315339999989
 30
0.0
  0
POINT
  5
7F9D
  8
DEFPOINTS
 62
     0
 10
2763.2445210000001
 20
2295.4315339999989
 30
0.0
  0
POINT
  5
7F9E
  8
DEFPOINTS
 62
     0
 10
3155.913770172253
 20
2295.4315339999989
 30
0.0
  0
ENDBLK
  5
7D3F
  8
0
  0
BLOCK
  8
0
  2
*D18
 70
     1
 10
0.0
 20
0.0
 30
0.0
  3
*D18
  1

  0
LINE
  5
7D52
  8
0
  6
BYBLOCK
 62
     0
 10
2778.2445210000001
 20
2395.4315339999989
 30
0.0
 11
3182.5057499440991
 21
2395.4315339999989
 31
0.0
  0
LINE
  5
7D53
  8
0
  6
BYBLOCK
 62
     0
 10
2778.2445210000001
 20
2490.4315339999998
 30
0.0
 11
3182.5057499440991
 21
2490.4315339999998
 31
0.0
  0
LINE
  5
7D54
  8
0
  6
BYBLOCK
 62
     0
 10
3152.5057499440991
 20
2335.4315339999998
 30
0.0
 11
3152.5057499440991
 21
2275.4315339999989
 31
0.0
  0
LINE
  5
7D55
  8
0
  6
BYBLOCK
 62
     0
 10
3152.5057499440991
 20
2550.4315339999989
 30
0.0
 11
3152.5057499440991
 21
2610.4315339999989
 31
0.0
  0
TEXT
  5
7D56
  8
3
 62
     0
 10
3326.0771785155271
 20
2312.217248285714
 30
0.0
 40
90.0
  1
(95)
 50
90.0
  0
LINE
  5
7D57
  8
0
  6
BYBLOCK
 62
     0
 10
3152.5057499440991
 20
2395.4315339999989
 30
0.0
 11
3152.5057499440991
 21
2490.4315339999998
 31
0.0
  0
INSERT
  5
7D58
  8
0
  6
BYBLOCK
 62
     0
  2
_DOT
 10
3152.5057499440991
 20
2395.4315339999989
 30
0.0
 41
60.0
 42
60.0
 43
60.0
 50
90.0
  0
INSERT
  5
7D59
  8
0
  6
BYBLOCK
 62
     0
  2
_OPEN
 10
3152.5057499440991
 20
2490.4315339999998
 30
0.0
 41
60.0
 42
60.0
 43
60.0
 50
270.0
  0
POINT
  5
7D5A
  8
DEFPOINTS
  6
BYBLOCK
 62
     0
 10
2763.2445210000001
 20
2395.4315339999989
 30
0.0
  0
POINT
  5
7D5B
  8
DEFPOINTS
  6
BYBLOCK
 62
     0
 10
2763.2445210000001
 20
2490.4315339999998
 30
0.0
  0
POINT
  5
7D5C
  8
DEFPOINTS
  6
BYBLOCK
 62
     0
 10
3152.5057499440991
 20
2490.4315339999998
 30
0.0
  0
ENDBLK
  5
7D5D
  8
0
  0
ENDSEC
  0
SECTION
  2
ENTITIES
  0
POLYLINE
  5
7A85
  8
1
  6
CONTINUOUS
 66
     1
 10
0.0
 20
0.0
 30
0.0
  0
VERTEX
  5
7F10
  8
1
  6
CONTINUOUS
 10
1310.2445210000001
 20
3910.4315339999998
 30
0.0
  0
VERTEX
  5
7F11
  8
1
  6
CONTINUOUS
 10
1332.2445210000001
 20
3255.4315339999998
 30
0.0
 42
0.4168370000000001
  0
VERTEX
  5
7F12
  8
1
  6
CONTINUOUS
 10
2200.4184620000001
 20
2512.9915739999992
 30
0.0
 42
0.429867
  0
VERTEX
  5
7F13
  8
1
  6
CONTINUOUS
 10
2831.6696969999998
 20
3299.3076940000001
 30
0.0
 42
0.373172
  0
VERTEX
  5
7F14
  8
1
  6
CONTINUOUS
 10
2235.2445210000001
 20
3823.4002619999992
 30
0.0
 42
0.34598
  0
SEQEND
  5
7F15
  8
1
  6
CONTINUOUS
  0
LINE
  5
7A8F
  8
1
  6
CONTINUOUS
 10
2763.2445209999992
 20
2590.4315339999998
 30
0.0
 11
1013.244521
 21
2590.4315339999998
 31
0.0
  0
LINE
  5
7A90
  8
1
  6
CONTINUOUS
 10
2763.2445210000001
 20
2490.4315339999998
 30
0.0
 11
1013.244521
 21
2490.4315339999998
 31
0.0
  0
LINE
  5
7A91
  8
1
  6
CONTINUOUS
 10
2763.2445210000001
 20
2395.4315339999989
 30
0.0
 11
1013.244521
 21
2395.4315339999989
 31
0.0
  0
LINE
  5
7A92
  8
1
  6
CONTINUOUS
 10
2763.2445210000001
 20
2295.4315339999989
 30
0.0
 11
1013.244521
 21
2295.4315339999989
 31
0.0
  0
CIRCLE
  5
7A93
  8
1
  6
CONTINUOUS
 10
2193.2445210000001
 20
3255.4315339999998
 30
0.0
 40
254.0
  0
LINE
  5
7A94
  8
2
  6
CENTER
 10
1177.3698670000001
 20
3255.4315339999998
 30
0.0
 11
3065.2303529999999
 21
3255.4315339999998
 31
0.0
  0
LINE
  5
7A95
  8
1
  6
CONTINUOUS
 10
2673.2445210000001
 20
3760.4315339999998
 30
0.0
 11
2013.2445210000001
 21
3760.4315339999998
 31
0.0
  0
LINE
  5
7A96
  8
1
  6
CONTINUOUS
 10
2763.2445210000001
 20
5401.7026109999997
 30
0.0
 11
1013.244521
 21
5401.7026109999997
 31
0.0
  0
LINE
  5
7A97
  8
1
  6
CONTINUOUS
 10
2838.0408629999988
 20
6269.7026109999988
 30
0.0
 11
1310.2445210000001
 21
6269.7026109999988
 31
0.0
  0
LINE
  5
7A98
  8
1
  6
CONTINUOUS
 10
2838.0408629999988
 20
5599.7026109999997
 30
0.0
 11
1310.2445210000001
 21
5599.7026109999997
 31
0.0
  0
LINE
  5
7A99
  8
1
  6
CONTINUOUS
 10
1939.2445210000001
 20
5513.7026109999997
 30
0.0
 11
2447.2445210000001
 21
5513.7026109999997
 31
0.0
  0
LINE
  5
7A9A
  8
1
  6
CONTINUOUS
 10
1939.2445210000001
 20
5409.7026109999997
 30
0.0
 11
2447.2445210000001
 21
5409.7026109999997
 31
0.0
  0
LINE
  5
7A9B
  8
1
  6
CONTINUOUS
 10
1033.2445210000001
 20
5546.7026109999997
 30
0.0
 11
2673.2445210000001
 21
5546.7026109999997
 31
0.0
  0
LINE
  5
7A9C
  8
1
  6
CONTINUOUS
 10
1033.2445210000001
 20
5376.7026109999988
 30
0.0
 11
2673.2445210000001
 21
5376.7026109999988
 31
0.0
  0
LINE
  5
7A9D
  8
1
  6
CONTINUOUS
 10
2763.2445210000001
 20
6321.7026109999997
 30
0.0
 11
1013.244521
 21
6321.7026109999997
 31
0.0
  0
LINE
  5
7A9E
  8
1
  6
CONTINUOUS
 10
1013.244521
 20
2295.4315339999989
 30
0.0
 11
1013.244521
 21
2395.4315339999989
 31
0.0
  0
ARC
  5
7A9F
  8
1
  6
CONTINUOUS
 10
1213.2445210000001
 20
2840.4315339999998
 30
0.0
 40
162.0
 50
324.972283
 51
215.02771699999991
  0
CIRCLE
  5
7AA0
  8
1
  6
CONTINUOUS
 10
1213.2445210000001
 20
2840.4315339999998
 30
0.0
 40
75.0
  0
LINE
  5
7AA1
  8
1
  6
CONTINUOUS
 10
1172.799236999999
 20
2903.5914819999989
 30
0.0
 11
2056.2698249999999
 21
3469.333224
 31
0.0
  0
LINE
  5
7AA2
  8
1
  6
CONTINUOUS
 10
1230.457932
 20
2767.433599
 30
0.0
 11
2251.540606
 21
3008.2118620000001
 31
0.0
  0
LINE
  5
7AA3
  8
2
  6
CENTER
 10
1133.2445210000001
 20
2840.4315339999998
 30
0.0
 11
1293.2445210000001
 21
2840.4315339999998
 31
0.0
  0
LINE
  5
7AA4
  8
1
  6
CONTINUOUS
 10
1033.2445210000001
 20
2940.4315339999998
 30
0.0
 11
2013.2445210000001
 21
3760.4315339999998
 31
0.0
  0
LINE
  5
7AA5
  8
1
  6
CONTINUOUS
 10
1013.244521
 20
2590.4315339999998
 30
0.0
 11
1013.244521
 21
2490.4315339999998
 31
0.0
  0
LINE
  5
7AA6
  8
1
  6
CONTINUOUS
 10
1015.744521
 20
2630.4315339999989
 30
0.0
 11
1015.744521
 21
2590.4315339999998
 31
0.0
  0
LINE
  5
7AA7
  8
1
  6
CONTINUOUS
 10
1025.7445210000001
 20
2680.4315339999998
 30
0.0
 11
1015.744521
 21
2630.4315339999989
 31
0.0
  0
LINE
  5
7AA8
  8
1
  6
CONTINUOUS
 10
1025.7445210000001
 20
2680.4315339999998
 30
0.0
 11
1080.5868549999991
 21
2747.4479670000001
 31
0.0
  0
LINE
  5
7AA9
  8
2
  6
CENTER
 10
1213.2445210000001
 20
2760.4315339999998
 30
0.0
 11
1213.2445210000001
 21
2920.4315339999998
 31
0.0
  0
LINE
  5
7AAA
  8
1
  6
CONTINUOUS
 10
1033.2445210000001
 20
2590.4315339999998
 30
0.0
 11
1033.2445210000001
 21
2940.4315339999998
 31
0.0
  0
LINE
  5
7AAC
  8
1
  6
CONTINUOUS
 10
1410.7445210000001
 20
2630.4315339999989
 30
0.0
 11
1410.7445210000001
 21
2590.4315339999998
 31
0.0
  0
LINE
  5
7AAD
  8
1
  6
CONTINUOUS
 10
1410.7445210000001
 20
2630.4315339999989
 30
0.0
 11
1400.7445210000001
 21
2680.4315339999998
 31
0.0
  0
LINE
  5
7AAE
  8
1
  6
CONTINUOUS
 10
1345.902186
 20
2747.4479670000001
 30
0.0
 11
1400.7445210000001
 21
2680.4315339999998
 31
0.0
  0
LINE
  5
7AAF
  8
2
  6
CENTER
 10
2193.2445210000001
 20
2295.4315339999989
 30
0.0
 11
2193.2445210000001
 21
4062.9761669999998
 31
0.0
  0
LINE
  5
7AB0
  8
1
  6
CONTINUOUS
 10
2277.7445210000001
 20
3910.4315339999998
 30
0.0
 11
1267.7445210000001
 21
3910.4315339999998
 31
0.0
  0
LINE
  5
7AB1
  8
1
  6
CONTINUOUS
 10
2235.2445210000001
 20
3870.4315339999998
 30
0.0
 11
1311.5880320000001
 21
3870.4315339999998
 31
0.0
  0
LINE
  5
7AB2
  8
1
  6
CONTINUOUS
 10
2235.2445210000001
 20
3823.4002619999992
 30
0.0
 11
2235.2445210000001
 21
3910.4315339999998
 31
0.0
  0
LINE
  5
7AB3
  8
1
  6
CONTINUOUS
 10
1138.2445210000001
 20
5513.7026109999997
 30
0.0
 11
1288.2445210000001
 21
5513.7026109999997
 31
0.0
  0
LINE
  5
7AB4
  8
1
  6
CONTINUOUS
 10
1138.2445210000001
 20
5409.7026109999997
 30
0.0
 11
1288.2445210000001
 21
5409.7026109999997
 31
0.0
  0
LINE
  5
7AB5
  8
1
  6
CONTINUOUS
 10
1051.2445210000001
 20
5557.7026109999988
 30
0.0
 11
1375.2445210000001
 21
5557.7026109999988
 31
0.0
  0
LINE
  5
7AB6
  8
1
  6
CONTINUOUS
 10
1051.2445210000001
 20
6042.7026109999997
 30
0.0
 11
1310.2445210000001
 21
6042.7026109999997
 31
0.0
  0
LINE
  5
7AB7
  8
1
  6
CONTINUOUS
 10
1013.244521
 20
5401.7026109999997
 30
0.0
 11
1013.244521
 21
6321.7026109999997
 31
0.0
  0
LINE
  5
7AB8
  8
1
  6
CONTINUOUS
 10
1051.2445210000001
 20
5557.7026109999988
 30
0.0
 11
1051.2445210000001
 21
6042.7026109999997
 31
0.0
  0
LINE
  5
7AB9
  8
1
  6
CONTINUOUS
 10
1234.2445210000001
 20
5513.7026109999997
 30
0.0
 11
1234.2445210000001
 21
5557.7026109999988
 31
0.0
  0
LINE
  5
7ABA
  8
1
  6
CONTINUOUS
 10
1192.2445210000001
 20
5513.7026109999997
 30
0.0
 11
1192.2445210000001
 21
5557.7026109999988
 31
0.0
  0
LINE
  5
7ABB
  8
1
  6
CONTINUOUS
 10
1138.2445210000001
 20
5409.7026109999997
 30
0.0
 11
1138.2445210000001
 21
5513.7026109999997
 31
0.0
  0
LINE
  5
7ABC
  8
1
  6
CONTINUOUS
 10
1033.2445210000001
 20
5376.7026109999988
 30
0.0
 11
1033.2445210000001
 21
5546.7026109999997
 31
0.0
  0
LINE
  5
7ABD
  8
1
  6
CONTINUOUS
 10
1310.2445210000001
 20
6269.7026109999988
 30
0.0
 11
2235.2445210000001
 21
5599.7026109999997
 31
0.0
  0
LINE
  5
7ABE
  8
1
  6
CONTINUOUS
 10
1310.2445210000001
 20
5599.7026109999997
 30
0.0
 11
2235.2445210000001
 21
6269.7026109999988
 31
0.0
  0
LINE
  5
7ABF
  8
1
  6
CONTINUOUS
 10
1310.2445210000001
 20
5599.7026109999997
 30
0.0
 11
1310.2445210000001
 21
6269.7026109999988
 31
0.0
  0
LINE
  5
7AC0
  8
1
  6
CONTINUOUS
 10
1288.2445210000001
 20
5409.7026109999997
 30
0.0
 11
1288.2445210000001
 21
5513.7026109999997
 31
0.0
  0
LINE
  5
7AC1
  8
1
  6
CONTINUOUS
 10
1375.2445210000001
 20
5557.7026109999988
 30
0.0
 11
1375.2445210000001
 21
5599.7026109999997
 31
0.0
  0
LINE
  5
7AC2
  8
1
  6
CONTINUOUS
 10
2235.2445210000001
 20
5599.7026109999997
 30
0.0
 11
2235.2445210000001
 21
6269.7026109999988
 31
0.0
  0
LINE
  5
7AC3
  8
1
  6
CONTINUOUS
 10
1939.2445210000001
 20
5409.7026109999997
 30
0.0
 11
1939.2445210000001
 21
5513.7026109999997
 31
0.0
  0
LINE
  5
7AC4
  8
1
  6
CONTINUOUS
 10
2218.2445210000001
 20
5513.7026109999997
 30
0.0
 11
2218.2445210000001
 21
5599.7026109999997
 31
0.0
  0
LINE
  5
7AC5
  8
1
  6
CONTINUOUS
 10
2168.2445210000001
 20
5513.7026109999997
 30
0.0
 11
2168.2445210000001
 21
5599.7026109999997
 31
0.0
  0
LINE
  5
7AC7
  8
1
  6
CONTINUOUS
 10
2763.2445210000001
 20
2295.4315339999989
 30
0.0
 11
2763.2445210000001
 21
2395.4315339999989
 31
0.0
  0
LINE
  5
7AC8
  8
1
  6
CONTINUOUS
 10
4300.7006849999989
 20
2395.4315339999989
 30
0.0
 11
4300.7006849999989
 21
2295.4315339999989
 31
0.0
  0
LINE
  5
7AC9
  8
1
  6
CONTINUOUS
 10
5220.7006849999998
 20
2395.4315339999989
 30
0.0
 11
5220.7006849999998
 21
2295.4315339999989
 31
0.0
  0
LINE
  5
7ACA
  8
1
  6
CONTINUOUS
 10
4300.7006849999989
 20
2295.4315339999989
 30
0.0
 11
5220.7006849999998
 21
2295.4315339999989
 31
0.0
  0
LINE
  5
7ACB
  8
1
  6
CONTINUOUS
 10
4300.7006849999989
 20
2490.4315339999998
 30
0.0
 11
5220.7006849999998
 21
2490.4315339999998
 31
0.0
  0
LINE
  5
7ACC
  8
1
  6
CONTINUOUS
 10
4300.7006849999989
 20
2395.4315339999989
 30
0.0
 11
5220.7006849999998
 21
2395.4315339999989
 31
0.0
  0
LINE
  5
7ACD
  8
1
  6
CONTINUOUS
 10
4223.7006849999989
 20
3760.4315339999998
 30
0.0
 11
4445.7006849999998
 21
3760.4315339999998
 31
0.0
  0
LINE
  5
7ACE
  8
1
  6
CONTINUOUS
 10
4308.7006849999998
 20
3509.4315339999998
 30
0.0
 11
4412.7006849999989
 21
3509.4315339999998
 31
0.0
  0
LINE
  5
7ACF
  8
1
  6
CONTINUOUS
 10
4308.7006849999998
 20
3001.4315339999989
 30
0.0
 11
4412.7006849999989
 21
3001.4315339999989
 31
0.0
  0
LINE
  5
7AD0
  8
1
  6
CONTINUOUS
 10
4308.7006849999998
 20
2915.4315339999998
 30
0.0
 11
4412.7006849999989
 21
2915.4315339999998
 31
0.0
  0
LINE
  5
7AD1
  8
1
  6
CONTINUOUS
 10
4308.7006849999998
 20
2765.4315339999998
 30
0.0
 11
4412.7006849999989
 21
2765.4315339999998
 31
0.0
  0
LINE
  5
7AD2
  8
1
  6
CONTINUOUS
 10
4300.7006849999989
 20
2590.4315339999998
 30
0.0
 11
5220.7006849999998
 21
2590.4315339999998
 31
0.0
  0
LINE
  5
7AD4
  8
1
  6
CONTINUOUS
 10
2673.2445210000001
 20
2590.4315339999998
 30
0.0
 11
2673.2445210000001
 21
3760.4315339999998
 31
0.0
  0
LINE
  5
7AD5
  8
1
  6
CONTINUOUS
 10
2763.2445210000001
 20
2590.4315339999998
 30
0.0
 11
2763.2445210000001
 21
2490.4315339999998
 31
0.0
  0
LINE
  5
7AD6
  8
1
  6
CONTINUOUS
 10
4308.7006849999998
 20
3509.4315339999998
 30
0.0
 11
4308.7006849999998
 21
3001.4315339999989
 31
0.0
  0
LINE
  5
7AD7
  8
1
  6
CONTINUOUS
 10
4223.7006849999989
 20
3760.4315339999998
 30
0.0
 11
4223.7006849999989
 21
2590.4315339999998
 31
0.0
  0
LINE
  5
7AD8
  8
1
  6
CONTINUOUS
 10
4223.7006849999989
 20
2590.4315339999998
 30
0.0
 11
4300.7006849999989
 21
2590.4315339999998
 31
0.0
  0
LINE
  5
7AD9
  8
1
  6
CONTINUOUS
 10
4300.7006849999989
 20
2590.4315339999998
 30
0.0
 11
4300.7006849999989
 21
2490.4315339999998
 31
0.0
  0
LINE
  5
7ADA
  8
1
  6
CONTINUOUS
 10
4308.7006849999998
 20
2915.4315339999998
 30
0.0
 11
4308.7006849999998
 21
2765.4315339999998
 31
0.0
  0
LINE
  5
7ADB
  8
1
  6
CONTINUOUS
 10
4498.7006849999998
 20
3910.4315339999998
 30
0.0
 11
4498.7006849999998
 21
2590.4315339999998
 31
0.0
  0
LINE
  5
7ADC
  8
1
  6
CONTINUOUS
 10
5168.7006849999998
 20
3910.4315339999998
 30
0.0
 11
5168.7006849999998
 21
2590.4315339999998
 31
0.0
  0
LINE
  5
7ADD
  8
1
  6
CONTINUOUS
 10
4412.7006849999989
 20
3509.4315339999998
 30
0.0
 11
4412.7006849999989
 21
3001.4315339999989
 31
0.0
  0
LINE
  5
7ADE
  8
1
  6
CONTINUOUS
 10
4445.7006849999998
 20
3760.4315339999998
 30
0.0
 11
4445.7006849999998
 21
2590.4315339999998
 31
0.0
  0
LINE
  5
7ADF
  8
1
  6
CONTINUOUS
 10
4412.7006849999989
 20
2861.4315339999989
 30
0.0
 11
4498.7006849999998
 21
2861.4315339999989
 31
0.0
  0
LINE
  5
7AE0
  8
1
  6
CONTINUOUS
 10
4412.7006849999989
 20
2819.4315339999989
 30
0.0
 11
4498.7006849999998
 21
2819.4315339999989
 31
0.0
  0
LINE
  5
7AE1
  8
1
  6
CONTINUOUS
 10
4412.7006849999989
 20
2915.4315339999998
 30
0.0
 11
4412.7006849999989
 21
2765.4315339999998
 31
0.0
  0
LINE
  5
7AE2
  8
1
  6
CONTINUOUS
 10
4412.7006849999989
 20
3280.4315339999998
 30
0.0
 11
4498.7006849999998
 21
3280.4315339999998
 31
0.0
  0
LINE
  5
7AE3
  8
1
  6
CONTINUOUS
 10
4412.7006849999989
 20
3230.4315339999998
 30
0.0
 11
4498.7006849999998
 21
3230.4315339999998
 31
0.0
  0
LINE
  5
7AE4
  8
1
  6
CONTINUOUS
 10
5220.7006849999998
 20
2590.4315339999998
 30
0.0
 11
5220.7006849999998
 21
2490.4315339999998
 31
0.0
  0
LINE
  5
7AE5
  8
1
  6
CONTINUOUS
 10
4498.7006849999998
 20
3870.4315339999998
 30
0.0
 11
5168.7006849999998
 21
3870.4315339999998
 31
0.0
  0
LINE
  5
7AE6
  8
1
  6
CONTINUOUS
 10
4456.7006849999998
 20
3910.4315339999998
 30
0.0
 11
5210.7006849999989
 21
3910.4315339999998
 31
0.0
  0
LINE
  5
7AE7
  8
1
  6
CONTINUOUS
 10
2838.0408629999988
 20
5599.7026109999997
 30
0.0
 11
2838.0408629999988
 21
6269.7026109999988
 31
0.0
  0
LINE
  5
7AE8
  8
1
  6
CONTINUOUS
 10
2447.2445210000001
 20
5409.7026109999997
 30
0.0
 11
2447.2445210000001
 21
5513.7026109999997
 31
0.0
  0
LINE
  5
7AE9
  8
1
  6
CONTINUOUS
 10
2673.2445210000001
 20
5376.7026109999988
 30
0.0
 11
2673.2445210000001
 21
5546.7026109999997
 31
0.0
  0
LINE
  5
7AEA
  8
1
  6
CONTINUOUS
 10
2763.2445210000001
 20
5401.7026109999997
 30
0.0
 11
2763.2445210000001
 21
5599.7026109999997
 31
0.0
  0
LINE
  5
7AEB
  8
1
  6
CONTINUOUS
 10
2763.2445210000001
 20
6269.7026109999988
 30
0.0
 11
2763.2445210000001
 21
6321.7026109999997
 31
0.0
  0
LINE
  5
7B09
  8
2
  6
CENTER
 10
885.84177200000022
 20
5934.7026109999997
 30
0.0
 11
2928.5731649999989
 21
5934.7026109999997
 31
0.0
  0
LINE
  5
7B0A
  8
2
  6
CENTER
 10
4833.7006849999998
 20
4050.3419689999992
 30
0.0
 11
4833.7006850000007
 21
2295.4315339999989
 31
0.0
  0
LINE
  5
7B0B
  8
2
  6
CENTER
 10
2193.2445210000001
 20
5264.9892469999986
 30
0.0
 11
2193.2445210000001
 21
6464.3040689999989
 31
0.0
  0
LINE
  5
7B0C
  8
2
  6
CENTER
 10
4165.6623820000004
 20
3255.4315339999998
 30
0.0
 11
5277.7713039999999
 21
3255.4315339999998
 31
0.0
  0
LINE
  5
7B0D
  8
4
  6
CONTINUOUS
 10
5550.0
 20
1500.0
 30
0.0
 11
5550.0
 21
900.0
 31
0.0
  0
LINE
  5
7B0E
  8
4
  6
CONTINUOUS
 10
3450.0
 20
1500.0
 30
0.0
 11
3450.0
 21
900.0
 31
0.0
  0
LINE
  5
7B0F
  8
4
  6
CONTINUOUS
 10
1950.0
 20
1500.0
 30
0.0
 11
1950.0
 21
900.0
 31
0.0
  0
LINE
  5
7B12
  8
4
  6
CONTINUOUS
 10
1950.0
 20
900.0
 30
0.0
 11
5550.0
 21
900.0
 31
0.0
  0
LINE
  5
7B13
  8
4
  6
CONTINUOUS
 10
1950.0
 20
1200.0
 30
0.0
 11
5550.0
 21
1200.0
 31
0.0
  0
TEXT
  5
7B14
  8
4
  6
CONTINUOUS
 10
2065.5062429999989
 20
1294.6290779999999
 30
0.0
 40
150.0
  1
機器名称
  0
TEXT
  5
7B15
  8
4
  6
CONTINUOUS
 10
2058.7743179999989
 20
964.9354699999999
 30
0.0
 40
150.0
  1
機器型番
  0
TEXT
  5
7B16
  8
4
  6
CONTINUOUS
 10
3533.0362359999999
 20
1267.7153069999999
 30
0.0
 40
150.0
  1
ミツヤ多翼送風機
  0
TEXT
  5
7B17
  8
4
  6
CONTINUOUS
 10
3559.9634869999991
 20
951.47875299999987
 30
0.0
 40
150.0
  1
MFE#5 1/2-4
  0
TEXT
  5
7B19
  8
4
  6
CONTINUOUS
 10
2354.1934099999999
 20
7150.2865239999992
 30
0.0
 40
162.0
  1
床置防振ベット
  0
TEXT
  5
7B1A
  8
4
  6
CONTINUOUS
 10
948.50278000000014
 20
7601.6429289999996
 30
0.0
 40
216.0
  1
ベルト駆動式片吸込両持排煙ファン
  0
LINE
  5
7B1B
  8
4
  6
CONTINUOUS
 10
750.0
 20
7408.2262629999996
 30
0.0
 11
5550.0
 21
7408.2262629999996
 31
0.0
  0
LINE
  5
7B1C
  8
4
  6
CONTINUOUS
 10
750.0
 20
8008.2262629999996
 30
0.0
 11
5550.0
 21
8008.2262629999996
 31
0.0
  0
LINE
  5
7B1D
  8
4
  6
CONTINUOUS
 10
1950.0
 20
1500.0
 30
0.0
 11
5550.0
 21
1500.0
 31
0.0
  0
LINE
  5
7B1E
  8
4
  6
CONTINUOUS
 10
750.0
 20
8008.2262629999996
 30
0.0
 11
750.0
 21
7408.2262629999996
 31
0.0
  0
TEXT
  5
7B1F
  8
4
  6
CONTINUOUS
 10
1046.6169130000001
 20
7146.9584329999998
 30
0.0
 40
162.0
  1
右回転上向
  0
TEXT
  5
7B20
  8
4
  6
CONTINUOUS
 10
4406.9086779999989
 20
8118.1832439999989
 30
0.0
 40
168.0
  1
No.
  0
TEXT
  5
7B21
  8
4
  6
CONTINUOUS
 10
3933.8881879999999
 20
7150.2865239999992
 30
0.0
 40
162.0
  1
縮尺：1/30
  0
LINE
  5
7B22
  8
4
  6
CONTINUOUS
 10
5550.0
 20
8008.2262629999996
 30
0.0
 11
5550.0
 21
7408.2262629999996
 31
0.0
  0
LINE
  5
7B24
  8
4
  6
CONTINUOUS
 10
4321.8522670000002
 20
8043.7907490000007
 30
0.0
 11
4321.8522670000002
 21
8359.9567849999985
 31
0.0
  0
LINE
  5
7B25
  8
4
  6
CONTINUOUS
 10
4321.8522670000002
 20
8359.9567849999985
 30
0.0
 11
5550.0
 21
8359.9567849999985
 31
0.0
  0
LINE
  5
7B26
  8
4
  6
CONTINUOUS
 10
5550.0
 20
8359.9567849999985
 30
0.0
 11
5550.0
 21
8043.7907490000007
 31
0.0
  0
LINE
  5
7B27
  8
4
  6
CONTINUOUS
 10
5550.0
 20
8043.7907490000007
 30
0.0
 11
4321.8522670000002
 21
8043.7907490000007
 31
0.0
  0
DIMENSION
  5
7B38
  8
3
  6
CONTINUOUS
  2
*D1
 10
2235.2445210000001
 20
4081.435481
 30
0.0
 11
1737.9580229999999
 21
4081.435481
 31
0.0
 70
   128
 13
1310.2445210000001
 23
3910.4315339999998
 33
0.0
 14
2235.2445210000001
 24
3910.4315339999998
 34
0.0
1001
ACAD
1000
DSTYLE
1002
{
1070
   287
1070
     3
1070
   287
1070
     3
1070
    40
1040
30.0
1070
   143
1040
0.039
1070
   172
1070
     1
1070
   271
1070
     0
1070
   279
1070
     0
1070
   288
1070
     1
1002
}
  0
DIMENSION
  5
7B45
  8
3
  6
CONTINUOUS
  2
*D2
 10
2193.2445210000001
 20
4278.7847920000004
 30
0.0
 11
1732.150147999999
 21
4278.7847920000004
 31
0.0
 70
   128
 13
1310.2445210000001
 23
3910.4315339999998
 33
0.0
 14
2193.2445210000001
 24
4062.9761669999998
 34
0.0
1001
ACAD
1000
DSTYLE
1002
{
1070
   287
1070
     3
1070
   287
1070
     3
1070
    40
1040
30.0
1070
   143
1040
0.039
1070
   172
1070
     1
1070
   271
1070
     0
1070
   279
1070
     0
1070
   288
1070
     1
1002
}
  0
DIMENSION
  5
7B5E
  8
3
  6
CONTINUOUS
  2
*D3
 10
3155.0803989999999
 20
3255.4315339999989
 30
0.0
 11
3155.0803989999999
 21
3564.8446629999999
 31
0.0
 70
   128
 13
2277.7445210000001
 23
3910.4315339999998
 33
0.0
 14
3012.2319399999992
 24
3255.4315339999998
 34
0.0
 50
90.0
1001
ACAD
1000
DSTYLE
1002
{
1070
   287
1070
     3
1070
   287
1070
     3
1070
    40
1040
30.0
1070
   143
1040
0.039
1070
   172
1070
     1
1070
   271
1070
     0
1070
   279
1070
     0
1070
   288
1070
     1
1002
}
  0
DIMENSION
  5
7B6A
  8
3
  6
CONTINUOUS
  2
*D4
 10
3155.0803989999999
 20
2490.4315339999989
 30
0.0
 11
3080.080398999999
 21
2872.9315339999998
 31
0.0
 70
     0
 13
3012.2319399999992
 23
3255.4315339999998
 33
0.0
 14
2763.2445210000001
 24
2490.4315339999998
 34
0.0
 50
90.0
1001
ACAD
1000
DSTYLE
1002
{
1070
   287
1070
     4
1070
   287
1070
     4
1070
    40
1040
30.0
1070
    75
1070
     1
1070
   143
1040
0.039
1070
   172
1070
     1
1070
   271
1070
     0
1070
   279
1070
     1
1070
   288
1070
     1
1002
}
  0
DIMENSION
  5
7BAD
  8
3
  6
CONTINUOUS
  2
*D5
 10
4498.7006849999998
 20
4064.0223190000002
 30
0.0
 11
4836.5590599999996
 21
4064.0223190000002
 31
0.0
 70
   128
 13
5168.7006849999998
 23
3910.4315339999998
 33
0.0
 14
4498.7006849999998
 24
3910.4315339999998
 34
0.0
1001
ACAD
1000
DSTYLE
1002
{
1070
   287
1070
     3
1070
   287
1070
     3
1070
    40
1040
30.0
1070
   143
1040
0.039
1070
   172
1070
     1
1070
   271
1070
     0
1070
   279
1070
     0
1070
   288
1070
     1
1002
}
  0
LINE
  5
7BAE
  8
1
  6
CONTINUOUS
 10
5172.7006849999998
 20
3730.4315339999998
 30
0.0
 11
5172.7006849999998
 21
2780.4315339999989
 31
0.0
  0
DIMENSION
  5
7BBD
  8
3
  6
CONTINUOUS
  2
*D6
 10
5440.5784130000011
 20
2780.4315339999989
 30
0.0
 11
5440.5784130000002
 21
3257.2119109999999
 31
0.0
 70
   128
 13
5172.7006849999998
 23
3730.4315339999998
 33
0.0
 14
5172.7006849999998
 24
2780.4315339999989
 34
0.0
 50
90.0
1001
ACAD
1000
DSTYLE
1002
{
1070
   287
1070
     3
1070
   287
1070
     3
1070
     3
1000
φ<>
1070
    40
1040
30.0
1070
   143
1040
0.039
1070
   172
1070
     1
1070
   271
1070
     0
1070
   279
1070
     0
1070
   288
1070
     1
1002
}
  0
DIMENSION
  5
7BCC
  8
3
  6
CONTINUOUS
  2
*D7
 10
4833.7006849999998
 20
4255.5672229999991
 30
0.0
 11
5003.2006849999998
 21
4339.5830198349568
 31
0.0
 70
   128
 13
5172.7006849999998
 23
3730.4315339999998
 33
0.0
 14
4833.7006849999998
 24
4198.0944039999986
 34
0.0
1001
ACAD
1000
DSTYLE
1002
{
1070
   288
1070
     1
1070
   172
1070
     1
1070
    40
1040
30.0
1070
   271
1070
     0
1070
   143
1040
0.039
1002
}
  0
DIMENSION
  5
7BD8
  8
3
  6
CONTINUOUS
  2
*D8
 10
4223.7006849999989
 20
4255.5672229999991
 30
0.0
 11
4528.7006849999989
 21
4405.567223
 31
0.0
 70
     0
  1
MAX\P640
 13
4833.7006849999998
 23
4198.0944039999986
 33
0.0
 14
4223.7006849999989
 24
3760.4315339999998
 34
0.0
1001
ACAD
1000
DSTYLE
1002
{
1070
   287
1070
     4
1070
   287
1070
     4
1070
    40
1040
30.0
1070
    75
1070
     1
1070
   143
1040
0.039
1070
   172
1070
     1
1070
   271
1070
     0
1070
   279
1070
     1
1070
   288
1070
     1
1002
}
  0
DIMENSION
  5
7C17
  8
3
  6
CONTINUOUS
  2
*D9
 10
2763.2445210000001
 20
6517.3160479999988
 30
0.0
 11
1801.844715
 21
6517.3160479999988
 31
0.0
 70
   128
 13
1013.244521
 23
6321.7026109999997
 33
0.0
 14
2763.2445210000001
 24
6321.7026109999997
 34
0.0
1001
ACAD
1000
DSTYLE
1002
{
1070
   287
1070
     3
1070
   287
1070
     3
1070
    40
1040
30.0
1070
   143
1040
0.039
1070
   172
1070
     1
1070
   271
1070
     0
1070
   279
1070
     0
1070
   288
1070
     1
1002
}
  0
DIMENSION
  5
7C24
  8
3
  6
CONTINUOUS
  2
*D10
 10
3114.425303
 20
5401.7026109999997
 30
0.0
 11
3114.425303
 21
5867.2241990000002
 31
0.0
 70
   128
 13
2763.2445210000001
 23
6321.7026109999997
 33
0.0
 14
2763.2445210000001
 24
5401.7026109999997
 34
0.0
 50
90.0
1001
ACAD
1000
DSTYLE
1002
{
1070
   287
1070
     3
1070
   287
1070
     3
1070
    40
1040
30.0
1070
   143
1040
0.039
1070
   172
1070
     1
1070
   271
1070
     0
1070
   279
1070
     0
1070
   288
1070
     1
1002
}
  0
DIMENSION
  5
7C35
  8
3
  6
CONTINUOUS
  2
*D11
 10
2836.2394629917312
 20
4278.7847920000004
 30
0.0
 11
2514.7419919958652
 21
4353.7847920000004
 31
0.0
 70
     0
 13
2193.2445210000001
 23
4062.9761669999998
 33
0.0
 14
2836.2394629917312
 24
3255.4315339999998
 34
0.0
1001
ACAD
1000
DSTYLE
1002
{
1070
   287
1070
     4
1070
   287
1070
     4
1070
    40
1040
30.0
1070
    75
1070
     1
1070
   143
1040
0.039
1070
   172
1070
     1
1070
   271
1070
     0
1070
   279
1070
     1
1070
   288
1070
     1
1002
}
  0
DIMENSION
  5
7D00
  8
3
  2
*D12
 10
2193.2445210000001
 20
2080.130687701072
 30
0.0
 11
1603.2445210000001
 21
2155.130687701072
 31
0.0
 70
     0
 13
1013.244521
 23
2292.4315339999989
 33
0.0
 14
2193.2445210000001
 24
2292.4315339999989
 34
0.0
1001
ACAD
1000
DSTYLE
1002
{
1070
   287
1070
     3
1070
   287
1070
     3
1070
    40
1040
30.0
1070
   143
1040
0.039
1070
   172
1070
     1
1070
   271
1070
     0
1070
   279
1070
     0
1002
}
  0
DIMENSION
  5
7D0D
  8
3
  2
*D13
 10
2763.2445210000001
 20
2080.130687701072
 30
0.0
 11
2478.2445210000001
 21
2155.130687701072
 31
0.0
 70
     0
 13
2193.2445210000001
 23
2292.4315339999989
 33
0.0
 14
2763.2445210000001
 24
2292.4315339999989
 34
0.0
1001
ACAD
1000
DSTYLE
1002
{
1070
   287
1070
     3
1070
   287
1070
     3
1070
    40
1040
30.0
1070
   143
1040
0.039
1070
   172
1070
     1
1070
   271
1070
     0
1070
   279
1070
     0
1002
}
  0
DIMENSION
  5
7D1A
  8
3
  2
*D14
 10
4833.7006850000007
 20
2080.130687701072
 30
0.0
 11
4567.2006849999989
 21
2155.130687701072
 31
0.0
 70
     0
 13
4300.7006849999989
 23
2292.4315339999989
 33
0.0
 14
4833.7006850000007
 24
2292.4315339999989
 34
0.0
1001
ACAD
1000
DSTYLE
1002
{
1070
   287
1070
     3
1070
   287
1070
     3
1070
    40
1040
30.0
1070
   143
1040
0.039
1070
   172
1070
     1
1070
   271
1070
     0
1070
   279
1070
     0
1002
}
  0
DIMENSION
  5
7D29
  8
3
  2
*D15
 10
5220.7006849999998
 20
2080.130687701072
 30
0.0
 11
5027.2006849999998
 21
2155.130687701072
 31
0.0
 70
     0
 13
4833.7006850000007
 23
2292.4315339999989
 33
0.0
 14
5220.7006849999998
 24
2292.4315339999989
 34
0.0
1001
ACAD
1000
DSTYLE
1002
{
1070
   287
1070
     3
1070
   287
1070
     3
1070
    40
1040
30.0
1070
   143
1040
0.039
1070
   172
1070
     1
1070
   271
1070
     0
1070
   279
1070
     0
1002
}
  0
DIMENSION
  5
7D40
  8
3
  2
*D17
 10
3155.913770172253
 20
2295.4315339999989
 30
0.0
 11
3080.913770172253
 21
2038.2886768571429
 31
0.0
 70
     0
 13
2763.2445210000001
 23
2395.4315339999989
 33
0.0
 14
2763.2445210000001
 24
2295.4315339999989
 34
0.0
 50
90.0
1001
ACAD
1000
DSTYLE
1002
{
1070
   287
1070
     3
1070
   287
1070
     3
1070
    40
1040
30.0
1070
   143
1040
0.039
1070
   172
1070
     1
1070
   271
1070
     0
1070
   279
1070
     0
1070
     6
1000
DOT
1002
}
  0
DIMENSION
  5
7D5E
  8
3
  2
*D18
 10
3152.5057499440991
 20
2490.4315339999998
 30
0.0
 11
3296.0771785155271
 21
2442.9315339999989
 31
0.0
 70
     0
 13
2763.2445210000001
 23
2395.4315339999989
 33
0.0
 14
2763.2445210000001
 24
2490.4315339999998
 34
0.0
 50
90.0
1001
ACAD
1000
DSTYLE
1002
{
1070
   172
1070
     1
1070
    40
1040
30.0
1070
     3
1000
(<>)
1070
   271
1070
     0
1070
     6
1000
_DOT
1070
   143
1040
0.039
1002
}
  0
LINE
  5
7EF0
  8
1
  6
CONTINUOUS
 10
2753.2445209999992
 20
3710.4315339999998
 30
0.0
 11
1633.2445209999989
 21
3710.4315339999998
 31
0.0
  0
LINE
  5
7EF1
  8
1
 10
1633.2445209999989
 20
2590.4315339999998
 30
0.0
 11
1633.2445209999989
 21
3710.4315339999998
 31
0.0
  0
LINE
  5
7EF2
  8
1
 10
2753.2445210000001
 20
2590.4315339999998
 30
0.0
 11
2753.2445209999992
 21
3710.4315339999998
 31
0.0
  0
ENDSEC
  0
EOF
