  0
SECTION
  2
HEADER
  9
$ACADVER
  1
AC1009
  9
$INSBASE
 10
0.0
 20
0.0
 30
0.0
  9
$EXTMIN
 10
750.0
 20
900.0
 30
0.0
  9
$EXTMAX
 10
5550.0
 20
8359.9567849999985
 30
0.0
  9
$LIMMIN
 10
0.0
 20
0.0
  9
$LIMMAX
 10
297.0
 20
210.0
  9
$ORTHOMODE
 70
     0
  9
$REGENMODE
 70
     1
  9
$FILLMODE
 70
     0
  9
$QTEXTMODE
 70
     0
  9
$MIRRTEXT
 70
     1
  9
$DRAGMODE
 70
     2
  9
$LTSCALE
 40
100.0
  9
$OSMODE
 70
    37
  9
$ATTMODE
 70
     1
  9
$TEXTSIZE
 40
180.0
  9
$TRACEWID
 40
0.05
  9
$TEXTSTYLE
  7
STANDARD
  9
$CLAYER
  8
3
  9
$CELTYPE
  6
BYLAYER
  9
$CECOLOR
 62
   256
  9
$DIMSCALE
 40
30.0
  9
$DIMASZ
 40
2.0
  9
$DIMEXO
 40
0.5
  9
$DIMDLI
 40
10.0
  9
$DIMRND
 40
0.0
  9
$DIMDLE
 40
0.0
  9
$DIMEXE
 40
1.0
  9
$DIMTP
 40
1.0
  9
$DIMTM
 40
1.0
  9
$DIMTXT
 40
3.0
  9
$DIMCEN
 40
0.0
  9
$DIMTSZ
 40
0.0
  9
$DIMTOL
 70
     0
  9
$DIMLIM
 70
     0
  9
$DIMTIH
 70
     0
  9
$DIMTOH
 70
     0
  9
$DIMSE1
 70
     0
  9
$DIMSE2
 70
     0
  9
$DIMTAD
 70
     1
  9
$DIMZIN
 70
     8
  9
$DIMBLK
  1

  9
$DIMASO
 70
     1
  9
$DIMSHO
 70
     1
  9
$DIMPOST
  1
(<>)
  9
$DIMAPOST
  1

  9
$DIMALT
 70
     0
  9
$DIMALTD
 70
     2
  9
$DIMALTF
 40
0.039
  9
$DIMLFAC
 40
1.0
  9
$DIMTOFL
 70
     1
  9
$DIMTVP
 40
0.0
  9
$DIMTIX
 70
     0
  9
$DIMSOXD
 70
     0
  9
$DIMSAH
 70
     1
  9
$DIMBLK1
  1
DOT
  9
$DIMBLK2
  1
OPEN
  9
$DIMSTYLE
  2
IGA
  9
$DIMCLRD
 70
     0
  9
$DIMCLRE
 70
     0
  9
$DIMCLRT
 70
     0
  9
$DIMTFAC
 40
10.0
  9
$DIMGAP
 40
1.0
  9
$LUNITS
 70
     2
  9
$LUPREC
 70
     3
  9
$SKETCHINC
 40
0.1
  9
$FILLETRAD
 40
50.0
  9
$AUNITS
 70
     0
  9
$AUPREC
 70
     0
  9
$MENU
  1
acad
  9
$ELEVATION
 40
0.0
  9
$PELEVATION
 40
0.0
  9
$THICKNESS
 40
0.0
  9
$LIMCHECK
 70
     0
  9
$BLIPMODE
 70
     0
  9
$CHAMFERA
 40
0.5
  9
$CHAMFERB
 40
0.5
  9
$SKPOLY
 70
     0
  9
$TDCREATE
 40
2450749.59591169
  9
$TDUPDATE
 40
2454953.8417158788
  9
$TDINDWG
 40
0.0192919444
  9
$TDUSRTIMER
 40
0.0192919444
  9
$USRTIMER
 70
     1
  9
$ANGBASE
 50
0.0
  9
$ANGDIR
 70
     0
  9
$PDMODE
 70
     0
  9
$PDSIZE
 40
0.0
  9
$PLINEWID
 40
0.0
  9
$COORDS
 70
     1
  9
$SPLFRAME
 70
     0
  9
$SPLINETYPE
 70
     6
  9
$SPLINESEGS
 70
     8
  9
$ATTDIA
 70
     0
  9
$ATTREQ
 70
     1
  9
$HANDLING
 70
 10241
  9
$HANDSEED
  5
8045
  9
$SURFTAB1
 70
     6
  9
$SURFTAB2
 70
     6
  9
$SURFTYPE
 70
     6
  9
$SURFU
 70
     6
  9
$SURFV
 70
     6
  9
$UCSNAME
  2

  9
$UCSORG
 10
0.0
 20
0.0
 30
0.0
  9
$UCSXDIR
 10
1.0
 20
0.0
 30
0.0
  9
$UCSYDIR
 10
0.0
 20
1.0
 30
0.0
  9
$PUCSNAME
  2

  9
$PUCSORG
 10
0.0
 20
0.0
 30
0.0
  9
$PUCSXDIR
 10
1.0
 20
0.0
 30
0.0
  9
$PUCSYDIR
 10
0.0
 20
1.0
 30
0.0
  9
$USERI1
 70
     0
  9
$USERI2
 70
     0
  9
$USERI3
 70
     0
  9
$USERI4
 70
     0
  9
$USERI5
 70
     0
  9
$USERR1
 40
0.0
  9
$USERR2
 40
0.0
  9
$USERR3
 40
0.0
  9
$USERR4
 40
0.0
  9
$USERR5
 40
0.0
  9
$WORLDVIEW
 70
     1
  9
$SHADEDGE
 70
     3
  9
$SHADEDIF
 70
    70
  9
$TILEMODE
 70
     1
  9
$MAXACTVP
 70
    16
  9
$PLIMCHECK
 70
     0
  9
$PEXTMIN
 10
1.0000000000000000E+020
 20
1.0000000000000000E+020
 30
1.0000000000000000E+020
  9
$PEXTMAX
 10
-1.0000000000000000E+020
 20
-1.0000000000000000E+020
 30
-1.0000000000000000E+020
  9
$PLIMMIN
 10
0.0
 20
0.0
  9
$PLIMMAX
 10
12.0
 20
9.0
  9
$UNITMODE
 70
     0
  9
$VISRETAIN
 70
     0
  9
$PLINEGEN
 70
     0
  9
$PSLTSCALE
 70
     1
  0
ENDSEC
  0
SECTION
  2
TABLES
  0
TABLE
  2
VPORT
 70
     2
  0
VPORT
  2
*ACTIVE
 70
     0
 10
0.0
 20
0.0
 11
1.0
 21
1.0
 12
3485.146055041786
 22
4419.4352772991224
 13
0.0
 23
0.0
 14
10.0
 24
10.0
 15
10.0
 25
10.0
 16
0.0
 26
0.0
 36
1.0
 17
0.0
 27
0.0
 37
0.0
 40
9063.6721106144687
 41
1.5051150895140659
 42
50.0
 43
0.0
 44
0.0
 50
0.0
 51
0.0
 71
     0
 72
   100
 73
     1
 74
     0
 75
     0
 76
     0
 77
     0
 78
     0
  0
ENDTAB
  0
TABLE
  2
LTYPE
 70
     2
  0
LTYPE
  2
CONTINUOUS
 70
     0
  3
Solid line
 72
    65
 73
     0
 40
0.0
  0
LTYPE
  2
CENTER
 70
     0
  3
____ _ ____ _ ____ _ ____ _ ____ _ ____ _ ____ 
 72
    65
 73
     4
 40
2.0
 49
1.25
 49
-0.25
 49
0.25
 49
-0.25
  0
ENDTAB
  0
TABLE
  2
LAYER
 70
     6
  0
LAYER
  2
0
 70
     0
 62
     7
  6
CONTINUOUS
  0
LAYER
  2
3
 70
     0
 62
     2
  6
CONTINUOUS
  0
LAYER
  2
2
 70
     0
 62
     3
  6
CENTER
  0
LAYER
  2
1
 70
     0
 62
     4
  6
CONTINUOUS
  0
LAYER
  2
4
 70
     0
 62
     7
  6
CONTINUOUS
  0
LAYER
  2
DEFPOINTS
 70
     0
 62
     7
  6
CONTINUOUS
  0
ENDTAB
  0
TABLE
  2
STYLE
 70
     1
  0
STYLE
  2
STANDARD
 70
     0
 40
0.0
 41
1.0
 50
0.0
 71
     0
 42
180.0
  3
simplex.shx
  4
extfont.shx
  0
ENDTAB
  0
TABLE
  2
VIEW
 70
     0
  0
ENDTAB
  0
TABLE
  2
UCS
 70
     0
  0
ENDTAB
  0
TABLE
  2
APPID
 70
     1
  0
APPID
  2
ACAD
 70
     0
  0
ENDTAB
  0
TABLE
  2
DIMSTYLE
 70
     1
  0
DIMSTYLE
  2
IGA
 70
     0
  3

  4

  5

  6
OPEN
  7
OPEN
 40
2.0
 41
2.0
 42
0.5
 43
10.0
 44
1.0
 45
0.0
 46
0.0
 47
1.0
 48
1.0
140
3.0
141
0.0
142
0.0
143
0.03937
144
1.0
145
0.0
146
10.0
147
1.0
 71
     0
 72
     0
 73
     0
 74
     0
 75
     0
 76
     0
 77
     1
 78
     8
170
     0
171
     2
172
     0
173
     1
174
     0
175
     0
176
     0
177
     0
178
     0
  0
ENDTAB
  0
ENDSEC
  0
SECTION
  2
BLOCKS
  0
BLOCK
  8
0
  2
$MODEL_SPACE
 70
     0
 10
0.0
 20
0.0
 30
0.0
  3
$MODEL_SPACE
  1

  0
ENDBLK
  5
1B
  8
0
  0
BLOCK
 67
     1
  8
0
  2
$PAPER_SPACE
 70
     0
 10
0.0
 20
0.0
 30
0.0
  3
$PAPER_SPACE
  1

  0
ENDBLK
  5
18
 67
     1
  8
0
  0
BLOCK
  8
0
  2
_OPEN
 70
     0
 10
0.0
 20
0.0
 30
0.0
  3
_OPEN
  1

  0
LINE
  5
7B7E
  8
0
  6
BYBLOCK
 62
     0
 10
-1.0
 20
0.166667
 30
0.0
 11
0.0
 21
0.0
 31
0.0
  0
LINE
  5
7B7F
  8
0
  6
BYBLOCK
 62
     0
 10
0.0
 20
0.0
 30
0.0
 11
-1.0
 21
-0.166667
 31
0.0
  0
LINE
  5
7B80
  8
0
  6
BYBLOCK
 62
     0
 10
0.0
 20
0.0
 30
0.0
 11
-1.0
 21
0.0
 31
0.0
  0
ENDBLK
  5
7B81
  8
0
  0
BLOCK
  8
0
  2
*D1
 70
     1
 10
0.0
 20
0.0
 30
0.0
  3
*D1
  1

  0
LINE
  5
7FAC
  8
3
  6
CONTINUOUS
 62
     0
 10
1451.4857689999999
 20
3847.8438639999999
 30
0.0
 11
1284.0186880000001
 21
3847.8438639999999
 31
0.0
  0
LINE
  5
7FAD
  8
3
  6
CONTINUOUS
 62
     0
 10
1451.4857689999999
 20
2922.8438639999999
 30
0.0
 11
1284.0186880000001
 21
2922.8438639999999
 31
0.0
  0
LINE
  5
7FAE
  8
3
  6
CONTINUOUS
 62
     0
 10
1314.0186880000001
 20
3787.8438639999999
 30
0.0
 11
1314.0186880000001
 21
2982.8438639999999
 31
0.0
  0
INSERT
  5
7FAF
  8
3
  6
CONTINUOUS
 62
     0
  2
_OPEN
 10
1314.0186880000001
 20
3847.8438639999999
 30
0.0
 41
60.0
 42
60.0
 43
60.0
 50
90.0
  0
INSERT
  5
7FB0
  8
3
  6
CONTINUOUS
 62
     0
  2
_OPEN
 10
1314.0186880000001
 20
2922.8438639999999
 30
0.0
 41
60.0
 42
60.0
 43
60.0
 50
270.0
  0
TEXT
  8
3
  40
90
  5
8035
  62
0
  72
0
  71
0
 10
1059.02
 20
3193.63
 30
0.000000
  1
925
  0
POINT
  5
7FB2
  8
DEFPOINTS
  6
CONTINUOUS
 62
     0
 10
1466.4857689999999
 20
3847.8438639999999
 30
0.0
  0
POINT
  5
7FB3
  8
DEFPOINTS
  6
CONTINUOUS
 62
     0
 10
1466.4857689999999
 20
2922.8438639999999
 30
0.0
  0
POINT
  5
7FB4
  8
DEFPOINTS
  6
CONTINUOUS
 62
     0
 10
1314.0186880000001
 20
2922.8438639999999
 30
0.0
  0
ENDBLK
  5
7BC7
  8
0
  0
BLOCK
  8
0
  2
*D2
 70
     1
 10
0.0
 20
0.0
 30
0.0
  3
*D2
  1

  0
LINE
  5
7FB5
  8
3
  6
CONTINUOUS
 62
     0
 10
1451.4857689999999
 20
3847.8438639999999
 30
0.0
 11
1103.4113130000001
 21
3847.8438639999999
 31
0.0
  0
LINE
  5
7FB6
  8
3
  6
CONTINUOUS
 62
     0
 10
1351.3529309999999
 20
2964.8438639999999
 30
0.0
 11
1103.4113130000001
 21
2964.8438639999999
 31
0.0
  0
LINE
  5
7FB7
  8
3
  6
CONTINUOUS
 62
     0
 10
1133.4113130000001
 20
3787.8438639999999
 30
0.0
 11
1133.4113130000001
 21
3024.8438639999999
 31
0.0
  0
INSERT
  5
7FB8
  8
3
  6
CONTINUOUS
 62
     0
  2
_OPEN
 10
1133.4113130000001
 20
3847.8438639999999
 30
0.0
 41
60.0
 42
60.0
 43
60.0
 50
90.0
  0
INSERT
  5
7FB9
  8
3
  6
CONTINUOUS
 62
     0
  2
_OPEN
 10
1133.4113130000001
 20
2964.8438639999999
 30
0.0
 41
60.0
 42
60.0
 43
60.0
 50
270.0
  0
TEXT
  8
3
  40
90
  5
8036
  62
0
  72
0
  71
0
 10
878.411
 20
3187.40
 30
0.000000
  1
883
  0
POINT
  5
7FBB
  8
DEFPOINTS
  6
CONTINUOUS
 62
     0
 10
1466.4857689999999
 20
3847.8438639999999
 30
0.0
  0
POINT
  5
7FBC
  8
DEFPOINTS
  6
CONTINUOUS
 62
     0
 10
1366.3529309999999
 20
2964.8438639999999
 30
0.0
  0
POINT
  5
7FBD
  8
DEFPOINTS
  6
CONTINUOUS
 62
     0
 10
1133.4113130000001
 20
2964.8438639999999
 30
0.0
  0
ENDBLK
  5
7BD4
  8
0
  0
BLOCK
  8
0
  2
*D3
 70
     1
 10
0.0
 20
0.0
 30
0.0
  3
*D3
  1

  0
LINE
  5
7FBE
  8
3
  6
CONTINUOUS
 62
     0
 10
1536.4857689999999
 20
2199.843863999999
 30
0.0
 11
1103.4113130000001
 21
2199.843863999999
 31
0.0
  0
LINE
  5
7FBF
  8
3
  6
CONTINUOUS
 62
     0
 10
1133.4113130000001
 20
2904.8438639999999
 30
0.0
 11
1133.4113130000001
 21
2259.8438639999999
 31
0.0
  0
INSERT
  5
7FC0
  8
3
  6
CONTINUOUS
 62
     0
  2
_OPEN
 10
1133.4113130000001
 20
2964.8438639999999
 30
0.0
 41
60.0
 42
60.0
 43
60.0
 50
90.0
  0
INSERT
  5
7FC1
  8
3
  6
CONTINUOUS
 62
     0
  2
_OPEN
 10
1133.4113130000001
 20
2199.843863999999
 30
0.0
 41
60.0
 42
60.0
 43
60.0
 50
270.0
  0
TEXT
  8
3
  40
90
  5
8037
  62
0
  72
0
  71
0
 10
878.411
 20
2423.04
 30
0.000000
  1
765
  0
POINT
  5
7FC3
  8
DEFPOINTS
  6
CONTINUOUS
 62
     0
 10
1366.3529309999999
 20
2964.8438639999999
 30
0.0
  0
POINT
  5
7FC4
  8
DEFPOINTS
  6
CONTINUOUS
 62
     0
 10
1551.4857689999999
 20
2199.843863999999
 30
0.0
  0
POINT
  5
7FC5
  8
DEFPOINTS
  6
CONTINUOUS
 62
     0
 10
1133.4113130000001
 20
2199.843863999999
 30
0.0
  0
ENDBLK
  5
7BEE
  8
0
  0
BLOCK
  8
0
  2
*D4
 70
     1
 10
0.0
 20
0.0
 30
0.0
  3
*D4
  1

  0
LINE
  5
7FC6
  8
3
  6
CONTINUOUS
 62
     0
 10
1466.4857689999999
 20
3905.3438639999999
 30
0.0
 11
1466.4857689999999
 21
4079.9332680000002
 31
0.0
  0
LINE
  5
7FC7
  8
3
  6
CONTINUOUS
 62
     0
 10
2121.4857689999999
 20
3952.3493100000001
 30
0.0
 11
2121.4857689999999
 21
4079.9332680000002
 31
0.0
  0
LINE
  5
7FC8
  8
3
  6
CONTINUOUS
 62
     0
 10
1526.485768999999
 20
4049.9332680000002
 30
0.0
 11
2061.4857689999999
 21
4049.9332680000002
 31
0.0
  0
INSERT
  5
7FC9
  8
3
  6
CONTINUOUS
 62
     0
  2
_OPEN
 10
1466.4857689999999
 20
4049.9332680000002
 30
0.0
 41
60.0
 42
60.0
 43
60.0
 50
180.0
  0
INSERT
  5
7FCA
  8
3
  6
CONTINUOUS
 62
     0
  2
_OPEN
 10
2121.4857689999999
 20
4049.9332680000002
 30
0.0
 41
60.0
 42
60.0
 43
60.0
  0
TEXT
  8
3
  40
90
  5
8038
  62
0
  72
0
  71
0
 10
1575.57
 20
3965.63
 30
0.000000
  1
655
  0
POINT
  5
7FCC
  8
DEFPOINTS
  6
CONTINUOUS
 62
     0
 10
1466.4857689999999
 20
3890.3438639999999
 30
0.0
  0
POINT
  5
7FCD
  8
DEFPOINTS
  6
CONTINUOUS
 62
     0
 10
2121.4857689999999
 20
3937.3493100000001
 30
0.0
  0
POINT
  5
7FCE
  8
DEFPOINTS
  6
CONTINUOUS
 62
     0
 10
2121.4857689999999
 20
4049.9332680000002
 30
0.0
  0
ENDBLK
  5
7C18
  8
0
  0
BLOCK
  8
0
  2
*D5
 70
     1
 10
0.0
 20
0.0
 30
0.0
  3
*D5
  1

  0
LINE
  5
7FCF
  8
3
  6
CONTINUOUS
 62
     0
 10
5061.7577529999999
 20
3439.8438639999999
 30
0.0
 11
5348.2563149999996
 21
3439.843863999999
 31
0.0
  0
LINE
  5
7FD0
  8
3
  6
CONTINUOUS
 62
     0
 10
5061.7577529999999
 20
2489.8438639999999
 30
0.0
 11
5348.2563149999996
 21
2489.843863999999
 31
0.0
  0
LINE
  5
7FD1
  8
3
  6
CONTINUOUS
 62
     0
 10
5318.2563150000015
 20
3379.843863999999
 30
0.0
 11
5318.2563150000015
 21
2549.843863999999
 31
0.0
  0
INSERT
  5
7FD2
  8
3
  6
CONTINUOUS
 62
     0
  2
_OPEN
 10
5318.2563150000015
 20
3439.843863999999
 30
0.0
 41
60.0
 42
60.0
 43
60.0
 50
90.0
  0
INSERT
  5
7FD3
  8
3
  6
CONTINUOUS
 62
     0
  2
_OPEN
 10
5318.2563150000015
 20
2489.843863999999
 30
0.0
 41
60.0
 42
60.0
 43
60.0
 50
270.0
  0
TEXT
  8
3
  40
90
  5
8039
  62
0
  72
0
  71
0
 10
5063.26
 20
2801.56
 30
0.000000
  1
φ950
  0
POINT
  5
7FD5
  8
DEFPOINTS
  6
CONTINUOUS
 62
     0
 10
5046.7577529999999
 20
3439.8438639999999
 30
0.0
  0
POINT
  5
7FD6
  8
DEFPOINTS
  6
CONTINUOUS
 62
     0
 10
5046.7577529999999
 20
2489.8438639999999
 30
0.0
  0
POINT
  5
7FD7
  8
DEFPOINTS
  6
CONTINUOUS
 62
     0
 10
5318.2563150000015
 20
2489.843863999999
 30
0.0
  0
ENDBLK
  5
7D89
  8
0
  0
BLOCK
  8
0
  2
*D6
 70
     1
 10
0.0
 20
0.0
 30
0.0
  3
*D6
  1

  0
LINE
  5
7D75
  8
0
  6
BYBLOCK
 62
     0
 10
5046.7577529999999
 20
3454.8438639999999
 30
0.0
 11
5046.7577529999999
 21
4223.0687979999993
 31
0.0
  0
LINE
  5
7D76
  8
0
  6
BYBLOCK
 62
     0
 10
4707.7577529999999
 20
4122.3156439999993
 30
0.0
 11
4707.7577529999999
 21
4223.0687979999993
 31
0.0
  0
LINE
  5
7D77
  8
0
  6
BYBLOCK
 62
     0
 10
4986.7577529999999
 20
4193.0687979999993
 30
0.0
 11
4767.7577529999999
 21
4193.0687979999993
 31
0.0
  0
TEXT
  5
7D78
  8
3
 62
     0
 10
4763.6863244285714
 20
4238.0881709972527
 30
0.0
 40
90.0
  1
339
  0
INSERT
  5
7D79
  8
0
  6
BYBLOCK
 62
     0
  2
_OPEN
 10
5046.7577529999999
 20
4193.0687979999993
 30
0.0
 41
60.0
 42
60.0
 43
60.0
  0
INSERT
  5
7D7A
  8
0
  6
BYBLOCK
 62
     0
  2
_OPEN
 10
4707.7577529999999
 20
4193.0687979999993
 30
0.0
 41
60.0
 42
60.0
 43
60.0
 50
180.0
  0
POINT
  5
7D7B
  8
DEFPOINTS
  6
BYBLOCK
 62
     0
 10
5046.7577529999999
 20
3439.8438639999999
 30
0.0
  0
POINT
  5
7D7C
  8
DEFPOINTS
  6
BYBLOCK
 62
     0
 10
4707.7577529999999
 20
4107.3156439999984
 30
0.0
  0
POINT
  5
7D7D
  8
DEFPOINTS
  6
BYBLOCK
 62
     0
 10
4707.7577529999999
 20
4193.0687979999993
 30
0.0
  0
ENDBLK
  5
7D7E
  8
0
  0
BLOCK
  8
0
  2
*D7
 70
     1
 10
0.0
 20
0.0
 30
0.0
  3
*D7
  1

  0
LINE
  5
7FD8
  8
3
  6
CONTINUOUS
 62
     0
 10
4097.757752999999
 20
3484.8438639999999
 30
0.0
 11
4097.757752999999
 21
4223.0687979999993
 31
0.0
  0
LINE
  5
7FD9
  8
3
  6
CONTINUOUS
 62
     0
 10
4647.757752999999
 20
4193.0687979999993
 30
0.0
 11
4157.7577529999999
 21
4193.0687979999993
 31
0.0
  0
INSERT
  5
7FDA
  8
3
  6
CONTINUOUS
 62
     0
  2
_OPEN
 10
4707.7577529999999
 20
4193.0687979999993
 30
0.0
 41
60.0
 42
60.0
 43
60.0
  0
INSERT
  5
7FDB
  8
3
  6
CONTINUOUS
 62
     0
  2
_OPEN
 10
4097.757752999999
 20
4193.0687979999993
 30
0.0
 41
60.0
 42
60.0
 43
60.0
 50
180.0
  0
TEXT
  8
3
  40
90
  5
803A
  62
0
  72
0
  71
0
 10
4222.76
 20
4183.77
 30
0.000000
  1
MAX
  0
TEXT
  8
3
  40
90
  5
803B
  62
0
  72
0
  71
0
 10
4222.76
 20
4066.77
 30
0.000000
  1
640
  0
POINT
  5
7FDD
  8
DEFPOINTS
  6
CONTINUOUS
 62
     0
 10
4707.7577529999999
 20
4107.3156439999984
 30
0.0
  0
POINT
  5
7FDE
  8
DEFPOINTS
  6
CONTINUOUS
 62
     0
 10
4097.757752999999
 20
3469.843863999999
 30
0.0
  0
POINT
  5
7FDF
  8
DEFPOINTS
  6
CONTINUOUS
 62
     0
 10
4097.757752999999
 20
4193.0687979999993
 30
0.0
  0
ENDBLK
  5
7D93
  8
0
  0
BLOCK
  8
0
  2
*D8
 70
     1
 10
0.0
 20
0.0
 30
0.0
  3
*D8
  1

  0
LINE
  5
7FE0
  8
3
  6
CONTINUOUS
 62
     0
 10
1551.4857689999999
 20
6228.1002440000002
 30
0.0
 11
1551.4857689999999
 21
6488.4986500000014
 31
0.0
  0
LINE
  5
7FE1
  8
3
  6
CONTINUOUS
 62
     0
 10
3301.4857690000008
 20
6228.1002440000002
 30
0.0
 11
3301.4857690000008
 21
6488.4986500000014
 31
0.0
  0
LINE
  5
7FE2
  8
3
  6
CONTINUOUS
 62
     0
 10
1611.4857689999999
 20
6458.4986500000005
 30
0.0
 11
3241.4857689999999
 21
6458.4986500000005
 31
0.0
  0
INSERT
  5
7FE3
  8
3
  6
CONTINUOUS
 62
     0
  2
_OPEN
 10
1551.4857689999999
 20
6458.4986500000005
 30
0.0
 41
60.0
 42
60.0
 43
60.0
 50
180.0
  0
INSERT
  5
7FE4
  8
3
  6
CONTINUOUS
 62
     0
  2
_OPEN
 10
3301.4857690000008
 20
6458.4986500000005
 30
0.0
 41
60.0
 42
60.0
 43
60.0
  0
TEXT
  8
3
  40
90
  5
803C
  62
0
  72
0
  71
0
 10
2204.59
 20
6374.20
 30
0.000000
  1
1750
  0
POINT
  5
7FE6
  8
DEFPOINTS
  6
CONTINUOUS
 62
     0
 10
1551.4857689999999
 20
6213.1002440000002
 30
0.0
  0
POINT
  5
7FE7
  8
DEFPOINTS
  6
CONTINUOUS
 62
     0
 10
3301.4857690000008
 20
6213.1002440000002
 30
0.0
  0
POINT
  5
7FE8
  8
DEFPOINTS
  6
CONTINUOUS
 62
     0
 10
3301.4857690000008
 20
6458.4986500000005
 30
0.0
  0
ENDBLK
  5
7C9E
  8
0
  0
BLOCK
  8
0
  2
*D9
 70
     1
 10
0.0
 20
0.0
 30
0.0
  3
*D9
  1

  0
LINE
  5
7FE9
  8
3
  6
CONTINUOUS
 62
     0
 10
3316.4857689999999
 20
6213.1002440000002
 30
0.0
 11
3585.419718000001
 21
6213.1002440000002
 31
0.0
  0
LINE
  5
7FEA
  8
3
  6
CONTINUOUS
 62
     0
 10
3316.4857689999999
 20
5293.1002440000002
 30
0.0
 11
3585.419718000001
 21
5293.1002440000002
 31
0.0
  0
LINE
  5
7FEB
  8
3
  6
CONTINUOUS
 62
     0
 10
3555.419718000001
 20
6153.1002440000002
 30
0.0
 11
3555.419718000001
 21
5353.1002440000002
 31
0.0
  0
INSERT
  5
7FEC
  8
3
  6
CONTINUOUS
 62
     0
  2
_OPEN
 10
3555.419718000001
 20
6213.1002440000002
 30
0.0
 41
60.0
 42
60.0
 43
60.0
 50
90.0
  0
INSERT
  5
7FED
  8
3
  6
CONTINUOUS
 62
     0
  2
_OPEN
 10
3555.419718000001
 20
5293.1002440000002
 30
0.0
 41
60.0
 42
60.0
 43
60.0
 50
270.0
  0
TEXT
  8
3
  40
90
  5
803D
  62
0
  72
0
  71
0
 10
3300.42
 20
5589.74
 30
0.000000
  1
920
  0
POINT
  5
7FEF
  8
DEFPOINTS
  6
CONTINUOUS
 62
     0
 10
3301.4857690000008
 20
6213.1002440000002
 30
0.0
  0
POINT
  5
7FF0
  8
DEFPOINTS
  6
CONTINUOUS
 62
     0
 10
3301.4857690000008
 20
5293.1002440000002
 30
0.0
  0
POINT
  5
7FF1
  8
DEFPOINTS
  6
CONTINUOUS
 62
     0
 10
3555.419718000001
 20
5293.1002440000002
 30
0.0
  0
ENDBLK
  5
7CAB
  8
0
  0
BLOCK
  8
0
  2
*D10
 70
     1
 10
0.0
 20
0.0
 30
0.0
  3
*D10
  1

  0
LINE
  5
7FF2
  8
3
  6
CONTINUOUS
 62
     0
 10
5042.7577529999999
 20
3862.8438639999999
 30
0.0
 11
5042.7577529999999
 21
4001.8230960000001
 31
0.0
  0
LINE
  5
7FF3
  8
3
  6
CONTINUOUS
 62
     0
 10
4372.7577529999999
 20
3862.8438639999999
 30
0.0
 11
4372.7577529999999
 21
4001.8230960000001
 31
0.0
  0
LINE
  5
7FF4
  8
3
  6
CONTINUOUS
 62
     0
 10
4982.7577529999999
 20
3971.8230959999992
 30
0.0
 11
4432.757752999999
 21
3971.8230959999992
 31
0.0
  0
INSERT
  5
7FF5
  8
3
  6
CONTINUOUS
 62
     0
  2
_OPEN
 10
5042.7577529999999
 20
3971.8230959999992
 30
0.0
 41
60.0
 42
60.0
 43
60.0
  0
INSERT
  5
7FF6
  8
3
  6
CONTINUOUS
 62
     0
  2
_OPEN
 10
4372.7577529999999
 20
3971.8230959999992
 30
0.0
 41
60.0
 42
60.0
 43
60.0
 50
180.0
  0
TEXT
  8
3
  40
90
  5
803E
  62
0
  72
0
  71
0
 10
4530.12
 20
3887.52
 30
0.000000
  1
670
  0
POINT
  5
7FF8
  8
DEFPOINTS
  6
CONTINUOUS
 62
     0
 10
5042.7577529999999
 20
3847.8438639999999
 30
0.0
  0
POINT
  5
7FF9
  8
DEFPOINTS
  6
CONTINUOUS
 62
     0
 10
4372.7577529999999
 20
3847.8438639999999
 30
0.0
  0
POINT
  5
7FFA
  8
DEFPOINTS
  6
CONTINUOUS
 62
     0
 10
4372.7577529999999
 20
3971.8230959999992
 30
0.0
  0
ENDBLK
  5
7CCF
  8
0
  0
BLOCK
  8
0
  2
*D11
 70
     1
 10
0.0
 20
0.0
 30
0.0
  3
*D11
  1

  0
LINE
  5
7FFB
  8
3
  6
CONTINUOUS
 62
     0
 10
2864.4857699999989
 20
2979.8438639999999
 30
0.0
 11
2864.4857699999989
 21
4079.9332680000002
 31
0.0
  0
LINE
  5
7FFC
  8
3
  6
CONTINUOUS
 62
     0
 10
2181.4857689999999
 20
4049.9332680000002
 30
0.0
 11
2804.4857699999989
 21
4049.9332680000002
 31
0.0
  0
INSERT
  5
7FFD
  8
3
  6
CONTINUOUS
 62
     0
  2
_OPEN
 10
2121.4857689999999
 20
4049.9332680000002
 30
0.0
 41
60.0
 42
60.0
 43
60.0
 50
180.0
  0
INSERT
  5
7FFE
  8
3
  6
CONTINUOUS
 62
     0
  2
_OPEN
 10
2864.4857699999989
 20
4049.9332680000002
 30
0.0
 41
60.0
 42
60.0
 43
60.0
  0
TEXT
  8
3
  40
90
  5
803F
  62
0
  72
0
  71
0
 10
2312.99
 20
3965.63
 30
0.000000
  1
743
  0
POINT
  5
8000
  8
DEFPOINTS
  6
CONTINUOUS
 62
     0
 10
2121.4857689999999
 20
3937.3493100000001
 30
0.0
  0
POINT
  5
8001
  8
DEFPOINTS
  6
CONTINUOUS
 62
     0
 10
2864.4857699999989
 20
2964.8438639999999
 30
0.0
  0
POINT
  5
8002
  8
DEFPOINTS
  6
CONTINUOUS
 62
     0
 10
2864.4857699999989
 20
4049.9332680000002
 30
0.0
  0
ENDBLK
  5
7D0A
  8
0
  0
BLOCK
  8
0
  2
*D12
 70
     1
 10
0.0
 20
0.0
 30
0.0
  3
*D12
  1

  0
LINE
  5
8003
  8
3
 62
     0
 10
1551.4857689999999
 20
1989.8438639999999
 30
0.0
 11
1551.4857689999999
 21
1779.1493432136231
 31
0.0
  0
LINE
  5
8004
  8
3
 62
     0
 10
2121.4857689999999
 20
1989.8438639999999
 30
0.0
 11
2121.4857689999999
 21
1779.1493432136231
 31
0.0
  0
LINE
  5
8005
  8
3
 62
     0
 10
1611.4857689999999
 20
1809.1493432136231
 30
0.0
 11
2061.4857689999999
 21
1809.1493432136231
 31
0.0
  0
INSERT
  5
8006
  8
3
 62
     0
  2
_OPEN
 10
1551.4857689999999
 20
1809.1493432136231
 30
0.0
 41
60.0
 42
60.0
 43
60.0
 50
180.0
  0
INSERT
  5
8007
  8
3
 62
     0
  2
_OPEN
 10
2121.4857689999999
 20
1809.1493432136231
 30
0.0
 41
60.0
 42
60.0
 43
60.0
  0
TEXT
  8
3
  40
90
  5
8040
  62
0
  72
0
  71
0
 10
1656.49
 20
1724.85
 30
0.000000
  1
570
  0
POINT
  5
8009
  8
DEFPOINTS
 62
     0
 10
1551.4857689999999
 20
2004.8438639999999
 30
0.0
  0
POINT
  5
800A
  8
DEFPOINTS
 62
     0
 10
2121.4857689999999
 20
2004.8438639999999
 30
0.0
  0
POINT
  5
800B
  8
DEFPOINTS
 62
     0
 10
2121.4857689999999
 20
1809.1493432136231
 30
0.0
  0
ENDBLK
  5
7DA7
  8
0
  0
BLOCK
  8
0
  2
*D13
 70
     1
 10
0.0
 20
0.0
 30
0.0
  3
*D13
  1

  0
LINE
  5
800C
  8
3
 62
     0
 10
2121.4857689999999
 20
1989.8438639999999
 30
0.0
 11
2121.4857689999999
 21
1779.1493432136231
 31
0.0
  0
LINE
  5
800D
  8
3
 62
     0
 10
3301.4857690000008
 20
1989.8438639999999
 30
0.0
 11
3301.4857690000008
 21
1779.1493432136231
 31
0.0
  0
LINE
  5
800E
  8
3
 62
     0
 10
2181.4857689999999
 20
1809.1493432136231
 30
0.0
 11
3241.4857689999999
 21
1809.1493432136231
 31
0.0
  0
INSERT
  5
800F
  8
3
 62
     0
  2
_OPEN
 10
2121.4857689999999
 20
1809.1493432136231
 30
0.0
 41
60.0
 42
60.0
 43
60.0
 50
180.0
  0
INSERT
  5
8010
  8
3
 62
     0
  2
_OPEN
 10
3301.4857690000008
 20
1809.1493432136231
 30
0.0
 41
60.0
 42
60.0
 43
60.0
  0
TEXT
  8
3
  40
90
  5
8041
  62
0
  72
0
  71
0
 10
2531.49
 20
1724.85
 30
0.000000
  1
1180
  0
POINT
  5
8012
  8
DEFPOINTS
 62
     0
 10
2121.4857689999999
 20
2004.8438639999999
 30
0.0
  0
POINT
  5
8013
  8
DEFPOINTS
 62
     0
 10
3301.4857690000008
 20
2004.8438639999999
 30
0.0
  0
POINT
  5
8014
  8
DEFPOINTS
 62
     0
 10
3301.4857690000008
 20
1809.1493432136231
 30
0.0
  0
ENDBLK
  5
7DB4
  8
0
  0
BLOCK
  8
0
  2
*D14
 70
     1
 10
0.0
 20
0.0
 30
0.0
  3
*D14
  1

  0
LINE
  5
8015
  8
3
 62
     0
 10
4174.7577529999999
 20
1989.8438639999999
 30
0.0
 11
4174.7577529999999
 21
1779.1493432136231
 31
0.0
  0
LINE
  5
8016
  8
3
 62
     0
 10
4707.7577529999999
 20
1989.8438639999999
 30
0.0
 11
4707.7577529999999
 21
1779.1493432136231
 31
0.0
  0
LINE
  5
8017
  8
3
 62
     0
 10
4234.7577529999999
 20
1809.1493432136231
 30
0.0
 11
4647.757752999999
 21
1809.1493432136231
 31
0.0
  0
INSERT
  5
8018
  8
3
 62
     0
  2
_OPEN
 10
4174.7577529999999
 20
1809.1493432136231
 30
0.0
 41
60.0
 42
60.0
 43
60.0
 50
180.0
  0
INSERT
  5
8019
  8
3
 62
     0
  2
_OPEN
 10
4707.7577529999999
 20
1809.1493432136231
 30
0.0
 41
60.0
 42
60.0
 43
60.0
  0
TEXT
  8
3
  40
90
  5
8042
  62
0
  72
0
  71
0
 10
4261.26
 20
1724.85
 30
0.000000
  1
533
  0
POINT
  5
801B
  8
DEFPOINTS
 62
     0
 10
4174.7577529999999
 20
2004.8438639999999
 30
0.0
  0
POINT
  5
801C
  8
DEFPOINTS
 62
     0
 10
4707.7577529999999
 20
2004.8438639999999
 30
0.0
  0
POINT
  5
801D
  8
DEFPOINTS
 62
     0
 10
4707.7577529999999
 20
1809.1493432136231
 30
0.0
  0
ENDBLK
  5
7DC1
  8
0
  0
BLOCK
  8
0
  2
*D15
 70
     1
 10
0.0
 20
0.0
 30
0.0
  3
*D15
  1

  0
LINE
  5
801E
  8
3
 62
     0
 10
4707.7577529999999
 20
1989.8438639999999
 30
0.0
 11
4707.7577529999999
 21
1779.1493432136231
 31
0.0
  0
LINE
  5
801F
  8
3
 62
     0
 10
5094.757752999999
 20
1989.8438639999999
 30
0.0
 11
5094.757752999999
 21
1779.1493432136231
 31
0.0
  0
LINE
  5
8020
  8
3
 62
     0
 10
4767.7577529999999
 20
1809.1493432136231
 30
0.0
 11
5034.7577529999999
 21
1809.1493432136231
 31
0.0
  0
INSERT
  5
8021
  8
3
 62
     0
  2
_OPEN
 10
4707.7577529999999
 20
1809.1493432136231
 30
0.0
 41
60.0
 42
60.0
 43
60.0
 50
180.0
  0
INSERT
  5
8022
  8
3
 62
     0
  2
_OPEN
 10
5094.757752999999
 20
1809.1493432136231
 30
0.0
 41
60.0
 42
60.0
 43
60.0
  0
TEXT
  8
3
  40
90
  5
8043
  62
0
  72
0
  71
0
 10
4721.26
 20
1724.85
 30
0.000000
  1
387
  0
POINT
  5
8024
  8
DEFPOINTS
 62
     0
 10
4707.7577529999999
 20
2004.8438639999999
 30
0.0
  0
POINT
  5
8025
  8
DEFPOINTS
 62
     0
 10
5094.757752999999
 20
2004.8438639999999
 30
0.0
  0
POINT
  5
8026
  8
DEFPOINTS
 62
     0
 10
5094.757752999999
 20
1809.1493432136231
 30
0.0
  0
ENDBLK
  5
7DD0
  8
0
  0
BLOCK
  8
0
  2
_DOT
 70
     0
 10
0.0
 20
0.0
 30
0.0
  3
_DOT
  1

  0
POLYLINE
  5
7DD4
  8
0
  6
BYBLOCK
 62
     0
 66
     1
 10
0.0
 20
0.0
 30
0.0
 70
     1
 40
0.5
 41
0.5
  0
VERTEX
  5
8027
  8
0
  6
BYBLOCK
 62
     0
 10
-0.25
 20
0.0
 30
0.0
 42
1.0
  0
VERTEX
  5
8028
  8
0
  6
BYBLOCK
 62
     0
 10
0.25
 20
0.0
 30
0.0
 42
1.0
  0
SEQEND
  5
8029
  8
0
  6
BYBLOCK
 62
     0
  0
LINE
  5
7DD8
  8
0
  6
BYBLOCK
 62
     0
 10
-0.5
 20
0.0
 30
0.0
 11
-1.0
 21
0.0
 31
0.0
  0
ENDBLK
  5
7DD9
  8
0
  0
BLOCK
  8
0
  2
*D17
 70
     1
 10
0.0
 20
0.0
 30
0.0
  3
*D17
  1

  0
LINE
  5
802A
  8
3
 62
     0
 10
1536.4857689999999
 20
2104.8438639999999
 30
0.0
 11
1102.6688701943531
 21
2104.8438639999999
 31
0.0
  0
LINE
  5
802B
  8
3
 62
     0
 10
1536.4857689999999
 20
2004.8438639999999
 30
0.0
 11
1102.6688701943531
 21
2004.8438639999999
 31
0.0
  0
LINE
  5
802C
  8
3
 62
     0
 10
1132.6688701943531
 20
2164.843863999999
 30
0.0
 11
1132.6688701943531
 21
2224.843863999999
 31
0.0
  0
LINE
  5
802D
  8
3
 62
     0
 10
1132.6688701943531
 20
1944.8438639999999
 30
0.0
 11
1132.6688701943531
 21
1610.5581497142859
 31
0.0
  0
LINE
  5
802E
  8
3
 62
     0
 10
1132.6688701943531
 20
2104.8438639999999
 30
0.0
 11
1132.6688701943531
 21
2004.8438639999999
 31
0.0
  0
INSERT
  5
802F
  8
3
 62
     0
  2
_DOT
 10
1132.6688701943531
 20
2104.8438639999999
 30
0.0
 41
60.0
 42
60.0
 43
60.0
 50
270.0
  0
INSERT
  5
8030
  8
3
 62
     0
  2
_OPEN
 10
1132.6688701943531
 20
2004.8438639999999
 30
0.0
 41
60.0
 42
60.0
 43
60.0
 50
90.0
  0
TEXT
  8
3
  40
90
  5
8044
  62
0
  72
0
  71
0
 10
877.669
 20
1588.40
 30
0.000000
  1
100
  0
POINT
  5
8032
  8
DEFPOINTS
 62
     0
 10
1551.4857689999999
 20
2104.8438639999999
 30
0.0
  0
POINT
  5
8033
  8
DEFPOINTS
 62
     0
 10
1551.4857689999999
 20
2004.8438639999999
 30
0.0
  0
POINT
  5
8034
  8
DEFPOINTS
 62
     0
 10
1132.6688701943531
 20
2004.8438639999999
 30
0.0
  0
ENDBLK
  5
7DE7
  8
0
  0
BLOCK
  8
0
  2
*D18
 70
     1
 10
0.0
 20
0.0
 30
0.0
  3
*D18
  1

  0
LINE
  5
7DEB
  8
0
  6
BYBLOCK
 62
     0
 10
1536.4857689999999
 20
2104.8438639999999
 30
0.0
 11
1102.6688701943531
 21
2104.8438639999999
 31
0.0
  0
LINE
  5
7DEC
  8
0
  6
BYBLOCK
 62
     0
 10
1536.4857689999999
 20
2199.843863999999
 30
0.0
 11
1102.6688701943531
 21
2199.843863999999
 31
0.0
  0
LINE
  5
7DED
  8
0
  6
BYBLOCK
 62
     0
 10
1132.6688701943531
 20
2044.8438639999999
 30
0.0
 11
1132.6688701943531
 21
1984.8438639999999
 31
0.0
  0
LINE
  5
7DEE
  8
0
  6
BYBLOCK
 62
     0
 10
1132.6688701943531
 20
2259.8438639999999
 30
0.0
 11
1132.6688701943531
 21
2319.8438639999999
 31
0.0
  0
TEXT
  5
7DEF
  8
3
 62
     0
 10
1019.097441622924
 20
2021.6295782857139
 30
0.0
 40
90.0
  1
(95)
 50
90.0
  0
LINE
  5
7DF0
  8
0
  6
BYBLOCK
 62
     0
 10
1132.6688701943531
 20
2104.8438639999999
 30
0.0
 11
1132.6688701943531
 21
2199.843863999999
 31
0.0
  0
INSERT
  5
7DF1
  8
0
  6
BYBLOCK
 62
     0
  2
_DOT
 10
1132.6688701943531
 20
2104.8438639999999
 30
0.0
 41
60.0
 42
60.0
 43
60.0
 50
90.0
  0
INSERT
  5
7DF2
  8
0
  6
BYBLOCK
 62
     0
  2
_OPEN
 10
1132.6688701943531
 20
2199.843863999999
 30
0.0
 41
60.0
 42
60.0
 43
60.0
 50
270.0
  0
POINT
  5
7DF3
  8
DEFPOINTS
  6
BYBLOCK
 62
     0
 10
1551.4857689999999
 20
2104.8438639999999
 30
0.0
  0
POINT
  5
7DF4
  8
DEFPOINTS
  6
BYBLOCK
 62
     0
 10
1551.4857689999999
 20
2199.843863999999
 30
0.0
  0
POINT
  5
7DF5
  8
DEFPOINTS
  6
BYBLOCK
 62
     0
 10
1132.6688701943531
 20
2199.843863999999
 30
0.0
  0
ENDBLK
  5
7DF6
  8
0
  0
BLOCK
  8
0
  2
A$C0FD01F2C
 70
     0
 10
0.0
 20
0.0
 30
0.0
  3
A$C0FD01F2C
  1

  0
LINE
  5
7F8B
  8
1
  6
CONTINUOUS
 10
560.0
 20
455.0
 30
0.0
 11
-559.99999999999955
 21
455.0
 31
0.0
  0
LINE
  5
7F8C
  8
1
 10
-559.99999999999955
 20
-664.99999999999955
 30
0.0
 11
-559.99999999999955
 21
455.0
 31
0.0
  0
LINE
  5
7F8D
  8
1
 10
560.00000000000045
 20
-664.99999999999955
 30
0.0
 11
560.0
 21
455.0
 31
0.0
  0
ENDBLK
  5
7F8F
  8
0
  0
ENDSEC
  0
SECTION
  2
ENTITIES
  0
POLYLINE
  5
7ACD
  8
1
  6
CONTINUOUS
 66
     1
 10
0.0
 20
0.0
 30
0.0
  0
VERTEX
  5
7FA6
  8
1
  6
CONTINUOUS
 10
1466.4857689999999
 20
3847.8438639999999
 30
0.0
  0
VERTEX
  5
7FA7
  8
1
  6
CONTINUOUS
 10
2121.4857689999999
 20
3825.8438639999999
 30
0.0
 42
-0.4168370000000001
  0
VERTEX
  5
7FA8
  8
1
  6
CONTINUOUS
 10
2863.9257280000002
 20
2957.669922
 30
0.0
 42
-0.429867
  0
VERTEX
  5
7FA9
  8
1
  6
CONTINUOUS
 10
2077.6096079999988
 20
2326.4186869999999
 30
0.0
 42
-0.373172
  0
VERTEX
  5
7FAA
  8
1
  6
CONTINUOUS
 10
1553.5170410000001
 20
2922.8438639999999
 30
0.0
 42
-0.34598
  0
SEQEND
  5
7FAB
  8
1
  6
CONTINUOUS
  0
LINE
  5
7AD4
  8
1
  6
CONTINUOUS
 10
1551.485768999999
 20
2299.8438639999999
 30
0.0
 11
3301.4857690000008
 21
2299.8438639999999
 31
0.0
  0
LINE
  5
7AD5
  8
1
  6
CONTINUOUS
 10
1551.4857689999999
 20
2199.843863999999
 30
0.0
 11
3301.4857690000008
 21
2199.843863999999
 31
0.0
  0
LINE
  5
7AD6
  8
1
  6
CONTINUOUS
 10
1551.4857689999999
 20
2104.8438639999999
 30
0.0
 11
3301.4857690000008
 21
2104.8438639999999
 31
0.0
  0
LINE
  5
7AD7
  8
1
  6
CONTINUOUS
 10
1551.4857689999999
 20
2004.8438639999999
 30
0.0
 11
3301.4857690000008
 21
2004.8438639999999
 31
0.0
  0
LINE
  5
7AD8
  8
1
  6
CONTINUOUS
 10
3141.9310529999998
 20
2613.0038119999999
 30
0.0
 11
2258.4604639999998
 21
3178.7455540000001
 31
0.0
  0
LINE
  5
7AD9
  8
1
  6
CONTINUOUS
 10
3084.2723569999998
 20
2476.8459290000001
 30
0.0
 11
2063.1896829999991
 21
2717.6241920000002
 31
0.0
  0
LINE
  5
7ADA
  8
1
  6
CONTINUOUS
 10
3281.4857689999999
 20
2649.8438639999999
 30
0.0
 11
2301.4857689999999
 21
3469.843863999999
 31
0.0
  0
LINE
  5
7ADB
  8
1
  6
CONTINUOUS
 10
1551.4857689999999
 20
5293.1002440000002
 30
0.0
 11
3301.4857690000008
 21
5293.1002440000002
 31
0.0
  0
LINE
  5
7ADC
  8
1
  6
CONTINUOUS
 10
1466.4857689999999
 20
6161.1002440000002
 30
0.0
 11
2866.6530400000001
 21
6161.1002440000002
 31
0.0
  0
LINE
  5
7ADD
  8
1
  6
CONTINUOUS
 10
1466.4857689999999
 20
5491.1002440000002
 30
0.0
 11
2866.6530400000001
 21
5491.1002440000002
 31
0.0
  0
LINE
  5
7ADE
  8
1
  6
CONTINUOUS
 10
3281.4857689999999
 20
5438.1002440000011
 30
0.0
 11
1641.485768999999
 21
5438.1002440000011
 31
0.0
  0
LINE
  5
7ADF
  8
1
  6
CONTINUOUS
 10
3281.4857689999999
 20
5268.1002440000002
 30
0.0
 11
1641.485768999999
 21
5268.1002440000002
 31
0.0
  0
LINE
  5
7AE0
  8
1
  6
CONTINUOUS
 10
1551.4857689999999
 20
6213.1002440000002
 30
0.0
 11
3301.4857690000008
 21
6213.1002440000002
 31
0.0
  0
LINE
  5
7AE1
  8
1
  6
CONTINUOUS
 10
1551.4857689999999
 20
2004.8438639999999
 30
0.0
 11
1551.4857689999999
 21
2104.8438639999999
 31
0.0
  0
LINE
  5
7AE4
  8
1
  6
CONTINUOUS
 10
1466.4857689999999
 20
2880.3438639999999
 30
0.0
 11
1466.4857689999999
 21
3890.3438639999999
 31
0.0
  0
LINE
  5
7AE5
  8
1
  6
CONTINUOUS
 10
1506.4857689999999
 20
2922.8438639999999
 30
0.0
 11
1506.4857689999999
 21
3846.500352999999
 31
0.0
  0
LINE
  5
7AE7
  8
1
  6
CONTINUOUS
 10
1551.4857689999999
 20
2299.8438639999999
 30
0.0
 11
1551.4857689999999
 21
2199.843863999999
 31
0.0
  0
LINE
  5
7AE8
  8
1
  6
CONTINUOUS
 10
1553.5170410000001
 20
2922.8438639999999
 30
0.0
 11
1466.4857689999999
 21
2922.8438639999999
 31
0.0
  0
CIRCLE
  5
7AEB
  8
1
  6
CONTINUOUS
 10
2121.4857689999999
 20
2964.8438639999999
 30
0.0
 40
254.0
  0
LINE
  5
7AEC
  8
2
  6
CENTER
 10
5125.1932610000003
 20
2964.8438639999999
 30
0.0
 11
3992.0416369999989
 21
2964.8438639999999
 31
0.0
  0
LINE
  5
7AED
  8
1
  6
CONTINUOUS
 10
1641.485768999999
 20
3469.843863999999
 30
0.0
 11
2301.4857689999999
 21
3469.843863999999
 31
0.0
  0
LINE
  5
7AEE
  8
2
  6
CENTER
 10
2121.4857689999999
 20
2004.8438639999999
 30
0.0
 11
2121.4857689999999
 21
3937.3493100000001
 31
0.0
  0
LINE
  5
7AEF
  8
1
  6
CONTINUOUS
 10
1641.485768999999
 20
2299.8438639999999
 30
0.0
 11
1641.485768999999
 21
3469.843863999999
 31
0.0
  0
LINE
  5
7AF0
  8
1
  6
CONTINUOUS
 10
1466.4857689999999
 20
5449.1002440000002
 30
0.0
 11
1466.4857689999999
 21
6203.1002440000002
 31
0.0
  0
LINE
  5
7AF1
  8
1
  6
CONTINUOUS
 10
1506.4857689999999
 20
5491.1002440000002
 30
0.0
 11
1506.4857689999999
 21
6161.1002440000002
 31
0.0
  0
LINE
  5
7AF2
  8
1
  6
CONTINUOUS
 10
1551.4857689999999
 20
5293.1002440000002
 30
0.0
 11
1551.4857689999999
 21
5491.1002440000002
 31
0.0
  0
LINE
  5
7AF3
  8
1
  6
CONTINUOUS
 10
1551.4857689999999
 20
6161.1002440000002
 30
0.0
 11
1551.4857689999999
 21
6213.1002440000002
 31
0.0
  0
LINE
  5
7AF4
  8
1
  6
CONTINUOUS
 10
2375.4857689999999
 20
5405.1002440000002
 30
0.0
 11
1867.4857689999999
 21
5405.1002440000002
 31
0.0
  0
LINE
  5
7AF5
  8
1
  6
CONTINUOUS
 10
2375.4857689999999
 20
5301.1002440000002
 30
0.0
 11
1867.4857689999999
 21
5301.1002440000002
 31
0.0
  0
LINE
  5
7AF6
  8
1
  6
CONTINUOUS
 10
1867.4857689999999
 20
5301.1002440000002
 30
0.0
 11
1867.4857689999999
 21
5405.1002440000002
 31
0.0
  0
LINE
  5
7AF7
  8
1
  6
CONTINUOUS
 10
1641.485768999999
 20
5268.1002440000002
 30
0.0
 11
1641.485768999999
 21
5438.1002440000011
 31
0.0
  0
LINE
  5
7AF8
  8
1
  6
CONTINUOUS
 10
2096.4857689999999
 20
5405.1002440000002
 30
0.0
 11
2096.4857689999999
 21
5491.1002440000002
 31
0.0
  0
LINE
  5
7AF9
  8
1
  6
CONTINUOUS
 10
2146.4857689999999
 20
5405.1002440000002
 30
0.0
 11
2146.4857689999999
 21
5491.1002440000002
 31
0.0
  0
LINE
  5
7AFA
  8
1
  6
CONTINUOUS
 10
2375.4857689999999
 20
5301.1002440000002
 30
0.0
 11
2375.4857689999999
 21
5405.1002440000002
 31
0.0
  0
LINE
  5
7B0D
  8
1
  6
CONTINUOUS
 10
3301.4857690000008
 20
2004.8438639999999
 30
0.0
 11
3301.4857690000008
 21
2104.8438639999999
 31
0.0
  0
ARC
  5
7B11
  8
1
  6
CONTINUOUS
 10
3101.4857689999999
 20
2549.8438639999999
 30
0.0
 40
162.0
 50
324.972283
 51
215.02771699999991
  0
CIRCLE
  5
7B12
  8
1
  6
CONTINUOUS
 10
3101.4857689999999
 20
2549.8438639999999
 30
0.0
 40
75.0
  0
LINE
  5
7B13
  8
2
  6
CENTER
 10
3181.4857689999999
 20
2549.8438639999999
 30
0.0
 11
3021.4857689999999
 21
2549.8438639999999
 31
0.0
  0
LINE
  5
7B14
  8
1
  6
CONTINUOUS
 10
2903.9857689999999
 20
2339.8438639999999
 30
0.0
 11
2903.9857689999999
 21
2299.8438639999999
 31
0.0
  0
LINE
  5
7B15
  8
1
  6
CONTINUOUS
 10
2903.9857689999999
 20
2339.8438639999999
 30
0.0
 11
2913.9857689999999
 21
2389.843863999999
 31
0.0
  0
LINE
  5
7B16
  8
1
  6
CONTINUOUS
 10
2968.8281029999998
 20
2456.8602969999988
 30
0.0
 11
2913.9857689999999
 21
2389.843863999999
 31
0.0
  0
LINE
  5
7B17
  8
1
  6
CONTINUOUS
 10
3301.4857690000008
 20
2299.8438639999999
 30
0.0
 11
3301.4857690000008
 21
2199.843863999999
 31
0.0
  0
LINE
  5
7B18
  8
1
  6
CONTINUOUS
 10
3298.9857689999999
 20
2339.8438639999999
 30
0.0
 11
3298.9857689999999
 21
2299.8438639999999
 31
0.0
  0
LINE
  5
7B19
  8
1
  6
CONTINUOUS
 10
3288.9857689999999
 20
2389.843863999999
 30
0.0
 11
3298.9857689999999
 21
2339.8438639999999
 31
0.0
  0
LINE
  5
7B1A
  8
1
  6
CONTINUOUS
 10
3288.9857689999999
 20
2389.843863999999
 30
0.0
 11
3234.1434339999992
 21
2456.8602969999988
 31
0.0
  0
LINE
  5
7B1B
  8
2
  6
CENTER
 10
3101.4857689999999
 20
2469.843863999999
 30
0.0
 11
3101.4857689999999
 21
2629.8438639999999
 31
0.0
  0
LINE
  5
7B1C
  8
1
  6
CONTINUOUS
 10
3281.4857689999999
 20
2299.8438639999999
 30
0.0
 11
3281.4857689999999
 21
2649.8438639999999
 31
0.0
  0
LINE
  5
7B2C
  8
1
  6
CONTINUOUS
 10
5094.757752999999
 20
2104.8438639999999
 30
0.0
 11
5094.757752999999
 21
2004.8438639999999
 31
0.0
  0
LINE
  5
7B2D
  8
1
  6
CONTINUOUS
 10
4174.7577529999999
 20
2104.8438639999999
 30
0.0
 11
4174.7577529999999
 21
2004.8438639999999
 31
0.0
  0
LINE
  5
7B2F
  8
1
  6
CONTINUOUS
 10
4174.7577529999999
 20
2004.8438639999999
 30
0.0
 11
5094.757752999999
 21
2004.8438639999999
 31
0.0
  0
LINE
  5
7B36
  8
1
  6
CONTINUOUS
 10
4372.7577529999999
 20
3847.8438639999999
 30
0.0
 11
5042.7577529999999
 21
2922.8438639999999
 31
0.0
  0
LINE
  5
7B37
  8
1
  6
CONTINUOUS
 10
4372.7577529999999
 20
2922.8438639999999
 30
0.0
 11
5042.7577529999999
 21
3847.8438639999999
 31
0.0
  0
LINE
  5
7B38
  8
1
  6
CONTINUOUS
 10
5042.7577529999999
 20
3847.8438639999999
 30
0.0
 11
5042.7577529999999
 21
2299.8438639999999
 31
0.0
  0
LINE
  5
7B39
  8
1
  6
CONTINUOUS
 10
4372.7577529999999
 20
3847.8438639999999
 30
0.0
 11
4372.7577529999999
 21
2299.8438639999999
 31
0.0
  0
LINE
  5
7B3A
  8
1
  6
CONTINUOUS
 10
4174.7577529999999
 20
2299.8438639999999
 30
0.0
 11
5094.757752999999
 21
2299.8438639999999
 31
0.0
  0
LINE
  5
7B3B
  8
1
  6
CONTINUOUS
 10
4174.7577529999999
 20
2104.8438639999999
 30
0.0
 11
5094.757752999999
 21
2104.8438639999999
 31
0.0
  0
LINE
  5
7B3C
  8
1
  6
CONTINUOUS
 10
4174.7577529999999
 20
2199.843863999999
 30
0.0
 11
5094.757752999999
 21
2199.843863999999
 31
0.0
  0
LINE
  5
7B3D
  8
1
  6
CONTINUOUS
 10
4372.7577529999999
 20
2922.8438639999999
 30
0.0
 11
5042.7577529999999
 21
2922.8438639999999
 31
0.0
  0
LINE
  5
7B3E
  8
1
  6
CONTINUOUS
 10
4319.7577529999999
 20
3469.843863999999
 30
0.0
 11
4319.7577529999999
 21
2299.8438639999999
 31
0.0
  0
LINE
  5
7B3F
  8
1
  6
CONTINUOUS
 10
4097.757752999999
 20
3469.843863999999
 30
0.0
 11
4097.757752999999
 21
2299.8438639999999
 31
0.0
  0
LINE
  5
7B40
  8
1
  6
CONTINUOUS
 10
4286.757752999999
 20
3218.8438639999999
 30
0.0
 11
4286.757752999999
 21
2710.8438639999999
 31
0.0
  0
LINE
  5
7B41
  8
1
  6
CONTINUOUS
 10
4182.757752999999
 20
3218.8438639999999
 30
0.0
 11
4182.757752999999
 21
2710.8438639999999
 31
0.0
  0
LINE
  5
7B42
  8
1
  6
CONTINUOUS
 10
4286.757752999999
 20
2528.8438639999999
 30
0.0
 11
4372.7577529999999
 21
2528.8438639999999
 31
0.0
  0
LINE
  5
7B43
  8
1
  6
CONTINUOUS
 10
4286.757752999999
 20
2570.8438639999999
 30
0.0
 11
4372.7577529999999
 21
2570.8438639999999
 31
0.0
  0
LINE
  5
7B44
  8
1
  6
CONTINUOUS
 10
4286.757752999999
 20
2624.8438639999999
 30
0.0
 11
4286.757752999999
 21
2474.8438639999999
 31
0.0
  0
LINE
  5
7B45
  8
1
  6
CONTINUOUS
 10
4182.757752999999
 20
2624.8438639999999
 30
0.0
 11
4182.757752999999
 21
2474.8438639999999
 31
0.0
  0
LINE
  5
7B46
  8
1
  6
CONTINUOUS
 10
4182.757752999999
 20
2474.8438639999999
 30
0.0
 11
4286.757752999999
 21
2474.8438639999999
 31
0.0
  0
LINE
  5
7B47
  8
1
  6
CONTINUOUS
 10
4182.757752999999
 20
2624.8438639999999
 30
0.0
 11
4286.757752999999
 21
2624.8438639999999
 31
0.0
  0
LINE
  5
7B48
  8
1
  6
CONTINUOUS
 10
4182.757752999999
 20
2710.8438639999999
 30
0.0
 11
4286.757752999999
 21
2710.8438639999999
 31
0.0
  0
LINE
  5
7B49
  8
1
  6
CONTINUOUS
 10
4174.7577529999999
 20
2299.8438639999999
 30
0.0
 11
4174.7577529999999
 21
2199.843863999999
 31
0.0
  0
LINE
  5
7B4A
  8
1
  6
CONTINUOUS
 10
4097.757752999999
 20
2299.8438639999999
 30
0.0
 11
4174.7577529999999
 21
2299.8438639999999
 31
0.0
  0
LINE
  5
7B4B
  8
1
  6
CONTINUOUS
 10
4286.757752999999
 20
2939.8438639999999
 30
0.0
 11
4372.7577529999999
 21
2939.8438639999999
 31
0.0
  0
LINE
  5
7B4C
  8
1
  6
CONTINUOUS
 10
4286.757752999999
 20
2989.8438639999999
 30
0.0
 11
4372.7577529999999
 21
2989.8438639999999
 31
0.0
  0
LINE
  5
7B4D
  8
1
  6
CONTINUOUS
 10
4182.757752999999
 20
3218.8438639999999
 30
0.0
 11
4286.757752999999
 21
3218.8438639999999
 31
0.0
  0
LINE
  5
7B4E
  8
1
  6
CONTINUOUS
 10
4097.757752999999
 20
3469.843863999999
 30
0.0
 11
4319.7577529999999
 21
3469.843863999999
 31
0.0
  0
LINE
  5
7B4F
  8
1
  6
CONTINUOUS
 10
5094.757752999999
 20
2299.8438639999999
 30
0.0
 11
5094.757752999999
 21
2199.843863999999
 31
0.0
  0
LINE
  5
7B50
  8
1
  6
CONTINUOUS
 10
4372.7577529999999
 20
3847.8438639999999
 30
0.0
 11
5042.7577529999999
 21
3847.8438639999999
 31
0.0
  0
LINE
  5
7B59
  8
1
  6
CONTINUOUS
 10
3301.4857690000008
 20
5293.1002440000002
 30
0.0
 11
3301.4857690000008
 21
6213.1002440000002
 31
0.0
  0
LINE
  5
7B5A
  8
1
  6
CONTINUOUS
 10
2866.6530400000001
 20
5491.1002440000002
 30
0.0
 11
2866.6530400000001
 21
6161.1002440000002
 31
0.0
  0
LINE
  5
7B5B
  8
1
  6
CONTINUOUS
 10
2939.4857689999999
 20
5449.1002440000002
 30
0.0
 11
2939.4857689999999
 21
5934.1002440000002
 31
0.0
  0
LINE
  5
7B5C
  8
1
  6
CONTINUOUS
 10
3263.4857689999999
 20
5449.1002440000002
 30
0.0
 11
3263.4857689999999
 21
5934.1002440000002
 31
0.0
  0
LINE
  5
7B5D
  8
1
  6
CONTINUOUS
 10
3176.4857689999999
 20
5405.1002440000002
 30
0.0
 11
3026.4857689999999
 21
5405.1002440000002
 31
0.0
  0
LINE
  5
7B5E
  8
1
  6
CONTINUOUS
 10
3176.4857689999999
 20
5301.1002440000002
 30
0.0
 11
3026.4857689999999
 21
5301.1002440000002
 31
0.0
  0
LINE
  5
7B5F
  8
1
  6
CONTINUOUS
 10
3263.4857689999999
 20
5449.1002440000002
 30
0.0
 11
2939.4857689999999
 21
5449.1002440000002
 31
0.0
  0
LINE
  5
7B60
  8
1
  6
CONTINUOUS
 10
3026.4857689999999
 20
5301.1002440000002
 30
0.0
 11
3026.4857689999999
 21
5405.1002440000002
 31
0.0
  0
LINE
  5
7B61
  8
1
  6
CONTINUOUS
 10
3080.4857689999999
 20
5405.1002440000002
 30
0.0
 11
3080.4857689999999
 21
5449.1002440000002
 31
0.0
  0
LINE
  5
7B62
  8
1
  6
CONTINUOUS
 10
3122.4857689999999
 20
5405.1002440000002
 30
0.0
 11
3122.4857689999999
 21
5449.1002440000002
 31
0.0
  0
LINE
  5
7B63
  8
1
  6
CONTINUOUS
 10
3176.4857689999999
 20
5301.1002440000002
 30
0.0
 11
3176.4857689999999
 21
5405.1002440000002
 31
0.0
  0
LINE
  5
7B64
  8
1
  6
CONTINUOUS
 10
3281.4857689999999
 20
5268.1002440000002
 30
0.0
 11
3281.4857689999999
 21
5438.1002440000011
 31
0.0
  0
LINE
  5
7B65
  8
1
  6
CONTINUOUS
 10
3263.4857689999999
 20
5934.1002440000002
 30
0.0
 11
2939.4857689999999
 21
5934.1002440000002
 31
0.0
  0
LINE
  5
7B99
  8
2
  6
CENTER
 10
3362.3566980000001
 20
5826.1002440000002
 30
0.0
 11
1286.600535
 21
5826.1002440000002
 31
0.0
  0
LINE
  5
7B9A
  8
2
  6
CENTER
 10
4707.7577529999999
 20
3949.4830969999998
 30
0.0
 11
4707.7577529999999
 21
2004.8438639999999
 31
0.0
  0
LINE
  5
7B9B
  8
2
  6
CENTER
 10
2121.4857689999999
 20
5124.7303840000013
 30
0.0
 11
2121.4857689999999
 21
6348.6623360000003
 31
0.0
  0
LINE
  5
7B9C
  8
2
  6
CENTER
 10
3240.1235959999999
 20
2964.8438639999999
 30
0.0
 11
1366.3529309999999
 21
2964.8438639999999
 31
0.0
  0
LINE
  5
7B9D
  8
4
  6
CONTINUOUS
 10
5550.0
 20
1500.0
 30
0.0
 11
5550.0
 21
900.0
 31
0.0
  0
LINE
  5
7B9E
  8
4
  6
CONTINUOUS
 10
3450.0
 20
1500.0
 30
0.0
 11
3450.0
 21
900.0
 31
0.0
  0
LINE
  5
7B9F
  8
4
  6
CONTINUOUS
 10
1950.0
 20
1500.0
 30
0.0
 11
1950.0
 21
900.0
 31
0.0
  0
LINE
  5
7BA2
  8
4
  6
CONTINUOUS
 10
1950.0
 20
900.0
 30
0.0
 11
5550.0
 21
900.0
 31
0.0
  0
LINE
  5
7BA3
  8
4
  6
CONTINUOUS
 10
1950.0
 20
1200.0
 30
0.0
 11
5550.0
 21
1200.0
 31
0.0
  0
TEXT
  5
7BA4
  8
4
  6
CONTINUOUS
 10
2065.5062429999989
 20
1294.6290779999999
 30
0.0
 40
150.0
  1
機器名称
  0
TEXT
  5
7BA5
  8
4
  6
CONTINUOUS
 10
2058.7743179999989
 20
964.9354699999999
 30
0.0
 40
150.0
  1
機器型番
  0
TEXT
  5
7BA6
  8
4
  6
CONTINUOUS
 10
3533.0362359999999
 20
1267.7153069999999
 30
0.0
 40
150.0
  1
ミツヤ多翼送風機
  0
TEXT
  5
7BA7
  8
4
  6
CONTINUOUS
 10
3559.9634869999991
 20
951.47875299999987
 30
0.0
 40
150.0
  1
MFE#5 1/2-4
  0
TEXT
  5
7BA9
  8
4
  6
CONTINUOUS
 10
2373.5826599999991
 20
7150.2865239999992
 30
0.0
 40
162.0
  1
床置防振ベット
  0
TEXT
  5
7BAA
  8
4
  6
CONTINUOUS
 10
948.50278000000014
 20
7601.6429289999996
 30
0.0
 40
216.0
  1
ベルト駆動式片吸込両持排煙ファン
  0
LINE
  5
7BAB
  8
4
  6
CONTINUOUS
 10
750.0
 20
7408.2262629999996
 30
0.0
 11
5550.0
 21
7408.2262629999996
 31
0.0
  0
LINE
  5
7BAC
  8
4
  6
CONTINUOUS
 10
750.0
 20
8008.2262629999996
 30
0.0
 11
5550.0
 21
8008.2262629999996
 31
0.0
  0
LINE
  5
7BAD
  8
4
  6
CONTINUOUS
 10
1950.0
 20
1500.0
 30
0.0
 11
5550.0
 21
1500.0
 31
0.0
  0
LINE
  5
7BAE
  8
4
  6
CONTINUOUS
 10
750.0
 20
8008.2262629999996
 30
0.0
 11
750.0
 21
7408.2262629999996
 31
0.0
  0
TEXT
  5
7BAF
  8
4
  6
CONTINUOUS
 10
1066.0061629999991
 20
7146.9584329999998
 30
0.0
 40
162.0
  1
左回転左横向
  0
TEXT
  5
7BB0
  8
4
  6
CONTINUOUS
 10
4406.9086779999989
 20
8118.1832439999989
 30
0.0
 40
168.0
  1
No.
  0
TEXT
  5
7BB1
  8
4
  6
CONTINUOUS
 10
3933.8881879999999
 20
7150.2865239999992
 30
0.0
 40
162.0
  1
縮尺：1/30
  0
LINE
  5
7BB2
  8
4
  6
CONTINUOUS
 10
5550.0
 20
8008.2262629999996
 30
0.0
 11
5550.0
 21
7408.2262629999996
 31
0.0
  0
LINE
  5
7BB4
  8
4
  6
CONTINUOUS
 10
4321.8522670000002
 20
8043.7907490000007
 30
0.0
 11
4321.8522670000002
 21
8359.9567849999985
 31
0.0
  0
LINE
  5
7BB5
  8
4
  6
CONTINUOUS
 10
4321.8522670000002
 20
8359.9567849999985
 30
0.0
 11
5550.0
 21
8359.9567849999985
 31
0.0
  0
LINE
  5
7BB6
  8
4
  6
CONTINUOUS
 10
5550.0
 20
8359.9567849999985
 30
0.0
 11
5550.0
 21
8043.7907490000007
 31
0.0
  0
LINE
  5
7BB7
  8
4
  6
CONTINUOUS
 10
5550.0
 20
8043.7907490000007
 30
0.0
 11
4321.8522670000002
 21
8043.7907490000007
 31
0.0
  0
DIMENSION
  5
7BC8
  8
3
  6
CONTINUOUS
  2
*D1
 10
1314.0186880000001
 20
2922.8438639999999
 30
0.0
 11
1314.0186880000001
 21
3352.925471
 31
0.0
 70
   128
 13
1466.4857689999999
 23
3847.8438639999999
 33
0.0
 14
1466.4857689999999
 24
2922.8438639999999
 34
0.0
 50
90.0
1001
ACAD
1000
DSTYLE
1002
{
1070
   287
1070
     3
1070
   287
1070
     3
1070
    40
1040
30.0
1070
   143
1040
0.039
1070
   172
1070
     1
1070
   271
1070
     0
1070
   279
1070
     0
1070
   288
1070
     1
1002
}
  0
DIMENSION
  5
7BD5
  8
3
  6
CONTINUOUS
  2
*D2
 10
1133.4113130000001
 20
2964.8438639999999
 30
0.0
 11
1133.4113130000001
 21
3346.702194
 31
0.0
 70
   128
 13
1466.4857689999999
 23
3847.8438639999999
 33
0.0
 14
1366.3529309999999
 24
2964.8438639999999
 34
0.0
 50
90.0
1001
ACAD
1000
DSTYLE
1002
{
1070
   287
1070
     3
1070
   287
1070
     3
1070
    40
1040
30.0
1070
   143
1040
0.039
1070
   172
1070
     1
1070
   271
1070
     0
1070
   279
1070
     0
1070
   288
1070
     1
1002
}
  0
DIMENSION
  5
7BEF
  8
3
  6
CONTINUOUS
  2
*D3
 10
1133.4113130000001
 20
2199.843863999999
 30
0.0
 11
1058.4113129999989
 21
2582.3438639999999
 31
0.0
 70
     0
 13
1366.3529309999999
 23
2964.8438639999999
 33
0.0
 14
1551.4857689999999
 24
2199.843863999999
 34
0.0
 50
90.0
1001
ACAD
1000
DSTYLE
1002
{
1070
   287
1070
     4
1070
   287
1070
     4
1070
    40
1040
30.0
1070
    75
1070
     1
1070
   143
1040
0.039
1070
   172
1070
     1
1070
   271
1070
     0
1070
   279
1070
     1
1070
   288
1070
     1
1002
}
  0
DIMENSION
  5
7C19
  8
3
  6
CONTINUOUS
  2
*D4
 10
2121.4857689999999
 20
4049.9332680000002
 30
0.0
 11
1755.573969
 21
4049.9332680000002
 31
0.0
 70
   128
 13
1466.4857689999999
 23
3890.3438639999999
 33
0.0
 14
2121.4857689999999
 24
3937.3493100000001
 34
0.0
1001
ACAD
1000
DSTYLE
1002
{
1070
   287
1070
     3
1070
   287
1070
     3
1070
    40
1040
30.0
1070
   143
1040
0.039
1070
   172
1070
     1
1070
   271
1070
     0
1070
   279
1070
     0
1070
   288
1070
     1
1002
}
  0
LINE
  5
7C4D
  8
1
  6
CONTINUOUS
 10
5046.7577529999999
 20
3439.8438639999999
 30
0.0
 11
5046.7577529999999
 21
2489.8438639999999
 31
0.0
  0
DIMENSION
  5
7C5C
  8
3
  6
CONTINUOUS
  2
*D5
 10
5318.2563150000015
 20
2489.843863999999
 30
0.0
 11
5318.2563149999996
 21
2960.8585830000002
 31
0.0
 70
   128
 13
5046.7577529999999
 23
3439.8438639999999
 33
0.0
 14
5046.7577529999999
 24
2489.8438639999999
 34
0.0
 50
90.0
1001
ACAD
1000
DSTYLE
1002
{
1070
   287
1070
     3
1070
   287
1070
     3
1070
     3
1000
φ<>
1070
    40
1040
30.0
1070
   143
1040
0.039
1070
   172
1070
     1
1070
   271
1070
     0
1070
   279
1070
     0
1070
   288
1070
     1
1002
}
  0
DIMENSION
  5
7C6B
  8
3
  6
CONTINUOUS
  2
*D6
 10
4707.7577529999999
 20
4193.0687979999993
 30
0.0
 11
4877.2577529999999
 21
4283.0881709972527
 31
0.0
 70
   128
 13
5046.7577529999999
 23
3439.8438639999999
 33
0.0
 14
4707.7577529999999
 24
4107.3156439999984
 34
0.0
1001
ACAD
1000
DSTYLE
1002
{
1070
   288
1070
     1
1070
   172
1070
     1
1070
    40
1040
30.0
1070
   271
1070
     0
1070
   143
1040
0.039
1002
}
  0
DIMENSION
  5
7C77
  8
3
  6
CONTINUOUS
  2
*D7
 10
4097.757752999999
 20
4193.0687979999993
 30
0.0
 11
4402.7577529999999
 21
4343.0687980000002
 31
0.0
 70
     0
  1
MAX\P640
 13
4707.7577529999999
 23
4107.3156439999984
 33
0.0
 14
4097.757752999999
 24
3469.843863999999
 34
0.0
1001
ACAD
1000
DSTYLE
1002
{
1070
   287
1070
     4
1070
   287
1070
     4
1070
    40
1040
30.0
1070
    75
1070
     1
1070
   143
1040
0.039
1070
   172
1070
     1
1070
   271
1070
     0
1070
   279
1070
     1
1070
   288
1070
     1
1002
}
  0
DIMENSION
  5
7C9F
  8
3
  6
CONTINUOUS
  2
*D8
 10
3301.4857690000008
 20
6458.4986500000005
 30
0.0
 11
2384.585814
 21
6458.4986500000005
 31
0.0
 70
   128
 13
1551.4857689999999
 23
6213.1002440000002
 33
0.0
 14
3301.4857690000008
 24
6213.1002440000002
 34
0.0
1001
ACAD
1000
DSTYLE
1002
{
1070
   287
1070
     3
1070
   287
1070
     3
1070
    40
1040
30.0
1070
   143
1040
0.039
1070
   172
1070
     1
1070
   271
1070
     0
1070
   279
1070
     0
1070
   288
1070
     1
1002
}
  0
DIMENSION
  5
7CAC
  8
3
  6
CONTINUOUS
  2
*D9
 10
3555.419718000001
 20
5293.1002440000002
 30
0.0
 11
3555.4197180000001
 21
5749.0442789999988
 31
0.0
 70
   128
 13
3301.4857690000008
 23
6213.1002440000002
 33
0.0
 14
3301.4857690000008
 24
5293.1002440000002
 34
0.0
 50
90.0
1001
ACAD
1000
DSTYLE
1002
{
1070
   287
1070
     3
1070
   287
1070
     3
1070
    40
1040
30.0
1070
   143
1040
0.039
1070
   172
1070
     1
1070
   271
1070
     0
1070
   279
1070
     0
1070
   288
1070
     1
1002
}
  0
DIMENSION
  5
7CD0
  8
3
  6
CONTINUOUS
  2
*D10
 10
4372.7577529999999
 20
3971.8230959999992
 30
0.0
 11
4710.1160529999997
 21
3971.8230959999992
 31
0.0
 70
   128
 13
5042.7577529999999
 23
3847.8438639999999
 33
0.0
 14
4372.7577529999999
 24
3847.8438639999999
 34
0.0
1001
ACAD
1000
DSTYLE
1002
{
1070
   287
1070
     3
1070
   287
1070
     3
1070
    40
1040
30.0
1070
   143
1040
0.039
1070
   172
1070
     1
1070
   271
1070
     0
1070
   279
1070
     0
1070
   288
1070
     1
1002
}
  0
DIMENSION
  5
7D0B
  8
3
  6
CONTINUOUS
  2
*D11
 10
2864.4857699999989
 20
4049.9332680000002
 30
0.0
 11
2492.9857695000001
 21
4124.9332679999998
 31
0.0
 70
     0
 13
2121.4857689999999
 23
3937.3493100000001
 33
0.0
 14
2864.4857699999989
 24
2964.8438639999999
 34
0.0
1001
ACAD
1000
DSTYLE
1002
{
1070
   287
1070
     4
1070
   287
1070
     4
1070
    40
1040
30.0
1070
    75
1070
     1
1070
   143
1040
0.039
1070
   172
1070
     1
1070
   271
1070
     0
1070
   279
1070
     1
1070
   288
1070
     1
1002
}
  0
DIMENSION
  5
7DA8
  8
3
  2
*D12
 10
2121.4857689999999
 20
1809.1493432136231
 30
0.0
 11
1836.4857689999999
 21
1884.1493432136231
 31
0.0
 70
     0
 13
1551.4857689999999
 23
2004.8438639999999
 33
0.0
 14
2121.4857689999999
 24
2004.8438639999999
 34
0.0
1001
ACAD
1000
DSTYLE
1002
{
1070
   287
1070
     3
1070
   287
1070
     3
1070
    40
1040
30.0
1070
   143
1040
0.039
1070
   172
1070
     1
1070
   271
1070
     0
1070
   279
1070
     0
1002
}
  0
DIMENSION
  5
7DB5
  8
3
  2
*D13
 10
3301.4857690000008
 20
1809.1493432136231
 30
0.0
 11
2711.4857689999999
 21
1884.1493432136231
 31
0.0
 70
     0
 13
2121.4857689999999
 23
2004.8438639999999
 33
0.0
 14
3301.4857690000008
 24
2004.8438639999999
 34
0.0
1001
ACAD
1000
DSTYLE
1002
{
1070
   287
1070
     3
1070
   287
1070
     3
1070
    40
1040
30.0
1070
   143
1040
0.039
1070
   172
1070
     1
1070
   271
1070
     0
1070
   279
1070
     0
1002
}
  0
DIMENSION
  5
7DC2
  8
3
  2
*D14
 10
4707.7577529999999
 20
1809.1493432136231
 30
0.0
 11
4441.2577529999999
 21
1884.1493432136231
 31
0.0
 70
     0
 13
4174.7577529999999
 23
2004.8438639999999
 33
0.0
 14
4707.7577529999999
 24
2004.8438639999999
 34
0.0
1001
ACAD
1000
DSTYLE
1002
{
1070
   287
1070
     3
1070
   287
1070
     3
1070
    40
1040
30.0
1070
   143
1040
0.039
1070
   172
1070
     1
1070
   271
1070
     0
1070
   279
1070
     0
1002
}
  0
DIMENSION
  5
7DD1
  8
3
  2
*D15
 10
5094.757752999999
 20
1809.1493432136231
 30
0.0
 11
4901.2577529999999
 21
1884.1493432136231
 31
0.0
 70
     0
 13
4707.7577529999999
 23
2004.8438639999999
 33
0.0
 14
5094.757752999999
 24
2004.8438639999999
 34
0.0
1001
ACAD
1000
DSTYLE
1002
{
1070
   287
1070
     3
1070
   287
1070
     3
1070
    40
1040
30.0
1070
   143
1040
0.039
1070
   172
1070
     1
1070
   271
1070
     0
1070
   279
1070
     0
1002
}
  0
DIMENSION
  5
7DE8
  8
3
  2
*D17
 10
1132.6688701943531
 20
2004.8438639999999
 30
0.0
 11
1057.6688701943519
 21
1747.7010068571431
 31
0.0
 70
     0
 13
1551.4857689999999
 23
2104.8438639999999
 33
0.0
 14
1551.4857689999999
 24
2004.8438639999999
 34
0.0
 50
90.0
1001
ACAD
1000
DSTYLE
1002
{
1070
   287
1070
     3
1070
   287
1070
     3
1070
    40
1040
30.0
1070
   143
1040
0.039
1070
   172
1070
     1
1070
   271
1070
     0
1070
   279
1070
     0
1070
     6
1000
DOT
1002
}
  0
DIMENSION
  5
7DF7
  8
3
  2
*D18
 10
1132.6688701943531
 20
2199.843863999999
 30
0.0
 11
989.09744162292441
 21
2152.3438639999999
 31
0.0
 70
     0
 13
1551.4857689999999
 23
2104.8438639999999
 33
0.0
 14
1551.4857689999999
 24
2199.843863999999
 34
0.0
 50
90.0
1001
ACAD
1000
DSTYLE
1002
{
1070
   172
1070
     1
1070
    40
1040
30.0
1070
     3
1000
(<>)
1070
   271
1070
     0
1070
     6
1000
_DOT
1070
   143
1040
0.039
1002
}
  0
LINE
  5
7F91
  8
1
  6
CONTINUOUS
 10
2681.4857689999999
 20
3419.8438639999999
 30
0.0
 11
1561.4857689999999
 21
3419.8438639999999
 31
0.0
  0
LINE
  5
7F92
  8
1
 10
1561.4857689999999
 20
2299.8438639999999
 30
0.0
 11
1561.4857689999999
 21
3419.8438639999999
 31
0.0
  0
LINE
  5
7F93
  8
1
 10
2681.4857689999999
 20
2299.8438639999999
 30
0.0
 11
2681.4857689999999
 21
3419.8438639999999
 31
0.0
  0
ENDSEC
  0
EOF
