  0
SECTION
  2
HEADER
  9
$ACADVER
  1
AC1009
  9
$INSBASE
 10
0.0
 20
0.0
 30
0.0
  9
$EXTMIN
 10
750.0
 20
900.0
 30
0.0
  9
$EXTMAX
 10
5550.0
 20
8359.9567849999985
 30
0.0
  9
$LIMMIN
 10
0.0
 20
0.0
  9
$LIMMAX
 10
297.0
 20
210.0
  9
$ORTHOMODE
 70
     0
  9
$REGENMODE
 70
     1
  9
$FILLMODE
 70
     0
  9
$QTEXTMODE
 70
     0
  9
$MIRRTEXT
 70
     1
  9
$DRAGMODE
 70
     2
  9
$LTSCALE
 40
100.0
  9
$OSMODE
 70
    37
  9
$ATTMODE
 70
     1
  9
$TEXTSIZE
 40
180.0
  9
$TRACEWID
 40
0.05
  9
$TEXTSTYLE
  7
STANDARD
  9
$CLAYER
  8
3
  9
$CELTYPE
  6
BYLAYER
  9
$CECOLOR
 62
   256
  9
$DIMSCALE
 40
30.0
  9
$DIMASZ
 40
2.0
  9
$DIMEXO
 40
0.5
  9
$DIMDLI
 40
10.0
  9
$DIMRND
 40
0.0
  9
$DIMDLE
 40
0.0
  9
$DIMEXE
 40
1.0
  9
$DIMTP
 40
1.0
  9
$DIMTM
 40
1.0
  9
$DIMTXT
 40
3.0
  9
$DIMCEN
 40
0.0
  9
$DIMTSZ
 40
0.0
  9
$DIMTOL
 70
     0
  9
$DIMLIM
 70
     0
  9
$DIMTIH
 70
     0
  9
$DIMTOH
 70
     0
  9
$DIMSE1
 70
     0
  9
$DIMSE2
 70
     0
  9
$DIMTAD
 70
     1
  9
$DIMZIN
 70
     8
  9
$DIMBLK
  1

  9
$DIMASO
 70
     1
  9
$DIMSHO
 70
     1
  9
$DIMPOST
  1

  9
$DIMAPOST
  1

  9
$DIMALT
 70
     0
  9
$DIMALTD
 70
     2
  9
$DIMALTF
 40
0.039
  9
$DIMLFAC
 40
1.0
  9
$DIMTOFL
 70
     1
  9
$DIMTVP
 40
0.0
  9
$DIMTIX
 70
     0
  9
$DIMSOXD
 70
     0
  9
$DIMSAH
 70
     1
  9
$DIMBLK1
  1
OPEN
  9
$DIMBLK2
  1
OPEN
  9
$DIMSTYLE
  2
IGA
  9
$DIMCLRD
 70
     0
  9
$DIMCLRE
 70
     0
  9
$DIMCLRT
 70
     0
  9
$DIMTFAC
 40
10.0
  9
$DIMGAP
 40
1.0
  9
$LUNITS
 70
     2
  9
$LUPREC
 70
     3
  9
$SKETCHINC
 40
0.1
  9
$FILLETRAD
 40
50.0
  9
$AUNITS
 70
     0
  9
$AUPREC
 70
     0
  9
$MENU
  1
acad
  9
$ELEVATION
 40
0.0
  9
$PELEVATION
 40
0.0
  9
$THICKNESS
 40
0.0
  9
$LIMCHECK
 70
     0
  9
$BLIPMODE
 70
     0
  9
$CHAMFERA
 40
0.5
  9
$CHAMFERB
 40
0.5
  9
$SKPOLY
 70
     0
  9
$TDCREATE
 40
2450751.5911622681
  9
$TDUPDATE
 40
2454953.8416549419
  9
$TDINDWG
 40
0.0088799306
  9
$TDUSRTIMER
 40
0.0088799306
  9
$USRTIMER
 70
     1
  9
$ANGBASE
 50
0.0
  9
$ANGDIR
 70
     0
  9
$PDMODE
 70
     0
  9
$PDSIZE
 40
0.0
  9
$PLINEWID
 40
0.0
  9
$COORDS
 70
     1
  9
$SPLFRAME
 70
     0
  9
$SPLINETYPE
 70
     6
  9
$SPLINESEGS
 70
     8
  9
$ATTDIA
 70
     0
  9
$ATTREQ
 70
     1
  9
$HANDLING
 70
 10241
  9
$HANDSEED
  5
7F92
  9
$SURFTAB1
 70
     6
  9
$SURFTAB2
 70
     6
  9
$SURFTYPE
 70
     6
  9
$SURFU
 70
     6
  9
$SURFV
 70
     6
  9
$UCSNAME
  2

  9
$UCSORG
 10
0.0
 20
0.0
 30
0.0
  9
$UCSXDIR
 10
1.0
 20
0.0
 30
0.0
  9
$UCSYDIR
 10
0.0
 20
1.0
 30
0.0
  9
$PUCSNAME
  2

  9
$PUCSORG
 10
0.0
 20
0.0
 30
0.0
  9
$PUCSXDIR
 10
1.0
 20
0.0
 30
0.0
  9
$PUCSYDIR
 10
0.0
 20
1.0
 30
0.0
  9
$USERI1
 70
     0
  9
$USERI2
 70
     0
  9
$USERI3
 70
     0
  9
$USERI4
 70
     0
  9
$USERI5
 70
     0
  9
$USERR1
 40
0.0
  9
$USERR2
 40
0.0
  9
$USERR3
 40
0.0
  9
$USERR4
 40
0.0
  9
$USERR5
 40
0.0
  9
$WORLDVIEW
 70
     1
  9
$SHADEDGE
 70
     3
  9
$SHADEDIF
 70
    70
  9
$TILEMODE
 70
     1
  9
$MAXACTVP
 70
    16
  9
$PLIMCHECK
 70
     0
  9
$PEXTMIN
 10
1.0000000000000000E+020
 20
1.0000000000000000E+020
 30
1.0000000000000000E+020
  9
$PEXTMAX
 10
-1.0000000000000000E+020
 20
-1.0000000000000000E+020
 30
-1.0000000000000000E+020
  9
$PLIMMIN
 10
0.0
 20
0.0
  9
$PLIMMAX
 10
12.0
 20
9.0
  9
$UNITMODE
 70
     0
  9
$VISRETAIN
 70
     0
  9
$PLINEGEN
 70
     0
  9
$PSLTSCALE
 70
     1
  0
ENDSEC
  0
SECTION
  2
TABLES
  0
TABLE
  2
VPORT
 70
     2
  0
VPORT
  2
*ACTIVE
 70
     0
 10
0.0
 20
0.0
 11
1.0
 21
1.0
 12
3452.716879460083
 22
4516.7227895816441
 13
0.0
 23
0.0
 14
10.0
 24
10.0
 15
10.0
 25
10.0
 16
0.0
 26
0.0
 36
1.0
 17
0.0
 27
0.0
 37
0.0
 40
9063.6721298111788
 41
1.5051150895140659
 42
50.0
 43
0.0
 44
0.0
 50
0.0
 51
0.0
 71
     0
 72
   100
 73
     1
 74
     0
 75
     0
 76
     0
 77
     0
 78
     0
  0
ENDTAB
  0
TABLE
  2
LTYPE
 70
     2
  0
LTYPE
  2
CONTINUOUS
 70
     0
  3
Solid line
 72
    65
 73
     0
 40
0.0
  0
LTYPE
  2
CENTER
 70
     0
  3
____ _ ____ _ ____ _ ____ _ ____ _ ____ _ ____ 
 72
    65
 73
     4
 40
2.0
 49
1.25
 49
-0.25
 49
0.25
 49
-0.25
  0
ENDTAB
  0
TABLE
  2
LAYER
 70
     6
  0
LAYER
  2
0
 70
     0
 62
     7
  6
CONTINUOUS
  0
LAYER
  2
3
 70
     0
 62
     2
  6
CONTINUOUS
  0
LAYER
  2
2
 70
     0
 62
     3
  6
CENTER
  0
LAYER
  2
1
 70
     0
 62
     4
  6
CONTINUOUS
  0
LAYER
  2
4
 70
     0
 62
     7
  6
CONTINUOUS
  0
LAYER
  2
DEFPOINTS
 70
     0
 62
    -7
  6
CONTINUOUS
  0
ENDTAB
  0
TABLE
  2
STYLE
 70
     1
  0
STYLE
  2
STANDARD
 70
     0
 40
0.0
 41
1.0
 50
0.0
 71
     0
 42
180.0
  3
simplex.shx
  4
extfont.shx
  0
ENDTAB
  0
TABLE
  2
VIEW
 70
     0
  0
ENDTAB
  0
TABLE
  2
UCS
 70
     0
  0
ENDTAB
  0
TABLE
  2
APPID
 70
     1
  0
APPID
  2
ACAD
 70
     0
  0
ENDTAB
  0
TABLE
  2
DIMSTYLE
 70
     1
  0
DIMSTYLE
  2
IGA
 70
     0
  3

  4

  5

  6
OPEN
  7
OPEN
 40
2.0
 41
2.0
 42
0.5
 43
10.0
 44
1.0
 45
0.0
 46
0.0
 47
1.0
 48
1.0
140
3.0
141
0.0
142
0.0
143
0.03937
144
1.0
145
0.0
146
10.0
147
1.0
 71
     0
 72
     0
 73
     0
 74
     0
 75
     0
 76
     0
 77
     1
 78
     8
170
     0
171
     2
172
     0
173
     1
174
     0
175
     0
176
     0
177
     0
178
     0
  0
ENDTAB
  0
ENDSEC
  0
SECTION
  2
BLOCKS
  0
BLOCK
  8
0
  2
$MODEL_SPACE
 70
     0
 10
0.0
 20
0.0
 30
0.0
  3
$MODEL_SPACE
  1

  0
ENDBLK
  5
1B
  8
0
  0
BLOCK
 67
     1
  8
0
  2
$PAPER_SPACE
 70
     0
 10
0.0
 20
0.0
 30
0.0
  3
$PAPER_SPACE
  1

  0
ENDBLK
  5
18
 67
     1
  8
0
  0
BLOCK
  8
0
  2
_OPEN
 70
     0
 10
0.0
 20
0.0
 30
0.0
  3
_OPEN
  1

  0
LINE
  5
7B80
  8
0
  6
BYBLOCK
 62
     0
 10
-1.0
 20
0.166667
 30
0.0
 11
0.0
 21
0.0
 31
0.0
  0
LINE
  5
7B81
  8
0
  6
BYBLOCK
 62
     0
 10
0.0
 20
0.0
 30
0.0
 11
-1.0
 21
-0.166667
 31
0.0
  0
LINE
  5
7B82
  8
0
  6
BYBLOCK
 62
     0
 10
0.0
 20
0.0
 30
0.0
 11
-1.0
 21
0.0
 31
0.0
  0
ENDBLK
  5
7B83
  8
0
  0
BLOCK
  8
0
  2
*D1
 70
     1
 10
0.0
 20
0.0
 30
0.0
  3
*D1
  1

  0
LINE
  5
7EE7
  8
3
  6
CONTINUOUS
 62
     0
 10
1479.591983
 20
3616.8821429999998
 30
0.0
 11
1320.70991
 21
3616.8821429999998
 31
0.0
  0
LINE
  5
7EE8
  8
3
  6
CONTINUOUS
 62
     0
 10
1479.591983
 20
2691.8821429999989
 30
0.0
 11
1320.70991
 21
2691.8821429999989
 31
0.0
  0
LINE
  5
7EE9
  8
3
  6
CONTINUOUS
 62
     0
 10
1350.70991
 20
3556.8821429999998
 30
0.0
 11
1350.70991
 21
2751.8821429999998
 31
0.0
  0
INSERT
  5
7EEA
  8
3
  6
CONTINUOUS
 62
     0
  2
_OPEN
 10
1350.70991
 20
3616.8821429999998
 30
0.0
 41
60.0
 42
60.0
 43
60.0
 50
90.0
  0
INSERT
  5
7EEB
  8
3
  6
CONTINUOUS
 62
     0
  2
_OPEN
 10
1350.70991
 20
2691.8821429999989
 30
0.0
 41
60.0
 42
60.0
 43
60.0
 50
270.0
  0
TEXT
  8
3
  40
90
  5
7F80
  62
0
  72
0
  71
0
 10
1095.71
 20
3005.41
 30
0.000000
  1
925
  0
POINT
  5
7EED
  8
DEFPOINTS
  6
CONTINUOUS
 62
     0
 10
1494.591983
 20
3616.8821429999998
 30
0.0
  0
POINT
  5
7EEE
  8
DEFPOINTS
  6
CONTINUOUS
 62
     0
 10
1494.591983
 20
2691.8821429999989
 30
0.0
  0
POINT
  5
7EEF
  8
DEFPOINTS
  6
CONTINUOUS
 62
     0
 10
1350.70991
 20
2691.8821429999989
 30
0.0
  0
ENDBLK
  5
7BC9
  8
0
  0
BLOCK
  8
0
  2
*D2
 70
     1
 10
0.0
 20
0.0
 30
0.0
  3
*D2
  1

  0
LINE
  5
7EF0
  8
3
  6
CONTINUOUS
 62
     0
 10
1367.6036240000001
 20
3574.8821429999989
 30
0.0
 11
1134.0682790000001
 21
3574.8821429999989
 31
0.0
  0
LINE
  5
7EF1
  8
3
  6
CONTINUOUS
 62
     0
 10
1479.591983
 20
2691.8821429999989
 30
0.0
 11
1134.0682790000001
 21
2691.8821429999989
 31
0.0
  0
LINE
  5
7EF2
  8
3
  6
CONTINUOUS
 62
     0
 10
1164.0682790000001
 20
3514.8821429999989
 30
0.0
 11
1164.0682790000001
 21
2751.8821429999998
 31
0.0
  0
INSERT
  5
7EF3
  8
3
  6
CONTINUOUS
 62
     0
  2
_OPEN
 10
1164.0682790000001
 20
3574.8821429999989
 30
0.0
 41
60.0
 42
60.0
 43
60.0
 50
90.0
  0
INSERT
  5
7EF4
  8
3
  6
CONTINUOUS
 62
     0
  2
_OPEN
 10
1164.0682790000001
 20
2691.8821429999989
 30
0.0
 41
60.0
 42
60.0
 43
60.0
 50
270.0
  0
TEXT
  8
3
  40
90
  5
7F81
  62
0
  72
0
  71
0
 10
909.068
 20
3005.41
 30
0.000000
  1
883
  0
POINT
  5
7EF6
  8
DEFPOINTS
  6
CONTINUOUS
 62
     0
 10
1382.6036240000001
 20
3574.8821429999989
 30
0.0
  0
POINT
  5
7EF7
  8
DEFPOINTS
  6
CONTINUOUS
 62
     0
 10
1494.591983
 20
2691.8821429999989
 30
0.0
  0
POINT
  5
7EF8
  8
DEFPOINTS
  6
CONTINUOUS
 62
     0
 10
1164.0682790000001
 20
2691.8821429999989
 30
0.0
  0
ENDBLK
  5
7BD6
  8
0
  0
BLOCK
  8
0
  2
*D3
 70
     1
 10
0.0
 20
0.0
 30
0.0
  3
*D3
  1

  0
LINE
  5
7EF9
  8
3
  6
CONTINUOUS
 62
     0
 10
1564.591983
 20
2484.8821429999998
 30
0.0
 11
923.25308300000052
 21
2484.8821429999998
 31
0.0
  0
LINE
  5
7EFA
  8
3
  6
CONTINUOUS
 62
     0
 10
1564.591983
 20
2343.8821429999989
 30
0.0
 11
923.25308300000052
 21
2343.8821429999998
 31
0.0
  0
LINE
  5
7EFB
  8
3
  6
CONTINUOUS
 62
     0
 10
953.25308300000063
 20
2544.8821429999998
 30
0.0
 11
953.25308300000063
 21
2604.8821429999998
 31
0.0
  0
LINE
  5
7EFC
  8
3
  6
CONTINUOUS
 62
     0
 10
953.2530830000004
 20
2283.8821429999998
 30
0.0
 11
953.2530830000004
 21
1988.167857285714
 31
0.0
  0
LINE
  5
7EFD
  8
3
  6
CONTINUOUS
 62
     0
 10
953.25308300000063
 20
2484.8821429999998
 30
0.0
 11
953.25308300000063
 21
2343.8821429999998
 31
0.0
  0
INSERT
  5
7EFE
  8
3
  6
CONTINUOUS
 62
     0
  2
_OPEN
 10
953.25308300000063
 20
2484.8821429999998
 30
0.0
 41
60.0
 42
60.0
 43
60.0
 50
270.0
  0
INSERT
  5
7EFF
  8
3
  6
CONTINUOUS
 62
     0
  2
_OPEN
 10
953.25308300000063
 20
2343.8821429999998
 30
0.0
 41
60.0
 42
60.0
 43
60.0
 50
90.0
  0
TEXT
  8
3
  40
90
  5
7F82
  62
0
  72
0
  71
0
 10
698.253
 20
1946.73
 30
0.000000
  1
141
  0
POINT
  5
7F01
  8
DEFPOINTS
  6
CONTINUOUS
 62
     0
 10
1579.591983
 20
2484.8821429999998
 30
0.0
  0
POINT
  5
7F02
  8
DEFPOINTS
  6
CONTINUOUS
 62
     0
 10
1579.591983
 20
2343.8821429999989
 30
0.0
  0
POINT
  5
7F03
  8
DEFPOINTS
  6
CONTINUOUS
 62
     0
 10
953.25308300000063
 20
2343.8821429999998
 30
0.0
  0
ENDBLK
  5
7DD3
  8
0
  0
BLOCK
  8
0
  2
*D4
 70
     1
 10
0.0
 20
0.0
 30
0.0
  3
*D4
  1

  0
LINE
  5
7F04
  8
3
  6
CONTINUOUS
 62
     0
 10
1579.591983
 20
2328.8821429999989
 30
0.0
 11
1579.591983
 21
2034.4753359999991
 31
0.0
  0
LINE
  5
7F05
  8
3
  6
CONTINUOUS
 62
     0
 10
2149.5919829999998
 20
2264.7467839999999
 30
0.0
 11
2149.5919829999998
 21
2034.4753359999991
 31
0.0
  0
LINE
  5
7F06
  8
3
  6
CONTINUOUS
 62
     0
 10
1639.591983
 20
2064.475336
 30
0.0
 11
2089.5919829999989
 21
2064.475336
 31
0.0
  0
INSERT
  5
7F07
  8
3
  6
CONTINUOUS
 62
     0
  2
_OPEN
 10
1579.591983
 20
2064.475336
 30
0.0
 41
60.0
 42
60.0
 43
60.0
 50
180.0
  0
INSERT
  5
7F08
  8
3
  6
CONTINUOUS
 62
     0
  2
_OPEN
 10
2149.5919829999998
 20
2064.475336
 30
0.0
 41
60.0
 42
60.0
 43
60.0
  0
TEXT
  8
3
  40
90
  5
7F83
  62
0
  72
0
  71
0
 10
1698.91
 20
1980.18
 30
0.000000
  1
570
  0
POINT
  5
7F0A
  8
DEFPOINTS
  6
CONTINUOUS
 62
     0
 10
1579.591983
 20
2343.8821429999989
 30
0.0
  0
POINT
  5
7F0B
  8
DEFPOINTS
  6
CONTINUOUS
 62
     0
 10
2149.5919829999998
 20
2279.746783999999
 30
0.0
  0
POINT
  5
7F0C
  8
DEFPOINTS
  6
CONTINUOUS
 62
     0
 10
2149.5919829999998
 20
2064.475336
 30
0.0
  0
ENDBLK
  5
7D1C
  8
0
  0
BLOCK
  8
0
  2
*D5
 70
     1
 10
0.0
 20
0.0
 30
0.0
  3
*D5
  1

  0
LINE
  5
7F0D
  8
3
  6
CONTINUOUS
 62
     0
 10
3329.5919829999989
 20
2328.8821429999989
 30
0.0
 11
3329.5919829999989
 21
2034.4753359999991
 31
0.0
  0
LINE
  5
7F0E
  8
3
  6
CONTINUOUS
 62
     0
 10
2209.5919829999998
 20
2064.475336
 30
0.0
 11
3269.5919829999998
 21
2064.475336
 31
0.0
  0
INSERT
  5
7F0F
  8
3
  6
CONTINUOUS
 62
     0
  2
_OPEN
 10
2149.5919829999998
 20
2064.475336
 30
0.0
 41
60.0
 42
60.0
 43
60.0
 50
180.0
  0
INSERT
  5
7F10
  8
3
  6
CONTINUOUS
 62
     0
  2
_OPEN
 10
3329.5919829999989
 20
2064.475336
 30
0.0
 41
60.0
 42
60.0
 43
60.0
  0
TEXT
  8
3
  40
90
  5
7F84
  62
0
  72
0
  71
0
 10
2559.59
 20
1980.18
 30
0.000000
  1
1180
  0
POINT
  5
7F12
  8
DEFPOINTS
  6
CONTINUOUS
 62
     0
 10
2149.5919829999998
 20
2279.746783999999
 30
0.0
  0
POINT
  5
7F13
  8
DEFPOINTS
  6
CONTINUOUS
 62
     0
 10
3329.5919829999989
 20
2343.8821429999989
 30
0.0
  0
POINT
  5
7F14
  8
DEFPOINTS
  6
CONTINUOUS
 62
     0
 10
3329.5919829999989
 20
2064.475336
 30
0.0
  0
ENDBLK
  5
7D11
  8
0
  0
BLOCK
  8
0
  2
*D6
 70
     1
 10
0.0
 20
0.0
 30
0.0
  3
*D6
  1

  0
LINE
  5
7F15
  8
3
  6
CONTINUOUS
 62
     0
 10
1494.591983
 20
3674.3821429999989
 30
0.0
 11
1494.591983
 21
4463.108424
 31
0.0
  0
LINE
  5
7F16
  8
3
  6
CONTINUOUS
 62
     0
 10
2149.5919829999998
 20
4365.4838019999997
 30
0.0
 11
2149.5919829999998
 21
4463.108424
 31
0.0
  0
LINE
  5
7F17
  8
3
  6
CONTINUOUS
 62
     0
 10
1554.591983
 20
4433.108424
 30
0.0
 11
2089.5919829999989
 21
4433.108424
 31
0.0
  0
INSERT
  5
7F18
  8
3
  6
CONTINUOUS
 62
     0
  2
_OPEN
 10
1494.591983
 20
4433.108424
 30
0.0
 41
60.0
 42
60.0
 43
60.0
 50
180.0
  0
INSERT
  5
7F19
  8
3
  6
CONTINUOUS
 62
     0
  2
_OPEN
 10
2149.5919829999998
 20
4433.108424
 30
0.0
 41
60.0
 42
60.0
 43
60.0
  0
TEXT
  8
3
  40
90
  5
7F85
  62
0
  72
0
  71
0
 10
1624.25
 20
4348.81
 30
0.000000
  1
655
  0
POINT
  5
7F1B
  8
DEFPOINTS
  6
CONTINUOUS
 62
     0
 10
1494.591983
 20
3659.3821429999998
 30
0.0
  0
POINT
  5
7F1C
  8
DEFPOINTS
  6
CONTINUOUS
 62
     0
 10
2149.5919829999998
 20
4350.4838020000007
 30
0.0
  0
POINT
  5
7F1D
  8
DEFPOINTS
  6
CONTINUOUS
 62
     0
 10
2149.5919829999998
 20
4433.108424
 30
0.0
  0
ENDBLK
  5
7C32
  8
0
  0
BLOCK
  8
0
  2
*D7
 70
     1
 10
0.0
 20
0.0
 30
0.0
  3
*D7
  1

  0
LINE
  5
7F1E
  8
3
  6
CONTINUOUS
 62
     0
 10
5146.7355470000002
 20
4234.6784859999989
 30
0.0
 11
5146.7355470000002
 21
4394.7142370000001
 31
0.0
  0
LINE
  5
7F1F
  8
3
  6
CONTINUOUS
 62
     0
 10
4476.7355470000002
 20
4234.6784859999989
 30
0.0
 11
4476.7355470000002
 21
4394.7142370000001
 31
0.0
  0
LINE
  5
7F20
  8
3
  6
CONTINUOUS
 62
     0
 10
5086.7355470000002
 20
4364.7142370000001
 30
0.0
 11
4536.7355470000002
 21
4364.7142370000001
 31
0.0
  0
INSERT
  5
7F21
  8
3
  6
CONTINUOUS
 62
     0
  2
_OPEN
 10
5146.7355470000002
 20
4364.7142370000001
 30
0.0
 41
60.0
 42
60.0
 43
60.0
  0
INSERT
  5
7F22
  8
3
  6
CONTINUOUS
 62
     0
  2
_OPEN
 10
4476.7355470000002
 20
4364.7142370000001
 30
0.0
 41
60.0
 42
60.0
 43
60.0
 50
180.0
  0
TEXT
  8
3
  40
90
  5
7F86
  62
0
  72
0
  71
0
 10
4638.32
 20
4280.41
 30
0.000000
  1
670
  0
POINT
  5
7F24
  8
DEFPOINTS
  6
CONTINUOUS
 62
     0
 10
5146.7355470000002
 20
4219.6784859999998
 30
0.0
  0
POINT
  5
7F25
  8
DEFPOINTS
  6
CONTINUOUS
 62
     0
 10
4476.7355470000002
 20
4219.6784859999998
 30
0.0
  0
POINT
  5
7F26
  8
DEFPOINTS
  6
CONTINUOUS
 62
     0
 10
4476.7355470000002
 20
4364.7142370000001
 30
0.0
  0
ENDBLK
  5
7C4B
  8
0
  0
BLOCK
  8
0
  2
*D8
 70
     1
 10
0.0
 20
0.0
 30
0.0
  3
*D8
  1

  0
LINE
  5
7F27
  8
3
  6
CONTINUOUS
 62
     0
 10
5165.7355470000002
 20
4049.8821429999998
 30
0.0
 11
5458.011394000001
 21
4049.8821429999998
 31
0.0
  0
LINE
  5
7F28
  8
3
  6
CONTINUOUS
 62
     0
 10
5165.7355470000002
 20
3099.8821429999998
 30
0.0
 11
5458.011394000001
 21
3099.8821429999998
 31
0.0
  0
LINE
  5
7F29
  8
3
  6
CONTINUOUS
 62
     0
 10
5428.0113940000019
 20
3989.8821429999989
 30
0.0
 11
5428.0113940000019
 21
3159.8821429999989
 31
0.0
  0
INSERT
  5
7F2A
  8
3
  6
CONTINUOUS
 62
     0
  2
_OPEN
 10
5428.0113940000019
 20
4049.8821429999998
 30
0.0
 41
60.0
 42
60.0
 43
60.0
 50
90.0
  0
INSERT
  5
7F2B
  8
3
  6
CONTINUOUS
 62
     0
  2
_OPEN
 10
5428.0113940000019
 20
3099.8821429999998
 30
0.0
 41
60.0
 42
60.0
 43
60.0
 50
270.0
  0
TEXT
  8
3
  40
90
  5
7F87
  62
0
  72
0
  71
0
 10
5173.01
 20
3421.99
 30
0.000000
  1
φ950
  0
POINT
  5
7F2D
  8
DEFPOINTS
  6
CONTINUOUS
 62
     0
 10
5150.7355470000002
 20
4049.8821429999998
 30
0.0
  0
POINT
  5
7F2E
  8
DEFPOINTS
  6
CONTINUOUS
 62
     0
 10
5150.7355470000002
 20
3099.8821429999998
 30
0.0
  0
POINT
  5
7F2F
  8
DEFPOINTS
  6
CONTINUOUS
 62
     0
 10
5428.0113940000019
 20
3099.8821429999998
 30
0.0
  0
ENDBLK
  5
7D8A
  8
0
  0
BLOCK
  8
0
  2
*D9
 70
     1
 10
0.0
 20
0.0
 30
0.0
  3
*D9
  1

  0
LINE
  5
7D97
  8
0
  6
BYBLOCK
 62
     0
 10
5150.7355470000002
 20
4064.8821429999998
 30
0.0
 11
5150.7355470000002
 21
4612.3320780000004
 31
0.0
  0
LINE
  5
7D98
  8
0
  6
BYBLOCK
 62
     0
 10
4811.7355470000011
 20
4523.2450630000003
 30
0.0
 11
4811.7355470000011
 21
4612.3320780000004
 31
0.0
  0
LINE
  5
7D99
  8
0
  6
BYBLOCK
 62
     0
 10
5090.7355470000011
 20
4582.3320780000004
 30
0.0
 11
4871.7355470000002
 21
4582.3320780000004
 31
0.0
  0
TEXT
  5
7D9A
  8
3
 62
     0
 10
4867.6641184285718
 20
4622.9478840357624
 30
0.0
 40
90.0
  1
339
  0
INSERT
  5
7D9B
  8
0
  6
BYBLOCK
 62
     0
  2
_OPEN
 10
5150.7355470000002
 20
4582.3320780000004
 30
0.0
 41
60.0
 42
60.0
 43
60.0
  0
INSERT
  5
7D9C
  8
0
  6
BYBLOCK
 62
     0
  2
_OPEN
 10
4811.7355470000011
 20
4582.3320780000004
 30
0.0
 41
60.0
 42
60.0
 43
60.0
 50
180.0
  0
POINT
  5
7D9D
  8
DEFPOINTS
  6
BYBLOCK
 62
     0
 10
5150.7355470000002
 20
4049.8821429999998
 30
0.0
  0
POINT
  5
7D9E
  8
DEFPOINTS
  6
BYBLOCK
 62
     0
 10
4811.7355470000011
 20
4508.2450630000003
 30
0.0
  0
POINT
  5
7D9F
  8
DEFPOINTS
  6
BYBLOCK
 62
     0
 10
4811.7355470000011
 20
4582.3320780000004
 30
0.0
  0
ENDBLK
  5
7DA0
  8
0
  0
BLOCK
  8
0
  2
*D10
 70
     1
 10
0.0
 20
0.0
 30
0.0
  3
*D10
  1

  0
LINE
  5
7F30
  8
3
  6
CONTINUOUS
 62
     0
 10
4201.7355470000011
 20
4029.8821429999998
 30
0.0
 11
4201.7355470000011
 21
4612.3320780000004
 31
0.0
  0
LINE
  5
7F31
  8
3
  6
CONTINUOUS
 62
     0
 10
4751.7355470000002
 20
4582.3320780000004
 30
0.0
 11
4261.7355469999993
 21
4582.3320780000004
 31
0.0
  0
INSERT
  5
7F32
  8
3
  6
CONTINUOUS
 62
     0
  2
_OPEN
 10
4811.7355470000011
 20
4582.3320780000004
 30
0.0
 41
60.0
 42
60.0
 43
60.0
  0
INSERT
  5
7F33
  8
3
  6
CONTINUOUS
 62
     0
  2
_OPEN
 10
4201.7355470000011
 20
4582.3320780000004
 30
0.0
 41
60.0
 42
60.0
 43
60.0
 50
180.0
  0
TEXT
  8
3
  40
90
  5
7F88
  62
0
  72
0
  71
0
 10
4326.74
 20
4573.03
 30
0.000000
  1
MAX
  0
TEXT
  8
3
  40
90
  5
7F89
  62
0
  72
0
  71
0
 10
4326.74
 20
4456.03
 30
0.000000
  1
640
  0
POINT
  5
7F35
  8
DEFPOINTS
  6
CONTINUOUS
 62
     0
 10
4811.7355470000011
 20
4508.2450630000003
 30
0.0
  0
POINT
  5
7F36
  8
DEFPOINTS
  6
CONTINUOUS
 62
     0
 10
4201.7355470000011
 20
4014.8821429999998
 30
0.0
  0
POINT
  5
7F37
  8
DEFPOINTS
  6
CONTINUOUS
 62
     0
 10
4201.7355470000011
 20
4582.3320780000004
 30
0.0
  0
ENDBLK
  5
7DAA
  8
0
  0
BLOCK
  8
0
  2
*D11
 70
     1
 10
0.0
 20
0.0
 30
0.0
  3
*D11
  1

  0
LINE
  5
7F38
  8
3
  6
CONTINUOUS
 62
     0
 10
4278.7355470000002
 20
2318.8821429999989
 30
0.0
 11
4278.7355470000002
 21
2054.6690450000001
 31
0.0
  0
LINE
  5
7F39
  8
3
  6
CONTINUOUS
 62
     0
 10
4811.7355470000011
 20
2133.7677259999991
 30
0.0
 11
4811.7355470000011
 21
2054.6690450000001
 31
0.0
  0
LINE
  5
7F3A
  8
3
  6
CONTINUOUS
 62
     0
 10
4338.7355470000002
 20
2084.6690450000001
 30
0.0
 11
4751.7355470000002
 21
2084.6690450000001
 31
0.0
  0
INSERT
  5
7F3B
  8
3
  6
CONTINUOUS
 62
     0
  2
_OPEN
 10
4278.7355470000002
 20
2084.6690450000001
 30
0.0
 41
60.0
 42
60.0
 43
60.0
 50
180.0
  0
INSERT
  5
7F3C
  8
3
  6
CONTINUOUS
 62
     0
  2
_OPEN
 10
4811.7355470000011
 20
2084.6690450000001
 30
0.0
 41
60.0
 42
60.0
 43
60.0
  0
TEXT
  8
3
  40
90
  5
7F8A
  62
0
  72
0
  71
0
 10
4370.80
 20
2000.37
 30
0.000000
  1
533
  0
POINT
  5
7F3E
  8
DEFPOINTS
  6
CONTINUOUS
 62
     0
 10
4278.7355470000002
 20
2333.8821429999989
 30
0.0
  0
POINT
  5
7F3F
  8
DEFPOINTS
  6
CONTINUOUS
 62
     0
 10
4811.7355470000011
 20
2148.767726
 30
0.0
  0
POINT
  5
7F40
  8
DEFPOINTS
  6
CONTINUOUS
 62
     0
 10
4811.7355470000011
 20
2084.6690450000001
 30
0.0
  0
ENDBLK
  5
7D52
  8
0
  0
BLOCK
  8
0
  2
*D12
 70
     1
 10
0.0
 20
0.0
 30
0.0
  3
*D12
  1

  0
LINE
  5
7F41
  8
3
  6
CONTINUOUS
 62
     0
 10
5198.7355470000002
 20
2318.8821429999989
 30
0.0
 11
5198.7355470000002
 21
2054.6690450000001
 31
0.0
  0
LINE
  5
7F42
  8
3
  6
CONTINUOUS
 62
     0
 10
4871.7355470000002
 20
2084.6690450000001
 30
0.0
 11
5138.7355470000002
 21
2084.6690450000001
 31
0.0
  0
TEXT
  8
3
  40
90
  5
7F8B
  62
0
  72
0
  71
0
 10
4826.58
 20
1998.76
 30
0.000000
  1
387
  0
INSERT
  5
7F44
  8
3
  6
CONTINUOUS
 62
     0
  2
_OPEN
 10
4811.7355470000011
 20
2084.6690450000001
 30
0.0
 41
60.0
 42
60.0
 43
60.0
 50
180.0
  0
INSERT
  5
7F45
  8
3
  6
CONTINUOUS
 62
     0
  2
_OPEN
 10
5198.7355470000002
 20
2084.6690450000001
 30
0.0
 41
60.0
 42
60.0
 43
60.0
  0
POINT
  5
7F46
  8
DEFPOINTS
  6
CONTINUOUS
 62
     0
 10
4811.7355470000011
 20
2148.767726
 30
0.0
  0
POINT
  5
7F47
  8
DEFPOINTS
  6
CONTINUOUS
 62
     0
 10
5198.7355470000002
 20
2333.8821429999989
 30
0.0
  0
POINT
  5
7F48
  8
DEFPOINTS
  6
CONTINUOUS
 62
     0
 10
5198.7355470000002
 20
2084.6690450000001
 30
0.0
  0
ENDBLK
  5
7D47
  8
0
  0
BLOCK
  8
0
  2
*D13
 70
     1
 10
0.0
 20
0.0
 30
0.0
  3
*D13
  1

  0
LINE
  5
7F49
  8
3
  6
CONTINUOUS
 62
     0
 10
1579.591983
 20
6396.9804219999996
 30
0.0
 11
1579.591983
 21
6649.1998969999986
 31
0.0
  0
LINE
  5
7F4A
  8
3
  6
CONTINUOUS
 62
     0
 10
3329.5919829999989
 20
6396.9804219999996
 30
0.0
 11
3329.5919829999989
 21
6649.1998969999986
 31
0.0
  0
LINE
  5
7F4B
  8
3
  6
CONTINUOUS
 62
     0
 10
1639.591983
 20
6619.1998970000004
 30
0.0
 11
3269.5919829999998
 21
6619.1998970000004
 31
0.0
  0
INSERT
  5
7F4C
  8
3
  6
CONTINUOUS
 62
     0
  2
_OPEN
 10
1579.591983
 20
6619.1998970000004
 30
0.0
 41
60.0
 42
60.0
 43
60.0
 50
180.0
  0
INSERT
  5
7F4D
  8
3
  6
CONTINUOUS
 62
     0
  2
_OPEN
 10
3329.5919829999989
 20
6619.1998970000004
 30
0.0
 41
60.0
 42
60.0
 43
60.0
  0
TEXT
  8
3
  40
90
  5
7F8C
  62
0
  72
0
  71
0
 10
2221.50
 20
6534.90
 30
0.000000
  1
1750
  0
POINT
  5
7F4F
  8
DEFPOINTS
  6
CONTINUOUS
 62
     0
 10
1579.591983
 20
6381.9804219999987
 30
0.0
  0
POINT
  5
7F50
  8
DEFPOINTS
  6
CONTINUOUS
 62
     0
 10
3329.5919829999989
 20
6381.9804219999987
 30
0.0
  0
POINT
  5
7F51
  8
DEFPOINTS
  6
CONTINUOUS
 62
     0
 10
3329.5919829999989
 20
6619.1998970000004
 30
0.0
  0
ENDBLK
  5
7D27
  8
0
  0
BLOCK
  8
0
  2
*D14
 70
     1
 10
0.0
 20
0.0
 30
0.0
  3
*D14
  1

  0
LINE
  5
7F52
  8
3
  6
CONTINUOUS
 62
     0
 10
3344.5919829999998
 20
6381.9804219999987
 30
0.0
 11
3619.7888550000011
 21
6381.9804219999987
 31
0.0
  0
LINE
  5
7F53
  8
3
  6
CONTINUOUS
 62
     0
 10
3344.5919829999998
 20
5461.9804219999987
 30
0.0
 11
3619.7888550000011
 21
5461.9804219999987
 31
0.0
  0
LINE
  5
7F54
  8
3
  6
CONTINUOUS
 62
     0
 10
3589.7888549999998
 20
6321.9804219999996
 30
0.0
 11
3589.7888549999998
 21
5521.9804219999996
 31
0.0
  0
INSERT
  5
7F55
  8
3
  6
CONTINUOUS
 62
     0
  2
_OPEN
 10
3589.7888549999998
 20
6381.9804219999987
 30
0.0
 41
60.0
 42
60.0
 43
60.0
 50
90.0
  0
INSERT
  5
7F56
  8
3
  6
CONTINUOUS
 62
     0
  2
_OPEN
 10
3589.7888549999998
 20
5461.9804219999987
 30
0.0
 41
60.0
 42
60.0
 43
60.0
 50
270.0
  0
TEXT
  8
3
  40
90
  5
7F8D
  62
0
  72
0
  71
0
 10
3334.79
 20
5765.36
 30
0.000000
  1
920
  0
POINT
  5
7F58
  8
DEFPOINTS
  6
CONTINUOUS
 62
     0
 10
3329.5919829999989
 20
6381.9804219999987
 30
0.0
  0
POINT
  5
7F59
  8
DEFPOINTS
  6
CONTINUOUS
 62
     0
 10
3329.5919829999989
 20
5461.9804219999987
 30
0.0
  0
POINT
  5
7F5A
  8
DEFPOINTS
  6
CONTINUOUS
 62
     0
 10
3589.7888549999998
 20
5461.9804219999987
 30
0.0
  0
ENDBLK
  5
7CC2
  8
0
  0
BLOCK
  8
0
  2
*D15
 70
     1
 10
0.0
 20
0.0
 30
0.0
  3
*D15
  1

  0
LINE
  5
7F5B
  8
3
  6
CONTINUOUS
 62
     0
 10
2134.5919829999989
 20
4217.8770860638824
 30
0.0
 11
922.54108599999995
 21
4217.8770860638833
 31
0.0
  0
LINE
  5
7F5C
  8
3
  6
CONTINUOUS
 62
     0
 10
952.54108599999995
 20
3634.8821429999998
 30
0.0
 11
952.54108599999995
 21
4157.8770860638833
 31
0.0
  0
INSERT
  5
7F5D
  8
3
  6
CONTINUOUS
 62
     0
  2
_OPEN
 10
952.54108599999995
 20
3574.8821429999998
 30
0.0
 41
60.0
 42
60.0
 43
60.0
 50
270.0
  0
INSERT
  5
7F5E
  8
3
  6
CONTINUOUS
 62
     0
  2
_OPEN
 10
952.54108599999995
 20
4217.8770860638833
 30
0.0
 41
60.0
 42
60.0
 43
60.0
 50
90.0
  0
TEXT
  8
3
  40
90
  5
7F8E
  62
0
  72
0
  71
0
 10
697.541
 20
3737.08
 30
0.000000
  1
643
  0
POINT
  5
7F60
  8
DEFPOINTS
  6
CONTINUOUS
 62
     0
 10
1382.6036240000001
 20
3574.8821429999989
 30
0.0
  0
POINT
  5
7F61
  8
DEFPOINTS
  6
CONTINUOUS
 62
     0
 10
2149.5919829999989
 20
4217.8770860638824
 30
0.0
  0
POINT
  5
7F62
  8
DEFPOINTS
  6
CONTINUOUS
 62
     0
 10
952.54108599999995
 20
4217.8770860638833
 30
0.0
  0
ENDBLK
  5
7DB5
  8
0
  0
BLOCK
  8
0
  2
*D16
 70
     1
 10
0.0
 20
0.0
 30
0.0
  3
*D16
  1

  0
LINE
  5
7F63
  8
3
  6
CONTINUOUS
 62
     0
 10
2892.5919840000001
 20
3589.8821429999998
 30
0.0
 11
2892.5919840000001
 21
4463.108424
 31
0.0
  0
LINE
  5
7F64
  8
3
  6
CONTINUOUS
 62
     0
 10
2209.5919829999998
 20
4433.108424
 30
0.0
 11
2832.5919840000001
 21
4433.108424
 31
0.0
  0
INSERT
  5
7F65
  8
3
  6
CONTINUOUS
 62
     0
  2
_OPEN
 10
2149.5919829999998
 20
4433.108424
 30
0.0
 41
60.0
 42
60.0
 43
60.0
 50
180.0
  0
INSERT
  5
7F66
  8
3
  6
CONTINUOUS
 62
     0
  2
_OPEN
 10
2892.5919840000001
 20
4433.108424
 30
0.0
 41
60.0
 42
60.0
 43
60.0
  0
TEXT
  8
3
  40
90
  5
7F8F
  62
0
  72
0
  71
0
 10
2341.09
 20
4348.81
 30
0.000000
  1
743
  0
POINT
  5
7F68
  8
DEFPOINTS
  6
CONTINUOUS
 62
     0
 10
2149.5919829999998
 20
4350.4838020000007
 30
0.0
  0
POINT
  5
7F69
  8
DEFPOINTS
  6
CONTINUOUS
 62
     0
 10
2892.5919840000001
 20
3574.8821429999989
 30
0.0
  0
POINT
  5
7F6A
  8
DEFPOINTS
  6
CONTINUOUS
 62
     0
 10
2892.5919840000001
 20
4433.108424
 30
0.0
  0
ENDBLK
  5
7D06
  8
0
  0
BLOCK
  8
0
  2
*D17
 70
     1
 10
0.0
 20
0.0
 30
0.0
  3
*D17
  1

  0
LINE
  5
7F6B
  8
3
  6
CONTINUOUS
 62
     0
 10
1367.6036240000001
 20
3574.8821429999989
 30
0.0
 11
922.54108600000006
 21
3574.8821429999998
 31
0.0
  0
LINE
  5
7F6C
  8
3
  6
CONTINUOUS
 62
     0
 10
1564.591983
 20
2484.8821429999998
 30
0.0
 11
922.54108599999995
 21
2484.8821429999998
 31
0.0
  0
LINE
  5
7F6D
  8
3
  6
CONTINUOUS
 62
     0
 10
952.54108600000018
 20
3514.8821429999998
 30
0.0
 11
952.54108599999995
 21
2544.8821429999998
 31
0.0
  0
INSERT
  5
7F6E
  8
3
  6
CONTINUOUS
 62
     0
  2
_OPEN
 10
952.54108600000018
 20
3574.8821429999998
 30
0.0
 41
60.0
 42
60.0
 43
60.0
 50
90.0
  0
INSERT
  5
7F6F
  8
3
  6
CONTINUOUS
 62
     0
  2
_OPEN
 10
952.54108599999995
 20
2484.8821429999998
 30
0.0
 41
60.0
 42
60.0
 43
60.0
 50
270.0
  0
TEXT
  8
3
  40
90
  5
7F90
  62
0
  72
0
  71
0
 10
697.541
 20
2870.58
 30
0.000000
  1
1090
  0
POINT
  5
7F71
  8
DEFPOINTS
  6
CONTINUOUS
 62
     0
 10
1382.6036240000001
 20
3574.8821429999989
 30
0.0
  0
POINT
  5
7F72
  8
DEFPOINTS
  6
CONTINUOUS
 62
     0
 10
1579.591983
 20
2484.8821429999998
 30
0.0
  0
POINT
  5
7F73
  8
DEFPOINTS
  6
CONTINUOUS
 62
     0
 10
952.54108599999995
 20
2484.8821429999998
 30
0.0
  0
ENDBLK
  5
7D7F
  8
0
  0
BLOCK
  8
0
  2
*D18
 70
     1
 10
0.0
 20
0.0
 30
0.0
  3
*D18
  1

  0
LINE
  5
7F74
  8
3
 62
     0
 10
1494.591983
 20
3674.3821429999989
 30
0.0
 11
1494.591983
 21
4637.8121333117997
 31
0.0
  0
LINE
  5
7F75
  8
3
 62
     0
 10
3329.5919829999989
 20
2599.8821429999998
 30
0.0
 11
3329.5919829999989
 21
4637.8121333117997
 31
0.0
  0
LINE
  5
7F76
  8
3
 62
     0
 10
1554.591983
 20
4607.8121333117988
 30
0.0
 11
3269.5919829999998
 21
4607.8121333117988
 31
0.0
  0
INSERT
  5
7F77
  8
3
 62
     0
  2
_OPEN
 10
1494.591983
 20
4607.8121333117988
 30
0.0
 41
60.0
 42
60.0
 43
60.0
 50
180.0
  0
INSERT
  5
7F78
  8
3
 62
     0
  2
_OPEN
 10
3329.5919829999989
 20
4607.8121333117988
 30
0.0
 41
60.0
 42
60.0
 43
60.0
  0
TEXT
  8
3
  40
90
  5
7F91
  62
0
  72
0
  71
0
 10
2275.46
 20
4523.51
 30
0.000000
  1
1835
  0
POINT
  5
7F7A
  8
DEFPOINTS
 62
     0
 10
1494.591983
 20
3659.3821429999998
 30
0.0
  0
POINT
  5
7F7B
  8
DEFPOINTS
 62
     0
 10
3329.5919829999989
 20
2584.8821429999989
 30
0.0
  0
POINT
  5
7F7C
  8
DEFPOINTS
 62
     0
 10
3329.5919829999989
 20
4607.8121333117988
 30
0.0
  0
ENDBLK
  5
7DC1
  8
0
  0
BLOCK
  8
0
  2
_DOT
 70
     0
 10
0.0
 20
0.0
 30
0.0
  3
_DOT
  1

  0
POLYLINE
  5
7EB8
  8
0
  6
BYBLOCK
 62
     0
 66
     1
 10
0.0
 20
0.0
 30
0.0
 70
     1
 40
0.5
 41
0.5
  0
VERTEX
  5
7F7D
  8
0
  6
BYBLOCK
 62
     0
 10
-0.25
 20
0.0
 30
0.0
 42
1.0
  0
VERTEX
  5
7F7E
  8
0
  6
BYBLOCK
 62
     0
 10
0.25
 20
0.0
 30
0.0
 42
1.0
  0
SEQEND
  5
7F7F
  8
0
  6
BYBLOCK
 62
     0
  0
LINE
  5
7EB9
  8
0
  6
BYBLOCK
 62
     0
 10
-0.5
 20
0.0
 30
0.0
 11
-1.0
 21
0.0
 31
0.0
  0
ENDBLK
  5
7EBB
  8
0
  0
ENDSEC
  0
SECTION
  2
ENTITIES
  0
LINE
  5
7ACE
  8
1
  6
CONTINUOUS
 10
1579.591983
 20
2584.8821429999998
 30
0.0
 11
3329.5919829999989
 21
2584.8821429999989
 31
0.0
  0
LINE
  5
7ACF
  8
1
  6
CONTINUOUS
 10
1579.591983
 20
2484.8821429999998
 30
0.0
 11
3329.5919829999989
 21
2484.8821429999998
 31
0.0
  0
LINE
  5
7AD0
  8
1
  6
CONTINUOUS
 10
1579.591983
 20
2443.8821429999989
 30
0.0
 11
3329.5919829999989
 21
2443.8821429999989
 31
0.0
  0
LINE
  5
7AD1
  8
1
  6
CONTINUOUS
 10
1579.591983
 20
2343.8821429999989
 30
0.0
 11
3329.5919829999989
 21
2343.8821429999989
 31
0.0
  0
ARC
  5
7AD2
  8
1
  6
CONTINUOUS
 10
3129.5919829999998
 20
2834.8821429999989
 30
0.0
 40
162.0
 50
324.972283
 51
215.02771699999991
  0
LINE
  5
7AD3
  8
1
  6
CONTINUOUS
 10
3309.5919829999998
 20
2924.8821429999989
 30
0.0
 11
2329.5919829999989
 21
4014.8821429999998
 31
0.0
  0
LINE
  5
7AD4
  8
1
  6
CONTINUOUS
 10
1579.591983
 20
5461.9804219999987
 30
0.0
 11
3329.5919829999989
 21
5461.9804219999987
 31
0.0
  0
LINE
  5
7AD5
  8
1
  6
CONTINUOUS
 10
3291.5919829999989
 20
5617.9804219999987
 30
0.0
 11
2967.5919829999998
 21
5617.9804219999987
 31
0.0
  0
LINE
  5
7AD6
  8
1
  6
CONTINUOUS
 10
3291.5919829999989
 20
6102.9804219999987
 30
0.0
 11
2967.5919829999998
 21
6102.9804219999987
 31
0.0
  0
LINE
  5
7AD7
  8
1
  6
CONTINUOUS
 10
3309.5919829999998
 20
5606.9804219999987
 30
0.0
 11
1669.591983
 21
5606.9804219999987
 31
0.0
  0
LINE
  5
7AD8
  8
1
  6
CONTINUOUS
 10
3309.5919829999998
 20
5436.9804219999996
 30
0.0
 11
1669.591983
 21
5436.9804219999996
 31
0.0
  0
LINE
  5
7AD9
  8
1
  6
CONTINUOUS
 10
1579.591983
 20
6381.9804219999987
 30
0.0
 11
3329.5919829999989
 21
6381.9804219999987
 31
0.0
  0
LINE
  5
7ADA
  8
1
  6
CONTINUOUS
 10
1579.591983
 20
2343.8821429999989
 30
0.0
 11
1579.591983
 21
2443.8821429999989
 31
0.0
  0
POLYLINE
  5
7ADB
  8
1
  6
CONTINUOUS
 66
     1
 10
0.0
 20
0.0
 30
0.0
  0
VERTEX
  5
7EE1
  8
1
  6
CONTINUOUS
 10
1494.591983
 20
2691.8821429999989
 30
0.0
  0
VERTEX
  5
7EE2
  8
1
  6
CONTINUOUS
 10
2149.5919829999998
 20
2713.8821429999998
 30
0.0
 42
0.4168370000000001
  0
VERTEX
  5
7EE3
  8
1
  6
CONTINUOUS
 10
2892.0319420000001
 20
3582.0560850000002
 30
0.0
 42
0.429867
  0
VERTEX
  5
7EE4
  8
1
  6
CONTINUOUS
 10
2105.7158220000001
 20
4213.3073199999999
 30
0.0
 42
0.373172
  0
VERTEX
  5
7EE5
  8
1
  6
CONTINUOUS
 10
1581.623255
 20
3616.8821429999998
 30
0.0
 42
0.34598
  0
SEQEND
  5
7EE6
  8
1
  6
CONTINUOUS
  0
CIRCLE
  5
7AE5
  8
1
  6
CONTINUOUS
 10
2149.5919829999998
 20
3574.8821429999989
 30
0.0
 40
254.0
  0
LINE
  5
7AE6
  8
2
  6
CENTER
 10
5241.369764
 20
3574.8821429999989
 30
0.0
 11
4163.5168949999997
 21
3574.8821429999989
 31
0.0
  0
LINE
  5
7AE7
  8
1
  6
CONTINUOUS
 10
1669.591983
 20
4014.8821429999998
 30
0.0
 11
2329.5919829999989
 21
4014.8821429999998
 31
0.0
  0
LINE
  5
7AEA
  8
1
  6
CONTINUOUS
 10
1669.591983
 20
2584.8821429999989
 30
0.0
 11
1669.591983
 21
4014.8821429999998
 31
0.0
  0
LINE
  5
7AEB
  8
1
  6
CONTINUOUS
 10
1494.591983
 20
3659.3821429999998
 30
0.0
 11
1494.591983
 21
2649.3821429999989
 31
0.0
  0
LINE
  5
7AEC
  8
1
  6
CONTINUOUS
 10
1534.591983
 20
3616.8821429999998
 30
0.0
 11
1534.591983
 21
2693.2256539999989
 31
0.0
  0
LINE
  5
7AED
  8
1
  6
CONTINUOUS
 10
1579.591983
 20
2584.8821429999989
 30
0.0
 11
1579.591983
 21
2484.8821429999998
 31
0.0
  0
LINE
  5
7AEE
  8
1
  6
CONTINUOUS
 10
1581.623255
 20
3616.8821429999998
 30
0.0
 11
1494.591983
 21
3616.8821429999998
 31
0.0
  0
LINE
  5
7AF0
  8
2
  6
CENTER
 10
2149.5919829999998
 20
2317.654763999999
 30
0.0
 11
2149.5919829999998
 21
4398.3917819999997
 31
0.0
  0
LINE
  5
7AF2
  8
1
  6
CONTINUOUS
 10
2932.0919829999989
 20
2624.8821429999998
 30
0.0
 11
2932.0919829999989
 21
2584.8821429999989
 31
0.0
  0
LINE
  5
7AF3
  8
1
  6
CONTINUOUS
 10
2932.0919829999989
 20
2624.8821429999998
 30
0.0
 11
2942.0919829999998
 21
2674.8821429999998
 31
0.0
  0
LINE
  5
7AF4
  8
1
  6
CONTINUOUS
 10
2996.9343170000002
 20
2741.898576
 30
0.0
 11
2942.0919829999998
 21
2674.8821429999998
 31
0.0
  0
CIRCLE
  5
7AF5
  8
1
  6
CONTINUOUS
 10
3129.5919829999998
 20
2834.8821429999989
 30
0.0
 40
75.0
  0
LINE
  5
7AF6
  8
2
  6
CENTER
 10
3129.5919829999998
 20
2754.8821429999998
 30
0.0
 11
3129.5919829999998
 21
2914.8821429999989
 31
0.0
  0
LINE
  5
7AF7
  8
2
  6
CENTER
 10
3209.5919829999998
 20
2834.8821429999989
 30
0.0
 11
3049.5919829999998
 21
2834.8821429999989
 31
0.0
  0
LINE
  5
7AF8
  8
1
  6
CONTINUOUS
 10
1494.591983
 20
6329.9804219999996
 30
0.0
 11
2894.7592540000001
 21
6329.9804219999996
 31
0.0
  0
LINE
  5
7AF9
  8
1
  6
CONTINUOUS
 10
1494.591983
 20
5659.9804219999996
 30
0.0
 11
2894.7592540000001
 21
5659.9804219999996
 31
0.0
  0
LINE
  5
7AFA
  8
1
  6
CONTINUOUS
 10
2403.5919829999998
 20
5573.9804219999987
 30
0.0
 11
1895.591983
 21
5573.9804219999987
 31
0.0
  0
LINE
  5
7AFB
  8
1
  6
CONTINUOUS
 10
2403.5919829999998
 20
5469.9804219999987
 30
0.0
 11
1895.591983
 21
5469.9804219999987
 31
0.0
  0
LINE
  5
7AFC
  8
1
  6
CONTINUOUS
 10
1494.591983
 20
5617.9804219999987
 30
0.0
 11
1494.591983
 21
6371.9804219999996
 31
0.0
  0
LINE
  5
7AFD
  8
1
  6
CONTINUOUS
 10
1534.591983
 20
5659.9804219999996
 30
0.0
 11
1534.591983
 21
6329.9804219999996
 31
0.0
  0
LINE
  5
7AFE
  8
1
  6
CONTINUOUS
 10
1579.591983
 20
5461.9804219999987
 30
0.0
 11
1579.591983
 21
5659.9804219999996
 31
0.0
  0
LINE
  5
7AFF
  8
1
  6
CONTINUOUS
 10
1669.591983
 20
5436.9804219999996
 30
0.0
 11
1669.591983
 21
5606.9804219999987
 31
0.0
  0
LINE
  5
7B00
  8
1
  6
CONTINUOUS
 10
1895.591983
 20
5469.9804219999987
 30
0.0
 11
1895.591983
 21
5573.9804219999987
 31
0.0
  0
LINE
  5
7B01
  8
1
  6
CONTINUOUS
 10
1579.591983
 20
6329.9804219999996
 30
0.0
 11
1579.591983
 21
6381.9804219999987
 31
0.0
  0
LINE
  5
7B02
  8
1
  6
CONTINUOUS
 10
2124.5919829999989
 20
5573.9804219999987
 30
0.0
 11
2124.5919829999989
 21
5659.9804219999996
 31
0.0
  0
LINE
  5
7B03
  8
1
  6
CONTINUOUS
 10
2174.5919829999998
 20
5573.9804219999987
 30
0.0
 11
2174.5919829999998
 21
5659.9804219999996
 31
0.0
  0
LINE
  5
7B04
  8
1
  6
CONTINUOUS
 10
2403.5919829999998
 20
5469.9804219999987
 30
0.0
 11
2403.5919829999998
 21
5573.9804219999987
 31
0.0
  0
LINE
  5
7B05
  8
1
  6
CONTINUOUS
 10
2894.7592540000001
 20
5659.9804219999996
 30
0.0
 11
2894.7592540000001
 21
6329.9804219999996
 31
0.0
  0
LINE
  5
7B06
  8
1
  6
CONTINUOUS
 10
2967.5919829999998
 20
5617.9804219999987
 30
0.0
 11
2967.5919829999998
 21
6102.9804219999987
 31
0.0
  0
LINE
  5
7B07
  8
1
  6
CONTINUOUS
 10
3204.5919829999989
 20
5573.9804219999987
 30
0.0
 11
3054.5919829999989
 21
5573.9804219999987
 31
0.0
  0
LINE
  5
7B08
  8
1
  6
CONTINUOUS
 10
3204.5919829999989
 20
5469.9804219999987
 30
0.0
 11
3054.5919829999989
 21
5469.9804219999987
 31
0.0
  0
LINE
  5
7B09
  8
1
  6
CONTINUOUS
 10
3108.5919829999998
 20
5573.9804219999987
 30
0.0
 11
3108.5919829999998
 21
5617.9804219999987
 31
0.0
  0
LINE
  5
7B0A
  8
1
  6
CONTINUOUS
 10
3150.5919829999989
 20
5573.9804219999987
 30
0.0
 11
3150.5919829999989
 21
5617.9804219999987
 31
0.0
  0
LINE
  5
7B0B
  8
1
  6
CONTINUOUS
 10
3054.5919829999989
 20
5469.9804219999987
 30
0.0
 11
3054.5919829999989
 21
5573.9804219999987
 31
0.0
  0
LINE
  5
7B0C
  8
1
  6
CONTINUOUS
 10
3204.5919829999989
 20
5469.9804219999987
 30
0.0
 11
3204.5919829999989
 21
5573.9804219999987
 31
0.0
  0
LINE
  5
7B1C
  8
1
  6
CONTINUOUS
 10
3329.5919829999989
 20
2343.8821429999989
 30
0.0
 11
3329.5919829999989
 21
2443.8821429999989
 31
0.0
  0
LINE
  5
7B21
  8
1
  6
CONTINUOUS
 10
3329.5919829999989
 20
2584.8821429999989
 30
0.0
 11
3329.5919829999989
 21
2484.8821429999998
 31
0.0
  0
LINE
  5
7B22
  8
1
  6
CONTINUOUS
 10
3327.0919829999989
 20
2624.8821429999998
 30
0.0
 11
3327.0919829999989
 21
2584.8821429999989
 31
0.0
  0
LINE
  5
7B23
  8
1
  6
CONTINUOUS
 10
3317.0919829999989
 20
2674.8821429999998
 30
0.0
 11
3327.0919829999989
 21
2624.8821429999998
 31
0.0
  0
LINE
  5
7B24
  8
1
  6
CONTINUOUS
 10
3317.0919829999989
 20
2674.8821429999998
 30
0.0
 11
3262.249648
 21
2741.898576
 31
0.0
  0
LINE
  5
7B25
  8
1
  6
CONTINUOUS
 10
3309.5919829999998
 20
2584.8821429999989
 30
0.0
 11
3309.5919829999998
 21
2924.8821429999989
 31
0.0
  0
LINE
  5
7B37
  8
1
  6
CONTINUOUS
 10
5198.7355470000002
 20
2433.8821429999989
 30
0.0
 11
5198.7355470000002
 21
2333.8821429999989
 31
0.0
  0
LINE
  5
7B38
  8
1
  6
CONTINUOUS
 10
4278.7355470000002
 20
2433.8821429999989
 30
0.0
 11
4278.7355470000002
 21
2333.8821429999989
 31
0.0
  0
LINE
  5
7B3A
  8
1
  6
CONTINUOUS
 10
4278.7355470000002
 20
2333.8821429999989
 30
0.0
 11
5198.7355470000002
 21
2333.8821429999989
 31
0.0
  0
LINE
  5
7B3B
  8
1
  6
CONTINUOUS
 10
4476.7355470000002
 20
2691.8821429999989
 30
0.0
 11
5146.7355470000002
 21
2691.8821429999989
 31
0.0
  0
LINE
  5
7B3C
  8
1
  6
CONTINUOUS
 10
4476.7355470000002
 20
3616.8821429999998
 30
0.0
 11
5146.7355470000002
 21
3616.8821429999998
 31
0.0
  0
LINE
  5
7B3D
  8
1
  6
CONTINUOUS
 10
4476.7355470000002
 20
4219.6784859999998
 30
0.0
 11
5146.7355470000002
 21
4219.6784859999998
 31
0.0
  0
LINE
  5
7B3E
  8
1
  6
CONTINUOUS
 10
4278.7355470000002
 20
2574.8821429999989
 30
0.0
 11
5198.7355470000002
 21
2574.8821429999989
 31
0.0
  0
LINE
  5
7B3F
  8
1
  6
CONTINUOUS
 10
4476.7355470000002
 20
3616.8821429999998
 30
0.0
 11
5146.7355470000002
 21
2691.8821429999989
 31
0.0
  0
LINE
  5
7B40
  8
1
  6
CONTINUOUS
 10
4476.7355470000002
 20
2691.8821429999989
 30
0.0
 11
5146.7355470000002
 21
3616.8821429999998
 31
0.0
  0
LINE
  5
7B41
  8
1
  6
CONTINUOUS
 10
4278.7355470000002
 20
2433.8821429999989
 30
0.0
 11
5198.7355470000002
 21
2433.8821429999989
 31
0.0
  0
LINE
  5
7B42
  8
1
  6
CONTINUOUS
 10
4278.7355470000002
 20
2474.8821429999998
 30
0.0
 11
5198.7355470000002
 21
2474.8821429999998
 31
0.0
  0
LINE
  5
7B43
  8
1
  6
CONTINUOUS
 10
4423.7355470000002
 20
4014.8821429999998
 30
0.0
 11
4423.7355470000002
 21
2574.8821429999989
 31
0.0
  0
LINE
  5
7B44
  8
1
  6
CONTINUOUS
 10
4201.7355470000011
 20
4014.8821429999998
 30
0.0
 11
4201.7355470000011
 21
2574.8821429999989
 31
0.0
  0
LINE
  5
7B45
  8
1
  6
CONTINUOUS
 10
4390.7355470000011
 20
3828.8821429999989
 30
0.0
 11
4390.7355470000011
 21
3320.8821429999998
 31
0.0
  0
LINE
  5
7B47
  8
1
  6
CONTINUOUS
 10
4286.7355470000002
 20
3828.8821429999989
 30
0.0
 11
4286.7355470000002
 21
3320.8821429999998
 31
0.0
  0
LINE
  5
7B48
  8
1
  6
CONTINUOUS
 10
4476.7355470000002
 20
4219.6784859999998
 30
0.0
 11
4476.7355470000002
 21
2574.8821429999989
 31
0.0
  0
LINE
  5
7B4E
  8
1
  6
CONTINUOUS
 10
4278.7355470000002
 20
2574.8821429999989
 30
0.0
 11
4278.7355470000002
 21
2474.8821429999998
 31
0.0
  0
LINE
  5
7B4F
  8
1
  6
CONTINUOUS
 10
4201.7355470000011
 20
2574.8821429999989
 30
0.0
 11
4278.7355470000002
 21
2574.8821429999989
 31
0.0
  0
LINE
  5
7B50
  8
1
  6
CONTINUOUS
 10
4390.7355470000011
 20
2899.8821429999998
 30
0.0
 11
4390.7355470000011
 21
2749.8821429999998
 31
0.0
  0
LINE
  5
7B51
  8
1
  6
CONTINUOUS
 10
4286.7355470000002
 20
2899.8821429999998
 30
0.0
 11
4286.7355470000002
 21
2749.8821429999998
 31
0.0
  0
LINE
  5
7B52
  8
1
  6
CONTINUOUS
 10
4390.7355470000011
 20
2803.8821429999998
 30
0.0
 11
4476.7355470000002
 21
2803.8821429999998
 31
0.0
  0
LINE
  5
7B53
  8
1
  6
CONTINUOUS
 10
4390.7355470000011
 20
2845.8821429999998
 30
0.0
 11
4476.7355470000002
 21
2845.8821429999998
 31
0.0
  0
LINE
  5
7B54
  8
1
  6
CONTINUOUS
 10
4286.7355470000002
 20
2749.8821429999998
 30
0.0
 11
4390.7355470000011
 21
2749.8821429999998
 31
0.0
  0
LINE
  5
7B55
  8
1
  6
CONTINUOUS
 10
4286.7355470000002
 20
2899.8821429999998
 30
0.0
 11
4390.7355470000011
 21
2899.8821429999998
 31
0.0
  0
LINE
  5
7B56
  8
1
  6
CONTINUOUS
 10
4390.7355470000011
 20
3549.8821429999998
 30
0.0
 11
4476.7355470000002
 21
3549.8821429999998
 31
0.0
  0
LINE
  5
7B57
  8
1
  6
CONTINUOUS
 10
4390.7355470000011
 20
3599.8821429999998
 30
0.0
 11
4476.7355470000002
 21
3599.8821429999998
 31
0.0
  0
LINE
  5
7B58
  8
1
  6
CONTINUOUS
 10
4286.7355470000002
 20
3320.8821429999998
 30
0.0
 11
4390.7355470000011
 21
3320.8821429999998
 31
0.0
  0
LINE
  5
7B59
  8
1
  6
CONTINUOUS
 10
4201.7355470000011
 20
4014.8821429999998
 30
0.0
 11
4423.7355470000002
 21
4014.8821429999998
 31
0.0
  0
LINE
  5
7B5A
  8
1
  6
CONTINUOUS
 10
4286.7355470000002
 20
3828.8821429999989
 30
0.0
 11
4390.7355470000011
 21
3828.8821429999989
 31
0.0
  0
LINE
  5
7B5B
  8
1
  6
CONTINUOUS
 10
5146.7355470000002
 20
4219.6784859999998
 30
0.0
 11
5146.7355470000002
 21
2574.8821429999989
 31
0.0
  0
LINE
  5
7B5C
  8
1
  6
CONTINUOUS
 10
5198.7355470000002
 20
2574.8821429999989
 30
0.0
 11
5198.7355470000002
 21
2474.8821429999998
 31
0.0
  0
LINE
  5
7B63
  8
1
  6
CONTINUOUS
 10
3329.5919829999989
 20
5461.9804219999987
 30
0.0
 11
3329.5919829999989
 21
6381.9804219999987
 31
0.0
  0
LINE
  5
7B64
  8
1
  6
CONTINUOUS
 10
3291.5919829999989
 20
5617.9804219999987
 30
0.0
 11
3291.5919829999989
 21
6102.9804219999987
 31
0.0
  0
LINE
  5
7B65
  8
1
  6
CONTINUOUS
 10
3309.5919829999998
 20
5436.9804219999996
 30
0.0
 11
3309.5919829999998
 21
5606.9804219999987
 31
0.0
  0
LINE
  5
7B9B
  8
2
  6
CENTER
 10
3448.9283660000001
 20
5994.9804219999996
 30
0.0
 11
1334.797924
 21
5994.9804219999996
 31
0.0
  0
LINE
  5
7B9C
  8
2
  6
CENTER
 10
4811.7355470000011
 20
4388.17965
 30
0.0
 11
4811.7355470000011
 21
2148.767726
 31
0.0
  0
LINE
  5
7B9D
  8
2
  6
CENTER
 10
2149.5919829999998
 20
5317.5084169999991
 30
0.0
 11
2149.5919829999998
 21
6580.7795640000013
 31
0.0
  0
LINE
  5
7B9E
  8
2
  6
CENTER
 10
3228.2089820000001
 20
3574.8821429999989
 30
0.0
 11
1382.6036240000001
 21
3574.8821429999989
 31
0.0
  0
LINE
  5
7B9F
  8
4
  6
CONTINUOUS
 10
5550.0
 20
1500.0
 30
0.0
 11
5550.0
 21
900.0
 31
0.0
  0
LINE
  5
7BA0
  8
4
  6
CONTINUOUS
 10
3450.0
 20
1500.0
 30
0.0
 11
3450.0
 21
900.0
 31
0.0
  0
LINE
  5
7BA1
  8
4
  6
CONTINUOUS
 10
1950.0
 20
1500.0
 30
0.0
 11
1950.0
 21
900.0
 31
0.0
  0
LINE
  5
7BA4
  8
4
  6
CONTINUOUS
 10
1950.0
 20
900.0
 30
0.0
 11
5550.0
 21
900.0
 31
0.0
  0
LINE
  5
7BA5
  8
4
  6
CONTINUOUS
 10
1950.0
 20
1200.0
 30
0.0
 11
5550.0
 21
1200.0
 31
0.0
  0
TEXT
  5
7BA6
  8
4
  6
CONTINUOUS
 10
2065.5062429999989
 20
1294.6290779999999
 30
0.0
 40
150.0
  1
機器名称
  0
TEXT
  5
7BA7
  8
4
  6
CONTINUOUS
 10
2058.7743179999989
 20
964.9354699999999
 30
0.0
 40
150.0
  1
機器型番
  0
TEXT
  5
7BA8
  8
4
  6
CONTINUOUS
 10
3533.0362359999999
 20
1267.7153069999999
 30
0.0
 40
150.0
  1
ミツヤ多翼送風機
  0
TEXT
  5
7BA9
  8
4
  6
CONTINUOUS
 10
3559.9634869999991
 20
951.47875299999987
 30
0.0
 40
150.0
  1
MFE#5 1/2-4
  0
TEXT
  5
7BAB
  8
4
  6
CONTINUOUS
 10
2253.3475339999991
 20
7150.2865239999992
 30
0.0
 40
162.0
  1
床置防振ベット
  0
TEXT
  5
7BAC
  8
4
  6
CONTINUOUS
 10
948.50278000000014
 20
7601.6429289999996
 30
0.0
 40
216.0
  1
ベルト駆動式片吸込両持排煙ファン
  0
LINE
  5
7BAD
  8
4
  6
CONTINUOUS
 10
750.0
 20
7408.2262629999996
 30
0.0
 11
5550.0
 21
7408.2262629999996
 31
0.0
  0
LINE
  5
7BAE
  8
4
  6
CONTINUOUS
 10
750.0
 20
8008.2262629999996
 30
0.0
 11
5550.0
 21
8008.2262629999996
 31
0.0
  0
LINE
  5
7BAF
  8
4
  6
CONTINUOUS
 10
1950.0
 20
1500.0
 30
0.0
 11
5550.0
 21
1500.0
 31
0.0
  0
LINE
  5
7BB0
  8
4
  6
CONTINUOUS
 10
750.0
 20
8008.2262629999996
 30
0.0
 11
750.0
 21
7408.2262629999996
 31
0.0
  0
TEXT
  5
7BB1
  8
4
  6
CONTINUOUS
 10
945.77103699999986
 20
7146.9584329999998
 30
0.0
 40
162.0
  1
右回転左横向
  0
TEXT
  5
7BB2
  8
4
  6
CONTINUOUS
 10
4406.9086779999989
 20
8118.1832439999989
 30
0.0
 40
168.0
  1
No.
  0
TEXT
  5
7BB3
  8
4
  6
CONTINUOUS
 10
3933.8881879999999
 20
7150.2865239999992
 30
0.0
 40
162.0
  1
縮尺：1/30
  0
LINE
  5
7BB4
  8
4
  6
CONTINUOUS
 10
5550.0
 20
8008.2262629999996
 30
0.0
 11
5550.0
 21
7408.2262629999996
 31
0.0
  0
LINE
  5
7BB6
  8
4
  6
CONTINUOUS
 10
4321.8522670000002
 20
8043.7907490000007
 30
0.0
 11
4321.8522670000002
 21
8359.9567849999985
 31
0.0
  0
LINE
  5
7BB7
  8
4
  6
CONTINUOUS
 10
4321.8522670000002
 20
8359.9567849999985
 30
0.0
 11
5550.0
 21
8359.9567849999985
 31
0.0
  0
LINE
  5
7BB8
  8
4
  6
CONTINUOUS
 10
5550.0
 20
8359.9567849999985
 30
0.0
 11
5550.0
 21
8043.7907490000007
 31
0.0
  0
LINE
  5
7BB9
  8
4
  6
CONTINUOUS
 10
5550.0
 20
8043.7907490000007
 30
0.0
 11
4321.8522670000002
 21
8043.7907490000007
 31
0.0
  0
DIMENSION
  5
7BCA
  8
3
  6
CONTINUOUS
  2
*D1
 10
1350.70991
 20
2691.8821429999989
 30
0.0
 11
1350.70991
 21
3164.7073479999999
 31
0.0
 70
   128
 13
1494.591983
 23
3616.8821429999998
 33
0.0
 14
1494.591983
 24
2691.8821429999989
 34
0.0
 50
90.0
1001
ACAD
1000
DSTYLE
1002
{
1070
   287
1070
     3
1070
   287
1070
     3
1070
    40
1040
30.0
1070
   143
1040
0.039
1070
   172
1070
     1
1070
   271
1070
     0
1070
   279
1070
     0
1070
   288
1070
     1
1002
}
  0
DIMENSION
  5
7BD7
  8
3
  6
CONTINUOUS
  2
*D2
 10
1164.0682790000001
 20
2691.8821429999989
 30
0.0
 11
1164.0682789999989
 21
3164.7073479999999
 31
0.0
 70
   128
 13
1382.6036240000001
 23
3574.8821429999989
 33
0.0
 14
1494.591983
 24
2691.8821429999989
 34
0.0
 50
90.0
1001
ACAD
1000
DSTYLE
1002
{
1070
   287
1070
     3
1070
   287
1070
     3
1070
    40
1040
30.0
1070
   143
1040
0.039
1070
   172
1070
     1
1070
   271
1070
     0
1070
   279
1070
     0
1070
   288
1070
     1
1002
}
  0
DIMENSION
  5
7C00
  8
3
  6
CONTINUOUS
  2
*D3
 10
953.25308300000063
 20
2343.8821429999998
 30
0.0
 11
953.25308299999995
 21
2106.0250001428572
 31
0.0
 70
   128
 13
1579.591983
 23
2484.8821429999998
 33
0.0
 14
1579.591983
 24
2343.8821429999989
 34
0.0
 50
90.0
1001
ACAD
1000
DSTYLE
1002
{
1070
   287
1070
     3
1070
   287
1070
     3
1070
    40
1040
30.0
1070
   143
1040
0.039
1070
   172
1070
     1
1070
   271
1070
     0
1070
   279
1070
     0
1070
   288
1070
     1
1002
}
  0
DIMENSION
  5
7C1A
  8
3
  6
CONTINUOUS
  2
*D4
 10
2149.5919829999998
 20
2064.475336
 30
0.0
 11
1878.9071650000001
 21
2064.475336
 31
0.0
 70
   128
 13
1579.591983
 23
2343.8821429999989
 33
0.0
 14
2149.5919829999998
 24
2279.746783999999
 34
0.0
1001
ACAD
1000
DSTYLE
1002
{
1070
   287
1070
     3
1070
   287
1070
     3
1070
    40
1040
30.0
1070
   143
1040
0.039
1070
   172
1070
     1
1070
   271
1070
     0
1070
   279
1070
     0
1070
   288
1070
     1
1002
}
  0
DIMENSION
  5
7C26
  8
3
  6
CONTINUOUS
  2
*D5
 10
3329.5919829999989
 20
2064.475336
 30
0.0
 11
2739.5919829999989
 21
2139.4753359999991
 31
0.0
 70
     0
 13
2149.5919829999998
 23
2279.746783999999
 33
0.0
 14
3329.5919829999989
 24
2343.8821429999989
 34
0.0
1001
ACAD
1000
DSTYLE
1002
{
1070
   287
1070
     4
1070
   287
1070
     4
1070
    40
1040
30.0
1070
    75
1070
     1
1070
   143
1040
0.039
1070
   172
1070
     1
1070
   271
1070
     0
1070
   279
1070
     1
1070
   288
1070
     1
1002
}
  0
DIMENSION
  5
7C33
  8
3
  6
CONTINUOUS
  2
*D6
 10
2149.5919829999998
 20
4433.108424
 30
0.0
 11
1804.250507
 21
4433.108424
 31
0.0
 70
   128
 13
1494.591983
 23
3659.3821429999998
 33
0.0
 14
2149.5919829999998
 24
4350.4838020000007
 34
0.0
1001
ACAD
1000
DSTYLE
1002
{
1070
   287
1070
     3
1070
   287
1070
     3
1070
    40
1040
30.0
1070
   143
1040
0.039
1070
   172
1070
     1
1070
   271
1070
     0
1070
   279
1070
     0
1070
   288
1070
     1
1002
}
  0
DIMENSION
  5
7C4C
  8
3
  6
CONTINUOUS
  2
*D7
 10
4476.7355470000002
 20
4364.7142370000001
 30
0.0
 11
4818.3153759999996
 21
4364.7142370000001
 31
0.0
 70
   128
 13
5146.7355470000002
 23
4219.6784859999998
 33
0.0
 14
4476.7355470000002
 24
4219.6784859999998
 34
0.0
1001
ACAD
1000
DSTYLE
1002
{
1070
   287
1070
     3
1070
   287
1070
     3
1070
    40
1040
30.0
1070
   143
1040
0.039
1070
   172
1070
     1
1070
   271
1070
     0
1070
   279
1070
     0
1070
   288
1070
     1
1002
}
  0
LINE
  5
7C4D
  8
1
  6
CONTINUOUS
 10
5150.7355470000002
 20
4049.8821429999998
 30
0.0
 11
5150.7355470000002
 21
3099.8821429999998
 31
0.0
  0
DIMENSION
  5
7C5C
  8
3
  6
CONTINUOUS
  2
*D8
 10
5428.0113940000019
 20
3099.8821429999998
 30
0.0
 11
5428.0113940000001
 21
3581.290054999999
 31
0.0
 70
   128
 13
5150.7355470000002
 23
4049.8821429999998
 33
0.0
 14
5150.7355470000002
 24
3099.8821429999998
 34
0.0
 50
90.0
1001
ACAD
1000
DSTYLE
1002
{
1070
   287
1070
     3
1070
   287
1070
     3
1070
     3
1000
φ<>
1070
    40
1040
30.0
1070
   143
1040
0.039
1070
   172
1070
     1
1070
   271
1070
     0
1070
   279
1070
     0
1070
   288
1070
     1
1002
}
  0
DIMENSION
  5
7C6B
  8
3
  6
CONTINUOUS
  2
*D9
 10
4811.7355470000011
 20
4582.3320780000004
 30
0.0
 11
4981.2355470000002
 21
4667.9478840357624
 31
0.0
 70
   128
 13
5150.7355470000002
 23
4049.8821429999998
 33
0.0
 14
4811.7355470000011
 24
4508.2450630000003
 34
0.0
1001
ACAD
1000
DSTYLE
1002
{
1070
   288
1070
     1
1070
   172
1070
     1
1070
    40
1040
30.0
1070
   271
1070
     0
1070
   143
1040
0.039
1002
}
  0
DIMENSION
  5
7C77
  8
3
  6
CONTINUOUS
  2
*D10
 10
4201.7355470000011
 20
4582.3320780000004
 30
0.0
 11
4506.7355470000002
 21
4732.3320780000004
 31
0.0
 70
     0
  1
MAX\P640
 13
4811.7355470000011
 23
4508.2450630000003
 33
0.0
 14
4201.7355470000011
 24
4014.8821429999998
 34
0.0
1001
ACAD
1000
DSTYLE
1002
{
1070
   287
1070
     4
1070
   287
1070
     4
1070
    40
1040
30.0
1070
    75
1070
     1
1070
   143
1040
0.039
1070
   172
1070
     1
1070
   271
1070
     0
1070
   279
1070
     1
1070
   288
1070
     1
1002
}
  0
DIMENSION
  5
7C84
  8
3
  6
CONTINUOUS
  2
*D11
 10
4811.7355470000011
 20
2084.6690450000001
 30
0.0
 11
4550.7956969999987
 21
2084.6690450000001
 31
0.0
 70
   128
 13
4278.7355470000002
 23
2333.8821429999989
 33
0.0
 14
4811.7355470000011
 24
2148.767726
 34
0.0
1001
ACAD
1000
DSTYLE
1002
{
1070
   287
1070
     3
1070
   287
1070
     3
1070
    40
1040
30.0
1070
   143
1040
0.039
1070
   172
1070
     1
1070
   271
1070
     0
1070
   279
1070
     0
1070
   288
1070
     1
1002
}
  0
DIMENSION
  5
7C92
  8
3
  6
CONTINUOUS
  2
*D12
 10
5198.7355470000002
 20
2084.6690450000001
 30
0.0
 11
5006.583908999999
 21
2083.0604349999999
 31
0.0
 70
   128
 13
4811.7355470000011
 23
2148.767726
 33
0.0
 14
5198.7355470000002
 24
2333.8821429999989
 34
0.0
1001
ACAD
1000
DSTYLE
1002
{
1070
   287
1070
     4
1070
   287
1070
     4
1070
    40
1040
30.0
1070
    75
1070
     1
1070
   143
1040
0.039
1070
   172
1070
     1
1070
   271
1070
     0
1070
   279
1070
     1
1070
   288
1070
     1
1002
}
  0
DIMENSION
  5
7CB6
  8
3
  6
CONTINUOUS
  2
*D13
 10
3329.5919829999989
 20
6619.1998970000004
 30
0.0
 11
2401.5037739999998
 21
6619.1998970000004
 31
0.0
 70
   128
 13
1579.591983
 23
6381.9804219999987
 33
0.0
 14
3329.5919829999989
 24
6381.9804219999987
 34
0.0
1001
ACAD
1000
DSTYLE
1002
{
1070
   287
1070
     3
1070
   287
1070
     3
1070
    40
1040
30.0
1070
   143
1040
0.039
1070
   172
1070
     1
1070
   271
1070
     0
1070
   279
1070
     0
1070
   288
1070
     1
1002
}
  0
DIMENSION
  5
7CC3
  8
3
  6
CONTINUOUS
  2
*D14
 10
3589.7888549999998
 20
5461.9804219999987
 30
0.0
 11
3589.7888549999998
 21
5924.6560449999997
 31
0.0
 70
   128
 13
3329.5919829999989
 23
6381.9804219999987
 33
0.0
 14
3329.5919829999989
 24
5461.9804219999987
 34
0.0
 50
90.0
1001
ACAD
1000
DSTYLE
1002
{
1070
   287
1070
     3
1070
   287
1070
     3
1070
    40
1040
30.0
1070
   143
1040
0.039
1070
   172
1070
     1
1070
   271
1070
     0
1070
   279
1070
     0
1070
   288
1070
     1
1002
}
  0
DIMENSION
  5
7CD4
  8
3
  6
CONTINUOUS
  2
*D15
 10
952.54108599999995
 20
4217.8770860638833
 30
0.0
 11
877.54108599999915
 21
3896.379614531942
 31
0.0
 70
     0
 13
1382.6036240000001
 23
3574.8821429999989
 33
0.0
 14
2149.5919829999989
 24
4217.8770860638824
 34
0.0
 50
90.0
1001
ACAD
1000
DSTYLE
1002
{
1070
   287
1070
     4
1070
   287
1070
     4
1070
    40
1040
30.0
1070
    75
1070
     1
1070
   143
1040
0.039
1070
   172
1070
     1
1070
   271
1070
     0
1070
   279
1070
     1
1070
   288
1070
     1
1002
}
  0
DIMENSION
  5
7D07
  8
3
  6
CONTINUOUS
  2
*D16
 10
2892.5919840000001
 20
4433.108424
 30
0.0
 11
2521.0919834999991
 21
4508.108424
 31
0.0
 70
     0
 13
2149.5919829999998
 23
4350.4838020000007
 33
0.0
 14
2892.5919840000001
 24
3574.8821429999989
 34
0.0
1001
ACAD
1000
DSTYLE
1002
{
1070
   287
1070
     4
1070
   287
1070
     4
1070
    40
1040
30.0
1070
    75
1070
     1
1070
   143
1040
0.039
1070
   172
1070
     1
1070
   271
1070
     0
1070
   279
1070
     1
1070
   288
1070
     1
1002
}
  0
LINE
  5
7D5D
  8
1
  6
CONTINUOUS
 10
2330.5651290000001
 20
3753.1087419999999
 30
0.0
 11
3183.0289360000002
 21
2887.5081070000001
 31
0.0
  0
LINE
  5
7D5E
  8
1
  6
CONTINUOUS
 10
2027.7125779999999
 20
3352.0337410000002
 30
0.0
 11
3093.6039700000001
 21
2769.080449
 31
0.0
  0
DIMENSION
  5
7D6A
  8
3
  6
CONTINUOUS
  2
*D17
 10
952.54108599999995
 20
2484.8821429999998
 30
0.0
 11
877.5410859999995
 21
3029.8821429999998
 31
0.0
 70
     0
 13
1382.6036240000001
 23
3574.8821429999989
 33
0.0
 14
1579.591983
 24
2484.8821429999998
 34
0.0
 50
90.0
1001
ACAD
1000
DSTYLE
1002
{
1070
   287
1070
     3
1070
   287
1070
     3
1070
    40
1040
30.0
1070
   143
1040
0.039
1070
   172
1070
     1
1070
   271
1070
     0
1070
   279
1070
     0
1070
   288
1070
     1
1002
}
  0
DIMENSION
  5
7DC2
  8
3
  2
*D18
 10
3329.5919829999989
 20
4607.8121333117988
 30
0.0
 11
2455.4648985915992
 21
4607.8121333117988
 31
0.0
 70
   128
 13
1494.591983
 23
3659.3821429999998
 33
0.0
 14
3329.5919829999989
 24
2584.8821429999989
 34
0.0
1001
ACAD
1000
DSTYLE
1002
{
1070
   287
1070
     3
1070
   287
1070
     3
1070
    40
1040
30.0
1070
   143
1040
0.039
1070
   172
1070
     1
1070
   271
1070
     0
1070
   279
1070
     0
1070
   288
1070
     1
1002
}
  0
LINE
  5
7EC3
  8
1
  6
CONTINUOUS
 10
2709.5919829999998
 20
3704.8821429999989
 30
0.0
 11
1589.591983
 21
3704.8821429999989
 31
0.0
  0
LINE
  5
7EC4
  8
1
 10
1589.591983
 20
2584.8821429999989
 30
0.0
 11
1589.591983
 21
3704.8821429999989
 31
0.0
  0
LINE
  5
7EC5
  8
1
 10
2709.5919829999998
 20
2584.8821429999989
 30
0.0
 11
2709.5919829999998
 21
3704.8821429999989
 31
0.0
  0
ENDSEC
  0
EOF
