  0
SECTION
  2
HEADER
  9
$ACADVER
  1
AC1009
  9
$INSBASE
 10
0.0
 20
0.0
 30
0.0
  9
$EXTMIN
 10
750.0
 20
900.0
 30
0.0
  9
$EXTMAX
 10
5550.0
 20
8359.9567849999985
 30
0.0
  9
$LIMMIN
 10
0.0
 20
0.0
  9
$LIMMAX
 10
297.0
 20
210.0
  9
$ORTHOMODE
 70
     0
  9
$REGENMODE
 70
     1
  9
$FILLMODE
 70
     0
  9
$QTEXTMODE
 70
     0
  9
$MIRRTEXT
 70
     1
  9
$DRAGMODE
 70
     2
  9
$LTSCALE
 40
100.0
  9
$OSMODE
 70
    37
  9
$ATTMODE
 70
     1
  9
$TEXTSIZE
 40
180.0
  9
$TRACEWID
 40
0.05
  9
$TEXTSTYLE
  7
STANDARD
  9
$CLAYER
  8
3
  9
$CELTYPE
  6
BYLAYER
  9
$CECOLOR
 62
   256
  9
$DIMSCALE
 40
30.0
  9
$DIMASZ
 40
2.0
  9
$DIMEXO
 40
0.5
  9
$DIMDLI
 40
10.0
  9
$DIMRND
 40
0.0
  9
$DIMDLE
 40
0.0
  9
$DIMEXE
 40
1.0
  9
$DIMTP
 40
1.0
  9
$DIMTM
 40
1.0
  9
$DIMTXT
 40
3.0
  9
$DIMCEN
 40
0.0
  9
$DIMTSZ
 40
0.0
  9
$DIMTOL
 70
     0
  9
$DIMLIM
 70
     0
  9
$DIMTIH
 70
     0
  9
$DIMTOH
 70
     0
  9
$DIMSE1
 70
     0
  9
$DIMSE2
 70
     0
  9
$DIMTAD
 70
     1
  9
$DIMZIN
 70
     8
  9
$DIMBLK
  1

  9
$DIMASO
 70
     1
  9
$DIMSHO
 70
     1
  9
$DIMPOST
  1

  9
$DIMAPOST
  1

  9
$DIMALT
 70
     0
  9
$DIMALTD
 70
     2
  9
$DIMALTF
 40
0.039
  9
$DIMLFAC
 40
1.0
  9
$DIMTOFL
 70
     1
  9
$DIMTVP
 40
0.0
  9
$DIMTIX
 70
     0
  9
$DIMSOXD
 70
     0
  9
$DIMSAH
 70
     1
  9
$DIMBLK1
  1
OPEN
  9
$DIMBLK2
  1
OPEN
  9
$DIMSTYLE
  2
IGA
  9
$DIMCLRD
 70
     0
  9
$DIMCLRE
 70
     0
  9
$DIMCLRT
 70
     0
  9
$DIMTFAC
 40
10.0
  9
$DIMGAP
 40
1.0
  9
$LUNITS
 70
     2
  9
$LUPREC
 70
     3
  9
$SKETCHINC
 40
0.1
  9
$FILLETRAD
 40
50.0
  9
$AUNITS
 70
     0
  9
$AUPREC
 70
     0
  9
$MENU
  1
acad
  9
$ELEVATION
 40
0.0
  9
$PELEVATION
 40
0.0
  9
$THICKNESS
 40
0.0
  9
$LIMCHECK
 70
     0
  9
$BLIPMODE
 70
     0
  9
$CHAMFERA
 40
0.5
  9
$CHAMFERB
 40
0.5
  9
$SKPOLY
 70
     0
  9
$TDCREATE
 40
2450749.6380885411
  9
$TDUPDATE
 40
2454953.8415334141
  9
$TDINDWG
 40
0.0110376042
  9
$TDUSRTIMER
 40
0.0110376042
  9
$USRTIMER
 70
     1
  9
$ANGBASE
 50
0.0
  9
$ANGDIR
 70
     0
  9
$PDMODE
 70
     0
  9
$PDSIZE
 40
0.0
  9
$PLINEWID
 40
0.0
  9
$COORDS
 70
     1
  9
$SPLFRAME
 70
     0
  9
$SPLINETYPE
 70
     6
  9
$SPLINESEGS
 70
     8
  9
$ATTDIA
 70
     0
  9
$ATTREQ
 70
     1
  9
$HANDLING
 70
 10241
  9
$HANDSEED
  5
7EE2
  9
$SURFTAB1
 70
     6
  9
$SURFTAB2
 70
     6
  9
$SURFTYPE
 70
     6
  9
$SURFU
 70
     6
  9
$SURFV
 70
     6
  9
$UCSNAME
  2

  9
$UCSORG
 10
0.0
 20
0.0
 30
0.0
  9
$UCSXDIR
 10
1.0
 20
0.0
 30
0.0
  9
$UCSYDIR
 10
0.0
 20
1.0
 30
0.0
  9
$PUCSNAME
  2

  9
$PUCSORG
 10
0.0
 20
0.0
 30
0.0
  9
$PUCSXDIR
 10
1.0
 20
0.0
 30
0.0
  9
$PUCSYDIR
 10
0.0
 20
1.0
 30
0.0
  9
$USERI1
 70
     0
  9
$USERI2
 70
     0
  9
$USERI3
 70
     0
  9
$USERI4
 70
     0
  9
$USERI5
 70
     0
  9
$USERR1
 40
0.0
  9
$USERR2
 40
0.0
  9
$USERR3
 40
0.0
  9
$USERR4
 40
0.0
  9
$USERR5
 40
0.0
  9
$WORLDVIEW
 70
     1
  9
$SHADEDGE
 70
     3
  9
$SHADEDIF
 70
    70
  9
$TILEMODE
 70
     1
  9
$MAXACTVP
 70
    16
  9
$PLIMCHECK
 70
     0
  9
$PEXTMIN
 10
1.0000000000000000E+020
 20
1.0000000000000000E+020
 30
1.0000000000000000E+020
  9
$PEXTMAX
 10
-1.0000000000000000E+020
 20
-1.0000000000000000E+020
 30
-1.0000000000000000E+020
  9
$PLIMMIN
 10
0.0
 20
0.0
  9
$PLIMMAX
 10
12.0
 20
9.0
  9
$UNITMODE
 70
     0
  9
$VISRETAIN
 70
     0
  9
$PLINEGEN
 70
     0
  9
$PSLTSCALE
 70
     1
  0
ENDSEC
  0
SECTION
  2
TABLES
  0
TABLE
  2
VPORT
 70
     2
  0
VPORT
  2
*ACTIVE
 70
     0
 10
0.0
 20
0.0
 11
1.0
 21
1.0
 12
3571.4864590668849
 22
4613.8211873265227
 13
0.0
 23
0.0
 14
10.0
 24
10.0
 15
10.0
 25
10.0
 16
0.0
 26
0.0
 36
1.0
 17
0.0
 27
0.0
 37
0.0
 40
9063.203790556583
 41
1.5051150895140659
 42
50.0
 43
0.0
 44
0.0
 50
0.0
 51
0.0
 71
     0
 72
   100
 73
     1
 74
     0
 75
     0
 76
     0
 77
     0
 78
     0
  0
ENDTAB
  0
TABLE
  2
LTYPE
 70
     2
  0
LTYPE
  2
CONTINUOUS
 70
     0
  3
Solid line
 72
    65
 73
     0
 40
0.0
  0
LTYPE
  2
CENTER
 70
     0
  3
____ _ ____ _ ____ _ ____ _ ____ _ ____ _ ____ 
 72
    65
 73
     4
 40
2.0
 49
1.25
 49
-0.25
 49
0.25
 49
-0.25
  0
ENDTAB
  0
TABLE
  2
LAYER
 70
     6
  0
LAYER
  2
0
 70
     0
 62
     7
  6
CONTINUOUS
  0
LAYER
  2
3
 70
     0
 62
     2
  6
CONTINUOUS
  0
LAYER
  2
2
 70
     0
 62
     3
  6
CENTER
  0
LAYER
  2
1
 70
     0
 62
     4
  6
CONTINUOUS
  0
LAYER
  2
4
 70
     0
 62
     7
  6
CONTINUOUS
  0
LAYER
  2
DEFPOINTS
 70
     0
 62
     7
  6
CONTINUOUS
  0
ENDTAB
  0
TABLE
  2
STYLE
 70
     1
  0
STYLE
  2
STANDARD
 70
     0
 40
0.0
 41
1.0
 50
0.0
 71
     0
 42
180.0
  3
simplex.shx
  4
extfont.shx
  0
ENDTAB
  0
TABLE
  2
VIEW
 70
     0
  0
ENDTAB
  0
TABLE
  2
UCS
 70
     0
  0
ENDTAB
  0
TABLE
  2
APPID
 70
     1
  0
APPID
  2
ACAD
 70
     0
  0
ENDTAB
  0
TABLE
  2
DIMSTYLE
 70
     1
  0
DIMSTYLE
  2
IGA
 70
     0
  3

  4

  5

  6
OPEN
  7
OPEN
 40
2.0
 41
2.0
 42
0.5
 43
10.0
 44
1.0
 45
0.0
 46
0.0
 47
1.0
 48
1.0
140
3.0
141
0.0
142
0.0
143
0.03937
144
1.0
145
0.0
146
10.0
147
1.0
 71
     0
 72
     0
 73
     0
 74
     0
 75
     0
 76
     0
 77
     1
 78
     8
170
     0
171
     2
172
     0
173
     1
174
     0
175
     0
176
     0
177
     0
178
     0
  0
ENDTAB
  0
ENDSEC
  0
SECTION
  2
BLOCKS
  0
BLOCK
  8
0
  2
$MODEL_SPACE
 70
     0
 10
0.0
 20
0.0
 30
0.0
  3
$MODEL_SPACE
  1

  0
ENDBLK
  5
1B
  8
0
  0
BLOCK
 67
     1
  8
0
  2
$PAPER_SPACE
 70
     0
 10
0.0
 20
0.0
 30
0.0
  3
$PAPER_SPACE
  1

  0
ENDBLK
  5
18
 67
     1
  8
0
  0
BLOCK
  8
0
  2
_OPEN
 70
     0
 10
0.0
 20
0.0
 30
0.0
  3
_OPEN
  1

  0
LINE
  5
7AEE
  8
0
  6
BYBLOCK
 62
     0
 10
-1.0
 20
0.166667
 30
0.0
 11
0.0
 21
0.0
 31
0.0
  0
LINE
  5
7AEF
  8
0
  6
BYBLOCK
 62
     0
 10
0.0
 20
0.0
 30
0.0
 11
-1.0
 21
-0.166667
 31
0.0
  0
LINE
  5
7AF0
  8
0
  6
BYBLOCK
 62
     0
 10
0.0
 20
0.0
 30
0.0
 11
-1.0
 21
0.0
 31
0.0
  0
ENDBLK
  5
7AF1
  8
0
  0
BLOCK
  8
0
  2
*D1
 70
     1
 10
0.0
 20
0.0
 30
0.0
  3
*D1
  1

  0
LINE
  5
7E37
  8
3
  6
CONTINUOUS
 62
     0
 10
2871.9674009999999
 20
3910.6042090000001
 30
0.0
 11
3117.5069589999998
 21
3910.6042090000001
 31
0.0
  0
LINE
  5
7E38
  8
3
  6
CONTINUOUS
 62
     0
 10
2871.9674009999999
 20
2985.6042090000001
 30
0.0
 11
3117.5069589999998
 21
2985.6042089999992
 31
0.0
  0
LINE
  5
7E39
  8
3
  6
CONTINUOUS
 62
     0
 10
3087.5069590000012
 20
3850.6042090000001
 30
0.0
 11
3087.5069589999998
 21
3045.6042089999992
 31
0.0
  0
INSERT
  5
7E3A
  8
3
  6
CONTINUOUS
 62
     0
  2
_OPEN
 10
3087.5069590000012
 20
3910.6042090000001
 30
0.0
 41
60.0
 42
60.0
 43
60.0
 50
90.0
  0
INSERT
  5
7E3B
  8
3
  6
CONTINUOUS
 62
     0
  2
_OPEN
 10
3087.5069589999998
 20
2985.6042089999992
 30
0.0
 41
60.0
 42
60.0
 43
60.0
 50
270.0
  0
TEXT
  8
3
  40
90
  5
7ED0
  62
0
  72
0
  71
0
 10
2832.51
 20
3289.87
 30
0.000000
  1
925
  0
POINT
  5
7E3D
  8
DEFPOINTS
  6
CONTINUOUS
 62
     0
 10
2856.9674009999999
 20
3910.6042090000001
 30
0.0
  0
POINT
  5
7E3E
  8
DEFPOINTS
  6
CONTINUOUS
 62
     0
 10
2856.9674009999999
 20
2985.6042090000001
 30
0.0
  0
POINT
  5
7E3F
  8
DEFPOINTS
  6
CONTINUOUS
 62
     0
 10
3087.5069589999998
 20
2985.6042089999992
 30
0.0
  0
ENDBLK
  5
7B37
  8
0
  0
BLOCK
  8
0
  2
*D2
 70
     1
 10
0.0
 20
0.0
 30
0.0
  3
*D2
  1

  0
LINE
  5
7E40
  8
3
  6
CONTINUOUS
 62
     0
 10
2871.9674009999999
 20
3910.6042090000001
 30
0.0
 11
3312.681423
 21
3910.6042090000001
 31
0.0
  0
LINE
  5
7E41
  8
3
  6
CONTINUOUS
 62
     0
 10
3008.2059399999989
 20
3027.6042090000001
 30
0.0
 11
3312.681423
 21
3027.6042089999992
 31
0.0
  0
LINE
  5
7E42
  8
3
  6
CONTINUOUS
 62
     0
 10
3282.6814230000009
 20
3850.6042090000001
 30
0.0
 11
3282.6814230000009
 21
3087.6042090000001
 31
0.0
  0
INSERT
  5
7E43
  8
3
  6
CONTINUOUS
 62
     0
  2
_OPEN
 10
3282.6814230000009
 20
3910.6042090000001
 30
0.0
 41
60.0
 42
60.0
 43
60.0
 50
90.0
  0
INSERT
  5
7E44
  8
3
  6
CONTINUOUS
 62
     0
  2
_OPEN
 10
3282.681423
 20
3027.6042089999992
 30
0.0
 41
60.0
 42
60.0
 43
60.0
 50
270.0
  0
TEXT
  8
3
  40
90
  5
7ED1
  62
0
  72
0
  71
0
 10
3027.68
 20
3305.48
 30
0.000000
  1
883
  0
POINT
  5
7E46
  8
DEFPOINTS
  6
CONTINUOUS
 62
     0
 10
2856.9674009999999
 20
3910.6042090000001
 30
0.0
  0
POINT
  5
7E47
  8
DEFPOINTS
  6
CONTINUOUS
 62
     0
 10
2993.2059399999998
 20
3027.6042090000001
 30
0.0
  0
POINT
  5
7E48
  8
DEFPOINTS
  6
CONTINUOUS
 62
     0
 10
3282.681423
 20
3027.6042089999992
 30
0.0
  0
ENDBLK
  5
7B44
  8
0
  0
BLOCK
  8
0
  2
*D3
 70
     1
 10
0.0
 20
0.0
 30
0.0
  3
*D3
  1

  0
LINE
  5
7E49
  8
3
  6
CONTINUOUS
 62
     0
 10
2786.9674009999999
 20
2262.6042090000001
 30
0.0
 11
3312.681423
 21
2262.6042089999992
 31
0.0
  0
LINE
  5
7E4A
  8
3
  6
CONTINUOUS
 62
     0
 10
3282.681423
 20
2967.6042089999992
 30
0.0
 11
3282.681423
 21
2322.6042089999992
 31
0.0
  0
INSERT
  5
7E4B
  8
3
  6
CONTINUOUS
 62
     0
  2
_OPEN
 10
3282.681423
 20
3027.6042089999992
 30
0.0
 41
60.0
 42
60.0
 43
60.0
 50
90.0
  0
INSERT
  5
7E4C
  8
3
  6
CONTINUOUS
 62
     0
  2
_OPEN
 10
3282.681423
 20
2262.6042089999992
 30
0.0
 41
60.0
 42
60.0
 43
60.0
 50
270.0
  0
TEXT
  8
3
  40
90
  5
7ED2
  62
0
  72
0
  71
0
 10
3027.68
 20
2485.80
 30
0.000000
  1
765
  0
POINT
  5
7E4E
  8
DEFPOINTS
  6
CONTINUOUS
 62
     0
 10
2993.2059399999998
 20
3027.6042090000001
 30
0.0
  0
POINT
  5
7E4F
  8
DEFPOINTS
  6
CONTINUOUS
 62
     0
 10
2771.9674009999999
 20
2262.6042090000001
 30
0.0
  0
POINT
  5
7E50
  8
DEFPOINTS
  6
CONTINUOUS
 62
     0
 10
3282.681423
 20
2262.6042089999992
 30
0.0
  0
ENDBLK
  5
7B50
  8
0
  0
BLOCK
  8
0
  2
*D4
 70
     1
 10
0.0
 20
0.0
 30
0.0
  3
*D4
  1

  0
LINE
  5
7E51
  8
3
  6
CONTINUOUS
 62
     0
 10
2786.9674009999999
 20
2262.6042090000001
 30
0.0
 11
3312.681423
 21
2262.6042089999992
 31
0.0
  0
LINE
  5
7E52
  8
3
  6
CONTINUOUS
 62
     0
 10
2786.9674009999999
 20
2121.6042090000001
 30
0.0
 11
3312.681423
 21
2121.6042090000001
 31
0.0
  0
LINE
  5
7E53
  8
3
  6
CONTINUOUS
 62
     0
 10
3282.681423
 20
2322.6042089999992
 30
0.0
 11
3282.681423
 21
2382.6042089999992
 31
0.0
  0
LINE
  5
7E54
  8
3
  6
CONTINUOUS
 62
     0
 10
3282.681423
 20
2061.6042089999992
 30
0.0
 11
3282.681423
 21
1765.8899232857141
 31
0.0
  0
LINE
  5
7E55
  8
3
  6
CONTINUOUS
 62
     0
 10
3282.681423
 20
2262.6042089999992
 30
0.0
 11
3282.681423
 21
2121.6042090000001
 31
0.0
  0
INSERT
  5
7E56
  8
3
  6
CONTINUOUS
 62
     0
  2
_OPEN
 10
3282.681423
 20
2262.6042089999992
 30
0.0
 41
60.0
 42
60.0
 43
60.0
 50
270.0
  0
INSERT
  5
7E57
  8
3
  6
CONTINUOUS
 62
     0
  2
_OPEN
 10
3282.681423
 20
2121.6042090000001
 30
0.0
 41
60.0
 42
60.0
 43
60.0
 50
90.0
  0
TEXT
  8
3
  40
90
  5
7ED3
  62
0
  72
0
  71
0
 10
3027.68
 20
1724.45
 30
0.000000
  1
141
  0
POINT
  5
7E59
  8
DEFPOINTS
  6
CONTINUOUS
 62
     0
 10
2771.9674009999999
 20
2262.6042090000001
 30
0.0
  0
POINT
  5
7E5A
  8
DEFPOINTS
  6
CONTINUOUS
 62
     0
 10
2771.9674009999999
 20
2121.6042090000001
 30
0.0
  0
POINT
  5
7E5B
  8
DEFPOINTS
  6
CONTINUOUS
 62
     0
 10
3282.681423
 20
2121.6042090000001
 30
0.0
  0
ENDBLK
  5
7D17
  8
0
  0
BLOCK
  8
0
  2
*D5
 70
     1
 10
0.0
 20
0.0
 30
0.0
  3
*D5
  1

  0
LINE
  5
7E5C
  8
3
  6
CONTINUOUS
 62
     0
 10
2871.9674009999999
 20
3953.104209000001
 30
0.0
 11
3617.153616000001
 21
3953.1042090000001
 31
0.0
  0
LINE
  5
7E5D
  8
3
  6
CONTINUOUS
 62
     0
 10
2786.9674009999999
 20
2121.6042090000001
 30
0.0
 11
3617.1536160000001
 21
2121.6042090000001
 31
0.0
  0
LINE
  5
7E5E
  8
3
  6
CONTINUOUS
 62
     0
 10
3587.1536160000001
 20
3893.1042090000001
 30
0.0
 11
3587.1536160000001
 21
2181.6042089999992
 31
0.0
  0
INSERT
  5
7E5F
  8
3
  6
CONTINUOUS
 62
     0
  2
_OPEN
 10
3587.1536160000001
 20
3953.1042090000001
 30
0.0
 41
60.0
 42
60.0
 43
60.0
 50
90.0
  0
INSERT
  5
7E60
  8
3
  6
CONTINUOUS
 62
     0
  2
_OPEN
 10
3587.1536160000001
 20
2121.6042090000001
 30
0.0
 41
60.0
 42
60.0
 43
60.0
 50
270.0
  0
TEXT
  8
3
  40
90
  5
7ED4
  62
0
  72
0
  71
0
 10
3332.15
 20
2962.22
 30
0.000000
  1
1832
  0
POINT
  5
7E62
  8
DEFPOINTS
  6
CONTINUOUS
 62
     0
 10
2856.9674009999999
 20
3953.104209000001
 30
0.0
  0
POINT
  5
7E63
  8
DEFPOINTS
  6
CONTINUOUS
 62
     0
 10
2771.9674009999999
 20
2121.6042090000001
 30
0.0
  0
POINT
  5
7E64
  8
DEFPOINTS
  6
CONTINUOUS
 62
     0
 10
3587.1536160000001
 20
2121.6042090000001
 30
0.0
  0
ENDBLK
  5
7B6D
  8
0
  0
BLOCK
  8
0
  2
*D6
 70
     1
 10
0.0
 20
0.0
 30
0.0
  3
*D6
  1

  0
LINE
  5
7E65
  8
3
  6
CONTINUOUS
 62
     0
 10
1021.967401
 20
2106.6042089999992
 30
0.0
 11
1021.967401
 21
1874.522616
 31
0.0
  0
LINE
  5
7E66
  8
3
  6
CONTINUOUS
 62
     0
 10
2201.9674009999999
 20
2020.2303549999999
 30
0.0
 11
2201.9674009999999
 21
1874.522616
 31
0.0
  0
LINE
  5
7E67
  8
3
  6
CONTINUOUS
 62
     0
 10
1081.967400999999
 20
1904.5226159999991
 30
0.0
 11
2141.9674009999999
 21
1904.5226159999991
 31
0.0
  0
INSERT
  5
7E68
  8
3
  6
CONTINUOUS
 62
     0
  2
_OPEN
 10
1021.967401
 20
1904.5226159999991
 30
0.0
 41
60.0
 42
60.0
 43
60.0
 50
180.0
  0
INSERT
  5
7E69
  8
3
  6
CONTINUOUS
 62
     0
  2
_OPEN
 10
2201.9674009999999
 20
1904.5226159999991
 30
0.0
 41
60.0
 42
60.0
 43
60.0
  0
TEXT
  8
3
  40
90
  5
7ED5
  62
0
  72
0
  71
0
 10
1486.64
 20
1820.22
 30
0.000000
  1
1180
  0
POINT
  5
7E6B
  8
DEFPOINTS
  6
CONTINUOUS
 62
     0
 10
1021.967401
 20
2121.6042090000001
 30
0.0
  0
POINT
  5
7E6C
  8
DEFPOINTS
  6
CONTINUOUS
 62
     0
 10
2201.9674009999999
 20
2035.2303549999999
 30
0.0
  0
POINT
  5
7E6D
  8
DEFPOINTS
  6
CONTINUOUS
 62
     0
 10
2201.9674009999999
 20
1904.5226159999991
 30
0.0
  0
ENDBLK
  5
7B7A
  8
0
  0
BLOCK
  8
0
  2
*D7
 70
     1
 10
0.0
 20
0.0
 30
0.0
  3
*D7
  1

  0
LINE
  5
7E6E
  8
3
  6
CONTINUOUS
 62
     0
 10
2771.9674009999999
 20
2106.6042089999992
 30
0.0
 11
2771.9674009999999
 21
1874.522616
 31
0.0
  0
LINE
  5
7E6F
  8
3
  6
CONTINUOUS
 62
     0
 10
2261.9674009999999
 20
1904.5226159999991
 30
0.0
 11
2711.9674009999999
 21
1904.5226159999991
 31
0.0
  0
INSERT
  5
7E70
  8
3
  6
CONTINUOUS
 62
     0
  2
_OPEN
 10
2201.9674009999999
 20
1904.5226159999991
 30
0.0
 41
60.0
 42
60.0
 43
60.0
 50
180.0
  0
INSERT
  5
7E71
  8
3
  6
CONTINUOUS
 62
     0
  2
_OPEN
 10
2771.9674009999999
 20
1904.5226159999991
 30
0.0
 41
60.0
 42
60.0
 43
60.0
  0
TEXT
  8
3
  40
90
  5
7ED6
  62
0
  72
0
  71
0
 10
2306.97
 20
1820.22
 30
0.000000
  1
570
  0
POINT
  5
7E73
  8
DEFPOINTS
  6
CONTINUOUS
 62
     0
 10
2201.9674009999999
 20
2035.2303549999999
 30
0.0
  0
POINT
  5
7E74
  8
DEFPOINTS
  6
CONTINUOUS
 62
     0
 10
2771.9674009999999
 20
2121.6042090000001
 30
0.0
  0
POINT
  5
7E75
  8
DEFPOINTS
  6
CONTINUOUS
 62
     0
 10
2771.9674009999999
 20
1904.5226159999991
 30
0.0
  0
ENDBLK
  5
7B86
  8
0
  0
BLOCK
  8
0
  2
*D8
 70
     1
 10
0.0
 20
0.0
 30
0.0
  3
*D8
  1

  0
LINE
  5
7E76
  8
3
  6
CONTINUOUS
 62
     0
 10
2856.9674009999999
 20
3968.1042090000001
 30
0.0
 11
2856.9674009999999
 21
4189.0889479999996
 31
0.0
  0
LINE
  5
7E77
  8
3
  6
CONTINUOUS
 62
     0
 10
2201.9674009999999
 20
4063.0810919999999
 30
0.0
 11
2201.9674009999999
 21
4189.0889479999996
 31
0.0
  0
LINE
  5
7E78
  8
3
  6
CONTINUOUS
 62
     0
 10
2796.9674009999999
 20
4159.0889479999987
 30
0.0
 11
2261.9674009999999
 21
4159.0889479999987
 31
0.0
  0
INSERT
  5
7E79
  8
3
  6
CONTINUOUS
 62
     0
  2
_OPEN
 10
2856.9674009999999
 20
4159.0889479999987
 30
0.0
 41
60.0
 42
60.0
 43
60.0
  0
INSERT
  5
7E7A
  8
3
  6
CONTINUOUS
 62
     0
  2
_OPEN
 10
2201.9674009999999
 20
4159.0889479999987
 30
0.0
 41
60.0
 42
60.0
 43
60.0
 50
180.0
  0
TEXT
  8
3
  40
90
  5
7ED7
  62
0
  72
0
  71
0
 10
2368.83
 20
4074.79
 30
0.000000
  1
655
  0
POINT
  5
7E7C
  8
DEFPOINTS
  6
CONTINUOUS
 62
     0
 10
2856.9674009999999
 20
3953.104209000001
 30
0.0
  0
POINT
  5
7E7D
  8
DEFPOINTS
  6
CONTINUOUS
 62
     0
 10
2201.9674009999999
 20
4048.0810919999999
 30
0.0
  0
POINT
  5
7E7E
  8
DEFPOINTS
  6
CONTINUOUS
 62
     0
 10
2201.9674009999999
 20
4159.0889479999987
 30
0.0
  0
ENDBLK
  5
7B93
  8
0
  0
BLOCK
  8
0
  2
*D9
 70
     1
 10
0.0
 20
0.0
 30
0.0
  3
*D9
  1

  0
LINE
  5
7E7F
  8
3
  6
CONTINUOUS
 62
     0
 10
5058.8299259999994
 20
3925.604209000001
 30
0.0
 11
5058.8299259999994
 21
4118.8775409999989
 31
0.0
  0
LINE
  5
7E80
  8
3
  6
CONTINUOUS
 62
     0
 10
4388.8299259999994
 20
3925.604209000001
 30
0.0
 11
4388.8299259999994
 21
4118.8775409999989
 31
0.0
  0
LINE
  5
7E81
  8
3
  6
CONTINUOUS
 62
     0
 10
4998.8299259999994
 20
4088.8775409999998
 30
0.0
 11
4448.8299260000003
 21
4088.8775409999998
 31
0.0
  0
INSERT
  5
7E82
  8
3
  6
CONTINUOUS
 62
     0
  2
_OPEN
 10
5058.8299259999994
 20
4088.8775409999998
 30
0.0
 41
60.0
 42
60.0
 43
60.0
  0
INSERT
  5
7E83
  8
3
  6
CONTINUOUS
 62
     0
  2
_OPEN
 10
4388.8299259999994
 20
4088.8775409999998
 30
0.0
 41
60.0
 42
60.0
 43
60.0
 50
180.0
  0
TEXT
  8
3
  40
90
  5
7ED8
  62
0
  72
0
  71
0
 10
4562.95
 20
4004.58
 30
0.000000
  1
670
  0
POINT
  5
7E85
  8
DEFPOINTS
  6
CONTINUOUS
 62
     0
 10
5058.8299259999994
 20
3910.6042090000001
 30
0.0
  0
POINT
  5
7E86
  8
DEFPOINTS
  6
CONTINUOUS
 62
     0
 10
4388.8299259999994
 20
3910.6042090000001
 30
0.0
  0
POINT
  5
7E87
  8
DEFPOINTS
  6
CONTINUOUS
 62
     0
 10
4388.8299259999994
 20
4088.8775409999998
 30
0.0
  0
ENDBLK
  5
7BAC
  8
0
  0
BLOCK
  8
0
  2
*D10
 70
     1
 10
0.0
 20
0.0
 30
0.0
  3
*D10
  1

  0
LINE
  5
7E88
  8
3
  6
CONTINUOUS
 62
     0
 10
5077.8299259999994
 20
3502.6042090000001
 30
0.0
 11
5358.4696130000011
 21
3502.6042090000001
 31
0.0
  0
LINE
  5
7E89
  8
3
  6
CONTINUOUS
 62
     0
 10
5077.8299259999994
 20
2552.6042090000001
 30
0.0
 11
5358.4696130000011
 21
2552.6042090000001
 31
0.0
  0
LINE
  5
7E8A
  8
3
  6
CONTINUOUS
 62
     0
 10
5328.4696130000011
 20
3442.6042090000001
 30
0.0
 11
5328.4696130000011
 21
2612.6042090000001
 31
0.0
  0
INSERT
  5
7E8B
  8
3
  6
CONTINUOUS
 62
     0
  2
_OPEN
 10
5328.4696130000011
 20
3502.6042090000001
 30
0.0
 41
60.0
 42
60.0
 43
60.0
 50
90.0
  0
INSERT
  5
7E8C
  8
3
  6
CONTINUOUS
 62
     0
  2
_OPEN
 10
5328.4696130000011
 20
2552.6042090000001
 30
0.0
 41
60.0
 42
60.0
 43
60.0
 50
270.0
  0
TEXT
  8
3
  40
90
  5
7ED9
  62
0
  72
0
  71
0
 10
5073.47
 20
2860.80
 30
0.000000
  1
φ950
  0
POINT
  5
7E8E
  8
DEFPOINTS
  6
CONTINUOUS
 62
     0
 10
5062.8299260000003
 20
3502.6042090000001
 30
0.0
  0
POINT
  5
7E8F
  8
DEFPOINTS
  6
CONTINUOUS
 62
     0
 10
5062.8299260000003
 20
2552.6042090000001
 30
0.0
  0
POINT
  5
7E90
  8
DEFPOINTS
  6
CONTINUOUS
 62
     0
 10
5328.4696130000011
 20
2552.6042090000001
 30
0.0
  0
ENDBLK
  5
7CC8
  8
0
  0
BLOCK
  8
0
  2
*D11
 70
     1
 10
0.0
 20
0.0
 30
0.0
  3
*D11
  1

  0
LINE
  5
7CE0
  8
0
  6
BYBLOCK
 62
     0
 10
5062.8299260000003
 20
3517.6042090000001
 30
0.0
 11
5062.8299260000003
 21
4346.9909854767257
 31
0.0
  0
LINE
  5
7CE1
  8
0
  6
BYBLOCK
 62
     0
 10
4723.8299259999994
 20
4259.6787270000004
 30
0.0
 11
4723.8299259999994
 21
4346.9909854767257
 31
0.0
  0
LINE
  5
7CE2
  8
0
  6
BYBLOCK
 62
     0
 10
5002.8299260000003
 20
4316.9909854767266
 30
0.0
 11
4783.8299259999994
 21
4316.9909854767266
 31
0.0
  0
TEXT
  5
7CE3
  8
3
 62
     0
 10
4779.758497428571
 20
4366.676638848312
 30
0.0
 40
90.0
  1
339
  0
INSERT
  5
7CE4
  8
0
  6
BYBLOCK
 62
     0
  2
_OPEN
 10
5062.8299260000003
 20
4316.9909854767266
 30
0.0
 41
60.0
 42
60.0
 43
60.0
  0
INSERT
  5
7CE5
  8
0
  6
BYBLOCK
 62
     0
  2
_OPEN
 10
4723.8299259999994
 20
4316.9909854767266
 30
0.0
 41
60.0
 42
60.0
 43
60.0
 50
180.0
  0
POINT
  5
7CE6
  8
DEFPOINTS
  6
BYBLOCK
 62
     0
 10
5062.8299260000003
 20
3502.6042090000001
 30
0.0
  0
POINT
  5
7CE7
  8
DEFPOINTS
  6
BYBLOCK
 62
     0
 10
4723.8299259999994
 20
4244.6787270000013
 30
0.0
  0
POINT
  5
7CE8
  8
DEFPOINTS
  6
BYBLOCK
 62
     0
 10
4723.8299259999994
 20
4316.9909854767266
 30
0.0
  0
ENDBLK
  5
7CE9
  8
0
  0
BLOCK
  8
0
  2
*D12
 70
     1
 10
0.0
 20
0.0
 30
0.0
  3
*D12
  1

  0
LINE
  5
7E91
  8
3
  6
CONTINUOUS
 62
     0
 10
4190.8299259999994
 20
2106.6042089999992
 30
0.0
 11
4190.8299259999994
 21
1847.8692219999989
 31
0.0
  0
LINE
  5
7E92
  8
3
  6
CONTINUOUS
 62
     0
 10
4723.8299259999994
 20
1991.2172295255821
 30
0.0
 11
4723.8299259999994
 21
1847.8692219999989
 31
0.0
  0
LINE
  5
7E93
  8
3
  6
CONTINUOUS
 62
     0
 10
4250.8299259999994
 20
1877.869222
 30
0.0
 11
4663.8299260000003
 21
1877.869222
 31
0.0
  0
INSERT
  5
7E94
  8
3
  6
CONTINUOUS
 62
     0
  2
_OPEN
 10
4190.8299259999994
 20
1877.869222
 30
0.0
 41
60.0
 42
60.0
 43
60.0
 50
180.0
  0
INSERT
  5
7E95
  8
3
  6
CONTINUOUS
 62
     0
  2
_OPEN
 10
4723.8299259999994
 20
1877.869222
 30
0.0
 41
60.0
 42
60.0
 43
60.0
  0
TEXT
  8
3
  40
90
  5
7EDA
  62
0
  72
0
  71
0
 10
4274.09
 20
1793.57
 30
0.000000
  1
533
  0
POINT
  5
7E97
  8
DEFPOINTS
  6
CONTINUOUS
 62
     0
 10
4190.8299259999994
 20
2121.6042090000001
 30
0.0
  0
POINT
  5
7E98
  8
DEFPOINTS
  6
CONTINUOUS
 62
     0
 10
4723.8299259999994
 20
2006.2172295255821
 30
0.0
  0
POINT
  5
7E99
  8
DEFPOINTS
  6
CONTINUOUS
 62
     0
 10
4723.8299259999994
 20
1877.869222
 30
0.0
  0
ENDBLK
  5
7D22
  8
0
  0
BLOCK
  8
0
  2
*D13
 70
     1
 10
0.0
 20
0.0
 30
0.0
  3
*D13
  1

  0
LINE
  5
7E9A
  8
3
  6
CONTINUOUS
 62
     0
 10
5110.8299260000003
 20
2106.6042089999992
 30
0.0
 11
5110.8299260000003
 21
1847.8692219999989
 31
0.0
  0
LINE
  5
7E9B
  8
3
  6
CONTINUOUS
 62
     0
 10
4783.8299259999994
 20
1877.869222
 30
0.0
 11
5050.8299259999994
 21
1877.869222
 31
0.0
  0
TEXT
  8
3
  40
90
  5
7EDB
  62
0
  72
0
  71
0
 10
4741.27
 20
1792.58
 30
0.000000
  1
387
  0
INSERT
  5
7E9D
  8
3
  6
CONTINUOUS
 62
     0
  2
_OPEN
 10
4723.8299259999994
 20
1877.869222
 30
0.0
 41
60.0
 42
60.0
 43
60.0
 50
180.0
  0
INSERT
  5
7E9E
  8
3
  6
CONTINUOUS
 62
     0
  2
_OPEN
 10
5110.8299260000003
 20
1877.869222
 30
0.0
 41
60.0
 42
60.0
 43
60.0
  0
POINT
  5
7E9F
  8
DEFPOINTS
  6
CONTINUOUS
 62
     0
 10
4723.8299259999994
 20
2006.2172295255821
 30
0.0
  0
POINT
  5
7EA0
  8
DEFPOINTS
  6
CONTINUOUS
 62
     0
 10
5110.8299260000003
 20
2121.6042090000001
 30
0.0
  0
POINT
  5
7EA1
  8
DEFPOINTS
  6
CONTINUOUS
 62
     0
 10
5110.8299260000003
 20
1877.869222
 30
0.0
  0
ENDBLK
  5
7D2C
  8
0
  0
BLOCK
  8
0
  2
*D14
 70
     1
 10
0.0
 20
0.0
 30
0.0
  3
*D14
  1

  0
LINE
  5
7EA2
  8
3
  6
CONTINUOUS
 62
     0
 10
1021.967401
 20
6427.3495520000006
 30
0.0
 11
1021.967401
 21
6629.6541020000004
 31
0.0
  0
LINE
  5
7EA3
  8
3
  6
CONTINUOUS
 62
     0
 10
2771.9674009999999
 20
6427.3495520000006
 30
0.0
 11
2771.9674009999999
 21
6629.6541020000004
 31
0.0
  0
LINE
  5
7EA4
  8
3
  6
CONTINUOUS
 62
     0
 10
1081.967400999999
 20
6599.6541020000013
 30
0.0
 11
2711.9674009999999
 21
6599.6541020000013
 31
0.0
  0
INSERT
  5
7EA5
  8
3
  6
CONTINUOUS
 62
     0
  2
_OPEN
 10
1021.967401
 20
6599.6541020000013
 30
0.0
 41
60.0
 42
60.0
 43
60.0
 50
180.0
  0
INSERT
  5
7EA6
  8
3
  6
CONTINUOUS
 62
     0
  2
_OPEN
 10
2771.9674009999999
 20
6599.6541020000013
 30
0.0
 41
60.0
 42
60.0
 43
60.0
  0
TEXT
  8
3
  40
90
  5
7EDC
  62
0
  72
0
  71
0
 10
1697.43
 20
6515.35
 30
0.000000
  1
1750
  0
POINT
  5
7EA8
  8
DEFPOINTS
  6
CONTINUOUS
 62
     0
 10
1021.967401
 20
6412.3495520000006
 30
0.0
  0
POINT
  5
7EA9
  8
DEFPOINTS
  6
CONTINUOUS
 62
     0
 10
2771.9674009999999
 20
6412.3495520000006
 30
0.0
  0
POINT
  5
7EAA
  8
DEFPOINTS
  6
CONTINUOUS
 62
     0
 10
2771.9674009999999
 20
6599.6541020000013
 30
0.0
  0
ENDBLK
  5
7C16
  8
0
  0
BLOCK
  8
0
  2
*D15
 70
     1
 10
0.0
 20
0.0
 30
0.0
  3
*D15
  1

  0
LINE
  5
7EAB
  8
3
  6
CONTINUOUS
 62
     0
 10
2786.9674009999999
 20
6412.3495520000006
 30
0.0
 11
3164.3488430000002
 21
6412.3495520000006
 31
0.0
  0
LINE
  5
7EAC
  8
3
  6
CONTINUOUS
 62
     0
 10
2786.9674009999999
 20
5492.3495520000006
 30
0.0
 11
3164.3488430000002
 21
5492.3495520000006
 31
0.0
  0
LINE
  5
7EAD
  8
3
  6
CONTINUOUS
 62
     0
 10
3134.3488430000011
 20
6352.3495519999997
 30
0.0
 11
3134.3488430000011
 21
5552.3495519999997
 31
0.0
  0
INSERT
  5
7EAE
  8
3
  6
CONTINUOUS
 62
     0
  2
_OPEN
 10
3134.3488430000011
 20
6412.3495520000006
 30
0.0
 41
60.0
 42
60.0
 43
60.0
 50
90.0
  0
INSERT
  5
7EAF
  8
3
  6
CONTINUOUS
 62
     0
  2
_OPEN
 10
3134.3488430000011
 20
5492.3495520000006
 30
0.0
 41
60.0
 42
60.0
 43
60.0
 50
270.0
  0
TEXT
  8
3
  40
90
  5
7EDD
  62
0
  72
0
  71
0
 10
2879.35
 20
5761.64
 30
0.000000
  1
920
  0
POINT
  5
7EB1
  8
DEFPOINTS
  6
CONTINUOUS
 62
     0
 10
2771.9674009999999
 20
6412.3495520000006
 30
0.0
  0
POINT
  5
7EB2
  8
DEFPOINTS
  6
CONTINUOUS
 62
     0
 10
2771.9674009999999
 20
5492.3495520000006
 30
0.0
  0
POINT
  5
7EB3
  8
DEFPOINTS
  6
CONTINUOUS
 62
     0
 10
3134.3488430000011
 20
5492.3495520000006
 30
0.0
  0
ENDBLK
  5
7C30
  8
0
  0
BLOCK
  8
0
  2
*D16
 70
     1
 10
0.0
 20
0.0
 30
0.0
  3
*D16
  1

  0
LINE
  5
7EB4
  8
3
  6
CONTINUOUS
 62
     0
 10
1458.9673989999999
 20
3042.6042090000001
 30
0.0
 11
1458.9673989999999
 21
4189.0889479999996
 31
0.0
  0
LINE
  5
7EB5
  8
3
  6
CONTINUOUS
 62
     0
 10
2141.9674009999999
 20
4159.0889479999987
 30
0.0
 11
1518.9673989999999
 21
4159.0889479999987
 31
0.0
  0
INSERT
  5
7EB6
  8
3
  6
CONTINUOUS
 62
     0
  2
_OPEN
 10
2201.9674009999999
 20
4159.0889479999987
 30
0.0
 41
60.0
 42
60.0
 43
60.0
  0
INSERT
  5
7EB7
  8
3
  6
CONTINUOUS
 62
     0
  2
_OPEN
 10
1458.9673989999999
 20
4159.0889479999987
 30
0.0
 41
60.0
 42
60.0
 43
60.0
 50
180.0
  0
TEXT
  8
3
  40
90
  5
7EDE
  62
0
  72
0
  71
0
 10
1650.47
 20
4074.79
 30
0.000000
  1
743
  0
POINT
  5
7EB9
  8
DEFPOINTS
  6
CONTINUOUS
 62
     0
 10
2201.9674009999999
 20
4048.0810919999999
 30
0.0
  0
POINT
  5
7EBA
  8
DEFPOINTS
  6
CONTINUOUS
 62
     0
 10
1458.9673989999999
 20
3027.6042090000001
 30
0.0
  0
POINT
  5
7EBB
  8
DEFPOINTS
  6
CONTINUOUS
 62
     0
 10
1458.9673989999999
 20
4159.0889479999987
 30
0.0
  0
ENDBLK
  5
7C5A
  8
0
  0
BLOCK
  8
0
  2
*D17
 70
     1
 10
0.0
 20
0.0
 30
0.0
  3
*D17
  1

  0
LINE
  5
7EBC
  8
3
  6
CONTINUOUS
 62
     0
 10
4113.8299260000003
 20
3547.604209000001
 30
0.0
 11
4113.8299260000003
 21
4346.9909854767257
 31
0.0
  0
LINE
  5
7EBD
  8
3
  6
CONTINUOUS
 62
     0
 10
4663.8299260000003
 20
4316.9909854767266
 30
0.0
 11
4173.8299259999994
 21
4316.9909854767266
 31
0.0
  0
INSERT
  5
7EBE
  8
3
  6
CONTINUOUS
 62
     0
  2
_OPEN
 10
4723.8299259999994
 20
4316.9909854767266
 30
0.0
 41
60.0
 42
60.0
 43
60.0
  0
INSERT
  5
7EBF
  8
3
  6
CONTINUOUS
 62
     0
  2
_OPEN
 10
4113.8299260000003
 20
4316.9909854767266
 30
0.0
 41
60.0
 42
60.0
 43
60.0
 50
180.0
  0
TEXT
  8
3
  40
90
  5
7EDF
  62
0
  72
0
  71
0
 10
4238.83
 20
4307.69
 30
0.000000
  1
MAX
  0
TEXT
  8
3
  40
90
  5
7EE0
  62
0
  72
0
  71
0
 10
4238.83
 20
4190.69
 30
0.000000
  1
640
  0
POINT
  5
7EC1
  8
DEFPOINTS
  6
CONTINUOUS
 62
     0
 10
4723.8299259999994
 20
4244.6787270000013
 30
0.0
  0
POINT
  5
7EC2
  8
DEFPOINTS
  6
CONTINUOUS
 62
     0
 10
4113.8299260000003
 20
3532.6042090000001
 30
0.0
  0
POINT
  5
7EC3
  8
DEFPOINTS
  6
CONTINUOUS
 62
     0
 10
4113.8299260000003
 20
4316.9909854767266
 30
0.0
  0
ENDBLK
  5
7CFD
  8
0
  0
BLOCK
  8
0
  2
*D18
 70
     1
 10
0.0
 20
0.0
 30
0.0
  3
*D18
  1

  0
LINE
  5
7EC4
  8
3
 62
     0
 10
2856.9674009999999
 20
3968.1042090000001
 30
0.0
 11
2856.9674009999999
 21
4365.9333551833879
 31
0.0
  0
LINE
  5
7EC5
  8
3
 62
     0
 10
1021.967400999999
 20
2377.6042090000001
 30
0.0
 11
1021.967401
 21
4365.9333551833879
 31
0.0
  0
LINE
  5
7EC6
  8
3
 62
     0
 10
2796.9674009999999
 20
4335.9333551833879
 30
0.0
 11
1081.967400999999
 21
4335.9333551833879
 31
0.0
  0
INSERT
  5
7EC7
  8
3
 62
     0
  2
_OPEN
 10
2856.9674009999999
 20
4335.9333551833879
 30
0.0
 41
60.0
 42
60.0
 43
60.0
  0
INSERT
  5
7EC8
  8
3
 62
     0
  2
_OPEN
 10
1021.967401
 20
4335.9333551833879
 30
0.0
 41
60.0
 42
60.0
 43
60.0
 50
180.0
  0
TEXT
  8
3
  40
90
  5
7EE1
  62
0
  72
0
  71
0
 10
1827.85
 20
4251.63
 30
0.000000
  1
1835
  0
POINT
  5
7ECA
  8
DEFPOINTS
 62
     0
 10
2856.9674009999999
 20
3953.104209000001
 30
0.0
  0
POINT
  5
7ECB
  8
DEFPOINTS
 62
     0
 10
1021.967400999999
 20
2362.6042090000001
 30
0.0
  0
POINT
  5
7ECC
  8
DEFPOINTS
 62
     0
 10
1021.967401
 20
4335.9333551833879
 30
0.0
  0
ENDBLK
  5
7D09
  8
0
  0
BLOCK
  8
0
  2
_DOT
 70
     0
 10
0.0
 20
0.0
 30
0.0
  3
_DOT
  1

  0
POLYLINE
  5
7E11
  8
0
  6
BYBLOCK
 62
     0
 66
     1
 10
0.0
 20
0.0
 30
0.0
 70
     1
 40
0.5
 41
0.5
  0
VERTEX
  5
7ECD
  8
0
  6
BYBLOCK
 62
     0
 10
-0.25
 20
0.0
 30
0.0
 42
1.0
  0
VERTEX
  5
7ECE
  8
0
  6
BYBLOCK
 62
     0
 10
0.25
 20
0.0
 30
0.0
 42
1.0
  0
SEQEND
  5
7ECF
  8
0
  6
BYBLOCK
 62
     0
  0
LINE
  5
7E12
  8
0
  6
BYBLOCK
 62
     0
 10
-0.5
 20
0.0
 30
0.0
 11
-1.0
 21
0.0
 31
0.0
  0
ENDBLK
  5
7E14
  8
0
  0
ENDSEC
  0
SECTION
  2
ENTITIES
  0
LINE
  5
7A85
  8
1
  6
CONTINUOUS
 10
2681.9674009999999
 20
3532.6042090000001
 30
0.0
 11
2021.9674010000001
 21
3532.6042090000001
 31
0.0
  0
LINE
  5
7A86
  8
2
  6
CENTER
 10
1085.793801999999
 20
3027.6042090000001
 30
0.0
 11
3026.094302
 21
3027.6042090000001
 31
0.0
  0
LINE
  5
7A87
  8
1
  6
CONTINUOUS
 10
1239.1808119999989
 20
2539.6062740000002
 30
0.0
 11
2260.2634859999989
 21
2780.3845369999999
 31
0.0
  0
CIRCLE
  5
7A88
  8
1
  6
CONTINUOUS
 10
2201.9674009999999
 20
3027.6042090000001
 30
0.0
 40
254.0
  0
LINE
  5
7A89
  8
1
  6
CONTINUOUS
 10
2771.9674009999999
 20
2121.6042090000001
 30
0.0
 11
1021.967401
 21
2121.6042090000001
 31
0.0
  0
LINE
  5
7A8A
  8
1
  6
CONTINUOUS
 10
2771.9674009999999
 20
2221.6042090000001
 30
0.0
 11
1021.967401
 21
2221.6042090000001
 31
0.0
  0
LINE
  5
7A8B
  8
1
  6
CONTINUOUS
 10
2771.9674009999999
 20
2262.6042090000001
 30
0.0
 11
1021.967401
 21
2262.6042090000001
 31
0.0
  0
LINE
  5
7A8C
  8
1
  6
CONTINUOUS
 10
2771.9674009999999
 20
2362.6042090000001
 30
0.0
 11
1021.967401
 21
2362.6042090000001
 31
0.0
  0
POLYLINE
  5
7A90
  8
1
  6
CONTINUOUS
 66
     1
 10
0.0
 20
0.0
 30
0.0
  0
VERTEX
  5
7E31
  8
1
  6
CONTINUOUS
 10
2856.9674009999999
 20
3910.6042090000001
 30
0.0
  0
VERTEX
  5
7E32
  8
1
  6
CONTINUOUS
 10
2201.9674009999999
 20
3888.6042090000001
 30
0.0
 42
0.4168370000000001
  0
VERTEX
  5
7E33
  8
1
  6
CONTINUOUS
 10
1459.527441
 20
3020.4302670000002
 30
0.0
 42
0.429867
  0
VERTEX
  5
7E34
  8
1
  6
CONTINUOUS
 10
2245.8435610000001
 20
2389.179032
 30
0.0
 42
0.373172
  0
VERTEX
  5
7E35
  8
1
  6
CONTINUOUS
 10
2769.9361279999998
 20
2985.6042090000001
 30
0.0
 42
0.34598
  0
SEQEND
  5
7E36
  8
1
  6
CONTINUOUS
  0
LINE
  5
7A97
  8
1
  6
CONTINUOUS
 10
1021.967401
 20
2121.6042090000001
 30
0.0
 11
1021.967401
 21
2221.6042090000001
 31
0.0
  0
LINE
  5
7A98
  8
1
  6
CONTINUOUS
 10
1041.967400999999
 20
2712.6042090000001
 30
0.0
 11
2021.9674010000001
 21
3532.6042090000001
 31
0.0
  0
LINE
  5
7A99
  8
1
  6
CONTINUOUS
 10
1034.467400999999
 20
2452.6042090000001
 30
0.0
 11
1089.309735
 21
2519.6206419999999
 31
0.0
  0
LINE
  5
7A9A
  8
1
  6
CONTINUOUS
 10
1041.967400999999
 20
2362.6042090000001
 30
0.0
 11
1041.967400999999
 21
2712.6042090000001
 31
0.0
  0
LINE
  5
7A9B
  8
1
  6
CONTINUOUS
 10
1034.467400999999
 20
2452.6042090000001
 30
0.0
 11
1024.467400999999
 21
2402.6042090000001
 31
0.0
  0
LINE
  5
7A9C
  8
1
  6
CONTINUOUS
 10
1024.467400999999
 20
2402.6042090000001
 30
0.0
 11
1024.467400999999
 21
2362.6042090000001
 31
0.0
  0
LINE
  5
7A9D
  8
1
  6
CONTINUOUS
 10
1021.967401
 20
2362.6042090000001
 30
0.0
 11
1021.967401
 21
2262.6042090000001
 31
0.0
  0
LINE
  5
7A9F
  8
1
  6
CONTINUOUS
 10
1181.5221169999991
 20
2675.7641570000001
 30
0.0
 11
2064.9927050000001
 21
3241.5058989999989
 31
0.0
  0
ARC
  5
7AA0
  8
1
  6
CONTINUOUS
 10
1221.967400999999
 20
2612.6042090000001
 30
0.0
 40
162.0
 50
324.972283
 51
215.02771699999991
  0
LINE
  5
7AA1
  8
2
  6
CENTER
 10
1141.9674010000001
 20
2612.6042090000001
 30
0.0
 11
1301.967400999999
 21
2612.6042090000001
 31
0.0
  0
LINE
  5
7AA2
  8
2
  6
CENTER
 10
1221.967400999999
 20
2532.6042090000001
 30
0.0
 11
1221.967400999999
 21
2692.6042090000001
 31
0.0
  0
CIRCLE
  5
7AA3
  8
1
  6
CONTINUOUS
 10
1221.967400999999
 20
2612.6042090000001
 30
0.0
 40
75.0
  0
LINE
  5
7AA4
  8
1
  6
CONTINUOUS
 10
1354.6250660000001
 20
2519.6206419999999
 30
0.0
 11
1409.467400999999
 21
2452.6042090000001
 31
0.0
  0
LINE
  5
7AA5
  8
1
  6
CONTINUOUS
 10
1419.4674010000001
 20
2402.6042090000001
 30
0.0
 11
1409.467400999999
 21
2452.6042090000001
 31
0.0
  0
LINE
  5
7AA6
  8
1
  6
CONTINUOUS
 10
1419.4674010000001
 20
2402.6042090000001
 30
0.0
 11
1419.4674010000001
 21
2362.6042090000001
 31
0.0
  0
LINE
  5
7AA7
  8
2
  6
CENTER
 10
2201.9674009999999
 20
2035.2303549999999
 30
0.0
 11
2201.9674009999999
 21
4048.0810919999999
 31
0.0
  0
LINE
  5
7AA9
  8
1
  6
CONTINUOUS
 10
5110.8299260000003
 20
2221.6042090000001
 30
0.0
 11
5110.8299260000003
 21
2121.6042090000001
 31
0.0
  0
LINE
  5
7AAA
  8
1
  6
CONTINUOUS
 10
4190.8299259999994
 20
2221.6042090000001
 30
0.0
 11
4190.8299259999994
 21
2121.6042090000001
 31
0.0
  0
LINE
  5
7AAB
  8
1
  6
CONTINUOUS
 10
2771.9674009999999
 20
2121.6042090000001
 30
0.0
 11
2771.9674009999999
 21
2221.6042090000001
 31
0.0
  0
LINE
  5
7AAC
  8
1
  6
CONTINUOUS
 10
4190.8299259999994
 20
2121.6042090000001
 30
0.0
 11
5110.8299260000003
 21
2121.6042090000001
 31
0.0
  0
LINE
  5
7AAE
  8
1
  6
CONTINUOUS
 10
2816.9674009999999
 20
2985.6042090000001
 30
0.0
 11
2816.9674009999999
 21
3909.260698
 31
0.0
  0
LINE
  5
7AAF
  8
1
  6
CONTINUOUS
 10
2856.9674009999999
 20
2943.1042090000001
 30
0.0
 11
2856.9674009999999
 21
3953.104209000001
 31
0.0
  0
LINE
  5
7AB0
  8
1
  6
CONTINUOUS
 10
2769.9361279999998
 20
2985.6042090000001
 30
0.0
 11
2856.9674009999999
 21
2985.6042090000001
 31
0.0
  0
LINE
  5
7AB1
  8
1
  6
CONTINUOUS
 10
2681.9674009999999
 20
2362.6042090000001
 30
0.0
 11
2681.9674009999999
 21
3532.6042090000001
 31
0.0
  0
LINE
  5
7AB2
  8
1
  6
CONTINUOUS
 10
2771.9674009999999
 20
2362.6042090000001
 30
0.0
 11
2771.9674009999999
 21
2262.6042090000001
 31
0.0
  0
LINE
  5
7AB3
  8
1
  6
CONTINUOUS
 10
4388.8299259999994
 20
3910.6042090000001
 30
0.0
 11
5058.8299259999994
 21
2985.6042090000001
 31
0.0
  0
LINE
  5
7AB4
  8
1
  6
CONTINUOUS
 10
4388.8299259999994
 20
2985.6042090000001
 30
0.0
 11
5058.8299259999994
 21
3910.6042090000001
 31
0.0
  0
LINE
  5
7AB5
  8
1
  6
CONTINUOUS
 10
5058.8299259999994
 20
3910.6042090000001
 30
0.0
 11
5058.8299259999994
 21
2362.6042090000001
 31
0.0
  0
LINE
  5
7AB6
  8
1
  6
CONTINUOUS
 10
4388.8299259999994
 20
3910.6042090000001
 30
0.0
 11
4388.8299259999994
 21
2362.6042090000001
 31
0.0
  0
LINE
  5
7AB7
  8
1
  6
CONTINUOUS
 10
4190.8299259999994
 20
2362.6042090000001
 30
0.0
 11
5110.8299260000003
 21
2362.6042090000001
 31
0.0
  0
LINE
  5
7AB8
  8
1
  6
CONTINUOUS
 10
4190.8299259999994
 20
2221.6042090000001
 30
0.0
 11
5110.8299260000003
 21
2221.6042090000001
 31
0.0
  0
LINE
  5
7AB9
  8
1
  6
CONTINUOUS
 10
4190.8299259999994
 20
2262.6042090000001
 30
0.0
 11
5110.8299260000003
 21
2262.6042090000001
 31
0.0
  0
LINE
  5
7ABA
  8
1
  6
CONTINUOUS
 10
4388.8299259999994
 20
2985.6042090000001
 30
0.0
 11
5058.8299259999994
 21
2985.6042090000001
 31
0.0
  0
LINE
  5
7ABB
  8
1
  6
CONTINUOUS
 10
4335.8299259999994
 20
3532.6042090000001
 30
0.0
 11
4335.8299259999994
 21
2362.6042090000001
 31
0.0
  0
LINE
  5
7ABC
  8
1
  6
CONTINUOUS
 10
4113.8299260000003
 20
3532.6042090000001
 30
0.0
 11
4113.8299260000003
 21
2362.6042090000001
 31
0.0
  0
LINE
  5
7ABD
  8
1
  6
CONTINUOUS
 10
4302.8299260000003
 20
3281.6042090000001
 30
0.0
 11
4302.8299260000003
 21
2773.6042090000001
 31
0.0
  0
LINE
  5
7ABE
  8
1
  6
CONTINUOUS
 10
4198.8299260000003
 20
3281.6042090000001
 30
0.0
 11
4198.8299260000003
 21
2773.6042090000001
 31
0.0
  0
LINE
  5
7ABF
  8
1
  6
CONTINUOUS
 10
4302.8299260000003
 20
2591.6042090000001
 30
0.0
 11
4388.8299259999994
 21
2591.6042090000001
 31
0.0
  0
LINE
  5
7AC0
  8
1
  6
CONTINUOUS
 10
4302.8299260000003
 20
2633.6042090000001
 30
0.0
 11
4388.8299259999994
 21
2633.6042090000001
 31
0.0
  0
LINE
  5
7AC1
  8
1
  6
CONTINUOUS
 10
4302.8299260000003
 20
2687.6042090000001
 30
0.0
 11
4302.8299260000003
 21
2537.6042090000001
 31
0.0
  0
LINE
  5
7AC2
  8
1
  6
CONTINUOUS
 10
4198.8299260000003
 20
2687.6042090000001
 30
0.0
 11
4198.8299260000003
 21
2537.6042090000001
 31
0.0
  0
LINE
  5
7AC3
  8
1
  6
CONTINUOUS
 10
4198.8299260000003
 20
2537.6042090000001
 30
0.0
 11
4302.8299260000003
 21
2537.6042090000001
 31
0.0
  0
LINE
  5
7AC4
  8
1
  6
CONTINUOUS
 10
4198.8299260000003
 20
2687.6042090000001
 30
0.0
 11
4302.8299260000003
 21
2687.6042090000001
 31
0.0
  0
LINE
  5
7AC5
  8
1
  6
CONTINUOUS
 10
4198.8299260000003
 20
2773.6042090000001
 30
0.0
 11
4302.8299260000003
 21
2773.6042090000001
 31
0.0
  0
LINE
  5
7AC6
  8
1
  6
CONTINUOUS
 10
4190.8299259999994
 20
2362.6042090000001
 30
0.0
 11
4190.8299259999994
 21
2262.6042090000001
 31
0.0
  0
LINE
  5
7AC7
  8
1
  6
CONTINUOUS
 10
4113.8299260000003
 20
2362.6042090000001
 30
0.0
 11
4190.8299259999994
 21
2362.6042090000001
 31
0.0
  0
LINE
  5
7AC8
  8
1
  6
CONTINUOUS
 10
4302.8299260000003
 20
3002.6042090000001
 30
0.0
 11
4388.8299259999994
 21
3002.6042090000001
 31
0.0
  0
LINE
  5
7AC9
  8
1
  6
CONTINUOUS
 10
4302.8299260000003
 20
3052.6042090000001
 30
0.0
 11
4388.8299259999994
 21
3052.6042090000001
 31
0.0
  0
LINE
  5
7ACA
  8
1
  6
CONTINUOUS
 10
4198.8299260000003
 20
3281.6042090000001
 30
0.0
 11
4302.8299260000003
 21
3281.6042090000001
 31
0.0
  0
LINE
  5
7ACB
  8
1
  6
CONTINUOUS
 10
4113.8299260000003
 20
3532.6042090000001
 30
0.0
 11
4335.8299259999994
 21
3532.6042090000001
 31
0.0
  0
LINE
  5
7ACC
  8
1
  6
CONTINUOUS
 10
5110.8299260000003
 20
2362.6042090000001
 30
0.0
 11
5110.8299260000003
 21
2262.6042090000001
 31
0.0
  0
LINE
  5
7ACD
  8
1
  6
CONTINUOUS
 10
4388.8299259999994
 20
3910.6042090000001
 30
0.0
 11
5058.8299259999994
 21
3910.6042090000001
 31
0.0
  0
LINE
  5
7ACE
  8
1
  6
CONTINUOUS
 10
2771.9674009999999
 20
6412.3495520000006
 30
0.0
 11
1021.967401
 21
6412.3495520000006
 31
0.0
  0
LINE
  5
7ACF
  8
1
  6
CONTINUOUS
 10
1041.967400999999
 20
5467.3495520000006
 30
0.0
 11
2681.9674009999999
 21
5467.3495520000006
 31
0.0
  0
LINE
  5
7AD0
  8
1
  6
CONTINUOUS
 10
1041.967400999999
 20
5637.3495519999997
 30
0.0
 11
2681.9674009999999
 21
5637.3495519999997
 31
0.0
  0
LINE
  5
7AD1
  8
1
  6
CONTINUOUS
 10
1947.9674010000001
 20
5500.3495520000006
 30
0.0
 11
2455.9674009999999
 21
5500.3495520000006
 31
0.0
  0
LINE
  5
7AD2
  8
1
  6
CONTINUOUS
 10
1947.9674010000001
 20
5604.3495520000006
 30
0.0
 11
2455.9674009999999
 21
5604.3495520000006
 31
0.0
  0
LINE
  5
7AD3
  8
1
  6
CONTINUOUS
 10
2856.9674009999999
 20
5690.3495519999997
 30
0.0
 11
1456.800129
 21
5690.3495519999997
 31
0.0
  0
LINE
  5
7AD4
  8
1
  6
CONTINUOUS
 10
2856.9674009999999
 20
6360.3495520000006
 30
0.0
 11
1456.800129
 21
6360.3495520000006
 31
0.0
  0
LINE
  5
7AD5
  8
1
  6
CONTINUOUS
 10
2771.9674009999999
 20
5492.3495520000006
 30
0.0
 11
1021.967401
 21
5492.3495520000006
 31
0.0
  0
LINE
  5
7AD6
  8
1
  6
CONTINUOUS
 10
1021.967401
 20
5492.3495520000006
 30
0.0
 11
1021.967401
 21
6412.3495520000006
 31
0.0
  0
LINE
  5
7AD7
  8
1
  6
CONTINUOUS
 10
1041.967400999999
 20
5467.3495520000006
 30
0.0
 11
1041.967400999999
 21
5637.3495519999997
 31
0.0
  0
LINE
  5
7AD8
  8
1
  6
CONTINUOUS
 10
1059.967400999999
 20
5648.3495519999997
 30
0.0
 11
1059.967400999999
 21
6133.3495520000006
 31
0.0
  0
LINE
  5
7AD9
  8
1
  6
CONTINUOUS
 10
1383.9674010000001
 20
5648.3495519999997
 30
0.0
 11
1383.9674010000001
 21
6133.3495520000006
 31
0.0
  0
LINE
  5
7ADA
  8
1
  6
CONTINUOUS
 10
1456.800129
 20
5690.3495519999997
 30
0.0
 11
1456.800129
 21
6360.3495520000006
 31
0.0
  0
LINE
  5
7ADB
  8
1
  6
CONTINUOUS
 10
1059.967400999999
 20
5648.3495519999997
 30
0.0
 11
1383.9674010000001
 21
5648.3495519999997
 31
0.0
  0
LINE
  5
7ADC
  8
1
  6
CONTINUOUS
 10
1146.967400999999
 20
5500.3495520000006
 30
0.0
 11
1146.967400999999
 21
5604.3495520000006
 31
0.0
  0
LINE
  5
7ADD
  8
1
  6
CONTINUOUS
 10
1296.967400999999
 20
5500.3495520000006
 30
0.0
 11
1296.967400999999
 21
5604.3495520000006
 31
0.0
  0
LINE
  5
7ADE
  8
1
  6
CONTINUOUS
 10
1200.967400999999
 20
5604.3495520000006
 30
0.0
 11
1200.967400999999
 21
5648.3495519999997
 31
0.0
  0
LINE
  5
7ADF
  8
1
  6
CONTINUOUS
 10
1242.9674010000001
 20
5604.3495520000006
 30
0.0
 11
1242.9674010000001
 21
5648.3495519999997
 31
0.0
  0
LINE
  5
7AE0
  8
1
  6
CONTINUOUS
 10
1146.967400999999
 20
5500.3495520000006
 30
0.0
 11
1296.967400999999
 21
5500.3495520000006
 31
0.0
  0
LINE
  5
7AE1
  8
1
  6
CONTINUOUS
 10
1146.967400999999
 20
5604.3495520000006
 30
0.0
 11
1296.967400999999
 21
5604.3495520000006
 31
0.0
  0
LINE
  5
7AE2
  8
1
  6
CONTINUOUS
 10
1059.967400999999
 20
6133.3495520000006
 30
0.0
 11
1383.9674010000001
 21
6133.3495520000006
 31
0.0
  0
LINE
  5
7AE3
  8
1
  6
CONTINUOUS
 10
1947.9674010000001
 20
5500.3495520000006
 30
0.0
 11
1947.9674010000001
 21
5604.3495520000006
 31
0.0
  0
LINE
  5
7AE4
  8
1
  6
CONTINUOUS
 10
2176.9674009999999
 20
5604.3495520000006
 30
0.0
 11
2176.9674009999999
 21
5690.3495519999997
 31
0.0
  0
LINE
  5
7AE5
  8
1
  6
CONTINUOUS
 10
2455.9674009999999
 20
5500.3495520000006
 30
0.0
 11
2455.9674009999999
 21
5604.3495520000006
 31
0.0
  0
LINE
  5
7AE6
  8
1
  6
CONTINUOUS
 10
2226.9674009999999
 20
5604.3495520000006
 30
0.0
 11
2226.9674009999999
 21
5690.3495519999997
 31
0.0
  0
LINE
  5
7AE7
  8
1
  6
CONTINUOUS
 10
2681.9674009999999
 20
5467.3495520000006
 30
0.0
 11
2681.9674009999999
 21
5637.3495519999997
 31
0.0
  0
LINE
  5
7AE8
  8
1
  6
CONTINUOUS
 10
2771.9674009999999
 20
5492.3495520000006
 30
0.0
 11
2771.9674009999999
 21
5690.3495519999997
 31
0.0
  0
LINE
  5
7AE9
  8
1
  6
CONTINUOUS
 10
2771.9674009999999
 20
6360.3495520000006
 30
0.0
 11
2771.9674009999999
 21
6412.3495520000006
 31
0.0
  0
LINE
  5
7AEA
  8
1
  6
CONTINUOUS
 10
2816.9674009999999
 20
5690.3495519999997
 30
0.0
 11
2816.9674009999999
 21
6360.3495520000006
 31
0.0
  0
LINE
  5
7AEB
  8
1
  6
CONTINUOUS
 10
2856.9674009999999
 20
5648.3495519999997
 30
0.0
 11
2856.9674009999999
 21
6402.3495520000006
 31
0.0
  0
LINE
  5
7B09
  8
2
  6
CENTER
 10
925.8859799999999
 20
6025.3495520000006
 30
0.0
 11
3008.8210649999992
 21
6025.3495520000006
 31
0.0
  0
LINE
  5
7B0A
  8
2
  6
CENTER
 10
4723.8299259999994
 20
4105.4241380000003
 30
0.0
 11
4723.8299259999994
 21
2006.2172295255821
 31
0.0
  0
LINE
  5
7B0B
  8
2
  6
CENTER
 10
2201.9674009999999
 20
5394.2081990000006
 30
0.0
 11
2201.9674009999999
 21
6548.8819270000004
 31
0.0
  0
LINE
  5
7B0C
  8
2
  6
CENTER
 10
4023.2872159999988
 20
3027.6042090000001
 30
0.0
 11
5199.5759959999996
 21
3027.6042090000001
 31
0.0
  0
LINE
  5
7B0D
  8
4
  6
CONTINUOUS
 10
5550.0
 20
1500.0
 30
0.0
 11
5550.0
 21
900.0
 31
0.0
  0
LINE
  5
7B0E
  8
4
  6
CONTINUOUS
 10
3450.0
 20
1500.0
 30
0.0
 11
3450.0
 21
900.0
 31
0.0
  0
LINE
  5
7B0F
  8
4
  6
CONTINUOUS
 10
1950.0
 20
1500.0
 30
0.0
 11
1950.0
 21
900.0
 31
0.0
  0
LINE
  5
7B12
  8
4
  6
CONTINUOUS
 10
1950.0
 20
900.0
 30
0.0
 11
5550.0
 21
900.0
 31
0.0
  0
LINE
  5
7B13
  8
4
  6
CONTINUOUS
 10
1950.0
 20
1200.0
 30
0.0
 11
5550.0
 21
1200.0
 31
0.0
  0
TEXT
  5
7B14
  8
4
  6
CONTINUOUS
 10
2065.5062429999989
 20
1294.6290779999999
 30
0.0
 40
150.0
  1
機器名称
  0
TEXT
  5
7B15
  8
4
  6
CONTINUOUS
 10
2058.7743179999989
 20
964.9354699999999
 30
0.0
 40
150.0
  1
機器型番
  0
TEXT
  5
7B16
  8
4
  6
CONTINUOUS
 10
3533.0362359999999
 20
1267.7153069999999
 30
0.0
 40
150.0
  1
ミツヤ多翼送風機
  0
TEXT
  5
7B17
  8
4
  6
CONTINUOUS
 10
3559.9634869999991
 20
951.47875299999987
 30
0.0
 40
150.0
  1
MFE#5 1/2-4
  0
TEXT
  5
7B19
  8
4
  6
CONTINUOUS
 10
2342.6031440000002
 20
7150.2865239999992
 30
0.0
 40
162.0
  1
床置防振ベット
  0
TEXT
  5
7B1A
  8
4
  6
CONTINUOUS
 10
948.50278000000014
 20
7601.6429289999996
 30
0.0
 40
216.0
  1
ベルト駆動式片吸込両持排煙ファン
  0
LINE
  5
7B1B
  8
4
  6
CONTINUOUS
 10
750.0
 20
7408.2262629999996
 30
0.0
 11
5550.0
 21
7408.2262629999996
 31
0.0
  0
LINE
  5
7B1C
  8
4
  6
CONTINUOUS
 10
750.0
 20
8008.2262629999996
 30
0.0
 11
5550.0
 21
8008.2262629999996
 31
0.0
  0
LINE
  5
7B1D
  8
4
  6
CONTINUOUS
 10
1950.0
 20
1500.0
 30
0.0
 11
5550.0
 21
1500.0
 31
0.0
  0
LINE
  5
7B1E
  8
4
  6
CONTINUOUS
 10
750.0
 20
8008.2262629999996
 30
0.0
 11
750.0
 21
7408.2262629999996
 31
0.0
  0
TEXT
  5
7B1F
  8
4
  6
CONTINUOUS
 10
1035.0266469999999
 20
7146.9584329999998
 30
0.0
 40
162.0
  1
右回転右横向
  0
TEXT
  5
7B20
  8
4
  6
CONTINUOUS
 10
4406.9086779999989
 20
8118.1832439999989
 30
0.0
 40
168.0
  1
No.
  0
TEXT
  5
7B21
  8
4
  6
CONTINUOUS
 10
3933.8881879999999
 20
7150.2865239999992
 30
0.0
 40
162.0
  1
縮尺：1/30
  0
LINE
  5
7B22
  8
4
  6
CONTINUOUS
 10
5550.0
 20
8008.2262629999996
 30
0.0
 11
5550.0
 21
7408.2262629999996
 31
0.0
  0
LINE
  5
7B24
  8
4
  6
CONTINUOUS
 10
4321.8522670000002
 20
8043.7907490000007
 30
0.0
 11
4321.8522670000002
 21
8359.9567849999985
 31
0.0
  0
LINE
  5
7B25
  8
4
  6
CONTINUOUS
 10
4321.8522670000002
 20
8359.9567849999985
 30
0.0
 11
5550.0
 21
8359.9567849999985
 31
0.0
  0
LINE
  5
7B26
  8
4
  6
CONTINUOUS
 10
5550.0
 20
8359.9567849999985
 30
0.0
 11
5550.0
 21
8043.7907490000007
 31
0.0
  0
LINE
  5
7B27
  8
4
  6
CONTINUOUS
 10
5550.0
 20
8043.7907490000007
 30
0.0
 11
4321.8522670000002
 21
8043.7907490000007
 31
0.0
  0
DIMENSION
  5
7B38
  8
3
  6
CONTINUOUS
  2
*D1
 10
3087.5069589999998
 20
2985.6042089999992
 30
0.0
 11
3087.5069589999998
 21
3449.1736110000002
 31
0.0
 70
   128
 13
2856.9674009999999
 23
3910.6042090000001
 33
0.0
 14
2856.9674009999999
 24
2985.6042090000001
 34
0.0
 50
90.0
1001
ACAD
1000
DSTYLE
1002
{
1070
   287
1070
     3
1070
   287
1070
     3
1070
    40
1040
30.0
1070
   143
1040
0.039
1070
   172
1070
     1
1070
   271
1070
     0
1070
   279
1070
     0
1070
   288
1070
     1
1002
}
  0
DIMENSION
  5
7B45
  8
3
  6
CONTINUOUS
  2
*D2
 10
3282.681423
 20
3027.6042089999992
 30
0.0
 11
3282.681423
 21
3464.7761460000002
 31
0.0
 70
   128
 13
2856.9674009999999
 23
3910.6042090000001
 33
0.0
 14
2993.2059399999998
 24
3027.6042090000001
 34
0.0
 50
90.0
1001
ACAD
1000
DSTYLE
1002
{
1070
   287
1070
     3
1070
   287
1070
     3
1070
    40
1040
30.0
1070
   143
1040
0.039
1070
   172
1070
     1
1070
   271
1070
     0
1070
   279
1070
     0
1070
   288
1070
     1
1002
}
  0
DIMENSION
  5
7B51
  8
3
  6
CONTINUOUS
  2
*D3
 10
3282.681423
 20
2262.6042089999992
 30
0.0
 11
3207.6814229999991
 21
2645.1042090000001
 31
0.0
 70
     0
 13
2993.2059399999998
 23
3027.6042090000001
 33
0.0
 14
2771.9674009999999
 24
2262.6042090000001
 34
0.0
 50
90.0
1001
ACAD
1000
DSTYLE
1002
{
1070
   287
1070
     4
1070
   287
1070
     4
1070
    40
1040
30.0
1070
    75
1070
     1
1070
   143
1040
0.039
1070
   172
1070
     1
1070
   271
1070
     0
1070
   279
1070
     1
1070
   288
1070
     1
1002
}
  0
DIMENSION
  5
7B61
  8
3
  6
CONTINUOUS
  2
*D4
 10
3282.681423
 20
2121.6042090000001
 30
0.0
 11
3282.681423
 21
1883.747066142857
 31
0.0
 70
   128
 13
2771.9674009999999
 23
2262.6042090000001
 33
0.0
 14
2771.9674009999999
 24
2121.6042090000001
 34
0.0
 50
90.0
1001
ACAD
1000
DSTYLE
1002
{
1070
   287
1070
     3
1070
   287
1070
     3
1070
    40
1040
30.0
1070
   143
1040
0.039
1070
   172
1070
     1
1070
   271
1070
     0
1070
   279
1070
     0
1070
   288
1070
     1
1002
}
  0
DIMENSION
  5
7B6E
  8
3
  6
CONTINUOUS
  2
*D5
 10
3587.1536160000001
 20
2121.6042090000001
 30
0.0
 11
3587.1536160000001
 21
3121.5203579999989
 31
0.0
 70
   128
 13
2856.9674009999999
 23
3953.104209000001
 33
0.0
 14
2771.9674009999999
 24
2121.6042090000001
 34
0.0
 50
90.0
1001
ACAD
1000
DSTYLE
1002
{
1070
   287
1070
     3
1070
   287
1070
     3
1070
    40
1040
30.0
1070
   143
1040
0.039
1070
   172
1070
     1
1070
   271
1070
     0
1070
   279
1070
     0
1070
   288
1070
     1
1002
}
  0
DIMENSION
  5
7B7B
  8
3
  6
CONTINUOUS
  2
*D6
 10
2201.9674009999999
 20
1904.5226159999991
 30
0.0
 11
1666.6368629999999
 21
1904.5226159999991
 31
0.0
 70
   128
 13
1021.967401
 23
2121.6042090000001
 33
0.0
 14
2201.9674009999999
 24
2035.2303549999999
 34
0.0
1001
ACAD
1000
DSTYLE
1002
{
1070
   287
1070
     3
1070
   287
1070
     3
1070
    40
1040
30.0
1070
   143
1040
0.039
1070
   172
1070
     1
1070
   271
1070
     0
1070
   279
1070
     0
1070
   288
1070
     1
1002
}
  0
DIMENSION
  5
7B87
  8
3
  6
CONTINUOUS
  2
*D7
 10
2771.9674009999999
 20
1904.5226159999991
 30
0.0
 11
2486.9674009999999
 21
1979.5226159999991
 31
0.0
 70
     0
 13
2201.9674009999999
 23
2035.2303549999999
 33
0.0
 14
2771.9674009999999
 24
2121.6042090000001
 34
0.0
1001
ACAD
1000
DSTYLE
1002
{
1070
   287
1070
     4
1070
   287
1070
     4
1070
    40
1040
30.0
1070
    75
1070
     1
1070
   143
1040
0.039
1070
   172
1070
     1
1070
   271
1070
     0
1070
   279
1070
     1
1070
   288
1070
     1
1002
}
  0
DIMENSION
  5
7B94
  8
3
  6
CONTINUOUS
  2
*D8
 10
2201.9674009999999
 20
4159.0889479999987
 30
0.0
 11
2548.8254510000002
 21
4159.0889479999987
 31
0.0
 70
   128
 13
2856.9674009999999
 23
3953.104209000001
 33
0.0
 14
2201.9674009999999
 24
4048.0810919999999
 34
0.0
1001
ACAD
1000
DSTYLE
1002
{
1070
   287
1070
     3
1070
   287
1070
     3
1070
    40
1040
30.0
1070
   143
1040
0.039
1070
   172
1070
     1
1070
   271
1070
     0
1070
   279
1070
     0
1070
   288
1070
     1
1002
}
  0
DIMENSION
  5
7BAD
  8
3
  6
CONTINUOUS
  2
*D9
 10
4388.8299259999994
 20
4088.8775409999998
 30
0.0
 11
4742.9462200000007
 21
4088.8775409999998
 31
0.0
 70
   128
 13
5058.8299259999994
 23
3910.6042090000001
 33
0.0
 14
4388.8299259999994
 24
3910.6042090000001
 34
0.0
1001
ACAD
1000
DSTYLE
1002
{
1070
   287
1070
     3
1070
   287
1070
     3
1070
    40
1040
30.0
1070
   143
1040
0.039
1070
   172
1070
     1
1070
   271
1070
     0
1070
   279
1070
     0
1070
   288
1070
     1
1002
}
  0
LINE
  5
7BAE
  8
1
  6
CONTINUOUS
 10
5062.8299260000003
 20
3502.6042090000001
 30
0.0
 11
5062.8299260000003
 21
2552.6042090000001
 31
0.0
  0
DIMENSION
  5
7BBD
  8
3
  6
CONTINUOUS
  2
*D10
 10
5328.4696130000011
 20
2552.6042090000001
 30
0.0
 11
5328.4696130000002
 21
3020.103881
 31
0.0
 70
   128
 13
5062.8299260000003
 23
3502.6042090000001
 33
0.0
 14
5062.8299260000003
 24
2552.6042090000001
 34
0.0
 50
90.0
1001
ACAD
1000
DSTYLE
1002
{
1070
   287
1070
     3
1070
   287
1070
     3
1070
     3
1000
φ<>
1070
    40
1040
30.0
1070
   143
1040
0.039
1070
   172
1070
     1
1070
   271
1070
     0
1070
   279
1070
     0
1070
   288
1070
     1
1002
}
  0
DIMENSION
  5
7BCC
  8
3
  6
CONTINUOUS
  2
*D11
 10
4723.8299259999994
 20
4316.9909854767266
 30
0.0
 11
4893.3299259999994
 21
4411.6766388483111
 31
0.0
 70
   128
 13
5062.8299260000003
 23
3502.6042090000001
 33
0.0
 14
4723.8299259999994
 24
4244.6787270000013
 34
0.0
1001
ACAD
1000
DSTYLE
1002
{
1070
   288
1070
     1
1070
   172
1070
     1
1070
    40
1040
30.0
1070
   271
1070
     0
1070
   143
1040
0.039
1002
}
  0
DIMENSION
  5
7BE5
  8
3
  6
CONTINUOUS
  2
*D12
 10
4723.8299259999994
 20
1877.869222
 30
0.0
 11
4454.0879889999997
 21
1877.869222
 31
0.0
 70
   128
 13
4190.8299259999994
 23
2121.6042090000001
 33
0.0
 14
4723.8299259999994
 24
2006.2172295255821
 34
0.0
1001
ACAD
1000
DSTYLE
1002
{
1070
   287
1070
     3
1070
   287
1070
     3
1070
    40
1040
30.0
1070
   143
1040
0.039
1070
   172
1070
     1
1070
   271
1070
     0
1070
   279
1070
     0
1070
   288
1070
     1
1002
}
  0
DIMENSION
  5
7BF3
  8
3
  6
CONTINUOUS
  2
*D13
 10
5110.8299260000003
 20
1877.869222
 30
0.0
 11
4921.2721949999996
 21
1876.8811049999999
 31
0.0
 70
   128
 13
4723.8299259999994
 23
2006.2172295255821
 33
0.0
 14
5110.8299260000003
 24
2121.6042090000001
 34
0.0
1001
ACAD
1000
DSTYLE
1002
{
1070
   287
1070
     4
1070
   287
1070
     4
1070
    40
1040
30.0
1070
    75
1070
     1
1070
   143
1040
0.039
1070
   172
1070
     1
1070
   271
1070
     0
1070
   279
1070
     1
1070
   288
1070
     1
1002
}
  0
DIMENSION
  5
7C17
  8
3
  6
CONTINUOUS
  2
*D14
 10
2771.9674009999999
 20
6599.6541020000013
 30
0.0
 11
1877.4252889999991
 21
6599.6541020000013
 31
0.0
 70
   128
 13
1021.967401
 23
6412.3495520000006
 33
0.0
 14
2771.9674009999999
 24
6412.3495520000006
 34
0.0
1001
ACAD
1000
DSTYLE
1002
{
1070
   287
1070
     3
1070
   287
1070
     3
1070
    40
1040
30.0
1070
   143
1040
0.039
1070
   172
1070
     1
1070
   271
1070
     0
1070
   279
1070
     0
1070
   288
1070
     1
1002
}
  0
DIMENSION
  5
7C24
  8
3
  6
CONTINUOUS
  2
*D15
 10
3134.3488430000011
 20
5492.3495520000006
 30
0.0
 11
3134.3488429999989
 21
5920.9438140000011
 31
0.0
 70
   128
 13
2771.9674009999999
 23
6412.3495520000006
 33
0.0
 14
2771.9674009999999
 24
5492.3495520000006
 34
0.0
 50
90.0
1001
ACAD
1000
DSTYLE
1002
{
1070
   287
1070
     3
1070
   287
1070
     3
1070
    40
1040
30.0
1070
   143
1040
0.039
1070
   172
1070
     1
1070
   271
1070
     0
1070
   279
1070
     0
1070
   288
1070
     1
1002
}
  0
DIMENSION
  5
7C5B
  8
3
  6
CONTINUOUS
  2
*D16
 10
1458.9673989999999
 20
4159.0889479999987
 30
0.0
 11
1830.4674
 21
4234.0889479999987
 31
0.0
 70
     0
 13
2201.9674009999999
 23
4048.0810919999999
 33
0.0
 14
1458.9673989999999
 24
3027.6042090000001
 34
0.0
1001
ACAD
1000
DSTYLE
1002
{
1070
   287
1070
     4
1070
   287
1070
     4
1070
    40
1040
30.0
1070
    75
1070
     1
1070
   143
1040
0.039
1070
   172
1070
     1
1070
   271
1070
     0
1070
   279
1070
     1
1070
   288
1070
     1
1002
}
  0
DIMENSION
  5
7C92
  8
3
  6
CONTINUOUS
  2
*D17
 10
4113.8299260000003
 20
4316.9909854767266
 30
0.0
 11
4418.8299259999994
 21
4466.9909854767257
 31
0.0
 70
     0
  1
MAX\P640
 13
4723.8299259999994
 23
4244.6787270000013
 33
0.0
 14
4113.8299260000003
 24
3532.6042090000001
 34
0.0
1001
ACAD
1000
DSTYLE
1002
{
1070
   287
1070
     4
1070
   287
1070
     4
1070
    40
1040
30.0
1070
    75
1070
     1
1070
   143
1040
0.039
1070
   172
1070
     1
1070
   271
1070
     0
1070
   279
1070
     1
1070
   288
1070
     1
1002
}
  0
DIMENSION
  5
7D0A
  8
3
  2
*D18
 10
1021.967401
 20
4335.9333551833879
 30
0.0
 11
2007.8509760845261
 21
4335.9333551833879
 31
0.0
 70
   128
 13
2856.9674009999999
 23
3953.104209000001
 33
0.0
 14
1021.967400999999
 24
2362.6042090000001
 34
0.0
1001
ACAD
1000
DSTYLE
1002
{
1070
   287
1070
     3
1070
   287
1070
     3
1070
    40
1040
30.0
1070
   143
1040
0.039
1070
   172
1070
     1
1070
   271
1070
     0
1070
   279
1070
     0
1070
   288
1070
     1
1002
}
  0
LINE
  5
7E1C
  8
1
  6
CONTINUOUS
 10
2761.9674009999999
 20
3482.6042090000001
 30
0.0
 11
1641.9674010000001
 21
3482.6042090000001
 31
0.0
  0
LINE
  5
7E1D
  8
1
 10
1641.9674010000001
 20
2362.6042090000001
 30
0.0
 11
1641.9674010000001
 21
3482.6042090000001
 31
0.0
  0
LINE
  5
7E1E
  8
1
 10
2761.9674010000008
 20
2362.6042090000001
 30
0.0
 11
2761.9674009999999
 21
3482.6042090000001
 31
0.0
  0
ENDSEC
  0
EOF
