  0
SECTION
  2
HEADER
  9
$ACADVER
  1
AC1009
  9
$INSBASE
 10
0.0
 20
0.0
 30
0.0
  9
$EXTMIN
 10
750.0
 20
900.0
 30
0.0
  9
$EXTMAX
 10
5550.0
 20
8359.9567849999985
 30
0.0
  9
$LIMMIN
 10
0.0
 20
0.0
  9
$LIMMAX
 10
297.0
 20
210.0
  9
$ORTHOMODE
 70
     0
  9
$REGENMODE
 70
     1
  9
$FILLMODE
 70
     0
  9
$QTEXTMODE
 70
     0
  9
$MIRRTEXT
 70
     1
  9
$DRAGMODE
 70
     2
  9
$LTSCALE
 40
100.0
  9
$OSMODE
 70
    37
  9
$ATTMODE
 70
     1
  9
$TEXTSIZE
 40
180.0
  9
$TRACEWID
 40
0.05
  9
$TEXTSTYLE
  7
STANDARD
  9
$CLAYER
  8
3
  9
$CELTYPE
  6
BYLAYER
  9
$CECOLOR
 62
   256
  9
$DIMSCALE
 40
30.0
  9
$DIMASZ
 40
2.0
  9
$DIMEXO
 40
0.5
  9
$DIMDLI
 40
10.0
  9
$DIMRND
 40
0.0
  9
$DIMDLE
 40
0.0
  9
$DIMEXE
 40
1.0
  9
$DIMTP
 40
1.0
  9
$DIMTM
 40
1.0
  9
$DIMTXT
 40
3.0
  9
$DIMCEN
 40
0.0
  9
$DIMTSZ
 40
0.0
  9
$DIMTOL
 70
     0
  9
$DIMLIM
 70
     0
  9
$DIMTIH
 70
     0
  9
$DIMTOH
 70
     0
  9
$DIMSE1
 70
     0
  9
$DIMSE2
 70
     0
  9
$DIMTAD
 70
     1
  9
$DIMZIN
 70
     8
  9
$DIMBLK
  1

  9
$DIMASO
 70
     1
  9
$DIMSHO
 70
     1
  9
$DIMPOST
  1

  9
$DIMAPOST
  1

  9
$DIMALT
 70
     0
  9
$DIMALTD
 70
     2
  9
$DIMALTF
 40
0.039
  9
$DIMLFAC
 40
1.0
  9
$DIMTOFL
 70
     1
  9
$DIMTVP
 40
0.0
  9
$DIMTIX
 70
     0
  9
$DIMSOXD
 70
     0
  9
$DIMSAH
 70
     1
  9
$DIMBLK1
  1
OPEN
  9
$DIMBLK2
  1
OPEN
  9
$DIMSTYLE
  2
IGA
  9
$DIMCLRD
 70
     0
  9
$DIMCLRE
 70
     0
  9
$DIMCLRT
 70
     0
  9
$DIMTFAC
 40
10.0
  9
$DIMGAP
 40
1.0
  9
$LUNITS
 70
     2
  9
$LUPREC
 70
     3
  9
$SKETCHINC
 40
0.1
  9
$FILLETRAD
 40
50.0
  9
$AUNITS
 70
     0
  9
$AUPREC
 70
     0
  9
$MENU
  1
acad
  9
$ELEVATION
 40
0.0
  9
$PELEVATION
 40
0.0
  9
$THICKNESS
 40
0.0
  9
$LIMCHECK
 70
     0
  9
$BLIPMODE
 70
     0
  9
$CHAMFERA
 40
0.5
  9
$CHAMFERB
 40
0.5
  9
$SKPOLY
 70
     0
  9
$TDCREATE
 40
2450749.4908679398
  9
$TDUPDATE
 40
2454953.8409928698
  9
$TDINDWG
 40
0.0103565509
  9
$TDUSRTIMER
 40
0.0103565509
  9
$USRTIMER
 70
     1
  9
$ANGBASE
 50
0.0
  9
$ANGDIR
 70
     0
  9
$PDMODE
 70
     0
  9
$PDSIZE
 40
0.0
  9
$PLINEWID
 40
0.0
  9
$COORDS
 70
     1
  9
$SPLFRAME
 70
     0
  9
$SPLINETYPE
 70
     6
  9
$SPLINESEGS
 70
     8
  9
$ATTDIA
 70
     0
  9
$ATTREQ
 70
     1
  9
$HANDLING
 70
 10241
  9
$HANDSEED
  5
7EE3
  9
$SURFTAB1
 70
     6
  9
$SURFTAB2
 70
     6
  9
$SURFTYPE
 70
     6
  9
$SURFU
 70
     6
  9
$SURFV
 70
     6
  9
$UCSNAME
  2

  9
$UCSORG
 10
0.0
 20
0.0
 30
0.0
  9
$UCSXDIR
 10
1.0
 20
0.0
 30
0.0
  9
$UCSYDIR
 10
0.0
 20
1.0
 30
0.0
  9
$PUCSNAME
  2

  9
$PUCSORG
 10
0.0
 20
0.0
 30
0.0
  9
$PUCSXDIR
 10
1.0
 20
0.0
 30
0.0
  9
$PUCSYDIR
 10
0.0
 20
1.0
 30
0.0
  9
$USERI1
 70
     0
  9
$USERI2
 70
     0
  9
$USERI3
 70
     0
  9
$USERI4
 70
     0
  9
$USERI5
 70
     0
  9
$USERR1
 40
0.0
  9
$USERR2
 40
0.0
  9
$USERR3
 40
0.0
  9
$USERR4
 40
0.0
  9
$USERR5
 40
0.0
  9
$WORLDVIEW
 70
     1
  9
$SHADEDGE
 70
     3
  9
$SHADEDIF
 70
    70
  9
$TILEMODE
 70
     1
  9
$MAXACTVP
 70
    16
  9
$PLIMCHECK
 70
     0
  9
$PEXTMIN
 10
1.0000000000000000E+020
 20
1.0000000000000000E+020
 30
1.0000000000000000E+020
  9
$PEXTMAX
 10
-1.0000000000000000E+020
 20
-1.0000000000000000E+020
 30
-1.0000000000000000E+020
  9
$PLIMMIN
 10
0.0
 20
0.0
  9
$PLIMMAX
 10
12.0
 20
9.0
  9
$UNITMODE
 70
     0
  9
$VISRETAIN
 70
     0
  9
$PLINEGEN
 70
     0
  9
$PSLTSCALE
 70
     1
  0
ENDSEC
  0
SECTION
  2
TABLES
  0
TABLE
  2
VPORT
 70
     2
  0
VPORT
  2
*ACTIVE
 70
     0
 10
0.0
 20
0.0
 11
1.0
 21
1.0
 12
3853.5240739475789
 22
4143.5145146416644
 13
0.0
 23
0.0
 14
10.0
 24
10.0
 15
10.0
 25
10.0
 16
0.0
 26
0.0
 36
1.0
 17
0.0
 27
0.0
 37
0.0
 40
9963.7231809537152
 41
1.5051150895140659
 42
50.0
 43
0.0
 44
0.0
 50
0.0
 51
0.0
 71
     0
 72
   100
 73
     1
 74
     0
 75
     0
 76
     0
 77
     0
 78
     0
  0
ENDTAB
  0
TABLE
  2
LTYPE
 70
     2
  0
LTYPE
  2
CONTINUOUS
 70
     0
  3
Solid line
 72
    65
 73
     0
 40
0.0
  0
LTYPE
  2
CENTER
 70
     0
  3
____ _ ____ _ ____ _ ____ _ ____ _ ____ _ ____ 
 72
    65
 73
     4
 40
2.0
 49
1.25
 49
-0.25
 49
0.25
 49
-0.25
  0
ENDTAB
  0
TABLE
  2
LAYER
 70
     6
  0
LAYER
  2
0
 70
     0
 62
     7
  6
CONTINUOUS
  0
LAYER
  2
3
 70
     0
 62
     2
  6
CONTINUOUS
  0
LAYER
  2
2
 70
     0
 62
     3
  6
CENTER
  0
LAYER
  2
1
 70
     0
 62
     4
  6
CONTINUOUS
  0
LAYER
  2
4
 70
     0
 62
     7
  6
CONTINUOUS
  0
LAYER
  2
DEFPOINTS
 70
     0
 62
     7
  6
CONTINUOUS
  0
ENDTAB
  0
TABLE
  2
STYLE
 70
     1
  0
STYLE
  2
STANDARD
 70
     0
 40
0.0
 41
1.0
 50
0.0
 71
     0
 42
180.0
  3
simplex.shx
  4
extfont.shx
  0
ENDTAB
  0
TABLE
  2
VIEW
 70
     0
  0
ENDTAB
  0
TABLE
  2
UCS
 70
     0
  0
ENDTAB
  0
TABLE
  2
APPID
 70
     1
  0
APPID
  2
ACAD
 70
     0
  0
ENDTAB
  0
TABLE
  2
DIMSTYLE
 70
     1
  0
DIMSTYLE
  2
IGA
 70
     0
  3

  4

  5

  6
OPEN
  7
OPEN
 40
2.0
 41
2.0
 42
0.5
 43
10.0
 44
1.0
 45
0.0
 46
0.0
 47
1.0
 48
1.0
140
3.0
141
0.0
142
0.0
143
0.03937
144
1.0
145
0.0
146
10.0
147
1.0
 71
     0
 72
     0
 73
     0
 74
     0
 75
     0
 76
     0
 77
     1
 78
     8
170
     0
171
     2
172
     0
173
     1
174
     0
175
     0
176
     0
177
     0
178
     0
  0
ENDTAB
  0
ENDSEC
  0
SECTION
  2
BLOCKS
  0
BLOCK
  8
0
  2
$MODEL_SPACE
 70
     0
 10
0.0
 20
0.0
 30
0.0
  3
$MODEL_SPACE
  1

  0
ENDBLK
  5
1B
  8
0
  0
BLOCK
 67
     1
  8
0
  2
$PAPER_SPACE
 70
     0
 10
0.0
 20
0.0
 30
0.0
  3
$PAPER_SPACE
  1

  0
ENDBLK
  5
18
 67
     1
  8
0
  0
BLOCK
  8
0
  2
_OPEN
 70
     0
 10
0.0
 20
0.0
 30
0.0
  3
_OPEN
  1

  0
LINE
  5
7B71
  8
0
  6
BYBLOCK
 62
     0
 10
-1.0
 20
0.166667
 30
0.0
 11
0.0
 21
0.0
 31
0.0
  0
LINE
  5
7B72
  8
0
  6
BYBLOCK
 62
     0
 10
0.0
 20
0.0
 30
0.0
 11
-1.0
 21
-0.166667
 31
0.0
  0
LINE
  5
7B73
  8
0
  6
BYBLOCK
 62
     0
 10
0.0
 20
0.0
 30
0.0
 11
-1.0
 21
0.0
 31
0.0
  0
ENDBLK
  5
7B74
  8
0
  0
BLOCK
  8
0
  2
*D1
 70
     1
 10
0.0
 20
0.0
 30
0.0
  3
*D1
  1

  0
LINE
  5
7E44
  8
3
  6
CONTINUOUS
 62
     0
 10
1504.832547
 20
3897.1782320000002
 30
0.0
 11
1321.2373729999999
 21
3897.1782320000002
 31
0.0
  0
LINE
  5
7E45
  8
3
  6
CONTINUOUS
 62
     0
 10
1504.832547
 20
2972.1782320000002
 30
0.0
 11
1321.2373729999999
 21
2972.1782320000002
 31
0.0
  0
LINE
  5
7E46
  8
3
  6
CONTINUOUS
 62
     0
 10
1351.2373729999999
 20
3837.1782320000002
 30
0.0
 11
1351.2373729999999
 21
3032.1782320000002
 31
0.0
  0
INSERT
  5
7E47
  8
3
  6
CONTINUOUS
 62
     0
  2
_OPEN
 10
1351.2373729999999
 20
3897.1782320000002
 30
0.0
 41
60.0
 42
60.0
 43
60.0
 50
90.0
  0
INSERT
  5
7E48
  8
3
  6
CONTINUOUS
 62
     0
  2
_OPEN
 10
1351.2373729999999
 20
2972.1782320000002
 30
0.0
 41
60.0
 42
60.0
 43
60.0
 50
270.0
  0
TEXT
  8
3
  40
90
  5
7ED2
  62
0
  72
0
  71
0
 10
1096.24
 20
3242.73
 30
0.000000
  1
925
  0
POINT
  5
7E4A
  8
DEFPOINTS
  6
CONTINUOUS
 62
     0
 10
1519.832547
 20
3897.1782320000002
 30
0.0
  0
POINT
  5
7E4B
  8
DEFPOINTS
  6
CONTINUOUS
 62
     0
 10
1519.832547
 20
2972.1782320000002
 30
0.0
  0
POINT
  5
7E4C
  8
DEFPOINTS
  6
CONTINUOUS
 62
     0
 10
1351.2373729999999
 20
2972.1782320000002
 30
0.0
  0
ENDBLK
  5
7B81
  8
0
  0
BLOCK
  8
0
  2
*D2
 70
     1
 10
0.0
 20
0.0
 30
0.0
  3
*D2
  1

  0
LINE
  5
7E4D
  8
3
  6
CONTINUOUS
 62
     0
 10
1504.832547
 20
3897.1782320000002
 30
0.0
 11
1140.2573970000001
 21
3897.1782320000002
 31
0.0
  0
LINE
  5
7E4E
  8
3
  6
CONTINUOUS
 62
     0
 10
1426.704361999999
 20
3014.1782320000002
 30
0.0
 11
1140.2573970000001
 21
3014.1782320000002
 31
0.0
  0
LINE
  5
7E4F
  8
3
  6
CONTINUOUS
 62
     0
 10
1170.2573970000001
 20
3837.1782320000002
 30
0.0
 11
1170.2573970000001
 21
3074.1782320000002
 31
0.0
  0
INSERT
  5
7E50
  8
3
  6
CONTINUOUS
 62
     0
  2
_OPEN
 10
1170.2573970000001
 20
3897.1782320000002
 30
0.0
 41
60.0
 42
60.0
 43
60.0
 50
90.0
  0
INSERT
  5
7E51
  8
3
  6
CONTINUOUS
 62
     0
  2
_OPEN
 10
1170.2573970000001
 20
3014.1782320000002
 30
0.0
 41
60.0
 42
60.0
 43
60.0
 50
270.0
  0
TEXT
  8
3
  40
90
  5
7ED3
  62
0
  72
0
  71
0
 10
915.257
 20
3242.73
 30
0.000000
  1
883
  0
POINT
  5
7E53
  8
DEFPOINTS
  6
CONTINUOUS
 62
     0
 10
1519.832547
 20
3897.1782320000002
 30
0.0
  0
POINT
  5
7E54
  8
DEFPOINTS
  6
CONTINUOUS
 62
     0
 10
1441.7043619999999
 20
3014.1782320000002
 30
0.0
  0
POINT
  5
7E55
  8
DEFPOINTS
  6
CONTINUOUS
 62
     0
 10
1170.2573970000001
 20
3014.1782320000002
 30
0.0
  0
ENDBLK
  5
7B8E
  8
0
  0
BLOCK
  8
0
  2
*D3
 70
     1
 10
0.0
 20
0.0
 30
0.0
  3
*D3
  1

  0
LINE
  5
7E56
  8
3
  6
CONTINUOUS
 62
     0
 10
1589.832547
 20
2249.1782320000002
 30
0.0
 11
1140.2573970000001
 21
2249.1782320000002
 31
0.0
  0
LINE
  5
7E57
  8
3
  6
CONTINUOUS
 62
     0
 10
1170.2573970000001
 20
2954.1782320000002
 30
0.0
 11
1170.2573970000001
 21
2309.1782320000002
 31
0.0
  0
INSERT
  5
7E58
  8
3
  6
CONTINUOUS
 62
     0
  2
_OPEN
 10
1170.2573970000001
 20
3014.1782320000002
 30
0.0
 41
60.0
 42
60.0
 43
60.0
 50
90.0
  0
INSERT
  5
7E59
  8
3
  6
CONTINUOUS
 62
     0
  2
_OPEN
 10
1170.2573970000001
 20
2249.1782320000002
 30
0.0
 41
60.0
 42
60.0
 43
60.0
 50
270.0
  0
TEXT
  8
3
  40
90
  5
7ED4
  62
0
  72
0
  71
0
 10
915.257
 20
2472.38
 30
0.000000
  1
765
  0
POINT
  5
7E5B
  8
DEFPOINTS
  6
CONTINUOUS
 62
     0
 10
1441.7043619999999
 20
3014.1782320000002
 30
0.0
  0
POINT
  5
7E5C
  8
DEFPOINTS
  6
CONTINUOUS
 62
     0
 10
1604.832547
 20
2249.1782320000002
 30
0.0
  0
POINT
  5
7E5D
  8
DEFPOINTS
  6
CONTINUOUS
 62
     0
 10
1170.2573970000001
 20
2249.1782320000002
 30
0.0
  0
ENDBLK
  5
7B9A
  8
0
  0
BLOCK
  8
0
  2
*D4
 70
     1
 10
0.0
 20
0.0
 30
0.0
  3
*D4
  1

  0
LINE
  5
7E5E
  8
3
  6
CONTINUOUS
 62
     0
 10
1504.832547
 20
3939.6782320000002
 30
0.0
 11
929.11410400000057
 21
3939.6782320000002
 31
0.0
  0
LINE
  5
7E5F
  8
3
  6
CONTINUOUS
 62
     0
 10
1589.832547
 20
2249.1782320000002
 30
0.0
 11
929.11410400000011
 21
2249.1782320000002
 31
0.0
  0
LINE
  5
7E60
  8
3
  6
CONTINUOUS
 62
     0
 10
959.11410400000045
 20
3879.6782320000002
 30
0.0
 11
959.11410400000011
 21
2309.1782320000002
 31
0.0
  0
INSERT
  5
7E61
  8
3
  6
CONTINUOUS
 62
     0
  2
_OPEN
 10
959.11410400000045
 20
3939.6782320000002
 30
0.0
 41
60.0
 42
60.0
 43
60.0
 50
90.0
  0
INSERT
  5
7E62
  8
3
  6
CONTINUOUS
 62
     0
  2
_OPEN
 10
959.11410400000011
 20
2249.1782320000002
 30
0.0
 41
60.0
 42
60.0
 43
60.0
 50
270.0
  0
TEXT
  8
3
  40
90
  5
7ED5
  62
0
  72
0
  71
0
 10
704.114
 20
2971.46
 30
0.000000
  1
1691
  0
POINT
  5
7E64
  8
DEFPOINTS
  6
CONTINUOUS
 62
     0
 10
1519.832547
 20
3939.6782320000002
 30
0.0
  0
POINT
  5
7E65
  8
DEFPOINTS
  6
CONTINUOUS
 62
     0
 10
1604.832547
 20
2249.1782320000002
 30
0.0
  0
POINT
  5
7E66
  8
DEFPOINTS
  6
CONTINUOUS
 62
     0
 10
959.11410400000011
 20
2249.1782320000002
 30
0.0
  0
ENDBLK
  5
7BA7
  8
0
  0
BLOCK
  8
0
  2
*D5
 70
     1
 10
0.0
 20
0.0
 30
0.0
  3
*D5
  1

  0
LINE
  5
7E67
  8
3
  6
CONTINUOUS
 62
     0
 10
1604.832547
 20
2234.1782320000002
 30
0.0
 11
1604.832547
 21
1925.303848999999
 31
0.0
  0
LINE
  5
7E68
  8
3
  6
CONTINUOUS
 62
     0
 10
2174.832547
 20
2075.1378659999991
 30
0.0
 11
2174.832547
 21
1925.303848999999
 31
0.0
  0
LINE
  5
7E69
  8
3
  6
CONTINUOUS
 62
     0
 10
1664.832547
 20
1955.303848999999
 30
0.0
 11
2114.832547
 21
1955.303848999999
 31
0.0
  0
INSERT
  5
7E6A
  8
3
  6
CONTINUOUS
 62
     0
  2
_OPEN
 10
1604.832547
 20
1955.303848999999
 30
0.0
 41
60.0
 42
60.0
 43
60.0
 50
180.0
  0
INSERT
  5
7E6B
  8
3
  6
CONTINUOUS
 62
     0
  2
_OPEN
 10
2174.832547
 20
1955.303848999999
 30
0.0
 41
60.0
 42
60.0
 43
60.0
  0
TEXT
  8
3
  40
90
  5
7ED6
  62
0
  72
0
  71
0
 10
1708.14
 20
1871.00
 30
0.000000
  1
570
  0
POINT
  5
7E6D
  8
DEFPOINTS
  6
CONTINUOUS
 62
     0
 10
1604.832547
 20
2249.1782320000002
 30
0.0
  0
POINT
  5
7E6E
  8
DEFPOINTS
  6
CONTINUOUS
 62
     0
 10
2174.832547
 20
2090.137866
 30
0.0
  0
POINT
  5
7E6F
  8
DEFPOINTS
  6
CONTINUOUS
 62
     0
 10
2174.832547
 20
1955.303848999999
 30
0.0
  0
ENDBLK
  5
7C94
  8
0
  0
BLOCK
  8
0
  2
*D6
 70
     1
 10
0.0
 20
0.0
 30
0.0
  3
*D6
  1

  0
LINE
  5
7E70
  8
3
  6
CONTINUOUS
 62
     0
 10
3354.832547
 20
2234.1782320000002
 30
0.0
 11
3354.832547
 21
1925.303848999999
 31
0.0
  0
LINE
  5
7E71
  8
3
  6
CONTINUOUS
 62
     0
 10
2234.8325469999991
 20
1955.303848999999
 30
0.0
 11
3294.832547
 21
1955.303848999999
 31
0.0
  0
INSERT
  5
7E72
  8
3
  6
CONTINUOUS
 62
     0
  2
_OPEN
 10
2174.832547
 20
1955.303848999999
 30
0.0
 41
60.0
 42
60.0
 43
60.0
 50
180.0
  0
INSERT
  5
7E73
  8
3
  6
CONTINUOUS
 62
     0
  2
_OPEN
 10
3354.832547
 20
1955.303848999999
 30
0.0
 41
60.0
 42
60.0
 43
60.0
  0
TEXT
  8
3
  40
90
  5
7ED7
  62
0
  72
0
  71
0
 10
2584.83
 20
1871.00
 30
0.000000
  1
1180
  0
POINT
  5
7E75
  8
DEFPOINTS
  6
CONTINUOUS
 62
     0
 10
2174.832547
 20
2090.137866
 30
0.0
  0
POINT
  5
7E76
  8
DEFPOINTS
  6
CONTINUOUS
 62
     0
 10
3354.832547
 20
2249.1782320000002
 30
0.0
  0
POINT
  5
7E77
  8
DEFPOINTS
  6
CONTINUOUS
 62
     0
 10
3354.832547
 20
1955.303848999999
 30
0.0
  0
ENDBLK
  5
7C89
  8
0
  0
BLOCK
  8
0
  2
*D7
 70
     1
 10
0.0
 20
0.0
 30
0.0
  3
*D7
  1

  0
LINE
  5
7E78
  8
3
  6
CONTINUOUS
 62
     0
 10
1519.832547
 20
3954.6782320000002
 30
0.0
 11
1519.832547
 21
4137.33464
 31
0.0
  0
LINE
  5
7E79
  8
3
  6
CONTINUOUS
 62
     0
 10
2174.832547
 20
4031.961303
 30
0.0
 11
2174.832547
 21
4137.33464
 31
0.0
  0
LINE
  5
7E7A
  8
3
  6
CONTINUOUS
 62
     0
 10
1579.832547
 20
4107.33464
 30
0.0
 11
2114.832547
 21
4107.33464
 31
0.0
  0
INSERT
  5
7E7B
  8
3
  6
CONTINUOUS
 62
     0
  2
_OPEN
 10
1519.832547
 20
4107.33464
 30
0.0
 41
60.0
 42
60.0
 43
60.0
 50
180.0
  0
INSERT
  5
7E7C
  8
3
  6
CONTINUOUS
 62
     0
  2
_OPEN
 10
2174.832547
 20
4107.33464
 30
0.0
 41
60.0
 42
60.0
 43
60.0
  0
TEXT
  8
3
  40
90
  5
7ED8
  62
0
  72
0
  71
0
 10
1677.98
 20
4023.03
 30
0.000000
  1
655
  0
POINT
  5
7E7E
  8
DEFPOINTS
  6
CONTINUOUS
 62
     0
 10
1519.832547
 20
3939.6782320000002
 30
0.0
  0
POINT
  5
7E7F
  8
DEFPOINTS
  6
CONTINUOUS
 62
     0
 10
2174.832547
 20
4016.961303
 30
0.0
  0
POINT
  5
7E80
  8
DEFPOINTS
  6
CONTINUOUS
 62
     0
 10
2174.832547
 20
4107.33464
 30
0.0
  0
ENDBLK
  5
7BCD
  8
0
  0
BLOCK
  8
0
  2
*D8
 70
     1
 10
0.0
 20
0.0
 30
0.0
  3
*D8
  1

  0
LINE
  5
7E81
  8
3
  6
CONTINUOUS
 62
     0
 10
5172.1651009999996
 20
3912.1782320000002
 30
0.0
 11
5172.1651009999996
 21
4089.1086140000002
 31
0.0
  0
LINE
  5
7E82
  8
3
  6
CONTINUOUS
 62
     0
 10
4502.1651009999996
 20
3912.1782320000002
 30
0.0
 11
4502.1651009999996
 21
4089.1086140000002
 31
0.0
  0
LINE
  5
7E83
  8
3
  6
CONTINUOUS
 62
     0
 10
5112.1651009999987
 20
4059.1086140000002
 30
0.0
 11
4562.1651009999987
 21
4059.1086140000002
 31
0.0
  0
INSERT
  5
7E84
  8
3
  6
CONTINUOUS
 62
     0
  2
_OPEN
 10
5172.1651009999996
 20
4059.1086140000002
 30
0.0
 41
60.0
 42
60.0
 43
60.0
  0
INSERT
  5
7E85
  8
3
  6
CONTINUOUS
 62
     0
  2
_OPEN
 10
4502.1651009999996
 20
4059.1086140000002
 30
0.0
 41
60.0
 42
60.0
 43
60.0
 50
180.0
  0
TEXT
  8
3
  40
90
  5
7ED9
  62
0
  72
0
  71
0
 10
4653.59
 20
3974.81
 30
0.000000
  1
670
  0
POINT
  5
7E87
  8
DEFPOINTS
  6
CONTINUOUS
 62
     0
 10
5172.1651009999996
 20
3897.1782320000002
 30
0.0
  0
POINT
  5
7E88
  8
DEFPOINTS
  6
CONTINUOUS
 62
     0
 10
4502.1651009999996
 20
3897.1782320000002
 30
0.0
  0
POINT
  5
7E89
  8
DEFPOINTS
  6
CONTINUOUS
 62
     0
 10
4502.1651009999996
 20
4059.1086140000002
 30
0.0
  0
ENDBLK
  5
7BDA
  8
0
  0
BLOCK
  8
0
  2
*D9
 70
     1
 10
0.0
 20
0.0
 30
0.0
  3
*D9
  1

  0
LINE
  5
7E8A
  8
3
  6
CONTINUOUS
 62
     0
 10
5191.1651009999996
 20
3489.1782320000002
 30
0.0
 11
5424.6307030000007
 21
3489.1782320000002
 31
0.0
  0
LINE
  5
7E8B
  8
3
  6
CONTINUOUS
 62
     0
 10
5191.1651009999996
 20
2539.1782320000002
 30
0.0
 11
5424.6307030000007
 21
2539.1782320000002
 31
0.0
  0
LINE
  5
7E8C
  8
3
  6
CONTINUOUS
 62
     0
 10
5394.6307029999998
 20
3429.1782320000002
 30
0.0
 11
5394.6307029999998
 21
2599.1782320000002
 31
0.0
  0
INSERT
  5
7E8D
  8
3
  6
CONTINUOUS
 62
     0
  2
_OPEN
 10
5394.6307029999998
 20
3489.1782320000002
 30
0.0
 41
60.0
 42
60.0
 43
60.0
 50
90.0
  0
INSERT
  5
7E8E
  8
3
  6
CONTINUOUS
 62
     0
  2
_OPEN
 10
5394.6307029999998
 20
2539.1782320000002
 30
0.0
 41
60.0
 42
60.0
 43
60.0
 50
270.0
  0
TEXT
  8
3
  40
90
  5
7EDA
  62
0
  72
0
  71
0
 10
5139.63
 20
2862.95
 30
0.000000
  1
φ950
  0
POINT
  5
7E90
  8
DEFPOINTS
  6
CONTINUOUS
 62
     0
 10
5176.1651009999987
 20
3489.1782320000002
 30
0.0
  0
POINT
  5
7E91
  8
DEFPOINTS
  6
CONTINUOUS
 62
     0
 10
5176.1651009999987
 20
2539.1782320000002
 30
0.0
  0
POINT
  5
7E92
  8
DEFPOINTS
  6
CONTINUOUS
 62
     0
 10
5394.6307029999998
 20
2539.1782320000002
 30
0.0
  0
ENDBLK
  5
7D18
  8
0
  0
BLOCK
  8
0
  2
*D10
 70
     1
 10
0.0
 20
0.0
 30
0.0
  3
*D10
  1

  0
LINE
  5
7D3B
  8
0
  6
BYBLOCK
 62
     0
 10
5176.1651009999987
 20
3504.1782320000002
 30
0.0
 11
5176.1651009999987
 21
4299.6149779997713
 31
0.0
  0
LINE
  5
7D3C
  8
0
  6
BYBLOCK
 62
     0
 10
4837.1651009999996
 20
4201.6324649999988
 30
0.0
 11
4837.1651009999996
 21
4299.6149779997713
 31
0.0
  0
LINE
  5
7D3D
  8
0
  6
BYBLOCK
 62
     0
 10
5116.1651009999987
 20
4269.6149779997713
 30
0.0
 11
4897.1651009999987
 21
4269.6149779997713
 31
0.0
  0
TEXT
  5
7D3E
  8
3
 62
     0
 10
4893.0936724285712
 20
4302.0601339023933
 30
0.0
 40
90.0
  1
339
  0
INSERT
  5
7D3F
  8
0
  6
BYBLOCK
 62
     0
  2
_OPEN
 10
5176.1651009999987
 20
4269.6149779997713
 30
0.0
 41
60.0
 42
60.0
 43
60.0
  0
INSERT
  5
7D40
  8
0
  6
BYBLOCK
 62
     0
  2
_OPEN
 10
4837.1651009999996
 20
4269.6149779997713
 30
0.0
 41
60.0
 42
60.0
 43
60.0
 50
180.0
  0
POINT
  5
7D41
  8
DEFPOINTS
  6
BYBLOCK
 62
     0
 10
5176.1651009999987
 20
3489.1782320000002
 30
0.0
  0
POINT
  5
7D42
  8
DEFPOINTS
  6
BYBLOCK
 62
     0
 10
4837.1651009999996
 20
4186.6324649999988
 30
0.0
  0
POINT
  5
7D43
  8
DEFPOINTS
  6
BYBLOCK
 62
     0
 10
4837.1651009999996
 20
4269.6149779997713
 30
0.0
  0
ENDBLK
  5
7D44
  8
0
  0
BLOCK
  8
0
  2
*D11
 70
     1
 10
0.0
 20
0.0
 30
0.0
  3
*D11
  1

  0
LINE
  5
7E93
  8
3
  6
CONTINUOUS
 62
     0
 10
4227.1651009999987
 20
3534.1782320000002
 30
0.0
 11
4227.1651009999987
 21
4299.6149779997713
 31
0.0
  0
LINE
  5
7E94
  8
3
  6
CONTINUOUS
 62
     0
 10
4777.1651009999996
 20
4269.6149779997713
 30
0.0
 11
4287.1651009999987
 21
4269.6149779997713
 31
0.0
  0
INSERT
  5
7E95
  8
3
  6
CONTINUOUS
 62
     0
  2
_OPEN
 10
4837.1651009999996
 20
4269.6149779997713
 30
0.0
 41
60.0
 42
60.0
 43
60.0
  0
INSERT
  5
7E96
  8
3
  6
CONTINUOUS
 62
     0
  2
_OPEN
 10
4227.1651009999987
 20
4269.6149779997713
 30
0.0
 41
60.0
 42
60.0
 43
60.0
 50
180.0
  0
TEXT
  8
3
  40
90
  5
7EDB
  62
0
  72
0
  71
0
 10
4352.17
 20
4260.31
 30
0.000000
  1
MAX
  0
TEXT
  8
3
  40
90
  5
7EDC
  62
0
  72
0
  71
0
 10
4352.17
 20
4143.31
 30
0.000000
  1
640
  0
POINT
  5
7E98
  8
DEFPOINTS
  6
CONTINUOUS
 62
     0
 10
4837.1651009999996
 20
4186.6324649999988
 30
0.0
  0
POINT
  5
7E99
  8
DEFPOINTS
  6
CONTINUOUS
 62
     0
 10
4227.1651009999987
 20
3519.1782320000002
 30
0.0
  0
POINT
  5
7E9A
  8
DEFPOINTS
  6
CONTINUOUS
 62
     0
 10
4227.1651009999987
 20
4269.6149779997713
 30
0.0
  0
ENDBLK
  5
7D39
  8
0
  0
BLOCK
  8
0
  2
*D12
 70
     1
 10
0.0
 20
0.0
 30
0.0
  3
*D12
  1

  0
LINE
  5
7E9B
  8
3
  6
CONTINUOUS
 62
     0
 10
4304.1651009999987
 20
2234.1782320000002
 30
0.0
 11
4304.1651009999987
 21
1935.663601
 31
0.0
  0
LINE
  5
7E9C
  8
3
  6
CONTINUOUS
 62
     0
 10
4837.1651009999996
 20
2020.798892
 30
0.0
 11
4837.1651009999996
 21
1935.663601
 31
0.0
  0
LINE
  5
7E9D
  8
3
  6
CONTINUOUS
 62
     0
 10
4364.1651009999996
 20
1965.663601
 30
0.0
 11
4777.1651009999996
 21
1965.663601
 31
0.0
  0
INSERT
  5
7E9E
  8
3
  6
CONTINUOUS
 62
     0
  2
_OPEN
 10
4304.1651009999987
 20
1965.663601
 30
0.0
 41
60.0
 42
60.0
 43
60.0
 50
180.0
  0
INSERT
  5
7E9F
  8
3
  6
CONTINUOUS
 62
     0
  2
_OPEN
 10
4837.1651009999996
 20
1965.663601
 30
0.0
 41
60.0
 42
60.0
 43
60.0
  0
TEXT
  8
3
  40
90
  5
7EDD
  62
0
  72
0
  71
0
 10
4388.16
 20
1881.36
 30
0.000000
  1
533
  0
POINT
  5
7EA1
  8
DEFPOINTS
  6
CONTINUOUS
 62
     0
 10
4304.1651009999987
 20
2249.1782320000002
 30
0.0
  0
POINT
  5
7EA2
  8
DEFPOINTS
  6
CONTINUOUS
 62
     0
 10
4837.1651009999996
 20
2035.798892
 30
0.0
  0
POINT
  5
7EA3
  8
DEFPOINTS
  6
CONTINUOUS
 62
     0
 10
4837.1651009999996
 20
1965.663601
 30
0.0
  0
ENDBLK
  5
7CAB
  8
0
  0
BLOCK
  8
0
  2
*D13
 70
     1
 10
0.0
 20
0.0
 30
0.0
  3
*D13
  1

  0
LINE
  5
7EA4
  8
3
  6
CONTINUOUS
 62
     0
 10
5224.1651009999996
 20
2234.1782320000002
 30
0.0
 11
5224.1651009999996
 21
1935.663601
 31
0.0
  0
LINE
  5
7EA5
  8
3
  6
CONTINUOUS
 62
     0
 10
4897.1651009999987
 20
1965.663601
 30
0.0
 11
5164.1651009999996
 21
1965.663601
 31
0.0
  0
TEXT
  8
3
  40
90
  5
7EDE
  62
0
  72
0
  71
0
 10
4860.84
 20
1881.15
 30
0.000000
  1
387
  0
INSERT
  5
7EA7
  8
3
  6
CONTINUOUS
 62
     0
  2
_OPEN
 10
4837.1651009999996
 20
1965.663601
 30
0.0
 41
60.0
 42
60.0
 43
60.0
 50
180.0
  0
INSERT
  5
7EA8
  8
3
  6
CONTINUOUS
 62
     0
  2
_OPEN
 10
5224.1651009999996
 20
1965.663601
 30
0.0
 41
60.0
 42
60.0
 43
60.0
  0
POINT
  5
7EA9
  8
DEFPOINTS
  6
CONTINUOUS
 62
     0
 10
4837.1651009999996
 20
2035.798892
 30
0.0
  0
POINT
  5
7EAA
  8
DEFPOINTS
  6
CONTINUOUS
 62
     0
 10
5224.1651009999996
 20
2249.1782320000002
 30
0.0
  0
POINT
  5
7EAB
  8
DEFPOINTS
  6
CONTINUOUS
 62
     0
 10
5224.1651009999996
 20
1965.663601
 30
0.0
  0
ENDBLK
  5
7CC1
  8
0
  0
BLOCK
  8
0
  2
*D14
 70
     1
 10
0.0
 20
0.0
 30
0.0
  3
*D14
  1

  0
LINE
  5
7EAC
  8
3
  6
CONTINUOUS
 62
     0
 10
2917.832547
 20
3029.1782320000002
 30
0.0
 11
2917.832547
 21
4137.33464
 31
0.0
  0
LINE
  5
7EAD
  8
3
  6
CONTINUOUS
 62
     0
 10
2234.8325469999991
 20
4107.33464
 30
0.0
 11
2857.832547
 21
4107.33464
 31
0.0
  0
INSERT
  5
7EAE
  8
3
  6
CONTINUOUS
 62
     0
  2
_OPEN
 10
2174.832547
 20
4107.33464
 30
0.0
 41
60.0
 42
60.0
 43
60.0
 50
180.0
  0
INSERT
  5
7EAF
  8
3
  6
CONTINUOUS
 62
     0
  2
_OPEN
 10
2917.832547
 20
4107.33464
 30
0.0
 41
60.0
 42
60.0
 43
60.0
  0
TEXT
  8
3
  40
90
  5
7EDF
  62
0
  72
0
  71
0
 10
2366.33
 20
4023.03
 30
0.000000
  1
743
  0
POINT
  5
7EB1
  8
DEFPOINTS
  6
CONTINUOUS
 62
     0
 10
2174.832547
 20
4016.961303
 30
0.0
  0
POINT
  5
7EB2
  8
DEFPOINTS
  6
CONTINUOUS
 62
     0
 10
2917.832547
 20
3014.1782320000002
 30
0.0
  0
POINT
  5
7EB3
  8
DEFPOINTS
  6
CONTINUOUS
 62
     0
 10
2917.832547
 20
4107.33464
 30
0.0
  0
ENDBLK
  5
7CE0
  8
0
  0
BLOCK
  8
0
  2
*D15
 70
     1
 10
0.0
 20
0.0
 30
0.0
  3
*D15
  1

  0
LINE
  5
7EB4
  8
3
  6
CONTINUOUS
 62
     0
 10
1604.832547
 20
6444.2544549999993
 30
0.0
 11
1604.832547
 21
6638.6885669999992
 31
0.0
  0
LINE
  5
7EB5
  8
3
  6
CONTINUOUS
 62
     0
 10
3354.832547
 20
6444.2544549999993
 30
0.0
 11
3354.832547
 21
6638.6885669999992
 31
0.0
  0
LINE
  5
7EB6
  8
3
  6
CONTINUOUS
 62
     0
 10
1664.832547
 20
6608.6885670000001
 30
0.0
 11
3294.832547
 21
6608.6885670000001
 31
0.0
  0
INSERT
  5
7EB7
  8
3
  6
CONTINUOUS
 62
     0
  2
_OPEN
 10
1604.832547
 20
6608.6885670000001
 30
0.0
 41
60.0
 42
60.0
 43
60.0
 50
180.0
  0
INSERT
  5
7EB8
  8
3
  6
CONTINUOUS
 62
     0
  2
_OPEN
 10
3354.832547
 20
6608.6885670000001
 30
0.0
 41
60.0
 42
60.0
 43
60.0
  0
TEXT
  8
3
  40
90
  5
7EE0
  62
0
  72
0
  71
0
 10
2287.28
 20
6524.39
 30
0.000000
  1
1750
  0
POINT
  5
7EBA
  8
DEFPOINTS
  6
CONTINUOUS
 62
     0
 10
1604.832547
 20
6429.2544549999984
 30
0.0
  0
POINT
  5
7EBB
  8
DEFPOINTS
  6
CONTINUOUS
 62
     0
 10
3354.832547
 20
6429.2544549999984
 30
0.0
  0
POINT
  5
7EBC
  8
DEFPOINTS
  6
CONTINUOUS
 62
     0
 10
3354.832547
 20
6608.6885670000001
 30
0.0
  0
ENDBLK
  5
7C50
  8
0
  0
BLOCK
  8
0
  2
*D16
 70
     1
 10
0.0
 20
0.0
 30
0.0
  3
*D16
  1

  0
LINE
  5
7EBD
  8
3
  6
CONTINUOUS
 62
     0
 10
3369.832547
 20
6429.2544549999984
 30
0.0
 11
3643.4868970000011
 21
6429.2544549999984
 31
0.0
  0
LINE
  5
7EBE
  8
3
  6
CONTINUOUS
 62
     0
 10
3369.832547
 20
5509.2544549999993
 30
0.0
 11
3643.4868970000011
 21
5509.2544549999993
 31
0.0
  0
LINE
  5
7EBF
  8
3
  6
CONTINUOUS
 62
     0
 10
3613.4868970000002
 20
6369.2544550000002
 30
0.0
 11
3613.4868970000002
 21
5569.2544549999993
 31
0.0
  0
INSERT
  5
7EC0
  8
3
  6
CONTINUOUS
 62
     0
  2
_OPEN
 10
3613.4868970000002
 20
6429.2544549999984
 30
0.0
 41
60.0
 42
60.0
 43
60.0
 50
90.0
  0
INSERT
  5
7EC1
  8
3
  6
CONTINUOUS
 62
     0
  2
_OPEN
 10
3613.4868970000002
 20
5509.2544549999993
 30
0.0
 41
60.0
 42
60.0
 43
60.0
 50
270.0
  0
TEXT
  8
3
  40
90
  5
7EE1
  62
0
  72
0
  71
0
 10
3358.49
 20
5810.39
 30
0.000000
  1
920
  0
POINT
  5
7EC3
  8
DEFPOINTS
  6
CONTINUOUS
 62
     0
 10
3354.832547
 20
6429.2544549999984
 30
0.0
  0
POINT
  5
7EC4
  8
DEFPOINTS
  6
CONTINUOUS
 62
     0
 10
3354.832547
 20
5509.2544549999993
 30
0.0
  0
POINT
  5
7EC5
  8
DEFPOINTS
  6
CONTINUOUS
 62
     0
 10
3613.4868970000002
 20
5509.2544549999993
 30
0.0
  0
ENDBLK
  5
7C5D
  8
0
  0
BLOCK
  8
0
  2
*D17
 70
     1
 10
0.0
 20
0.0
 30
0.0
  3
*D17
  1

  0
LINE
  5
7EC6
  8
3
 62
     0
 10
1519.832547
 20
3954.6782320000002
 30
0.0
 11
1519.832547
 21
4311.3390327029701
 31
0.0
  0
LINE
  5
7EC7
  8
3
 62
     0
 10
3354.832547
 20
2364.1782319999988
 30
0.0
 11
3354.832547
 21
4311.3390327029701
 31
0.0
  0
LINE
  5
7EC8
  8
3
 62
     0
 10
1579.832547
 20
4281.3390327029701
 30
0.0
 11
3294.832547
 21
4281.3390327029701
 31
0.0
  0
INSERT
  5
7EC9
  8
3
 62
     0
  2
_OPEN
 10
1519.832547
 20
4281.3390327029701
 30
0.0
 41
60.0
 42
60.0
 43
60.0
 50
180.0
  0
INSERT
  5
7ECA
  8
3
 62
     0
  2
_OPEN
 10
3354.832547
 20
4281.3390327029701
 30
0.0
 41
60.0
 42
60.0
 43
60.0
  0
TEXT
  8
3
  40
90
  5
7EE2
  62
0
  72
0
  71
0
 10
2189.89
 20
4197.04
 30
0.000000
  1
1835
  0
POINT
  5
7ECC
  8
DEFPOINTS
 62
     0
 10
1519.832547
 20
3939.6782320000002
 30
0.0
  0
POINT
  5
7ECD
  8
DEFPOINTS
 62
     0
 10
3354.832547
 20
2349.1782320000002
 30
0.0
  0
POINT
  5
7ECE
  8
DEFPOINTS
 62
     0
 10
3354.832547
 20
4281.3390327029701
 30
0.0
  0
ENDBLK
  5
7CEC
  8
0
  0
BLOCK
  8
0
  2
_DOT
 70
     0
 10
0.0
 20
0.0
 30
0.0
  3
_DOT
  1

  0
POLYLINE
  5
7E1E
  8
0
  6
BYBLOCK
 62
     0
 66
     1
 10
0.0
 20
0.0
 30
0.0
 70
     1
 40
0.5
 41
0.5
  0
VERTEX
  5
7ECF
  8
0
  6
BYBLOCK
 62
     0
 10
-0.25
 20
0.0
 30
0.0
 42
1.0
  0
VERTEX
  5
7ED0
  8
0
  6
BYBLOCK
 62
     0
 10
0.25
 20
0.0
 30
0.0
 42
1.0
  0
SEQEND
  5
7ED1
  8
0
  6
BYBLOCK
 62
     0
  0
LINE
  5
7E1F
  8
0
  6
BYBLOCK
 62
     0
 10
-0.5
 20
0.0
 30
0.0
 11
-1.0
 21
0.0
 31
0.0
  0
ENDBLK
  5
7E21
  8
0
  0
ENDSEC
  0
SECTION
  2
ENTITIES
  0
LINE
  5
7AAA
  8
1
  6
CONTINUOUS
 10
1604.832547
 20
6429.2544549999984
 30
0.0
 11
3354.832547
 21
6429.2544549999984
 31
0.0
  0
LINE
  5
7AAB
  8
1
  6
CONTINUOUS
 10
3334.8325469999991
 20
5484.2544549999993
 30
0.0
 11
1694.832547
 21
5484.2544549999993
 31
0.0
  0
LINE
  5
7AAC
  8
1
  6
CONTINUOUS
 10
3334.8325469999991
 20
5654.2544550000002
 30
0.0
 11
1694.832547
 21
5654.2544550000002
 31
0.0
  0
LINE
  5
7AAD
  8
1
  6
CONTINUOUS
 10
1519.832547
 20
5707.2544550000002
 30
0.0
 11
2919.9998179999989
 21
5707.2544550000002
 31
0.0
  0
LINE
  5
7AAE
  8
1
  6
CONTINUOUS
 10
1519.832547
 20
6377.2544549999993
 30
0.0
 11
2919.9998179999989
 21
6377.2544549999993
 31
0.0
  0
LINE
  5
7AAF
  8
1
  6
CONTINUOUS
 10
1604.832547
 20
5509.2544549999993
 30
0.0
 11
3354.832547
 21
5509.2544549999993
 31
0.0
  0
LINE
  5
7AB0
  8
1
  6
CONTINUOUS
 10
3334.8325469999991
 20
2699.1782320000002
 30
0.0
 11
2354.832547
 21
3519.1782320000002
 31
0.0
  0
LINE
  5
7AB1
  8
1
  6
CONTINUOUS
 10
3137.6191349999999
 20
2526.180296999999
 30
0.0
 11
2116.5364610000001
 21
2766.95856
 31
0.0
  0
LINE
  5
7AB2
  8
1
  6
CONTINUOUS
 10
3195.2778309999999
 20
2662.3381800000002
 30
0.0
 11
2311.8072419999999
 21
3228.0799219999999
 31
0.0
  0
LINE
  5
7AB3
  8
1
  6
CONTINUOUS
 10
1604.832547
 20
2249.1782320000002
 30
0.0
 11
3354.832547
 21
2249.1782320000002
 31
0.0
  0
LINE
  5
7AB4
  8
1
  6
CONTINUOUS
 10
1604.832547
 20
2349.1782320000002
 30
0.0
 11
3354.832547
 21
2349.1782320000002
 31
0.0
  0
POLYLINE
  5
7AB5
  8
1
  6
CONTINUOUS
 66
     1
 10
0.0
 20
0.0
 30
0.0
  0
VERTEX
  5
7E3E
  8
1
  6
CONTINUOUS
 10
1519.832547
 20
3897.1782320000002
 30
0.0
  0
VERTEX
  5
7E3F
  8
1
  6
CONTINUOUS
 10
2174.832547
 20
3875.1782320000002
 30
0.0
 42
-0.4168370000000001
  0
VERTEX
  5
7E40
  8
1
  6
CONTINUOUS
 10
2917.2725059999989
 20
3007.0042899999999
 30
0.0
 42
-0.429867
  0
VERTEX
  5
7E41
  8
1
  6
CONTINUOUS
 10
2130.9563859999989
 20
2375.7530550000001
 30
0.0
 42
-0.373172
  0
VERTEX
  5
7E42
  8
1
  6
CONTINUOUS
 10
1606.863818999999
 20
2972.1782320000002
 30
0.0
 42
-0.34598
  0
SEQEND
  5
7E43
  8
1
  6
CONTINUOUS
  0
LINE
  5
7ABC
  8
1
  6
CONTINUOUS
 10
1559.832547
 20
5707.2544550000002
 30
0.0
 11
1559.832547
 21
6377.2544549999993
 31
0.0
  0
LINE
  5
7ABD
  8
1
  6
CONTINUOUS
 10
1519.832547
 20
5665.2544549999993
 30
0.0
 11
1519.832547
 21
6419.2544549999993
 31
0.0
  0
LINE
  5
7ABE
  8
1
  6
CONTINUOUS
 10
1694.832547
 20
2349.1782320000002
 30
0.0
 11
1694.832547
 21
3519.1782320000002
 31
0.0
  0
LINE
  5
7AC3
  8
1
  6
CONTINUOUS
 10
1604.832547
 20
2349.1782320000002
 30
0.0
 11
1604.832547
 21
2249.1782320000002
 31
0.0
  0
LINE
  5
7AC5
  8
1
  6
CONTINUOUS
 10
1559.832547
 20
2972.1782320000002
 30
0.0
 11
1559.832547
 21
3895.8347209999988
 31
0.0
  0
LINE
  5
7AC6
  8
1
  6
CONTINUOUS
 10
1519.832547
 20
2929.6782320000002
 30
0.0
 11
1519.832547
 21
3939.6782320000002
 31
0.0
  0
LINE
  5
7AC7
  8
1
  6
CONTINUOUS
 10
1606.863818999999
 20
2972.1782320000002
 30
0.0
 11
1519.832547
 21
2972.1782320000002
 31
0.0
  0
LINE
  5
7AC8
  8
1
  6
CONTINUOUS
 10
1604.832547
 20
5509.2544549999993
 30
0.0
 11
1604.832547
 21
5707.2544550000002
 31
0.0
  0
LINE
  5
7AC9
  8
1
  6
CONTINUOUS
 10
1694.832547
 20
3519.1782320000002
 30
0.0
 11
2354.832547
 21
3519.1782320000002
 31
0.0
  0
LINE
  5
7ACA
  8
2
  6
CENTER
 10
5207.6181049999986
 20
3014.1782320000002
 30
0.0
 11
4159.4209929999997
 21
3014.1782320000002
 31
0.0
  0
CIRCLE
  5
7ACB
  8
1
  6
CONTINUOUS
 10
2174.832547
 20
3014.1782320000002
 30
0.0
 40
254.0
  0
LINE
  5
7ACC
  8
2
  6
CENTER
 10
2174.832547
 20
2090.137866
 30
0.0
 11
2174.832547
 21
4016.961303
 31
0.0
  0
LINE
  5
7ACD
  8
1
  6
CONTINUOUS
 10
2428.832547
 20
5517.2544549999993
 30
0.0
 11
1920.832547
 21
5517.2544549999993
 31
0.0
  0
LINE
  5
7ACE
  8
1
  6
CONTINUOUS
 10
2428.832547
 20
5621.2544549999993
 30
0.0
 11
1920.832547
 21
5621.2544549999993
 31
0.0
  0
LINE
  5
7ACF
  8
1
  6
CONTINUOUS
 10
1694.832547
 20
5484.2544549999993
 30
0.0
 11
1694.832547
 21
5654.2544550000002
 31
0.0
  0
LINE
  5
7AD0
  8
1
  6
CONTINUOUS
 10
1920.832547
 20
5517.2544549999993
 30
0.0
 11
1920.832547
 21
5621.2544549999993
 31
0.0
  0
LINE
  5
7AD1
  8
1
  6
CONTINUOUS
 10
2199.832547
 20
5621.2544549999993
 30
0.0
 11
2199.832547
 21
5707.2544550000002
 31
0.0
  0
LINE
  5
7AD2
  8
1
  6
CONTINUOUS
 10
2149.832547
 20
5621.2544549999993
 30
0.0
 11
2149.832547
 21
5707.2544550000002
 31
0.0
  0
LINE
  5
7AD3
  8
1
  6
CONTINUOUS
 10
2428.832547
 20
5517.2544549999993
 30
0.0
 11
2428.832547
 21
5621.2544549999993
 31
0.0
  0
LINE
  5
7AD4
  8
1
  6
CONTINUOUS
 10
1604.832547
 20
6377.2544549999993
 30
0.0
 11
1604.832547
 21
6429.2544549999984
 31
0.0
  0
LINE
  5
7ADB
  8
1
  6
CONTINUOUS
 10
3316.832547
 20
5665.2544549999993
 30
0.0
 11
3316.832547
 21
6150.2544549999993
 31
0.0
  0
LINE
  5
7ADC
  8
1
  6
CONTINUOUS
 10
2992.832547
 20
5665.2544549999993
 30
0.0
 11
2992.832547
 21
6150.2544549999993
 31
0.0
  0
LINE
  5
7ADD
  8
1
  6
CONTINUOUS
 10
2919.9998179999989
 20
5707.2544550000002
 30
0.0
 11
2919.9998179999989
 21
6377.2544549999993
 31
0.0
  0
LINE
  5
7ADE
  8
1
  6
CONTINUOUS
 10
3354.832547
 20
5509.2544549999993
 30
0.0
 11
3354.832547
 21
6429.2544549999984
 31
0.0
  0
LINE
  5
7AFA
  8
1
  6
CONTINUOUS
 10
3334.8325469999991
 20
2349.1782320000002
 30
0.0
 11
3334.8325469999991
 21
2699.1782320000002
 31
0.0
  0
LINE
  5
7AFB
  8
2
  6
CENTER
 10
3154.832547
 20
2519.1782320000002
 30
0.0
 11
3154.832547
 21
2679.1782320000002
 31
0.0
  0
CIRCLE
  5
7AFC
  8
1
  6
CONTINUOUS
 10
3154.832547
 20
2599.1782320000002
 30
0.0
 40
75.0
  0
ARC
  5
7AFD
  8
1
  6
CONTINUOUS
 10
3154.832547
 20
2599.1782320000002
 30
0.0
 40
162.0
 50
324.972283
 51
215.02771699999991
  0
LINE
  5
7AFF
  8
1
  6
CONTINUOUS
 10
3022.1748809999999
 20
2506.194665
 30
0.0
 11
2967.332547
 21
2439.1782320000002
 31
0.0
  0
LINE
  5
7B00
  8
1
  6
CONTINUOUS
 10
2957.332547
 20
2389.1782320000002
 30
0.0
 11
2967.332547
 21
2439.1782320000002
 31
0.0
  0
LINE
  5
7B01
  8
1
  6
CONTINUOUS
 10
2957.332547
 20
2389.1782320000002
 30
0.0
 11
2957.332547
 21
2349.1782320000002
 31
0.0
  0
LINE
  5
7B02
  8
1
  6
CONTINUOUS
 10
3342.332547
 20
2439.1782320000002
 30
0.0
 11
3287.4902120000002
 21
2506.194665
 31
0.0
  0
LINE
  5
7B03
  8
1
  6
CONTINUOUS
 10
3342.332547
 20
2439.1782320000002
 30
0.0
 11
3352.332547
 21
2389.1782320000002
 31
0.0
  0
LINE
  5
7B04
  8
1
  6
CONTINUOUS
 10
3352.332547
 20
2389.1782320000002
 30
0.0
 11
3352.332547
 21
2349.1782320000002
 31
0.0
  0
LINE
  5
7B05
  8
1
  6
CONTINUOUS
 10
3354.832547
 20
2349.1782320000002
 30
0.0
 11
3354.832547
 21
2249.1782320000002
 31
0.0
  0
LINE
  5
7B0D
  8
2
  6
CENTER
 10
3234.8325469999991
 20
2599.1782320000002
 30
0.0
 11
3074.832547
 21
2599.1782320000002
 31
0.0
  0
LINE
  5
7B0E
  8
1
  6
CONTINUOUS
 10
3316.832547
 20
5665.2544549999993
 30
0.0
 11
2992.832547
 21
5665.2544549999993
 31
0.0
  0
LINE
  5
7B0F
  8
1
  6
CONTINUOUS
 10
3229.832547
 20
5517.2544549999993
 30
0.0
 11
3079.832547
 21
5517.2544549999993
 31
0.0
  0
LINE
  5
7B10
  8
1
  6
CONTINUOUS
 10
3229.832547
 20
5621.2544549999993
 30
0.0
 11
3079.832547
 21
5621.2544549999993
 31
0.0
  0
LINE
  5
7B11
  8
1
  6
CONTINUOUS
 10
3079.832547
 20
5517.2544549999993
 30
0.0
 11
3079.832547
 21
5621.2544549999993
 31
0.0
  0
LINE
  5
7B12
  8
1
  6
CONTINUOUS
 10
3334.8325469999991
 20
5484.2544549999993
 30
0.0
 11
3334.8325469999991
 21
5654.2544550000002
 31
0.0
  0
LINE
  5
7B13
  8
1
  6
CONTINUOUS
 10
3229.832547
 20
5517.2544549999993
 30
0.0
 11
3229.832547
 21
5621.2544549999993
 31
0.0
  0
LINE
  5
7B14
  8
1
  6
CONTINUOUS
 10
3175.832547
 20
5621.2544549999993
 30
0.0
 11
3175.832547
 21
5665.2544549999993
 31
0.0
  0
LINE
  5
7B15
  8
1
  6
CONTINUOUS
 10
3133.832547
 20
5621.2544549999993
 30
0.0
 11
3133.832547
 21
5665.2544549999993
 31
0.0
  0
LINE
  5
7B24
  8
1
  6
CONTINUOUS
 10
4502.1651009999996
 20
3897.1782320000002
 30
0.0
 11
4502.1651009999996
 21
2349.1782320000002
 31
0.0
  0
LINE
  5
7B25
  8
1
  6
CONTINUOUS
 10
5172.1651009999996
 20
3897.1782320000002
 30
0.0
 11
5172.1651009999996
 21
2349.1782320000002
 31
0.0
  0
LINE
  5
7B27
  8
1
  6
CONTINUOUS
 10
4227.1651009999987
 20
3519.1782320000002
 30
0.0
 11
4227.1651009999987
 21
2349.1782320000002
 31
0.0
  0
LINE
  5
7B28
  8
1
  6
CONTINUOUS
 10
4449.1651009999996
 20
3519.1782320000002
 30
0.0
 11
4449.1651009999996
 21
2349.1782320000002
 31
0.0
  0
LINE
  5
7B29
  8
1
  6
CONTINUOUS
 10
4312.1651009999987
 20
2674.1782320000002
 30
0.0
 11
4312.1651009999987
 21
2524.1782320000002
 31
0.0
  0
LINE
  5
7B2A
  8
1
  6
CONTINUOUS
 10
4416.1651009999987
 20
2674.1782320000002
 30
0.0
 11
4416.1651009999987
 21
2524.1782320000002
 31
0.0
  0
LINE
  5
7B2C
  8
1
  6
CONTINUOUS
 10
4304.1651009999987
 20
2249.1782320000002
 30
0.0
 11
5224.1651009999996
 21
2249.1782320000002
 31
0.0
  0
LINE
  5
7B2D
  8
1
  6
CONTINUOUS
 10
4304.1651009999987
 20
2349.1782320000002
 30
0.0
 11
5224.1651009999996
 21
2349.1782320000002
 31
0.0
  0
LINE
  5
7B2E
  8
1
  6
CONTINUOUS
 10
4227.1651009999987
 20
2349.1782320000002
 30
0.0
 11
4304.1651009999987
 21
2349.1782320000002
 31
0.0
  0
LINE
  5
7B2F
  8
1
  6
CONTINUOUS
 10
4304.1651009999987
 20
2349.1782320000002
 30
0.0
 11
4304.1651009999987
 21
2249.1782320000002
 31
0.0
  0
LINE
  5
7B30
  8
1
  6
CONTINUOUS
 10
4312.1651009999987
 20
2524.1782320000002
 30
0.0
 11
4416.1651009999987
 21
2524.1782320000002
 31
0.0
  0
LINE
  5
7B31
  8
1
  6
CONTINUOUS
 10
5224.1651009999996
 20
2349.1782320000002
 30
0.0
 11
5224.1651009999996
 21
2249.1782320000002
 31
0.0
  0
LINE
  5
7B39
  8
1
  6
CONTINUOUS
 10
4502.1651009999996
 20
3897.1782320000002
 30
0.0
 11
5172.1651009999996
 21
3897.1782320000002
 31
0.0
  0
LINE
  5
7B3A
  8
1
  6
CONTINUOUS
 10
4502.1651009999996
 20
2972.1782320000002
 30
0.0
 11
5172.1651009999996
 21
2972.1782320000002
 31
0.0
  0
LINE
  5
7B3B
  8
1
  6
CONTINUOUS
 10
4502.1651009999996
 20
2972.1782320000002
 30
0.0
 11
5172.1651009999996
 21
3897.1782320000002
 31
0.0
  0
LINE
  5
7B3C
  8
1
  6
CONTINUOUS
 10
4502.1651009999996
 20
3897.1782320000002
 30
0.0
 11
5172.1651009999996
 21
2972.1782320000002
 31
0.0
  0
LINE
  5
7B3D
  8
1
  6
CONTINUOUS
 10
4312.1651009999987
 20
3268.1782320000002
 30
0.0
 11
4312.1651009999987
 21
2760.1782320000002
 31
0.0
  0
LINE
  5
7B3E
  8
1
  6
CONTINUOUS
 10
4416.1651009999987
 20
3268.1782320000002
 30
0.0
 11
4416.1651009999987
 21
2760.1782320000002
 31
0.0
  0
LINE
  5
7B3F
  8
1
  6
CONTINUOUS
 10
4416.1651009999987
 20
3039.1782320000002
 30
0.0
 11
4502.1651009999996
 21
3039.1782320000002
 31
0.0
  0
LINE
  5
7B40
  8
1
  6
CONTINUOUS
 10
4416.1651009999987
 20
2989.1782320000002
 30
0.0
 11
4502.1651009999996
 21
2989.1782320000002
 31
0.0
  0
LINE
  5
7B41
  8
1
  6
CONTINUOUS
 10
4416.1651009999987
 20
2620.1782320000002
 30
0.0
 11
4502.1651009999996
 21
2620.1782320000002
 31
0.0
  0
LINE
  5
7B42
  8
1
  6
CONTINUOUS
 10
4416.1651009999987
 20
2578.1782320000002
 30
0.0
 11
4502.1651009999996
 21
2578.1782320000002
 31
0.0
  0
LINE
  5
7B43
  8
1
  6
CONTINUOUS
 10
4312.1651009999987
 20
2760.1782320000002
 30
0.0
 11
4416.1651009999987
 21
2760.1782320000002
 31
0.0
  0
LINE
  5
7B44
  8
1
  6
CONTINUOUS
 10
4312.1651009999987
 20
2674.1782320000002
 30
0.0
 11
4416.1651009999987
 21
2674.1782320000002
 31
0.0
  0
LINE
  5
7B45
  8
1
  6
CONTINUOUS
 10
4227.1651009999987
 20
3519.1782320000002
 30
0.0
 11
4449.1651009999996
 21
3519.1782320000002
 31
0.0
  0
LINE
  5
7B46
  8
1
  6
CONTINUOUS
 10
4312.1651009999987
 20
3268.1782320000002
 30
0.0
 11
4416.1651009999987
 21
3268.1782320000002
 31
0.0
  0
LINE
  5
7B49
  8
1
  6
CONTINUOUS
 10
3316.832547
 20
6150.2544549999993
 30
0.0
 11
2992.832547
 21
6150.2544549999993
 31
0.0
  0
LINE
  5
7B4C
  8
2
  6
CENTER
 10
3468.210529
 20
6042.2544550000002
 30
0.0
 11
1405.3512920000001
 21
6042.2544550000002
 31
0.0
  0
LINE
  5
7B4D
  8
2
  6
CENTER
 10
4837.1651009999996
 20
4070.5501749999999
 30
0.0
 11
4837.1651009999996
 21
2035.798892
 31
0.0
  0
LINE
  5
7B4E
  8
2
  6
CENTER
 10
2174.832547
 20
5389.1563459999998
 30
0.0
 11
2174.832547
 21
6558.8040499999997
 31
0.0
  0
LINE
  5
7B4F
  8
2
  6
CENTER
 10
3272.2310309999998
 20
3014.1782320000002
 30
0.0
 11
1441.7043619999999
 21
3014.1782320000002
 31
0.0
  0
LINE
  5
7B50
  8
4
  6
CONTINUOUS
 10
5550.0
 20
1500.0
 30
0.0
 11
5550.0
 21
900.0
 31
0.0
  0
LINE
  5
7B51
  8
4
  6
CONTINUOUS
 10
3450.0
 20
1500.0
 30
0.0
 11
3450.0
 21
900.0
 31
0.0
  0
LINE
  5
7B52
  8
4
  6
CONTINUOUS
 10
1950.0
 20
1500.0
 30
0.0
 11
1950.0
 21
900.0
 31
0.0
  0
LINE
  5
7B55
  8
4
  6
CONTINUOUS
 10
1950.0
 20
900.0
 30
0.0
 11
5550.0
 21
900.0
 31
0.0
  0
LINE
  5
7B56
  8
4
  6
CONTINUOUS
 10
1950.0
 20
1200.0
 30
0.0
 11
5550.0
 21
1200.0
 31
0.0
  0
TEXT
  5
7B57
  8
4
  6
CONTINUOUS
 10
2065.5062429999989
 20
1294.6290779999999
 30
0.0
 40
150.0
  1
機器名称
  0
TEXT
  5
7B58
  8
4
  6
CONTINUOUS
 10
2058.7743179999989
 20
964.9354699999999
 30
0.0
 40
150.0
  1
機器型番
  0
TEXT
  5
7B59
  8
4
  6
CONTINUOUS
 10
3533.0362359999999
 20
1267.7153069999999
 30
0.0
 40
150.0
  1
ミツヤ多翼送風機
  0
TEXT
  5
7B5A
  8
4
  6
CONTINUOUS
 10
3559.9634869999991
 20
951.47875299999987
 30
0.0
 40
150.0
  1
MFE#5 1/2-4
  0
TEXT
  5
7B5C
  8
4
  6
CONTINUOUS
 10
2714.3572960000001
 20
7150.2865239999992
 30
0.0
 40
162.0
  1
床置ベット
  0
TEXT
  5
7B5D
  8
4
  6
CONTINUOUS
 10
948.50278000000014
 20
7601.6429289999996
 30
0.0
 40
216.0
  1
ベルト駆動式片吸込両持排煙ファン
  0
LINE
  5
7B5E
  8
4
  6
CONTINUOUS
 10
750.0
 20
7408.2262629999996
 30
0.0
 11
5550.0
 21
7408.2262629999996
 31
0.0
  0
LINE
  5
7B5F
  8
4
  6
CONTINUOUS
 10
750.0
 20
8008.2262629999996
 30
0.0
 11
5550.0
 21
8008.2262629999996
 31
0.0
  0
LINE
  5
7B60
  8
4
  6
CONTINUOUS
 10
1950.0
 20
1500.0
 30
0.0
 11
5550.0
 21
1500.0
 31
0.0
  0
LINE
  5
7B61
  8
4
  6
CONTINUOUS
 10
750.0
 20
8008.2262629999996
 30
0.0
 11
750.0
 21
7408.2262629999996
 31
0.0
  0
TEXT
  5
7B62
  8
4
  6
CONTINUOUS
 10
1103.2630690000001
 20
7146.9584329999998
 30
0.0
 40
162.0
  1
左回転左横向
  0
TEXT
  5
7B63
  8
4
  6
CONTINUOUS
 10
4406.9086779999989
 20
8118.1832439999989
 30
0.0
 40
168.0
  1
No.
  0
TEXT
  5
7B64
  8
4
  6
CONTINUOUS
 10
3933.8881879999999
 20
7150.2865239999992
 30
0.0
 40
162.0
  1
縮尺：1/30
  0
LINE
  5
7B65
  8
4
  6
CONTINUOUS
 10
5550.0
 20
8008.2262629999996
 30
0.0
 11
5550.0
 21
7408.2262629999996
 31
0.0
  0
LINE
  5
7B67
  8
4
  6
CONTINUOUS
 10
4321.8522670000002
 20
8043.7907490000007
 30
0.0
 11
4321.8522670000002
 21
8359.9567849999985
 31
0.0
  0
LINE
  5
7B68
  8
4
  6
CONTINUOUS
 10
4321.8522670000002
 20
8359.9567849999985
 30
0.0
 11
5550.0
 21
8359.9567849999985
 31
0.0
  0
LINE
  5
7B69
  8
4
  6
CONTINUOUS
 10
5550.0
 20
8359.9567849999985
 30
0.0
 11
5550.0
 21
8043.7907490000007
 31
0.0
  0
LINE
  5
7B6A
  8
4
  6
CONTINUOUS
 10
5550.0
 20
8043.7907490000007
 30
0.0
 11
4321.8522670000002
 21
8043.7907490000007
 31
0.0
  0
DIMENSION
  5
7B82
  8
3
  6
CONTINUOUS
  2
*D1
 10
1351.2373729999999
 20
2972.1782320000002
 30
0.0
 11
1351.2373729999999
 21
3402.0291269999998
 31
0.0
 70
   128
 13
1519.832547
 23
3897.1782320000002
 33
0.0
 14
1519.832547
 24
2972.1782320000002
 34
0.0
 50
90.0
1001
ACAD
1000
DSTYLE
1002
{
1070
   287
1070
     3
1070
   287
1070
     3
1070
    40
1040
30.0
1070
   143
1040
0.039
1070
   172
1070
     1
1070
   271
1070
     0
1070
   279
1070
     0
1070
   288
1070
     1
1002
}
  0
DIMENSION
  5
7B8F
  8
3
  6
CONTINUOUS
  2
*D2
 10
1170.2573970000001
 20
3014.1782320000002
 30
0.0
 11
1170.2573970000001
 21
3402.0291269999998
 31
0.0
 70
   128
 13
1519.832547
 23
3897.1782320000002
 33
0.0
 14
1441.7043619999999
 24
3014.1782320000002
 34
0.0
 50
90.0
1001
ACAD
1000
DSTYLE
1002
{
1070
   287
1070
     3
1070
   287
1070
     3
1070
    40
1040
30.0
1070
   143
1040
0.039
1070
   172
1070
     1
1070
   271
1070
     0
1070
   279
1070
     0
1070
   288
1070
     1
1002
}
  0
DIMENSION
  5
7B9B
  8
3
  6
CONTINUOUS
  2
*D3
 10
1170.2573970000001
 20
2249.1782320000002
 30
0.0
 11
1095.2573969999989
 21
2631.6782320000002
 31
0.0
 70
     0
 13
1441.7043619999999
 23
3014.1782320000002
 33
0.0
 14
1604.832547
 24
2249.1782320000002
 34
0.0
 50
90.0
1001
ACAD
1000
DSTYLE
1002
{
1070
   287
1070
     4
1070
   287
1070
     4
1070
    40
1040
30.0
1070
    75
1070
     1
1070
   143
1040
0.039
1070
   172
1070
     1
1070
   271
1070
     0
1070
   279
1070
     1
1070
   288
1070
     1
1002
}
  0
DIMENSION
  5
7BA8
  8
3
  6
CONTINUOUS
  2
*D4
 10
959.11410400000011
 20
2249.1782320000002
 30
0.0
 11
959.11410399999977
 21
3130.7577679999999
 31
0.0
 70
   128
 13
1519.832547
 23
3939.6782320000002
 33
0.0
 14
1604.832547
 24
2249.1782320000002
 34
0.0
 50
90.0
1001
ACAD
1000
DSTYLE
1002
{
1070
   287
1070
     3
1070
   287
1070
     3
1070
    40
1040
30.0
1070
   143
1040
0.039
1070
   172
1070
     1
1070
   271
1070
     0
1070
   279
1070
     0
1070
   288
1070
     1
1002
}
  0
DIMENSION
  5
7BB5
  8
3
  6
CONTINUOUS
  2
*D5
 10
2174.832547
 20
1955.303848999999
 30
0.0
 11
1888.144575
 21
1955.303848999999
 31
0.0
 70
   128
 13
1604.832547
 23
2249.1782320000002
 33
0.0
 14
2174.832547
 24
2090.137866
 34
0.0
1001
ACAD
1000
DSTYLE
1002
{
1070
   287
1070
     3
1070
   287
1070
     3
1070
    40
1040
30.0
1070
   143
1040
0.039
1070
   172
1070
     1
1070
   271
1070
     0
1070
   279
1070
     0
1070
   288
1070
     1
1002
}
  0
DIMENSION
  5
7BC1
  8
3
  6
CONTINUOUS
  2
*D6
 10
3354.832547
 20
1955.303848999999
 30
0.0
 11
2764.832547
 21
2030.3038489999999
 31
0.0
 70
     0
 13
2174.832547
 23
2090.137866
 33
0.0
 14
3354.832547
 24
2249.1782320000002
 34
0.0
1001
ACAD
1000
DSTYLE
1002
{
1070
   287
1070
     4
1070
   287
1070
     4
1070
    40
1040
30.0
1070
    75
1070
     1
1070
   143
1040
0.039
1070
   172
1070
     1
1070
   271
1070
     0
1070
   279
1070
     1
1070
   288
1070
     1
1002
}
  0
DIMENSION
  5
7BCE
  8
3
  6
CONTINUOUS
  2
*D7
 10
2174.832547
 20
4107.33464
 30
0.0
 11
1857.9812569999999
 21
4107.33464
 31
0.0
 70
   128
 13
1519.832547
 23
3939.6782320000002
 33
0.0
 14
2174.832547
 24
4016.961303
 34
0.0
1001
ACAD
1000
DSTYLE
1002
{
1070
   287
1070
     3
1070
   287
1070
     3
1070
    40
1040
30.0
1070
   143
1040
0.039
1070
   172
1070
     1
1070
   271
1070
     0
1070
   279
1070
     0
1070
   288
1070
     1
1002
}
  0
DIMENSION
  5
7BDB
  8
3
  6
CONTINUOUS
  2
*D8
 10
4502.1651009999996
 20
4059.1086140000002
 30
0.0
 11
4833.5928400000003
 21
4059.1086140000002
 31
0.0
 70
   128
 13
5172.1651009999996
 23
3897.1782320000002
 33
0.0
 14
4502.1651009999996
 24
3897.1782320000002
 34
0.0
1001
ACAD
1000
DSTYLE
1002
{
1070
   287
1070
     3
1070
   287
1070
     3
1070
    40
1040
30.0
1070
   143
1040
0.039
1070
   172
1070
     1
1070
   271
1070
     0
1070
   279
1070
     0
1070
   288
1070
     1
1002
}
  0
LINE
  5
7BDD
  8
1
  6
CONTINUOUS
 10
5176.1651009999987
 20
3489.1782320000002
 30
0.0
 11
5176.1651009999987
 21
2539.1782320000002
 31
0.0
  0
DIMENSION
  5
7BEC
  8
3
  6
CONTINUOUS
  2
*D9
 10
5394.6307029999998
 20
2539.1782320000002
 30
0.0
 11
5394.6307029999998
 21
3022.2492239999988
 31
0.0
 70
   128
 13
5176.1651009999987
 23
3489.1782320000002
 33
0.0
 14
5176.1651009999987
 24
2539.1782320000002
 34
0.0
 50
90.0
1001
ACAD
1000
DSTYLE
1002
{
1070
   287
1070
     3
1070
   287
1070
     3
1070
     3
1000
φ<>
1070
    40
1040
30.0
1070
   143
1040
0.039
1070
   172
1070
     1
1070
   271
1070
     0
1070
   279
1070
     0
1070
   288
1070
     1
1002
}
  0
DIMENSION
  5
7BFB
  8
3
  6
CONTINUOUS
  2
*D10
 10
4837.1651009999996
 20
4269.6149779997713
 30
0.0
 11
5006.6651009999987
 21
4347.0601339023924
 31
0.0
 70
   128
 13
5176.1651009999987
 23
3489.1782320000002
 33
0.0
 14
4837.1651009999996
 24
4186.6324649999988
 34
0.0
1001
ACAD
1000
DSTYLE
1002
{
1070
   288
1070
     1
1070
   172
1070
     1
1070
    40
1040
30.0
1070
   271
1070
     0
1070
   143
1040
0.039
1002
}
  0
DIMENSION
  5
7C13
  8
3
  6
CONTINUOUS
  2
*D11
 10
4227.1651009999987
 20
4269.6149779997713
 30
0.0
 11
4532.1651009999987
 21
4419.6149779997713
 31
0.0
 70
     0
  1
MAX\P640
 13
4837.1651009999996
 23
4186.6324649999988
 33
0.0
 14
4227.1651009999987
 24
3519.1782320000002
 34
0.0
1001
ACAD
1000
DSTYLE
1002
{
1070
   287
1070
     4
1070
   287
1070
     4
1070
    40
1040
30.0
1070
    75
1070
     1
1070
   143
1040
0.039
1070
   172
1070
     1
1070
   271
1070
     0
1070
   279
1070
     1
1070
   288
1070
     1
1002
}
  0
DIMENSION
  5
7C2A
  8
3
  6
CONTINUOUS
  2
*D12
 10
4837.1651009999996
 20
1965.663601
 30
0.0
 11
4568.1555680000001
 21
1965.663601
 31
0.0
 70
   128
 13
4304.1651009999987
 23
2249.1782320000002
 33
0.0
 14
4837.1651009999996
 24
2035.798892
 34
0.0
1001
ACAD
1000
DSTYLE
1002
{
1070
   287
1070
     3
1070
   287
1070
     3
1070
    40
1040
30.0
1070
   143
1040
0.039
1070
   172
1070
     1
1070
   271
1070
     0
1070
   279
1070
     0
1070
   288
1070
     1
1002
}
  0
DIMENSION
  5
7C38
  8
3
  6
CONTINUOUS
  2
*D13
 10
5224.1651009999996
 20
1965.663601
 30
0.0
 11
5040.8359999999993
 21
1965.4467480000001
 31
0.0
 70
   128
 13
4837.1651009999996
 23
2035.798892
 33
0.0
 14
5224.1651009999996
 24
2249.1782320000002
 34
0.0
1001
ACAD
1000
DSTYLE
1002
{
1070
   287
1070
     4
1070
   287
1070
     4
1070
    40
1040
30.0
1070
    75
1070
     1
1070
   143
1040
0.039
1070
   172
1070
     1
1070
   271
1070
     0
1070
   279
1070
     1
1070
   288
1070
     1
1002
}
  0
DIMENSION
  5
7C44
  8
3
  6
CONTINUOUS
  2
*D14
 10
2917.832547
 20
4107.33464
 30
0.0
 11
2546.332547
 21
4182.3346399999991
 31
0.0
 70
     0
 13
2174.832547
 23
4016.961303
 33
0.0
 14
2917.832547
 24
3014.1782320000002
 34
0.0
1001
ACAD
1000
DSTYLE
1002
{
1070
   287
1070
     4
1070
   287
1070
     4
1070
    40
1040
30.0
1070
    75
1070
     1
1070
   143
1040
0.039
1070
   172
1070
     1
1070
   271
1070
     0
1070
   279
1070
     1
1070
   288
1070
     1
1002
}
  0
DIMENSION
  5
7C51
  8
3
  6
CONTINUOUS
  2
*D15
 10
3354.832547
 20
6608.6885670000001
 30
0.0
 11
2467.2804759999999
 21
6608.6885670000001
 31
0.0
 70
   128
 13
1604.832547
 23
6429.2544549999984
 33
0.0
 14
3354.832547
 24
6429.2544549999984
 34
0.0
1001
ACAD
1000
DSTYLE
1002
{
1070
   287
1070
     3
1070
   287
1070
     3
1070
    40
1040
30.0
1070
   143
1040
0.039
1070
   172
1070
     1
1070
   271
1070
     0
1070
   279
1070
     0
1070
   288
1070
     1
1002
}
  0
DIMENSION
  5
7C5E
  8
3
  6
CONTINUOUS
  2
*D16
 10
3613.4868970000002
 20
5509.2544549999993
 30
0.0
 11
3613.4868970000002
 21
5969.6938170000003
 31
0.0
 70
   128
 13
3354.832547
 23
6429.2544549999984
 33
0.0
 14
3354.832547
 24
5509.2544549999993
 34
0.0
 50
90.0
1001
ACAD
1000
DSTYLE
1002
{
1070
   287
1070
     3
1070
   287
1070
     3
1070
    40
1040
30.0
1070
   143
1040
0.039
1070
   172
1070
     1
1070
   271
1070
     0
1070
   279
1070
     0
1070
   288
1070
     1
1002
}
  0
DIMENSION
  5
7CED
  8
3
  2
*D17
 10
3354.832547
 20
4281.3390327029701
 30
0.0
 11
2369.8944664581431
 21
4281.3390327029701
 31
0.0
 70
   128
 13
1519.832547
 23
3939.6782320000002
 33
0.0
 14
3354.832547
 24
2349.1782320000002
 34
0.0
1001
ACAD
1000
DSTYLE
1002
{
1070
   287
1070
     3
1070
   287
1070
     3
1070
    40
1040
30.0
1070
   143
1040
0.039
1070
   172
1070
     1
1070
   271
1070
     0
1070
   279
1070
     0
1070
   288
1070
     1
1002
}
  0
LINE
  5
7E29
  8
1
  6
CONTINUOUS
 10
2734.8325469999991
 20
3469.1782320000002
 30
0.0
 11
1614.832547
 21
3469.1782320000002
 31
0.0
  0
LINE
  5
7E2A
  8
1
 10
1614.832547
 20
2349.1782320000002
 30
0.0
 11
1614.832547
 21
3469.1782320000002
 31
0.0
  0
LINE
  5
7E2B
  8
1
 10
2734.832547
 20
2349.1782320000002
 30
0.0
 11
2734.8325469999991
 21
3469.1782320000002
 31
0.0
  0
ENDSEC
  0
EOF
