  0
SECTION
  2
HEADER
  9
$ACADVER
  1
AC1009
  9
$INSBASE
 10
0.0
 20
0.0
 30
0.0
  9
$EXTMIN
 10
750.0
 20
900.0
 30
0.0
  9
$EXTMAX
 10
5550.0
 20
8359.9567849999985
 30
0.0
  9
$LIMMIN
 10
0.0
 20
0.0
  9
$LIMMAX
 10
297.0
 20
210.0
  9
$ORTHOMODE
 70
     0
  9
$REGENMODE
 70
     1
  9
$FILLMODE
 70
     0
  9
$QTEXTMODE
 70
     0
  9
$MIRRTEXT
 70
     1
  9
$DRAGMODE
 70
     2
  9
$LTSCALE
 40
100.0
  9
$OSMODE
 70
    37
  9
$ATTMODE
 70
     1
  9
$TEXTSIZE
 40
180.0
  9
$TRACEWID
 40
0.05
  9
$TEXTSTYLE
  7
STANDARD
  9
$CLAYER
  8
3
  9
$CELTYPE
  6
BYLAYER
  9
$CECOLOR
 62
   256
  9
$DIMSCALE
 40
30.0
  9
$DIMASZ
 40
2.0
  9
$DIMEXO
 40
0.5
  9
$DIMDLI
 40
10.0
  9
$DIMRND
 40
0.0
  9
$DIMDLE
 40
0.0
  9
$DIMEXE
 40
1.0
  9
$DIMTP
 40
1.0
  9
$DIMTM
 40
1.0
  9
$DIMTXT
 40
3.0
  9
$DIMCEN
 40
0.0
  9
$DIMTSZ
 40
0.0
  9
$DIMTOL
 70
     0
  9
$DIMLIM
 70
     0
  9
$DIMTIH
 70
     0
  9
$DIMTOH
 70
     0
  9
$DIMSE1
 70
     0
  9
$DIMSE2
 70
     0
  9
$DIMTAD
 70
     1
  9
$DIMZIN
 70
     8
  9
$DIMBLK
  1

  9
$DIMASO
 70
     1
  9
$DIMSHO
 70
     1
  9
$DIMPOST
  1

  9
$DIMAPOST
  1

  9
$DIMALT
 70
     0
  9
$DIMALTD
 70
     2
  9
$DIMALTF
 40
0.039
  9
$DIMLFAC
 40
1.0
  9
$DIMTOFL
 70
     1
  9
$DIMTVP
 40
0.0
  9
$DIMTIX
 70
     0
  9
$DIMSOXD
 70
     0
  9
$DIMSAH
 70
     1
  9
$DIMBLK1
  1
OPEN
  9
$DIMBLK2
  1
OPEN
  9
$DIMSTYLE
  2
IGA
  9
$DIMCLRD
 70
     0
  9
$DIMCLRE
 70
     0
  9
$DIMCLRT
 70
     0
  9
$DIMTFAC
 40
10.0
  9
$DIMGAP
 40
1.0
  9
$LUNITS
 70
     2
  9
$LUPREC
 70
     3
  9
$SKETCHINC
 40
0.1
  9
$FILLETRAD
 40
50.0
  9
$AUNITS
 70
     0
  9
$AUPREC
 70
     0
  9
$MENU
  1
acad
  9
$ELEVATION
 40
0.0
  9
$PELEVATION
 40
0.0
  9
$THICKNESS
 40
0.0
  9
$LIMCHECK
 70
     0
  9
$BLIPMODE
 70
     0
  9
$CHAMFERA
 40
0.5
  9
$CHAMFERB
 40
0.5
  9
$SKPOLY
 70
     0
  9
$TDCREATE
 40
2450746.4846208328
  9
$TDUPDATE
 40
2454953.8405158101
  9
$TDINDWG
 40
0.0084282292
  9
$TDUSRTIMER
 40
0.0084282292
  9
$USRTIMER
 70
     1
  9
$ANGBASE
 50
0.0
  9
$ANGDIR
 70
     0
  9
$PDMODE
 70
     0
  9
$PDSIZE
 40
0.0
  9
$PLINEWID
 40
0.0
  9
$COORDS
 70
     1
  9
$SPLFRAME
 70
     0
  9
$SPLINETYPE
 70
     6
  9
$SPLINESEGS
 70
     8
  9
$ATTDIA
 70
     0
  9
$ATTREQ
 70
     1
  9
$HANDLING
 70
 10241
  9
$HANDSEED
  5
7E86
  9
$SURFTAB1
 70
     6
  9
$SURFTAB2
 70
     6
  9
$SURFTYPE
 70
     6
  9
$SURFU
 70
     6
  9
$SURFV
 70
     6
  9
$UCSNAME
  2

  9
$UCSORG
 10
0.0
 20
0.0
 30
0.0
  9
$UCSXDIR
 10
1.0
 20
0.0
 30
0.0
  9
$UCSYDIR
 10
0.0
 20
1.0
 30
0.0
  9
$PUCSNAME
  2

  9
$PUCSORG
 10
0.0
 20
0.0
 30
0.0
  9
$PUCSXDIR
 10
1.0
 20
0.0
 30
0.0
  9
$PUCSYDIR
 10
0.0
 20
1.0
 30
0.0
  9
$USERI1
 70
     0
  9
$USERI2
 70
     0
  9
$USERI3
 70
     0
  9
$USERI4
 70
     0
  9
$USERI5
 70
     0
  9
$USERR1
 40
0.0
  9
$USERR2
 40
0.0
  9
$USERR3
 40
0.0
  9
$USERR4
 40
0.0
  9
$USERR5
 40
0.0
  9
$WORLDVIEW
 70
     1
  9
$SHADEDGE
 70
     3
  9
$SHADEDIF
 70
    70
  9
$TILEMODE
 70
     1
  9
$MAXACTVP
 70
    16
  9
$PLIMCHECK
 70
     0
  9
$PEXTMIN
 10
1.0000000000000000E+020
 20
1.0000000000000000E+020
 30
1.0000000000000000E+020
  9
$PEXTMAX
 10
-1.0000000000000000E+020
 20
-1.0000000000000000E+020
 30
-1.0000000000000000E+020
  9
$PLIMMIN
 10
0.0
 20
0.0
  9
$PLIMMAX
 10
12.0
 20
9.0
  9
$UNITMODE
 70
     0
  9
$VISRETAIN
 70
     0
  9
$PLINEGEN
 70
     0
  9
$PSLTSCALE
 70
     1
  0
ENDSEC
  0
SECTION
  2
TABLES
  0
TABLE
  2
VPORT
 70
     2
  0
VPORT
  2
*ACTIVE
 70
     0
 10
0.0
 20
0.0
 11
1.0
 21
1.0
 12
3485.1821834188599
 22
4462.5305138859758
 13
0.0
 23
0.0
 14
10.0
 24
10.0
 15
10.0
 25
10.0
 16
0.0
 26
0.0
 36
1.0
 17
0.0
 27
0.0
 37
0.0
 40
9067.249541644509
 41
1.5051150895140659
 42
50.0
 43
0.0
 44
0.0
 50
0.0
 51
0.0
 71
     0
 72
   100
 73
     1
 74
     0
 75
     0
 76
     0
 77
     0
 78
     0
  0
ENDTAB
  0
TABLE
  2
LTYPE
 70
     2
  0
LTYPE
  2
CONTINUOUS
 70
     0
  3
Solid line
 72
    65
 73
     0
 40
0.0
  0
LTYPE
  2
CENTER
 70
     0
  3
____ _ ____ _ ____ _ ____ _ ____ _ ____ _ ____ 
 72
    65
 73
     4
 40
2.0
 49
1.25
 49
-0.25
 49
0.25
 49
-0.25
  0
ENDTAB
  0
TABLE
  2
LAYER
 70
     6
  0
LAYER
  2
0
 70
     0
 62
     7
  6
CONTINUOUS
  0
LAYER
  2
3
 70
     0
 62
     2
  6
CONTINUOUS
  0
LAYER
  2
2
 70
     0
 62
     3
  6
CENTER
  0
LAYER
  2
1
 70
     0
 62
     4
  6
CONTINUOUS
  0
LAYER
  2
4
 70
     0
 62
     7
  6
CONTINUOUS
  0
LAYER
  2
DEFPOINTS
 70
     0
 62
     7
  6
CONTINUOUS
  0
ENDTAB
  0
TABLE
  2
STYLE
 70
     1
  0
STYLE
  2
STANDARD
 70
     0
 40
0.0
 41
1.0
 50
0.0
 71
     0
 42
180.0
  3
simplex.shx
  4
extfont.shx
  0
ENDTAB
  0
TABLE
  2
VIEW
 70
     0
  0
ENDTAB
  0
TABLE
  2
UCS
 70
     0
  0
ENDTAB
  0
TABLE
  2
APPID
 70
     1
  0
APPID
  2
ACAD
 70
     0
  0
ENDTAB
  0
TABLE
  2
DIMSTYLE
 70
     1
  0
DIMSTYLE
  2
IGA
 70
     0
  3

  4

  5

  6
OPEN
  7
OPEN
 40
2.0
 41
2.0
 42
0.5
 43
10.0
 44
1.0
 45
0.0
 46
0.0
 47
1.0
 48
1.0
140
3.0
141
0.0
142
0.0
143
0.03937
144
1.0
145
0.0
146
10.0
147
1.0
 71
     0
 72
     0
 73
     0
 74
     0
 75
     0
 76
     0
 77
     1
 78
     8
170
     0
171
     2
172
     0
173
     1
174
     0
175
     0
176
     0
177
     0
178
     0
  0
ENDTAB
  0
ENDSEC
  0
SECTION
  2
BLOCKS
  0
BLOCK
  8
0
  2
$MODEL_SPACE
 70
     0
 10
0.0
 20
0.0
 30
0.0
  3
$MODEL_SPACE
  1

  0
ENDBLK
  5
1B
  8
0
  0
BLOCK
 67
     1
  8
0
  2
$PAPER_SPACE
 70
     0
 10
0.0
 20
0.0
 30
0.0
  3
$PAPER_SPACE
  1

  0
ENDBLK
  5
18
 67
     1
  8
0
  0
BLOCK
  8
0
  2
_OPEN
 70
     0
 10
0.0
 20
0.0
 30
0.0
  3
_OPEN
  1

  0
LINE
  5
7AF4
  8
0
  6
BYBLOCK
 62
     0
 10
-1.0
 20
0.166667
 30
0.0
 11
0.0
 21
0.0
 31
0.0
  0
LINE
  5
7AF5
  8
0
  6
BYBLOCK
 62
     0
 10
0.0
 20
0.0
 30
0.0
 11
-1.0
 21
-0.166667
 31
0.0
  0
LINE
  5
7AF6
  8
0
  6
BYBLOCK
 62
     0
 10
0.0
 20
0.0
 30
0.0
 11
-1.0
 21
0.0
 31
0.0
  0
ENDBLK
  5
7AF7
  8
0
  0
BLOCK
  8
0
  2
*D1
 70
     1
 10
0.0
 20
0.0
 30
0.0
  3
*D1
  1

  0
LINE
  5
7DE6
  8
3
  6
CONTINUOUS
 62
     0
 10
1406.028102999999
 20
3733.8512989999999
 30
0.0
 11
1406.028102999999
 21
3964.9448090000001
 31
0.0
  0
LINE
  5
7DE7
  8
3
  6
CONTINUOUS
 62
     0
 10
2231.0281030000001
 20
3733.8512989999999
 30
0.0
 11
2231.0281030000001
 21
3964.9448090000001
 31
0.0
  0
LINE
  5
7DE8
  8
3
  6
CONTINUOUS
 62
     0
 10
1466.0281030000001
 20
3934.9448090000001
 30
0.0
 11
2171.0281030000001
 21
3934.9448090000001
 31
0.0
  0
INSERT
  5
7DE9
  8
3
  6
CONTINUOUS
 62
     0
  2
_OPEN
 10
1406.028102999999
 20
3934.9448090000001
 30
0.0
 41
60.0
 42
60.0
 43
60.0
 50
180.0
  0
INSERT
  5
7DEA
  8
3
  6
CONTINUOUS
 62
     0
  2
_OPEN
 10
2231.0281030000001
 20
3934.9448090000001
 30
0.0
 41
60.0
 42
60.0
 43
60.0
  0
TEXT
  8
3
  40
90
  5
7E75
  62
0
  72
0
  71
0
 10
1607.22
 20
3850.64
 30
0.000000
  1
825
  0
POINT
  5
7DEC
  8
DEFPOINTS
  6
CONTINUOUS
 62
     0
 10
1406.028102999999
 20
3718.8512989999999
 30
0.0
  0
POINT
  5
7DED
  8
DEFPOINTS
  6
CONTINUOUS
 62
     0
 10
2231.0281030000001
 20
3718.8512989999999
 30
0.0
  0
POINT
  5
7DEE
  8
DEFPOINTS
  6
CONTINUOUS
 62
     0
 10
2231.0281030000001
 20
3934.9448090000001
 30
0.0
  0
ENDBLK
  5
7B04
  8
0
  0
BLOCK
  8
0
  2
*D2
 70
     1
 10
0.0
 20
0.0
 30
0.0
  3
*D2
  1

  0
LINE
  5
7DEF
  8
3
  6
CONTINUOUS
 62
     0
 10
1406.028102999999
 20
3733.8512989999999
 30
0.0
 11
1406.028102999999
 21
4152.7425800000001
 31
0.0
  0
LINE
  5
7DF0
  8
3
  6
CONTINUOUS
 62
     0
 10
2193.0281030000001
 20
3948.4937960000002
 30
0.0
 11
2193.0281030000001
 21
4152.7425800000001
 31
0.0
  0
LINE
  5
7DF1
  8
3
  6
CONTINUOUS
 62
     0
 10
1466.0281030000001
 20
4122.7425799999992
 30
0.0
 11
2133.0281030000001
 21
4122.7425799999992
 31
0.0
  0
INSERT
  5
7DF2
  8
3
  6
CONTINUOUS
 62
     0
  2
_OPEN
 10
1406.028102999999
 20
4122.7425799999992
 30
0.0
 41
60.0
 42
60.0
 43
60.0
 50
180.0
  0
INSERT
  5
7DF3
  8
3
  6
CONTINUOUS
 62
     0
  2
_OPEN
 10
2193.0281030000001
 20
4122.7425799999992
 30
0.0
 41
60.0
 42
60.0
 43
60.0
  0
TEXT
  8
3
  40
90
  5
7E76
  62
0
  72
0
  71
0
 10
1589.60
 20
4038.44
 30
0.000000
  1
787
  0
POINT
  5
7DF5
  8
DEFPOINTS
  6
CONTINUOUS
 62
     0
 10
1406.028102999999
 20
3718.8512989999999
 30
0.0
  0
POINT
  5
7DF6
  8
DEFPOINTS
  6
CONTINUOUS
 62
     0
 10
2193.0281030000001
 20
3933.4937960000002
 30
0.0
  0
POINT
  5
7DF7
  8
DEFPOINTS
  6
CONTINUOUS
 62
     0
 10
2193.0281030000001
 20
4122.7425799999992
 30
0.0
  0
ENDBLK
  5
7B11
  8
0
  0
BLOCK
  8
0
  2
*D3
 70
     1
 10
0.0
 20
0.0
 30
0.0
  3
*D3
  1

  0
LINE
  5
7DF8
  8
3
  6
CONTINUOUS
 62
     0
 10
2288.5281030000001
 20
3718.8512989999999
 30
0.0
 11
3015.3068220000009
 21
3718.8512989999999
 31
0.0
  0
LINE
  5
7DF9
  8
3
  6
CONTINUOUS
 62
     0
 10
2938.4871280000002
 20
3123.8512989999999
 30
0.0
 11
3015.3068220000009
 21
3123.8512989999999
 31
0.0
  0
LINE
  5
7DFA
  8
3
  6
CONTINUOUS
 62
     0
 10
2985.3068220000009
 20
3658.8512989999999
 30
0.0
 11
2985.3068220000009
 21
3183.8512989999999
 31
0.0
  0
INSERT
  5
7DFB
  8
3
  6
CONTINUOUS
 62
     0
  2
_OPEN
 10
2985.3068220000009
 20
3718.8512989999999
 30
0.0
 41
60.0
 42
60.0
 43
60.0
 50
90.0
  0
INSERT
  5
7DFC
  8
3
  6
CONTINUOUS
 62
     0
  2
_OPEN
 10
2985.3068220000009
 20
3123.8512989999999
 30
0.0
 41
60.0
 42
60.0
 43
60.0
 50
270.0
  0
TEXT
  8
3
  40
90
  5
7E77
  62
0
  72
0
  71
0
 10
2730.31
 20
3259.20
 30
0.000000
  1
595
  0
POINT
  5
7DFE
  8
DEFPOINTS
  6
CONTINUOUS
 62
     0
 10
2273.5281030000001
 20
3718.8512989999999
 30
0.0
  0
POINT
  5
7DFF
  8
DEFPOINTS
  6
CONTINUOUS
 62
     0
 10
2923.4871280000002
 20
3123.8512989999999
 30
0.0
  0
POINT
  5
7E00
  8
DEFPOINTS
  6
CONTINUOUS
 62
     0
 10
2985.3068220000009
 20
3123.8512989999999
 30
0.0
  0
ENDBLK
  5
7B2A
  8
0
  0
BLOCK
  8
0
  2
*D4
 70
     1
 10
0.0
 20
0.0
 30
0.0
  3
*D4
  1

  0
LINE
  5
7E01
  8
3
  6
CONTINUOUS
 62
     0
 10
2728.0281030000001
 20
2428.8512989999999
 30
0.0
 11
3015.306822
 21
2428.8512989999999
 31
0.0
  0
LINE
  5
7E02
  8
3
  6
CONTINUOUS
 62
     0
 10
2985.306822
 20
3063.851298999999
 30
0.0
 11
2985.306822
 21
2488.8512989999999
 31
0.0
  0
INSERT
  5
7E03
  8
3
  6
CONTINUOUS
 62
     0
  2
_OPEN
 10
2985.306822
 20
3123.8512989999999
 30
0.0
 41
60.0
 42
60.0
 43
60.0
 50
90.0
  0
INSERT
  5
7E04
  8
3
  6
CONTINUOUS
 62
     0
  2
_OPEN
 10
2985.306822
 20
2428.8512989999999
 30
0.0
 41
60.0
 42
60.0
 43
60.0
 50
270.0
  0
TEXT
  8
3
  40
90
  5
7E78
  62
0
  72
0
  71
0
 10
2730.31
 20
2617.05
 30
0.000000
  1
695
  0
POINT
  5
7E06
  8
DEFPOINTS
  6
CONTINUOUS
 62
     0
 10
2923.4871280000002
 20
3123.8512989999999
 30
0.0
  0
POINT
  5
7E07
  8
DEFPOINTS
  6
CONTINUOUS
 62
     0
 10
2713.0281030000001
 20
2428.8512989999999
 30
0.0
  0
POINT
  5
7E08
  8
DEFPOINTS
  6
CONTINUOUS
 62
     0
 10
2985.306822
 20
2428.8512989999999
 30
0.0
  0
ENDBLK
  5
7B36
  8
0
  0
BLOCK
  8
0
  2
*D5
 70
     1
 10
0.0
 20
0.0
 30
0.0
  3
*D5
  1

  0
LINE
  5
7E09
  8
3
  6
CONTINUOUS
 62
     0
 10
2728.0281030000001
 20
2428.8512989999999
 30
0.0
 11
3016.9317530000012
 21
2428.8512989999999
 31
0.0
  0
LINE
  5
7E0A
  8
3
  6
CONTINUOUS
 62
     0
 10
2728.0281030000001
 20
2303.8512989999999
 30
0.0
 11
3016.9317530000012
 21
2303.8512989999999
 31
0.0
  0
LINE
  5
7E0B
  8
3
  6
CONTINUOUS
 62
     0
 10
2986.9317529999998
 20
2488.8512989999999
 30
0.0
 11
2986.9317529999998
 21
2548.8512989999999
 31
0.0
  0
LINE
  5
7E0C
  8
3
  6
CONTINUOUS
 62
     0
 10
2986.9317529999998
 20
2243.8512989999999
 30
0.0
 11
2986.9317529999998
 21
1909.565584714285
 31
0.0
  0
LINE
  5
7E0D
  8
3
  6
CONTINUOUS
 62
     0
 10
2986.9317529999998
 20
2428.8512989999999
 30
0.0
 11
2986.9317529999998
 21
2303.8512989999999
 31
0.0
  0
INSERT
  5
7E0E
  8
3
  6
CONTINUOUS
 62
     0
  2
_OPEN
 10
2986.9317529999998
 20
2428.8512989999999
 30
0.0
 41
60.0
 42
60.0
 43
60.0
 50
270.0
  0
INSERT
  5
7E0F
  8
3
  6
CONTINUOUS
 62
     0
  2
_OPEN
 10
2986.9317529999998
 20
2303.8512989999999
 30
0.0
 41
60.0
 42
60.0
 43
60.0
 50
90.0
  0
TEXT
  8
3
  40
90
  5
7E79
  62
0
  72
0
  71
0
 10
2731.93
 20
1887.41
 30
0.000000
  1
125
  0
POINT
  5
7E11
  8
DEFPOINTS
  6
CONTINUOUS
 62
     0
 10
2713.0281030000001
 20
2428.8512989999999
 30
0.0
  0
POINT
  5
7E12
  8
DEFPOINTS
  6
CONTINUOUS
 62
     0
 10
2713.0281030000001
 20
2303.8512989999999
 30
0.0
  0
POINT
  5
7E13
  8
DEFPOINTS
  6
CONTINUOUS
 62
     0
 10
2986.9317529999998
 20
2303.8512989999999
 30
0.0
  0
ENDBLK
  5
7C82
  8
0
  0
BLOCK
  8
0
  2
*D6
 70
     1
 10
0.0
 20
0.0
 30
0.0
  3
*D6
  1

  0
LINE
  5
7E14
  8
3
  6
CONTINUOUS
 62
     0
 10
2303.5281030000001
 20
3718.8512989999999
 30
0.0
 11
3259.1145150000011
 21
3718.8512989999999
 31
0.0
  0
LINE
  5
7E15
  8
3
  6
CONTINUOUS
 62
     0
 10
2728.0281030000001
 20
2303.8512989999999
 30
0.0
 11
3259.1145150000002
 21
2303.851298999999
 31
0.0
  0
LINE
  5
7E16
  8
3
  6
CONTINUOUS
 62
     0
 10
3229.1145150000002
 20
3658.8512989999999
 30
0.0
 11
3229.1145150000002
 21
2363.851298999999
 31
0.0
  0
INSERT
  5
7E17
  8
3
  6
CONTINUOUS
 62
     0
  2
_OPEN
 10
3229.1145150000002
 20
3718.8512989999999
 30
0.0
 41
60.0
 42
60.0
 43
60.0
 50
90.0
  0
INSERT
  5
7E18
  8
3
  6
CONTINUOUS
 62
     0
  2
_OPEN
 10
3229.1145150000002
 20
2303.851298999999
 30
0.0
 41
60.0
 42
60.0
 43
60.0
 50
270.0
  0
TEXT
  8
3
  40
90
  5
7E7A
  62
0
  72
0
  71
0
 10
2974.11
 20
2995.11
 30
0.000000
  1
1415
  0
POINT
  5
7E1A
  8
DEFPOINTS
  6
CONTINUOUS
 62
     0
 10
2288.5281030000001
 20
3718.8512989999999
 30
0.0
  0
POINT
  5
7E1B
  8
DEFPOINTS
  6
CONTINUOUS
 62
     0
 10
2713.0281030000001
 20
2303.8512989999999
 30
0.0
  0
POINT
  5
7E1C
  8
DEFPOINTS
  6
CONTINUOUS
 62
     0
 10
3229.1145150000002
 20
2303.851298999999
 30
0.0
  0
ENDBLK
  5
7C28
  8
0
  0
BLOCK
  8
0
  2
*D7
 70
     1
 10
0.0
 20
0.0
 30
0.0
  3
*D7
  1

  0
LINE
  5
7E1D
  8
3
  6
CONTINUOUS
 62
     0
 10
1113.028102999999
 20
2288.8512989999999
 30
0.0
 11
1113.028102999999
 21
2085.6537419999991
 31
0.0
  0
LINE
  5
7E1E
  8
3
  6
CONTINUOUS
 62
     0
 10
2193.0281030000001
 20
2177.9846689999999
 30
0.0
 11
2193.0281030000001
 21
2085.6537419999991
 31
0.0
  0
LINE
  5
7E1F
  8
3
  6
CONTINUOUS
 62
     0
 10
1173.028102999999
 20
2115.653742
 30
0.0
 11
2133.0281030000001
 21
2115.653742
 31
0.0
  0
INSERT
  5
7E20
  8
3
  6
CONTINUOUS
 62
     0
  2
_OPEN
 10
1113.028102999999
 20
2115.653742
 30
0.0
 41
60.0
 42
60.0
 43
60.0
 50
180.0
  0
INSERT
  5
7E21
  8
3
  6
CONTINUOUS
 62
     0
  2
_OPEN
 10
2193.0281030000001
 20
2115.653742
 30
0.0
 41
60.0
 42
60.0
 43
60.0
  0
TEXT
  8
3
  40
90
  5
7E7B
  62
0
  72
0
  71
0
 10
1507.38
 20
2031.35
 30
0.000000
  1
1080
  0
POINT
  5
7E23
  8
DEFPOINTS
  6
CONTINUOUS
 62
     0
 10
1113.028102999999
 20
2303.8512989999999
 30
0.0
  0
POINT
  5
7E24
  8
DEFPOINTS
  6
CONTINUOUS
 62
     0
 10
2193.0281030000001
 20
2192.9846689999999
 30
0.0
  0
POINT
  5
7E25
  8
DEFPOINTS
  6
CONTINUOUS
 62
     0
 10
2193.0281030000001
 20
2115.653742
 30
0.0
  0
ENDBLK
  5
7B60
  8
0
  0
BLOCK
  8
0
  2
*D8
 70
     1
 10
0.0
 20
0.0
 30
0.0
  3
*D8
  1

  0
LINE
  5
7E26
  8
3
  6
CONTINUOUS
 62
     0
 10
2713.0281030000001
 20
2288.8512989999999
 30
0.0
 11
2713.0281030000001
 21
2085.6537419999991
 31
0.0
  0
LINE
  5
7E27
  8
3
  6
CONTINUOUS
 62
     0
 10
2253.0281030000001
 20
2115.653742
 30
0.0
 11
2653.0281030000001
 21
2115.653742
 31
0.0
  0
INSERT
  5
7E28
  8
3
  6
CONTINUOUS
 62
     0
  2
_OPEN
 10
2193.0281030000001
 20
2115.653742
 30
0.0
 41
60.0
 42
60.0
 43
60.0
 50
180.0
  0
INSERT
  5
7E29
  8
3
  6
CONTINUOUS
 62
     0
  2
_OPEN
 10
2713.0281030000001
 20
2115.653742
 30
0.0
 41
60.0
 42
60.0
 43
60.0
  0
TEXT
  8
3
  40
90
  5
7E7C
  62
0
  72
0
  71
0
 10
2273.03
 20
2031.35
 30
0.000000
  1
520
  0
POINT
  5
7E2B
  8
DEFPOINTS
  6
CONTINUOUS
 62
     0
 10
2193.0281030000001
 20
2192.9846689999999
 30
0.0
  0
POINT
  5
7E2C
  8
DEFPOINTS
  6
CONTINUOUS
 62
     0
 10
2713.0281030000001
 20
2303.8512989999999
 30
0.0
  0
POINT
  5
7E2D
  8
DEFPOINTS
  6
CONTINUOUS
 62
     0
 10
2713.0281030000001
 20
2115.653742
 30
0.0
  0
ENDBLK
  5
7B6C
  8
0
  0
BLOCK
  8
0
  2
*D9
 70
     1
 10
0.0
 20
0.0
 30
0.0
  3
*D9
  1

  0
LINE
  5
7E2E
  8
3
  6
CONTINUOUS
 62
     0
 10
4475.9429820000014
 20
3733.8512989999999
 30
0.0
 11
4475.9429820000014
 21
3888.651953
 31
0.0
  0
LINE
  5
7E2F
  8
3
  6
CONTINUOUS
 62
     0
 10
5075.9429819999996
 20
3733.8512989999999
 30
0.0
 11
5075.9429819999996
 21
3888.651953
 31
0.0
  0
LINE
  5
7E30
  8
3
  6
CONTINUOUS
 62
     0
 10
4535.9429819999996
 20
3858.651953
 30
0.0
 11
5015.9429820000014
 21
3858.651953
 31
0.0
  0
INSERT
  5
7E31
  8
3
  6
CONTINUOUS
 62
     0
  2
_OPEN
 10
4475.9429820000014
 20
3858.651953
 30
0.0
 41
60.0
 42
60.0
 43
60.0
 50
180.0
  0
INSERT
  5
7E32
  8
3
  6
CONTINUOUS
 62
     0
  2
_OPEN
 10
5075.9429819999996
 20
3858.651953
 30
0.0
 41
60.0
 42
60.0
 43
60.0
  0
TEXT
  8
3
  40
90
  5
7E7D
  62
0
  72
0
  71
0
 10
4592.34
 20
3774.35
 30
0.000000
  1
600
  0
POINT
  5
7E34
  8
DEFPOINTS
  6
CONTINUOUS
 62
     0
 10
4475.9429820000014
 20
3718.8512989999999
 30
0.0
  0
POINT
  5
7E35
  8
DEFPOINTS
  6
CONTINUOUS
 62
     0
 10
5075.9429819999996
 20
3718.8512989999999
 30
0.0
  0
POINT
  5
7E36
  8
DEFPOINTS
  6
CONTINUOUS
 62
     0
 10
5075.9429819999996
 20
3858.651953
 30
0.0
  0
ENDBLK
  5
7B79
  8
0
  0
BLOCK
  8
0
  2
*D10
 70
     1
 10
0.0
 20
0.0
 30
0.0
  3
*D10
  1

  0
LINE
  5
7E37
  8
3
  6
CONTINUOUS
 62
     0
 10
5094.9429819999996
 20
3548.8512989999999
 30
0.0
 11
5354.4012490000023
 21
3548.851298999999
 31
0.0
  0
LINE
  5
7E38
  8
3
  6
CONTINUOUS
 62
     0
 10
5094.9429819999996
 20
2698.8512989999999
 30
0.0
 11
5354.4012490000023
 21
2698.851298999999
 31
0.0
  0
LINE
  5
7E39
  8
3
  6
CONTINUOUS
 62
     0
 10
5324.4012490000014
 20
3488.8512989999999
 30
0.0
 11
5324.4012490000014
 21
2758.851298999999
 31
0.0
  0
INSERT
  5
7E3A
  8
3
  6
CONTINUOUS
 62
     0
  2
_OPEN
 10
5324.4012490000014
 20
3548.851298999999
 30
0.0
 41
60.0
 42
60.0
 43
60.0
 50
90.0
  0
INSERT
  5
7E3B
  8
3
  6
CONTINUOUS
 62
     0
  2
_OPEN
 10
5324.4012490000014
 20
2698.851298999999
 30
0.0
 41
60.0
 42
60.0
 43
60.0
 50
270.0
  0
TEXT
  8
3
  40
90
  5
7E7E
  62
0
  72
0
  71
0
 10
5069.40
 20
2942.29
 30
0.000000
  1
φ850
  0
POINT
  5
7E3D
  8
DEFPOINTS
  6
CONTINUOUS
 62
     0
 10
5079.9429820000014
 20
3548.8512989999999
 30
0.0
  0
POINT
  5
7E3E
  8
DEFPOINTS
  6
CONTINUOUS
 62
     0
 10
5079.9429820000014
 20
2698.8512989999999
 30
0.0
  0
POINT
  5
7E3F
  8
DEFPOINTS
  6
CONTINUOUS
 62
     0
 10
5324.4012490000014
 20
2698.851298999999
 30
0.0
  0
ENDBLK
  5
7C75
  8
0
  0
BLOCK
  8
0
  2
*D11
 70
     1
 10
0.0
 20
0.0
 30
0.0
  3
*D11
  1

  0
LINE
  5
7CB9
  8
0
  6
BYBLOCK
 62
     0
 10
5079.9429820000014
 20
3563.8512989999999
 30
0.0
 11
5079.9429820000014
 21
4091.0886829999999
 31
0.0
  0
LINE
  5
7CBA
  8
0
  6
BYBLOCK
 62
     0
 10
4775.9429820000014
 20
4014.2306492955149
 30
0.0
 11
4775.9429820000014
 21
4091.0886829999999
 31
0.0
  0
LINE
  5
7CBB
  8
0
  6
BYBLOCK
 62
     0
 10
5019.9429819999996
 20
4061.0886829999999
 30
0.0
 11
4835.9429819999996
 21
4061.0886829999999
 31
0.0
  0
TEXT
  5
7CBC
  8
3
 62
     0
 10
4814.4849181428572
 20
4102.2697532632628
 30
0.0
 40
90.0
  1
304
  0
INSERT
  5
7CBD
  8
0
  6
BYBLOCK
 62
     0
  2
_OPEN
 10
5079.9429820000014
 20
4061.0886829999999
 30
0.0
 41
60.0
 42
60.0
 43
60.0
  0
INSERT
  5
7CBE
  8
0
  6
BYBLOCK
 62
     0
  2
_OPEN
 10
4775.9429820000014
 20
4061.0886829999999
 30
0.0
 41
60.0
 42
60.0
 43
60.0
 50
180.0
  0
POINT
  5
7CBF
  8
DEFPOINTS
  6
BYBLOCK
 62
     0
 10
5079.9429820000014
 20
3548.8512989999999
 30
0.0
  0
POINT
  5
7CC0
  8
DEFPOINTS
  6
BYBLOCK
 62
     0
 10
4775.9429820000014
 20
3999.2306492955149
 30
0.0
  0
POINT
  5
7CC1
  8
DEFPOINTS
  6
BYBLOCK
 62
     0
 10
4775.9429820000014
 20
4061.0886829999999
 30
0.0
  0
ENDBLK
  5
7CC2
  8
0
  0
BLOCK
  8
0
  2
*D12
 70
     1
 10
0.0
 20
0.0
 30
0.0
  3
*D12
  1

  0
LINE
  5
7E40
  8
3
  6
CONTINUOUS
 62
     0
 10
4215.9429819999996
 20
3793.8512989999999
 30
0.0
 11
4215.9429819999996
 21
4091.0886829999999
 31
0.0
  0
LINE
  5
7E41
  8
3
  6
CONTINUOUS
 62
     0
 10
4715.9429819999996
 20
4061.0886829999999
 30
0.0
 11
4275.9429820000014
 21
4061.0886829999999
 31
0.0
  0
INSERT
  5
7E42
  8
3
  6
CONTINUOUS
 62
     0
  2
_OPEN
 10
4775.9429820000014
 20
4061.0886829999999
 30
0.0
 41
60.0
 42
60.0
 43
60.0
  0
INSERT
  5
7E43
  8
3
  6
CONTINUOUS
 62
     0
  2
_OPEN
 10
4215.9429819999996
 20
4061.0886829999999
 30
0.0
 41
60.0
 42
60.0
 43
60.0
 50
180.0
  0
TEXT
  8
3
  40
90
  5
7E7F
  62
0
  72
0
  71
0
 10
4315.94
 20
4051.79
 30
0.000000
  1
MAX
  0
TEXT
  8
3
  40
90
  5
7E80
  62
0
  72
0
  71
0
 10
4315.94
 20
3934.79
 30
0.000000
  1
610
  0
POINT
  5
7E45
  8
DEFPOINTS
  6
CONTINUOUS
 62
     0
 10
4775.9429820000014
 20
3999.2306492955149
 30
0.0
  0
POINT
  5
7E46
  8
DEFPOINTS
  6
CONTINUOUS
 62
     0
 10
4215.9429819999996
 20
3778.8512990000008
 30
0.0
  0
POINT
  5
7E47
  8
DEFPOINTS
  6
CONTINUOUS
 62
     0
 10
4215.9429819999996
 20
4061.0886829999999
 30
0.0
  0
ENDBLK
  5
7CCC
  8
0
  0
BLOCK
  8
0
  2
*D13
 70
     1
 10
0.0
 20
0.0
 30
0.0
  3
*D13
  1

  0
LINE
  5
7E48
  8
3
  6
CONTINUOUS
 62
     0
 10
4307.9429820000014
 20
2288.8512989999999
 30
0.0
 11
4307.9429820000014
 21
2079.785065999999
 31
0.0
  0
LINE
  5
7E49
  8
3
  6
CONTINUOUS
 62
     0
 10
4775.9429820000014
 20
2107.2156260000002
 30
0.0
 11
4775.9429820000014
 21
2079.785065999999
 31
0.0
  0
LINE
  5
7E4A
  8
3
  6
CONTINUOUS
 62
     0
 10
4247.9429819999996
 20
2109.7850659999999
 30
0.0
 11
4187.9429819999996
 21
2109.7850659999999
 31
0.0
  0
LINE
  5
7E4B
  8
3
  6
CONTINUOUS
 62
     0
 10
4835.9429819999996
 20
2109.7850659999999
 30
0.0
 11
4895.9429820000014
 21
2109.7850659999999
 31
0.0
  0
LINE
  5
7E4C
  8
3
  6
CONTINUOUS
 62
     0
 10
4307.9429820000014
 20
2109.7850659999999
 30
0.0
 11
4775.9429820000014
 21
2109.7850659999999
 31
0.0
  0
INSERT
  5
7E4D
  8
3
  6
CONTINUOUS
 62
     0
  2
_OPEN
 10
4307.9429820000014
 20
2109.7850659999999
 30
0.0
 41
60.0
 42
60.0
 43
60.0
  0
INSERT
  5
7E4E
  8
3
  6
CONTINUOUS
 62
     0
  2
_OPEN
 10
4775.9429820000014
 20
2109.7850659999999
 30
0.0
 41
60.0
 42
60.0
 43
60.0
 50
180.0
  0
TEXT
  8
3
  40
90
  5
7E81
  62
0
  72
0
  71
0
 10
4390.23
 20
2025.49
 30
0.000000
  1
468
  0
POINT
  5
7E50
  8
DEFPOINTS
  6
CONTINUOUS
 62
     0
 10
4307.9429820000014
 20
2303.8512989999999
 30
0.0
  0
POINT
  5
7E51
  8
DEFPOINTS
  6
CONTINUOUS
 62
     0
 10
4775.9429820000014
 20
2122.2156260000002
 30
0.0
  0
POINT
  5
7E52
  8
DEFPOINTS
  6
CONTINUOUS
 62
     0
 10
4775.9429820000014
 20
2109.7850659999999
 30
0.0
  0
ENDBLK
  5
7BB1
  8
0
  0
BLOCK
  8
0
  2
*D14
 70
     1
 10
0.0
 20
0.0
 30
0.0
  3
*D14
  1

  0
LINE
  5
7E53
  8
3
  6
CONTINUOUS
 62
     0
 10
5127.9429819999996
 20
2288.8512989999999
 30
0.0
 11
5127.9429819999996
 21
2079.785065999999
 31
0.0
  0
LINE
  5
7E54
  8
3
  6
CONTINUOUS
 62
     0
 10
4835.9429819999996
 20
2109.7850659999999
 30
0.0
 11
5067.9429819999996
 21
2109.7850659999999
 31
0.0
  0
TEXT
  8
3
  40
90
  5
7E82
  62
0
  72
0
  71
0
 10
4770.41
 20
2027.31
 30
0.000000
  1
352
  0
INSERT
  5
7E56
  8
3
  6
CONTINUOUS
 62
     0
  2
_OPEN
 10
4775.9429820000014
 20
2109.7850659999999
 30
0.0
 41
60.0
 42
60.0
 43
60.0
 50
180.0
  0
INSERT
  5
7E57
  8
3
  6
CONTINUOUS
 62
     0
  2
_OPEN
 10
5127.9429819999996
 20
2109.7850659999999
 30
0.0
 41
60.0
 42
60.0
 43
60.0
  0
POINT
  5
7E58
  8
DEFPOINTS
  6
CONTINUOUS
 62
     0
 10
4775.9429820000014
 20
2122.2156260000002
 30
0.0
  0
POINT
  5
7E59
  8
DEFPOINTS
  6
CONTINUOUS
 62
     0
 10
5127.9429819999996
 20
2303.8512989999999
 30
0.0
  0
POINT
  5
7E5A
  8
DEFPOINTS
  6
CONTINUOUS
 62
     0
 10
5127.9429819999996
 20
2109.7850659999999
 30
0.0
  0
ENDBLK
  5
7C49
  8
0
  0
BLOCK
  8
0
  2
*D15
 70
     1
 10
0.0
 20
0.0
 30
0.0
  3
*D15
  1

  0
LINE
  5
7E5B
  8
3
  6
CONTINUOUS
 62
     0
 10
1113.028102999999
 20
6330.6491059999998
 30
0.0
 11
1113.028102999999
 21
6540.3139709999996
 31
0.0
  0
LINE
  5
7E5C
  8
3
  6
CONTINUOUS
 62
     0
 10
2713.0281030000001
 20
6330.6491059999998
 30
0.0
 11
2713.0281030000001
 21
6540.3139709999996
 31
0.0
  0
LINE
  5
7E5D
  8
3
  6
CONTINUOUS
 62
     0
 10
1173.028102999999
 20
6510.3139710000014
 30
0.0
 11
2653.0281030000001
 21
6510.3139710000014
 31
0.0
  0
INSERT
  5
7E5E
  8
3
  6
CONTINUOUS
 62
     0
  2
_OPEN
 10
1113.028102999999
 20
6510.3139710000014
 30
0.0
 41
60.0
 42
60.0
 43
60.0
 50
180.0
  0
INSERT
  5
7E5F
  8
3
  6
CONTINUOUS
 62
     0
  2
_OPEN
 10
2713.0281030000001
 20
6510.3139710000014
 30
0.0
 41
60.0
 42
60.0
 43
60.0
  0
TEXT
  8
3
  40
90
  5
7E83
  62
0
  72
0
  71
0
 10
1648.33
 20
6426.01
 30
0.000000
  1
1600
  0
POINT
  5
7E61
  8
DEFPOINTS
  6
CONTINUOUS
 62
     0
 10
1113.028102999999
 20
6315.6491059999998
 30
0.0
  0
POINT
  5
7E62
  8
DEFPOINTS
  6
CONTINUOUS
 62
     0
 10
2713.0281030000001
 20
6315.6491059999998
 30
0.0
  0
POINT
  5
7E63
  8
DEFPOINTS
  6
CONTINUOUS
 62
     0
 10
2713.0281030000001
 20
6510.3139710000014
 30
0.0
  0
ENDBLK
  5
7C33
  8
0
  0
BLOCK
  8
0
  2
*D16
 70
     1
 10
0.0
 20
0.0
 30
0.0
  3
*D16
  1

  0
LINE
  5
7E64
  8
3
  6
CONTINUOUS
 62
     0
 10
2728.0281030000001
 20
6315.6491059999998
 30
0.0
 11
3074.036602000001
 21
6315.6491059999998
 31
0.0
  0
LINE
  5
7E65
  8
3
  6
CONTINUOUS
 62
     0
 10
2728.0281030000001
 20
5495.6491059999998
 30
0.0
 11
3074.036602000001
 21
5495.6491059999998
 31
0.0
  0
LINE
  5
7E66
  8
3
  6
CONTINUOUS
 62
     0
 10
3044.036602000001
 20
6255.6491059999989
 30
0.0
 11
3044.036602000001
 21
5555.6491059999998
 31
0.0
  0
INSERT
  5
7E67
  8
3
  6
CONTINUOUS
 62
     0
  2
_OPEN
 10
3044.036602000001
 20
6315.6491059999998
 30
0.0
 41
60.0
 42
60.0
 43
60.0
 50
90.0
  0
INSERT
  5
7E68
  8
3
  6
CONTINUOUS
 62
     0
  2
_OPEN
 10
3044.036602000001
 20
5495.6491059999998
 30
0.0
 41
60.0
 42
60.0
 43
60.0
 50
270.0
  0
TEXT
  8
3
  40
90
  5
7E84
  62
0
  72
0
  71
0
 10
2789.04
 20
5761.24
 30
0.000000
  1
820
  0
POINT
  5
7E6A
  8
DEFPOINTS
  6
CONTINUOUS
 62
     0
 10
2713.0281030000001
 20
6315.6491059999998
 30
0.0
  0
POINT
  5
7E6B
  8
DEFPOINTS
  6
CONTINUOUS
 62
     0
 10
2713.0281030000001
 20
5495.6491059999998
 30
0.0
  0
POINT
  5
7E6C
  8
DEFPOINTS
  6
CONTINUOUS
 62
     0
 10
3044.036602000001
 20
5495.6491059999998
 30
0.0
  0
ENDBLK
  5
7BDA
  8
0
  0
BLOCK
  8
0
  2
*D17
 70
     1
 10
0.0
 20
0.0
 30
0.0
  3
*D17
  1

  0
LINE
  5
7E6D
  8
3
  6
CONTINUOUS
 62
     0
 10
2769.018750106874
 20
3138.8512989999999
 30
0.0
 11
2769.018750106874
 21
4152.7425800000001
 31
0.0
  0
LINE
  5
7E6E
  8
3
  6
CONTINUOUS
 62
     0
 10
2253.0281030000001
 20
4122.7425799999992
 30
0.0
 11
2709.018750106874
 21
4122.7425799999992
 31
0.0
  0
INSERT
  5
7E6F
  8
3
  6
CONTINUOUS
 62
     0
  2
_OPEN
 10
2193.0281030000001
 20
4122.7425799999992
 30
0.0
 41
60.0
 42
60.0
 43
60.0
 50
180.0
  0
INSERT
  5
7E70
  8
3
  6
CONTINUOUS
 62
     0
  2
_OPEN
 10
2769.018750106874
 20
4122.7425799999992
 30
0.0
 41
60.0
 42
60.0
 43
60.0
  0
TEXT
  8
3
  40
90
  5
7E85
  62
0
  72
0
  71
0
 10
2301.02
 20
4038.44
 30
0.000000
  1
576
  0
POINT
  5
7E72
  8
DEFPOINTS
  6
CONTINUOUS
 62
     0
 10
2193.0281030000001
 20
3933.4937960000002
 30
0.0
  0
POINT
  5
7E73
  8
DEFPOINTS
  6
CONTINUOUS
 62
     0
 10
2769.018750106874
 20
3123.8512989999999
 30
0.0
  0
POINT
  5
7E74
  8
DEFPOINTS
  6
CONTINUOUS
 62
     0
 10
2769.018750106874
 20
4122.7425799999992
 30
0.0
  0
ENDBLK
  5
7CD7
  8
0
  0
ENDSEC
  0
SECTION
  2
ENTITIES
  0
LINE
  5
7A6A
  8
1
  6
CONTINUOUS
 10
5117.9429819999996
 20
3718.8512989999999
 30
0.0
 11
4433.9429819999996
 21
3718.8512989999999
 31
0.0
  0
LINE
  5
7A6B
  8
1
  6
CONTINUOUS
 10
5127.9429819999996
 20
2303.8512989999999
 30
0.0
 11
4307.9429820000014
 21
2303.8512989999999
 31
0.0
  0
LINE
  5
7A6C
  8
1
  6
CONTINUOUS
 10
5127.9429819999996
 20
2403.8512989999999
 30
0.0
 11
4307.9429820000014
 21
2403.8512989999999
 31
0.0
  0
LINE
  5
7A6D
  8
1
  6
CONTINUOUS
 10
5127.9429819999996
 20
2528.8512989999999
 30
0.0
 11
4215.9429819999996
 21
2528.8512989999999
 31
0.0
  0
LINE
  5
7A6E
  8
1
  6
CONTINUOUS
 10
5127.9429819999996
 20
2428.8512989999999
 30
0.0
 11
4307.9429820000014
 21
2428.8512989999999
 31
0.0
  0
LINE
  5
7A6F
  8
1
  6
CONTINUOUS
 10
2713.0281030000001
 20
2303.8512989999999
 30
0.0
 11
1113.028102999999
 21
2303.8512989999999
 31
0.0
  0
LINE
  5
7A70
  8
1
  6
CONTINUOUS
 10
2713.0281030000001
 20
2403.8512989999999
 30
0.0
 11
1113.028102999999
 21
2403.8512989999999
 31
0.0
  0
ARC
  5
7A71
  8
1
  6
CONTINUOUS
 10
2141.0281030000001
 20
3175.8512989999999
 30
0.0
 40
717.88999999999987
 50
184.15000000000001
 51
274.75999999999988
  0
LINE
  5
7A72
  8
1
  6
CONTINUOUS
 10
2273.5281030000001
 20
3718.8512989999999
 30
0.0
 11
1363.5281030000001
 21
3718.8512989999999
 31
0.0
  0
LINE
  5
7A73
  8
1
  6
CONTINUOUS
 10
1113.028102999999
 20
2528.8512989999999
 30
0.0
 11
2713.0281030000001
 21
2528.8512989999999
 31
0.0
  0
LINE
  5
7A76
  8
1
  6
CONTINUOUS
 10
2713.0281030000001
 20
2428.8512989999999
 30
0.0
 11
1113.028102999999
 21
2428.8512989999999
 31
0.0
  0
LINE
  5
7A77
  8
1
  6
CONTINUOUS
 10
2613.0281030000001
 20
3778.8512990000008
 30
0.0
 11
2043.0281030000001
 21
3778.8512990000008
 31
0.0
  0
CIRCLE
  5
7A78
  8
1
  6
CONTINUOUS
 10
2193.0281030000001
 20
3123.8512989999999
 30
0.0
 40
200.0
  0
LINE
  5
7A79
  8
2
  6
CENTER
 10
5154.0849130000006
 20
3123.8512989999999
 30
0.0
 11
4083.4031060000002
 21
3123.8512989999999
 31
0.0
  0
LINE
  5
7A7B
  8
1
  6
CONTINUOUS
 10
1311.508102999999
 20
2656.8812990000001
 30
0.0
 11
2249.3181030000001
 21
2931.9312989999999
 31
0.0
  0
LINE
  5
7A7C
  8
2
  6
CENTER
 10
1215.408103
 20
2728.8512989999999
 30
0.0
 11
1365.408103
 21
2728.8512989999999
 31
0.0
  0
LINE
  5
7A7D
  8
1
  6
CONTINUOUS
 10
2043.0281030000001
 20
3778.8512990000008
 30
0.0
 11
1133.028102999999
 21
2828.8512989999999
 31
0.0
  0
CIRCLE
  5
7A7E
  8
1
  6
CONTINUOUS
 10
1290.408103
 20
2728.8512989999999
 30
0.0
 40
75.0
  0
ARC
  5
7A7F
  8
1
  6
CONTINUOUS
 10
1290.408103
 20
2728.8512989999999
 30
0.0
 40
162.0
 50
324.97000000000003
 51
215.02999999999989
  0
LINE
  5
7A80
  8
1
  6
CONTINUOUS
 10
1113.028102999999
 20
2403.8512989999999
 30
0.0
 11
1113.028102999999
 21
2303.8512989999999
 31
0.0
  0
LINE
  5
7A81
  8
1
  6
CONTINUOUS
 10
1113.028102999999
 20
2528.8512989999999
 30
0.0
 11
1113.028102999999
 21
2428.8512989999999
 31
0.0
  0
LINE
  5
7A82
  8
1
  6
CONTINUOUS
 10
1133.028102999999
 20
2828.8512989999999
 30
0.0
 11
1133.028102999999
 21
2528.8512989999999
 31
0.0
  0
LINE
  5
7A83
  8
1
  6
CONTINUOUS
 10
1136.4081029999991
 20
2586.8512989999999
 30
0.0
 11
1157.7481029999999
 21
2635.8712989999999
 31
0.0
  0
LINE
  5
7A84
  8
1
  6
CONTINUOUS
 10
1136.4081029999991
 20
2528.8512989999999
 30
0.0
 11
1136.4081029999991
 21
2586.8512989999999
 31
0.0
  0
LINE
  5
7A86
  8
1
  6
CONTINUOUS
 10
1251.8581029999989
 20
2793.1912990000001
 30
0.0
 11
2090.248102999999
 21
3295.4212989999992
 31
0.0
  0
LINE
  5
7A87
  8
2
  6
CENTER
 10
1290.408103
 20
2653.8512989999999
 30
0.0
 11
1290.408103
 21
2803.8512989999999
 31
0.0
  0
LINE
  5
7A88
  8
1
  6
CONTINUOUS
 10
1444.4081029999991
 20
2528.8512989999999
 30
0.0
 11
1444.4081029999991
 21
2586.8512989999999
 31
0.0
  0
LINE
  5
7A89
  8
1
  6
CONTINUOUS
 10
1444.4081029999991
 20
2586.8512989999999
 30
0.0
 11
1423.0581029999989
 21
2635.8712989999999
 31
0.0
  0
LINE
  5
7A8A
  8
1
  6
CONTINUOUS
 10
1406.028102999999
 20
3718.8512989999999
 30
0.0
 11
1425.028102999999
 21
3123.8512989999999
 31
0.0
  0
ARC
  5
7A8D
  8
1
  6
CONTINUOUS
 10
2149.0281030000001
 20
3079.851298999999
 30
0.0
 40
621.54999999999995
 50
274.75999999999988
 51
6.5
  0
LINE
  5
7A8E
  8
1
  6
CONTINUOUS
 10
2613.0281030000001
 20
2528.8512989999999
 30
0.0
 11
2613.0281030000001
 21
3778.8512990000008
 31
0.0
  0
LINE
  5
7A8F
  8
2
  6
CENTER
 10
2193.0281030000001
 20
6481.0489699999998
 30
0.0
 11
2193.0281030000001
 21
5310.7074979999998
 31
0.0
  0
LINE
  5
7A90
  8
1
  6
CONTINUOUS
 10
2713.0281030000001
 20
2403.8512989999999
 30
0.0
 11
2713.0281030000001
 21
2303.8512989999999
 31
0.0
  0
LINE
  5
7A91
  8
1
  6
CONTINUOUS
 10
2713.0281030000001
 20
2528.8512989999999
 30
0.0
 11
2713.0281030000001
 21
2428.8512989999999
 31
0.0
  0
ARC
  5
7A92
  8
1
  6
CONTINUOUS
 10
2228.0281030000001
 20
3088.851298999999
 30
0.0
 40
542.03999999999985
 50
6.5
 51
89.680000000000007
  0
LINE
  5
7A93
  8
1
  6
CONTINUOUS
 10
2231.0281030000001
 20
3630.8812990000001
 30
0.0
 11
2231.0281030000001
 21
3718.8512989999999
 31
0.0
  0
LINE
  5
7A94
  8
1
  6
CONTINUOUS
 10
4325.9429819999996
 20
3323.851298999999
 30
0.0
 11
4325.9429819999996
 21
2923.8512989999999
 31
0.0
  0
LINE
  5
7A95
  8
1
  6
CONTINUOUS
 10
4255.9429819999996
 20
3323.851298999999
 30
0.0
 11
4255.9429819999996
 21
2923.8512989999999
 31
0.0
  0
LINE
  5
7A96
  8
1
  6
CONTINUOUS
 10
4365.9429819999996
 20
3778.8512990000008
 30
0.0
 11
4365.9429819999996
 21
2528.8512989999999
 31
0.0
  0
LINE
  5
7A97
  8
1
  6
CONTINUOUS
 10
4215.9429819999996
 20
3778.8512990000008
 30
0.0
 11
4215.9429819999996
 21
2528.8512989999999
 31
0.0
  0
LINE
  5
7A98
  8
1
  6
CONTINUOUS
 10
4475.9429820000014
 20
3718.8512989999999
 30
0.0
 11
4475.9429820000014
 21
2528.8512989999999
 31
0.0
  0
LINE
  5
7A9C
  8
1
  6
CONTINUOUS
 10
4307.9429820000014
 20
2403.8512989999999
 30
0.0
 11
4307.9429820000014
 21
2303.8512989999999
 31
0.0
  0
LINE
  5
7A9D
  8
1
  6
CONTINUOUS
 10
4475.9429820000014
 20
3102.8512989999999
 30
0.0
 11
4325.9429819999996
 21
3102.8512989999999
 31
0.0
  0
LINE
  5
7A9E
  8
1
  6
CONTINUOUS
 10
4325.9429819999996
 20
2707.8512989999999
 30
0.0
 11
4475.9429820000014
 21
2707.8512989999999
 31
0.0
  0
LINE
  5
7A9F
  8
1
  6
CONTINUOUS
 10
4325.9429819999996
 20
2749.851298999999
 30
0.0
 11
4475.9429820000014
 21
2749.851298999999
 31
0.0
  0
LINE
  5
7AA0
  8
1
  6
CONTINUOUS
 10
4325.9429819999996
 20
2803.8512989999999
 30
0.0
 11
4325.9429819999996
 21
2653.8512989999999
 31
0.0
  0
LINE
  5
7AA1
  8
1
  6
CONTINUOUS
 10
4255.9429819999996
 20
2803.8512989999999
 30
0.0
 11
4255.9429819999996
 21
2653.8512989999999
 31
0.0
  0
LINE
  5
7AA2
  8
1
  6
CONTINUOUS
 10
4255.9429819999996
 20
2653.8512989999999
 30
0.0
 11
4325.9429819999996
 21
2653.8512989999999
 31
0.0
  0
LINE
  5
7AA3
  8
1
  6
CONTINUOUS
 10
4255.9429819999996
 20
2803.8512989999999
 30
0.0
 11
4325.9429819999996
 21
2803.8512989999999
 31
0.0
  0
LINE
  5
7AA4
  8
1
  6
CONTINUOUS
 10
4255.9429819999996
 20
2923.8512989999999
 30
0.0
 11
4325.9429819999996
 21
2923.8512989999999
 31
0.0
  0
LINE
  5
7AA5
  8
1
  6
CONTINUOUS
 10
4307.9429820000014
 20
2528.8512989999999
 30
0.0
 11
4307.9429820000014
 21
2428.8512989999999
 31
0.0
  0
LINE
  5
7AA6
  8
1
  6
CONTINUOUS
 10
4475.9429820000014
 20
3144.8512989999999
 30
0.0
 11
4325.9429819999996
 21
3144.8512989999999
 31
0.0
  0
LINE
  5
7AA7
  8
1
  6
CONTINUOUS
 10
4365.9429819999996
 20
3778.8512990000008
 30
0.0
 11
4215.9429819999996
 21
3778.8512990000008
 31
0.0
  0
LINE
  5
7AA8
  8
1
  6
CONTINUOUS
 10
4255.9429819999996
 20
3323.851298999999
 30
0.0
 11
4325.9429819999996
 21
3323.851298999999
 31
0.0
  0
LINE
  5
7AA9
  8
1
  6
CONTINUOUS
 10
2393.0281030000001
 20
5443.6491059999998
 30
0.0
 11
1993.0281030000001
 21
5443.6491059999998
 31
0.0
  0
LINE
  5
7AAA
  8
1
  6
CONTINUOUS
 10
2393.0281030000001
 20
5513.6491059999989
 30
0.0
 11
1993.0281030000001
 21
5513.6491059999989
 31
0.0
  0
LINE
  5
7AAB
  8
1
  6
CONTINUOUS
 10
1133.028102999999
 20
5553.6491059999998
 30
0.0
 11
2613.0281030000001
 21
5553.6491059999998
 31
0.0
  0
LINE
  5
7AAC
  8
1
  6
CONTINUOUS
 10
1133.028102999999
 20
5403.6491059999998
 30
0.0
 11
2613.0281030000001
 21
5403.6491059999998
 31
0.0
  0
LINE
  5
7AAD
  8
1
  6
CONTINUOUS
 10
1113.028102999999
 20
6315.6491059999998
 30
0.0
 11
2713.0281030000001
 21
6315.6491059999998
 31
0.0
  0
LINE
  5
7AAE
  8
1
  6
CONTINUOUS
 10
1406.028102999999
 20
5663.6491059999998
 30
0.0
 11
2770.5781029999998
 21
5663.6491059999998
 31
0.0
  0
LINE
  5
7AAF
  8
1
  6
CONTINUOUS
 10
1406.028102999999
 20
6263.6491059999989
 30
0.0
 11
2770.5781029999998
 21
6263.6491059999989
 31
0.0
  0
LINE
  5
7AB0
  8
1
  6
CONTINUOUS
 10
2231.0281030000001
 20
6263.6491059999989
 30
0.0
 11
1406.028102999999
 21
5663.6491059999998
 31
0.0
  0
LINE
  5
7AB1
  8
1
  6
CONTINUOUS
 10
2231.0281030000001
 20
5663.6491059999998
 30
0.0
 11
1406.028102999999
 21
6263.6491059999989
 31
0.0
  0
LINE
  5
7AB2
  8
1
  6
CONTINUOUS
 10
1365.408103
 20
5443.6491059999998
 30
0.0
 11
1215.408103
 21
5443.6491059999998
 31
0.0
  0
LINE
  5
7AB3
  8
1
  6
CONTINUOUS
 10
1365.408103
 20
5513.6491059999989
 30
0.0
 11
1215.408103
 21
5513.6491059999989
 31
0.0
  0
LINE
  5
7AB4
  8
1
  6
CONTINUOUS
 10
1128.4081029999991
 20
5601.6491059999989
 30
0.0
 11
1452.4081029999991
 21
5601.6491059999989
 31
0.0
  0
LINE
  5
7AB5
  8
1
  6
CONTINUOUS
 10
1128.4081029999991
 20
6086.6491059999998
 30
0.0
 11
1406.028102999999
 21
6086.6491059999998
 31
0.0
  0
LINE
  5
7AB6
  8
1
  6
CONTINUOUS
 10
1113.028102999999
 20
6315.6491059999998
 30
0.0
 11
1113.028102999999
 21
5495.6491059999998
 31
0.0
  0
LINE
  5
7AB7
  8
1
  6
CONTINUOUS
 10
1215.408103
 20
5443.6491059999998
 30
0.0
 11
1215.408103
 21
5513.6491059999989
 31
0.0
  0
LINE
  5
7AB8
  8
1
  6
CONTINUOUS
 10
1133.028102999999
 20
5553.6491059999998
 30
0.0
 11
1133.028102999999
 21
5403.6491059999998
 31
0.0
  0
LINE
  5
7AB9
  8
1
  6
CONTINUOUS
 10
1113.028102999999
 20
5495.6491059999998
 30
0.0
 11
1215.408103
 21
5495.6491059999998
 31
0.0
  0
LINE
  5
7ABA
  8
1
  6
CONTINUOUS
 10
1128.4081029999991
 20
5601.6491059999989
 30
0.0
 11
1128.4081029999991
 21
6086.6491059999998
 31
0.0
  0
LINE
  5
7ABB
  8
1
  6
CONTINUOUS
 10
1406.028102999999
 20
5663.6491059999998
 30
0.0
 11
1406.028102999999
 21
6263.6491059999989
 31
0.0
  0
LINE
  5
7ABC
  8
1
  6
CONTINUOUS
 10
1365.408103
 20
5495.6491059999998
 30
0.0
 11
1993.0281030000001
 21
5495.6491059999998
 31
0.0
  0
LINE
  5
7ABD
  8
1
  6
CONTINUOUS
 10
1269.4081029999991
 20
5513.6491059999989
 30
0.0
 11
1269.4081029999991
 21
5601.6491059999989
 31
0.0
  0
LINE
  5
7ABE
  8
1
  6
CONTINUOUS
 10
1311.4081029999991
 20
5513.6491059999989
 30
0.0
 11
1311.4081029999991
 21
5601.6491059999989
 31
0.0
  0
LINE
  5
7ABF
  8
1
  6
CONTINUOUS
 10
1365.408103
 20
5443.6491059999998
 30
0.0
 11
1365.408103
 21
5513.6491059999989
 31
0.0
  0
LINE
  5
7AC0
  8
1
  6
CONTINUOUS
 10
1452.4081029999991
 20
5601.6491059999989
 30
0.0
 11
1452.4081029999991
 21
5663.6491059999998
 31
0.0
  0
LINE
  5
7AC1
  8
1
  6
CONTINUOUS
 10
1993.0281030000001
 20
5443.6491059999998
 30
0.0
 11
1993.0281030000001
 21
5513.6491059999989
 31
0.0
  0
LINE
  5
7AC2
  8
1
  6
CONTINUOUS
 10
2231.0281030000001
 20
5663.6491059999998
 30
0.0
 11
2231.0281030000001
 21
6263.6491059999989
 31
0.0
  0
LINE
  5
7AC3
  8
1
  6
CONTINUOUS
 10
2770.5781029999998
 20
5663.6491059999998
 30
0.0
 11
2770.5781029999998
 21
6263.6491059999989
 31
0.0
  0
LINE
  5
7AC4
  8
1
  6
CONTINUOUS
 10
2393.0281030000001
 20
5495.6491059999998
 30
0.0
 11
2713.0281030000001
 21
5495.6491059999998
 31
0.0
  0
LINE
  5
7AC5
  8
1
  6
CONTINUOUS
 10
2214.0281029999992
 20
5513.6491059999989
 30
0.0
 11
2214.0281029999992
 21
5663.6491059999998
 31
0.0
  0
LINE
  5
7AC6
  8
1
  6
CONTINUOUS
 10
2172.0281030000001
 20
5513.6491059999989
 30
0.0
 11
2172.0281030000001
 21
5663.6491059999998
 31
0.0
  0
LINE
  5
7AC7
  8
1
  6
CONTINUOUS
 10
2393.0281030000001
 20
5443.6491059999998
 30
0.0
 11
2393.0281030000001
 21
5513.6491059999989
 31
0.0
  0
LINE
  5
7AC8
  8
1
  6
CONTINUOUS
 10
2713.0281030000001
 20
5663.6491059999998
 30
0.0
 11
2713.0281030000001
 21
5495.6491059999998
 31
0.0
  0
LINE
  5
7AC9
  8
1
  6
CONTINUOUS
 10
2613.0281030000001
 20
5403.6491059999998
 30
0.0
 11
2613.0281030000001
 21
5553.6491059999998
 31
0.0
  0
LINE
  5
7ACA
  8
1
  6
CONTINUOUS
 10
2713.0281030000001
 20
6315.6491059999998
 30
0.0
 11
2713.0281030000001
 21
6263.6491059999989
 31
0.0
  0
LINE
  5
7ACB
  8
1
  6
CONTINUOUS
 10
5075.9429819999996
 20
3718.8512989999999
 30
0.0
 11
5075.9429819999996
 21
2528.8512989999999
 31
0.0
  0
LINE
  5
7ACC
  8
1
  6
CONTINUOUS
 10
5127.9429819999996
 20
2403.8512989999999
 30
0.0
 11
5127.9429819999996
 21
2303.8512989999999
 31
0.0
  0
LINE
  5
7ACD
  8
1
  6
CONTINUOUS
 10
5127.9429819999996
 20
2528.8512989999999
 30
0.0
 11
5127.9429819999996
 21
2428.8512989999999
 31
0.0
  0
LINE
  5
7ACE
  8
2
  6
CENTER
 10
1040.3272750000001
 20
5963.6491059999998
 30
0.0
 11
2838.4824060000001
 21
5963.6491059999998
 31
0.0
  0
LINE
  5
7ACF
  8
2
  6
CENTER
 10
4775.9429820000014
 20
3870.711748795442
 30
0.0
 11
4775.9429820000014
 21
2122.2156260000002
 31
0.0
  0
LINE
  5
7AD1
  8
2
  6
CENTER
 10
2193.0281030000001
 20
3933.4937960000002
 30
0.0
 11
2193.0281030000001
 21
2192.9846689999999
 31
0.0
  0
LINE
  5
7AD2
  8
2
  6
CENTER
 10
2879.4963309999998
 20
3123.8512989999999
 30
0.0
 11
1098.692258999999
 21
3123.8512989999999
 31
0.0
  0
LINE
  5
7AD3
  8
4
  6
CONTINUOUS
 10
5550.0
 20
1500.0
 30
0.0
 11
5550.0
 21
900.0
 31
0.0
  0
LINE
  5
7AD4
  8
4
  6
CONTINUOUS
 10
3450.0
 20
1500.0
 30
0.0
 11
3450.0
 21
900.0
 31
0.0
  0
LINE
  5
7AD5
  8
4
  6
CONTINUOUS
 10
1950.0
 20
1500.0
 30
0.0
 11
1950.0
 21
900.0
 31
0.0
  0
LINE
  5
7AD8
  8
4
  6
CONTINUOUS
 10
1950.0
 20
900.0
 30
0.0
 11
5550.0
 21
900.0
 31
0.0
  0
LINE
  5
7AD9
  8
4
  6
CONTINUOUS
 10
1950.0
 20
1200.0
 30
0.0
 11
5550.0
 21
1200.0
 31
0.0
  0
TEXT
  5
7ADA
  8
4
  6
CONTINUOUS
 10
2065.5062429999989
 20
1294.6290779999999
 30
0.0
 40
150.0
  1
機器名称
  0
TEXT
  5
7ADB
  8
4
  6
CONTINUOUS
 10
2058.7743179999989
 20
964.9354699999999
 30
0.0
 40
150.0
  1
機器型番
  0
TEXT
  5
7ADC
  8
4
  6
CONTINUOUS
 10
3533.0362359999999
 20
1267.7153069999999
 30
0.0
 40
150.0
  1
ミツヤ多翼送風機
  0
TEXT
  5
7ADD
  8
4
  6
CONTINUOUS
 10
3559.9634869999991
 20
951.47875299999987
 30
0.0
 40
150.0
  1
MFE#5-4
  0
TEXT
  5
7ADF
  8
4
  6
CONTINUOUS
 10
2373.5826910000001
 20
7150.2865239999992
 30
0.0
 40
162.0
  1
床置防振ベット
  0
TEXT
  5
7AE0
  8
4
  6
CONTINUOUS
 10
948.50278000000014
 20
7601.6429289999996
 30
0.0
 40
216.0
  1
ベルト駆動式片吸込両持排煙ファン
  0
LINE
  5
7AE1
  8
4
  6
CONTINUOUS
 10
750.0
 20
7408.2262629999996
 30
0.0
 11
5550.0
 21
7408.2262629999996
 31
0.0
  0
LINE
  5
7AE2
  8
4
  6
CONTINUOUS
 10
750.0
 20
8008.2262629999996
 30
0.0
 11
5550.0
 21
8008.2262629999996
 31
0.0
  0
LINE
  5
7AE3
  8
4
  6
CONTINUOUS
 10
1950.0
 20
1500.0
 30
0.0
 11
5550.0
 21
1500.0
 31
0.0
  0
LINE
  5
7AE4
  8
4
  6
CONTINUOUS
 10
750.0
 20
8008.2262629999996
 30
0.0
 11
750.0
 21
7408.2262629999996
 31
0.0
  0
TEXT
  5
7AE5
  8
4
  6
CONTINUOUS
 10
1066.0061940000001
 20
7146.9584329999998
 30
0.0
 40
162.0
  1
右回転上向
  0
TEXT
  5
7AE6
  8
4
  6
CONTINUOUS
 10
4406.9086779999989
 20
8118.1832439999989
 30
0.0
 40
168.0
  1
No.
  0
TEXT
  5
7AE7
  8
4
  6
CONTINUOUS
 10
3933.8881879999999
 20
7150.2865239999992
 30
0.0
 40
162.0
  1
縮尺：1/30
  0
LINE
  5
7AE8
  8
4
  6
CONTINUOUS
 10
5550.0
 20
8008.2262629999996
 30
0.0
 11
5550.0
 21
7408.2262629999996
 31
0.0
  0
LINE
  5
7AEA
  8
4
  6
CONTINUOUS
 10
4321.8522670000002
 20
8043.7907490000007
 30
0.0
 11
4321.8522670000002
 21
8359.9567849999985
 31
0.0
  0
LINE
  5
7AEB
  8
4
  6
CONTINUOUS
 10
4321.8522670000002
 20
8359.9567849999985
 30
0.0
 11
5550.0
 21
8359.9567849999985
 31
0.0
  0
LINE
  5
7AEC
  8
4
  6
CONTINUOUS
 10
5550.0
 20
8359.9567849999985
 30
0.0
 11
5550.0
 21
8043.7907490000007
 31
0.0
  0
LINE
  5
7AED
  8
4
  6
CONTINUOUS
 10
5550.0
 20
8043.7907490000007
 30
0.0
 11
4321.8522670000002
 21
8043.7907490000007
 31
0.0
  0
DIMENSION
  5
7B05
  8
3
  6
CONTINUOUS
  2
*D1
 10
2231.0281030000001
 20
3934.9448090000001
 30
0.0
 11
1787.2194710000001
 21
3934.9448090000001
 31
0.0
 70
   128
 13
1406.028102999999
 23
3718.8512989999999
 33
0.0
 14
2231.0281030000001
 24
3718.8512989999999
 34
0.0
1001
ACAD
1000
DSTYLE
1002
{
1070
   287
1070
     3
1070
   287
1070
     3
1070
    40
1040
30.0
1070
   143
1040
0.039
1070
   172
1070
     1
1070
   271
1070
     0
1070
   279
1070
     0
1070
   288
1070
     1
1002
}
  0
DIMENSION
  5
7B12
  8
3
  6
CONTINUOUS
  2
*D2
 10
2193.0281030000001
 20
4122.7425799999992
 30
0.0
 11
1769.600557
 21
4122.7425799999992
 31
0.0
 70
   128
 13
1406.028102999999
 23
3718.8512989999999
 33
0.0
 14
2193.0281030000001
 24
3933.4937960000002
 34
0.0
1001
ACAD
1000
DSTYLE
1002
{
1070
   287
1070
     3
1070
   287
1070
     3
1070
    40
1040
30.0
1070
   143
1040
0.039
1070
   172
1070
     1
1070
   271
1070
     0
1070
   279
1070
     0
1070
   288
1070
     1
1002
}
  0
DIMENSION
  5
7B2B
  8
3
  6
CONTINUOUS
  2
*D3
 10
2985.3068220000009
 20
3123.8512989999999
 30
0.0
 11
2985.306822
 21
3418.500888
 31
0.0
 70
   128
 13
2273.5281030000001
 23
3718.8512989999999
 33
0.0
 14
2923.4871280000002
 24
3123.8512989999999
 34
0.0
 50
90.0
1001
ACAD
1000
DSTYLE
1002
{
1070
   287
1070
     3
1070
   287
1070
     3
1070
    40
1040
30.0
1070
   143
1040
0.039
1070
   172
1070
     1
1070
   271
1070
     0
1070
   279
1070
     0
1070
   288
1070
     1
1002
}
  0
DIMENSION
  5
7B37
  8
3
  6
CONTINUOUS
  2
*D4
 10
2985.306822
 20
2428.8512989999999
 30
0.0
 11
2910.3068219999991
 21
2776.3512989999999
 31
0.0
 70
     0
 13
2923.4871280000002
 23
3123.8512989999999
 33
0.0
 14
2713.0281030000001
 24
2428.8512989999999
 34
0.0
 50
90.0
1001
ACAD
1000
DSTYLE
1002
{
1070
   287
1070
     4
1070
   287
1070
     4
1070
    40
1040
30.0
1070
    75
1070
     1
1070
   143
1040
0.039
1070
   172
1070
     1
1070
   271
1070
     0
1070
   279
1070
     1
1070
   288
1070
     1
1002
}
  0
DIMENSION
  5
7B47
  8
3
  6
CONTINUOUS
  2
*D5
 10
2986.9317529999998
 20
2303.8512989999999
 30
0.0
 11
2986.9317529999998
 21
2046.708441857143
 31
0.0
 70
   128
 13
2713.0281030000001
 23
2428.8512989999999
 33
0.0
 14
2713.0281030000001
 24
2303.8512989999999
 34
0.0
 50
90.0
1001
ACAD
1000
DSTYLE
1002
{
1070
   287
1070
     3
1070
   287
1070
     3
1070
    40
1040
30.0
1070
   143
1040
0.039
1070
   172
1070
     1
1070
   271
1070
     0
1070
   279
1070
     0
1070
   288
1070
     1
1002
}
  0
DIMENSION
  5
7B54
  8
3
  6
CONTINUOUS
  2
*D6
 10
3229.1145150000002
 20
2303.851298999999
 30
0.0
 11
3229.1145150000002
 21
3154.410241
 31
0.0
 70
   128
 13
2288.5281030000001
 23
3718.8512989999999
 33
0.0
 14
2713.0281030000001
 24
2303.8512989999999
 34
0.0
 50
90.0
1001
ACAD
1000
DSTYLE
1002
{
1070
   287
1070
     3
1070
   287
1070
     3
1070
    40
1040
30.0
1070
   143
1040
0.039
1070
   172
1070
     1
1070
   271
1070
     0
1070
   279
1070
     0
1070
   288
1070
     1
1002
}
  0
DIMENSION
  5
7B61
  8
3
  6
CONTINUOUS
  2
*D7
 10
2193.0281030000001
 20
2115.653742
 30
0.0
 11
1687.3788579999989
 21
2115.653742
 31
0.0
 70
   128
 13
1113.028102999999
 23
2303.8512989999999
 33
0.0
 14
2193.0281030000001
 24
2192.9846689999999
 34
0.0
1001
ACAD
1000
DSTYLE
1002
{
1070
   287
1070
     3
1070
   287
1070
     3
1070
    40
1040
30.0
1070
   143
1040
0.039
1070
   172
1070
     1
1070
   271
1070
     0
1070
   279
1070
     0
1070
   288
1070
     1
1002
}
  0
DIMENSION
  5
7B6D
  8
3
  6
CONTINUOUS
  2
*D8
 10
2713.0281030000001
 20
2115.653742
 30
0.0
 11
2453.0281030000001
 21
2190.6537419999991
 31
0.0
 70
     0
 13
2193.0281030000001
 23
2192.9846689999999
 33
0.0
 14
2713.0281030000001
 24
2303.8512989999999
 34
0.0
1001
ACAD
1000
DSTYLE
1002
{
1070
   287
1070
     4
1070
   287
1070
     4
1070
    40
1040
30.0
1070
    75
1070
     1
1070
   143
1040
0.039
1070
   172
1070
     1
1070
   271
1070
     0
1070
   279
1070
     1
1070
   288
1070
     1
1002
}
  0
DIMENSION
  5
7B7A
  8
3
  6
CONTINUOUS
  2
*D9
 10
5075.9429819999996
 20
3858.651953
 30
0.0
 11
4772.3414110000012
 21
3858.651953
 31
0.0
 70
   128
 13
4475.9429820000014
 23
3718.8512989999999
 33
0.0
 14
5075.9429819999996
 24
3718.8512989999999
 34
0.0
1001
ACAD
1000
DSTYLE
1002
{
1070
   287
1070
     3
1070
   287
1070
     3
1070
    40
1040
30.0
1070
   143
1040
0.039
1070
   172
1070
     1
1070
   271
1070
     0
1070
   279
1070
     0
1070
   288
1070
     1
1002
}
  0
LINE
  5
7B7B
  8
1
  6
CONTINUOUS
 10
5079.9429820000014
 20
3548.8512989999999
 30
0.0
 11
5079.9429820000014
 21
2698.8512989999999
 31
0.0
  0
DIMENSION
  5
7B8A
  8
3
  6
CONTINUOUS
  2
*D10
 10
5324.4012490000014
 20
2698.851298999999
 30
0.0
 11
5324.4012490000014
 21
3101.5921320000002
 31
0.0
 70
   128
 13
5079.9429820000014
 23
3548.8512989999999
 33
0.0
 14
5079.9429820000014
 24
2698.8512989999999
 34
0.0
 50
90.0
1001
ACAD
1000
DSTYLE
1002
{
1070
   287
1070
     3
1070
   287
1070
     3
1070
     3
1000
φ<>
1070
    40
1040
30.0
1070
   143
1040
0.039
1070
   172
1070
     1
1070
   271
1070
     0
1070
   279
1070
     0
1070
   288
1070
     1
1002
}
  0
DIMENSION
  5
7B99
  8
3
  6
CONTINUOUS
  2
*D11
 10
4775.9429820000014
 20
4061.0886829999999
 30
0.0
 11
4932.3420610000003
 21
4147.2697532632619
 31
0.0
 70
   128
 13
5079.9429820000014
 23
3548.8512989999999
 33
0.0
 14
4775.9429820000014
 24
3999.2306492955149
 34
0.0
1001
ACAD
1000
DSTYLE
1002
{
1070
   288
1070
     1
1070
   172
1070
     1
1070
    40
1040
30.0
1070
   271
1070
     0
1070
   143
1040
0.039
1002
}
  0
DIMENSION
  5
7BA5
  8
3
  6
CONTINUOUS
  2
*D12
 10
4215.9429819999996
 20
4061.0886829999999
 30
0.0
 11
4495.9429819999996
 21
4211.088682999999
 31
0.0
 70
     0
  1
MAX\P610
 13
4775.9429820000014
 23
3999.2306492955149
 33
0.0
 14
4215.9429819999996
 24
3778.8512990000008
 34
0.0
1001
ACAD
1000
DSTYLE
1002
{
1070
   287
1070
     4
1070
   287
1070
     4
1070
    40
1040
30.0
1070
    75
1070
     1
1070
   143
1040
0.039
1070
   172
1070
     1
1070
   271
1070
     0
1070
   279
1070
     1
1070
   288
1070
     1
1002
}
  0
DIMENSION
  5
7BB2
  8
3
  6
CONTINUOUS
  2
*D13
 10
4775.9429820000014
 20
2109.7850659999999
 30
0.0
 11
4570.2286969999996
 21
2109.7850659999999
 31
0.0
 70
   128
 13
4307.9429820000014
 23
2303.8512989999999
 33
0.0
 14
4775.9429820000014
 24
2122.2156260000002
 34
0.0
1001
ACAD
1000
DSTYLE
1002
{
1070
   287
1070
     3
1070
   287
1070
     3
1070
    40
1040
30.0
1070
   143
1040
0.039
1070
   172
1070
     1
1070
   271
1070
     0
1070
   279
1070
     0
1070
   288
1070
     1
1002
}
  0
DIMENSION
  5
7BC0
  8
3
  6
CONTINUOUS
  2
*D14
 10
5127.9429819999996
 20
2109.7850659999999
 30
0.0
 11
4950.4147190000003
 21
2111.6071499999998
 31
0.0
 70
   128
 13
4775.9429820000014
 23
2122.2156260000002
 33
0.0
 14
5127.9429819999996
 24
2303.8512989999999
 34
0.0
1001
ACAD
1000
DSTYLE
1002
{
1070
   287
1070
     4
1070
   287
1070
     4
1070
    40
1040
30.0
1070
    75
1070
     1
1070
   143
1040
0.039
1070
   172
1070
     1
1070
   271
1070
     0
1070
   279
1070
     1
1070
   288
1070
     1
1002
}
  0
DIMENSION
  5
7BCE
  8
3
  6
CONTINUOUS
  2
*D15
 10
2713.0281030000001
 20
6510.3139710000014
 30
0.0
 11
1828.3303370000001
 21
6510.3139710000014
 31
0.0
 70
   128
 13
1113.028102999999
 23
6315.6491059999998
 33
0.0
 14
2713.0281030000001
 24
6315.6491059999998
 34
0.0
1001
ACAD
1000
DSTYLE
1002
{
1070
   287
1070
     3
1070
   287
1070
     3
1070
    40
1040
30.0
1070
   143
1040
0.039
1070
   172
1070
     1
1070
   271
1070
     0
1070
   279
1070
     0
1070
   288
1070
     1
1002
}
  0
DIMENSION
  5
7BDB
  8
3
  6
CONTINUOUS
  2
*D16
 10
3044.036602000001
 20
5495.6491059999998
 30
0.0
 11
3044.0366020000001
 21
5920.5442849999999
 31
0.0
 70
   128
 13
2713.0281030000001
 23
6315.6491059999998
 33
0.0
 14
2713.0281030000001
 24
5495.6491059999998
 34
0.0
 50
90.0
1001
ACAD
1000
DSTYLE
1002
{
1070
   287
1070
     3
1070
   287
1070
     3
1070
    40
1040
30.0
1070
   143
1040
0.039
1070
   172
1070
     1
1070
   271
1070
     0
1070
   279
1070
     0
1070
   288
1070
     1
1002
}
  0
DIMENSION
  5
7C03
  8
3
  6
CONTINUOUS
  2
*D17
 10
2769.018750106874
 20
4122.7425799999992
 30
0.0
 11
2481.0234265534368
 21
4197.7425799999992
 31
0.0
 70
     0
 13
2193.0281030000001
 23
3933.4937960000002
 33
0.0
 14
2769.018750106874
 24
3123.8512989999999
 34
0.0
1001
ACAD
1000
DSTYLE
1002
{
1070
   287
1070
     4
1070
   287
1070
     4
1070
    40
1040
30.0
1070
    75
1070
     1
1070
   143
1040
0.039
1070
   172
1070
     1
1070
   271
1070
     0
1070
   279
1070
     1
1070
   288
1070
     1
1002
}
  0
LINE
  5
7DC9
  8
1
  6
CONTINUOUS
 10
1693.0281030000001
 20
3528.8512990000008
 30
0.0
 11
2693.0281030000001
 21
3528.8512989999999
 31
0.0
  0
LINE
  5
7DCA
  8
1
 10
1693.0281030000001
 20
3528.8512990000008
 30
0.0
 11
1693.0281030000001
 21
2528.8512989999999
 31
0.0
  0
LINE
  5
7DCB
  8
1
 10
2693.0281030000001
 20
3528.8512989999999
 30
0.0
 11
2693.0281030000001
 21
2528.8512989999999
 31
0.0
  0
ENDSEC
  0
EOF
