  0
SECTION
  2
HEADER
  9
$ACADVER
  1
AC1009
  9
$INSBASE
 10
0.0
 20
0.0
 30
0.0
  9
$EXTMIN
 10
750.0
 20
900.0
 30
0.0
  9
$EXTMAX
 10
5550.0
 20
8359.9567849999985
 30
0.0
  9
$LIMMIN
 10
0.0
 20
0.0
  9
$LIMMAX
 10
297.0
 20
210.0
  9
$ORTHOMODE
 70
     0
  9
$REGENMODE
 70
     1
  9
$FILLMODE
 70
     0
  9
$QTEXTMODE
 70
     0
  9
$MIRRTEXT
 70
     1
  9
$DRAGMODE
 70
     2
  9
$LTSCALE
 40
100.0
  9
$OSMODE
 70
    37
  9
$ATTMODE
 70
     1
  9
$TEXTSIZE
 40
180.0
  9
$TRACEWID
 40
0.05
  9
$TEXTSTYLE
  7
STANDARD
  9
$CLAYER
  8
3
  9
$CELTYPE
  6
BYLAYER
  9
$CECOLOR
 62
   256
  9
$DIMSCALE
 40
30.0
  9
$DIMASZ
 40
2.0
  9
$DIMEXO
 40
0.5
  9
$DIMDLI
 40
10.0
  9
$DIMRND
 40
0.0
  9
$DIMDLE
 40
0.0
  9
$DIMEXE
 40
1.0
  9
$DIMTP
 40
1.0
  9
$DIMTM
 40
1.0
  9
$DIMTXT
 40
3.0
  9
$DIMCEN
 40
0.0
  9
$DIMTSZ
 40
0.0
  9
$DIMTOL
 70
     0
  9
$DIMLIM
 70
     0
  9
$DIMTIH
 70
     0
  9
$DIMTOH
 70
     0
  9
$DIMSE1
 70
     0
  9
$DIMSE2
 70
     0
  9
$DIMTAD
 70
     1
  9
$DIMZIN
 70
     8
  9
$DIMBLK
  1

  9
$DIMASO
 70
     1
  9
$DIMSHO
 70
     1
  9
$DIMPOST
  1

  9
$DIMAPOST
  1

  9
$DIMALT
 70
     0
  9
$DIMALTD
 70
     2
  9
$DIMALTF
 40
0.039
  9
$DIMLFAC
 40
1.0
  9
$DIMTOFL
 70
     1
  9
$DIMTVP
 40
0.0
  9
$DIMTIX
 70
     0
  9
$DIMSOXD
 70
     0
  9
$DIMSAH
 70
     1
  9
$DIMBLK1
  1
OPEN
  9
$DIMBLK2
  1
OPEN
  9
$DIMSTYLE
  2
IGA
  9
$DIMCLRD
 70
     0
  9
$DIMCLRE
 70
     0
  9
$DIMCLRT
 70
     0
  9
$DIMTFAC
 40
10.0
  9
$DIMGAP
 40
1.0
  9
$LUNITS
 70
     2
  9
$LUPREC
 70
     3
  9
$SKETCHINC
 40
0.1
  9
$FILLETRAD
 40
50.0
  9
$AUNITS
 70
     0
  9
$AUPREC
 70
     0
  9
$MENU
  1
acad
  9
$ELEVATION
 40
0.0
  9
$PELEVATION
 40
0.0
  9
$THICKNESS
 40
0.0
  9
$LIMCHECK
 70
     0
  9
$BLIPMODE
 70
     0
  9
$CHAMFERA
 40
0.5
  9
$CHAMFERB
 40
0.5
  9
$SKPOLY
 70
     0
  9
$TDCREATE
 40
2450746.4657503469
  9
$TDUPDATE
 40
2454953.8404561342
  9
$TDINDWG
 40
0.009075
  9
$TDUSRTIMER
 40
0.009075
  9
$USRTIMER
 70
     1
  9
$ANGBASE
 50
0.0
  9
$ANGDIR
 70
     0
  9
$PDMODE
 70
     0
  9
$PDSIZE
 40
0.0
  9
$PLINEWID
 40
0.0
  9
$COORDS
 70
     1
  9
$SPLFRAME
 70
     0
  9
$SPLINETYPE
 70
     6
  9
$SPLINESEGS
 70
     8
  9
$ATTDIA
 70
     0
  9
$ATTREQ
 70
     1
  9
$HANDLING
 70
 10241
  9
$HANDSEED
  5
7E43
  9
$SURFTAB1
 70
     6
  9
$SURFTAB2
 70
     6
  9
$SURFTYPE
 70
     6
  9
$SURFU
 70
     6
  9
$SURFV
 70
     6
  9
$UCSNAME
  2

  9
$UCSORG
 10
0.0
 20
0.0
 30
0.0
  9
$UCSXDIR
 10
1.0
 20
0.0
 30
0.0
  9
$UCSYDIR
 10
0.0
 20
1.0
 30
0.0
  9
$PUCSNAME
  2

  9
$PUCSORG
 10
0.0
 20
0.0
 30
0.0
  9
$PUCSXDIR
 10
1.0
 20
0.0
 30
0.0
  9
$PUCSYDIR
 10
0.0
 20
1.0
 30
0.0
  9
$USERI1
 70
     0
  9
$USERI2
 70
     0
  9
$USERI3
 70
     0
  9
$USERI4
 70
     0
  9
$USERI5
 70
     0
  9
$USERR1
 40
0.0
  9
$USERR2
 40
0.0
  9
$USERR3
 40
0.0
  9
$USERR4
 40
0.0
  9
$USERR5
 40
0.0
  9
$WORLDVIEW
 70
     1
  9
$SHADEDGE
 70
     3
  9
$SHADEDIF
 70
    70
  9
$TILEMODE
 70
     1
  9
$MAXACTVP
 70
    16
  9
$PLIMCHECK
 70
     0
  9
$PEXTMIN
 10
1.0000000000000000E+020
 20
1.0000000000000000E+020
 30
1.0000000000000000E+020
  9
$PEXTMAX
 10
-1.0000000000000000E+020
 20
-1.0000000000000000E+020
 30
-1.0000000000000000E+020
  9
$PLIMMIN
 10
0.0
 20
0.0
  9
$PLIMMAX
 10
12.0
 20
9.0
  9
$UNITMODE
 70
     0
  9
$VISRETAIN
 70
     0
  9
$PLINEGEN
 70
     0
  9
$PSLTSCALE
 70
     1
  0
ENDSEC
  0
SECTION
  2
TABLES
  0
TABLE
  2
VPORT
 70
     2
  0
VPORT
  2
*ACTIVE
 70
     0
 10
0.0
 20
0.0
 11
1.0
 21
1.0
 12
3528.4085419130788
 22
4527.4107536142174
 13
0.0
 23
0.0
 14
10.0
 24
10.0
 15
10.0
 25
10.0
 16
0.0
 26
0.0
 36
1.0
 17
0.0
 27
0.0
 37
0.0
 40
9066.5406859748527
 41
1.5051150895140659
 42
50.0
 43
0.0
 44
0.0
 50
0.0
 51
0.0
 71
     0
 72
   100
 73
     1
 74
     0
 75
     0
 76
     0
 77
     0
 78
     0
  0
ENDTAB
  0
TABLE
  2
LTYPE
 70
     2
  0
LTYPE
  2
CONTINUOUS
 70
     0
  3
Solid line
 72
    65
 73
     0
 40
0.0
  0
LTYPE
  2
CENTER
 70
     0
  3
____ _ ____ _ ____ _ ____ _ ____ _ ____ _ ____ 
 72
    65
 73
     4
 40
2.0
 49
1.25
 49
-0.25
 49
0.25
 49
-0.25
  0
ENDTAB
  0
TABLE
  2
LAYER
 70
     6
  0
LAYER
  2
0
 70
     0
 62
     7
  6
CONTINUOUS
  0
LAYER
  2
3
 70
     0
 62
     2
  6
CONTINUOUS
  0
LAYER
  2
2
 70
     0
 62
     3
  6
CENTER
  0
LAYER
  2
1
 70
     0
 62
     4
  6
CONTINUOUS
  0
LAYER
  2
4
 70
     0
 62
     7
  6
CONTINUOUS
  0
LAYER
  2
DEFPOINTS
 70
     0
 62
     7
  6
CONTINUOUS
  0
ENDTAB
  0
TABLE
  2
STYLE
 70
     1
  0
STYLE
  2
STANDARD
 70
     0
 40
0.0
 41
1.0
 50
0.0
 71
     0
 42
180.0
  3
simplex.shx
  4
extfont.shx
  0
ENDTAB
  0
TABLE
  2
VIEW
 70
     0
  0
ENDTAB
  0
TABLE
  2
UCS
 70
     0
  0
ENDTAB
  0
TABLE
  2
APPID
 70
     1
  0
APPID
  2
ACAD
 70
     0
  0
ENDTAB
  0
TABLE
  2
DIMSTYLE
 70
     1
  0
DIMSTYLE
  2
IGA
 70
     0
  3

  4

  5

  6
OPEN
  7
OPEN
 40
2.0
 41
2.0
 42
0.5
 43
10.0
 44
1.0
 45
0.0
 46
0.0
 47
1.0
 48
1.0
140
3.0
141
0.0
142
0.0
143
0.03937
144
1.0
145
0.0
146
10.0
147
1.0
 71
     0
 72
     0
 73
     0
 74
     0
 75
     0
 76
     0
 77
     1
 78
     8
170
     0
171
     2
172
     0
173
     1
174
     0
175
     0
176
     0
177
     0
178
     0
  0
ENDTAB
  0
ENDSEC
  0
SECTION
  2
BLOCKS
  0
BLOCK
  8
0
  2
$MODEL_SPACE
 70
     0
 10
0.0
 20
0.0
 30
0.0
  3
$MODEL_SPACE
  1

  0
ENDBLK
  5
1B
  8
0
  0
BLOCK
 67
     1
  8
0
  2
$PAPER_SPACE
 70
     0
 10
0.0
 20
0.0
 30
0.0
  3
$PAPER_SPACE
  1

  0
ENDBLK
  5
18
 67
     1
  8
0
  0
BLOCK
  8
0
  2
_OPEN
 70
     0
 10
0.0
 20
0.0
 30
0.0
  3
_OPEN
  1

  0
LINE
  5
7AF7
  8
0
  6
BYBLOCK
 62
     0
 10
-1.0
 20
0.166667
 30
0.0
 11
0.0
 21
0.0
 31
0.0
  0
LINE
  5
7AF8
  8
0
  6
BYBLOCK
 62
     0
 10
0.0
 20
0.0
 30
0.0
 11
-1.0
 21
-0.166667
 31
0.0
  0
LINE
  5
7AF9
  8
0
  6
BYBLOCK
 62
     0
 10
0.0
 20
0.0
 30
0.0
 11
-1.0
 21
0.0
 31
0.0
  0
ENDBLK
  5
7AFA
  8
0
  0
BLOCK
  8
0
  2
*D1
 70
     1
 10
0.0
 20
0.0
 30
0.0
  3
*D1
  1

  0
LINE
  5
7D99
  8
3
  6
CONTINUOUS
 62
     0
 10
2712.2376547607469
 20
3975.3470919999991
 30
0.0
 11
2928.2985047607481
 21
3975.3470919999991
 31
0.0
  0
LINE
  5
7D9A
  8
3
  6
CONTINUOUS
 62
     0
 10
2712.2376547607469
 20
3150.347092
 30
0.0
 11
2928.2985047607481
 21
3150.347092
 31
0.0
  0
LINE
  5
7D9B
  8
3
  6
CONTINUOUS
 62
     0
 10
2898.2985047607481
 20
3915.347092
 30
0.0
 11
2898.2985047607481
 21
3210.347092
 31
0.0
  0
INSERT
  5
7D9C
  8
3
  6
CONTINUOUS
 62
     0
  2
_OPEN
 10
2898.2985047607481
 20
3975.3470919999991
 30
0.0
 41
60.0
 42
60.0
 43
60.0
 50
90.0
  0
INSERT
  5
7D9D
  8
3
  6
CONTINUOUS
 62
     0
  2
_OPEN
 10
2898.2985047607481
 20
3150.347092
 30
0.0
 41
60.0
 42
60.0
 43
60.0
 50
270.0
  0
TEXT
  8
3
  40
90
  5
7E31
  62
0
  72
0
  71
0
 10
2643.30
 20
3441.60
 30
0.000000
  1
825
  0
POINT
  5
7D9F
  8
DEFPOINTS
  6
CONTINUOUS
 62
     0
 10
2697.2376547607469
 20
3975.3470919999991
 30
0.0
  0
POINT
  5
7DA0
  8
DEFPOINTS
  6
CONTINUOUS
 62
     0
 10
2697.2376547607469
 20
3150.347092
 30
0.0
  0
POINT
  5
7DA1
  8
DEFPOINTS
  6
CONTINUOUS
 62
     0
 10
2898.2985047607481
 20
3150.347092
 30
0.0
  0
ENDBLK
  5
7B07
  8
0
  0
BLOCK
  8
0
  2
*D2
 70
     1
 10
0.0
 20
0.0
 30
0.0
  3
*D2
  1

  0
LINE
  5
7DA2
  8
3
  6
CONTINUOUS
 62
     0
 10
2712.2376547607469
 20
3975.3470919999991
 30
0.0
 11
3124.7149907607482
 21
3975.3470919999991
 31
0.0
  0
LINE
  5
7DA3
  8
3
  6
CONTINUOUS
 62
     0
 10
2852.8153527607469
 20
3188.347092
 30
0.0
 11
3124.7149907607482
 21
3188.3470919999991
 31
0.0
  0
LINE
  5
7DA4
  8
3
  6
CONTINUOUS
 62
     0
 10
3094.7149907607482
 20
3915.3470919999991
 30
0.0
 11
3094.7149907607482
 21
3248.3470919999991
 31
0.0
  0
INSERT
  5
7DA5
  8
3
  6
CONTINUOUS
 62
     0
  2
_OPEN
 10
3094.7149907607482
 20
3975.3470919999991
 30
0.0
 41
60.0
 42
60.0
 43
60.0
 50
90.0
  0
INSERT
  5
7DA6
  8
3
  6
CONTINUOUS
 62
     0
  2
_OPEN
 10
3094.7149907607482
 20
3188.3470919999991
 30
0.0
 41
60.0
 42
60.0
 43
60.0
 50
270.0
  0
TEXT
  8
3
  40
90
  5
7E32
  62
0
  72
0
  71
0
 10
2839.71
 20
3441.60
 30
0.000000
  1
787
  0
POINT
  5
7DA8
  8
DEFPOINTS
  6
CONTINUOUS
 62
     0
 10
2697.2376547607469
 20
3975.3470919999991
 30
0.0
  0
POINT
  5
7DA9
  8
DEFPOINTS
  6
CONTINUOUS
 62
     0
 10
2837.8153527607469
 20
3188.347092
 30
0.0
  0
POINT
  5
7DAA
  8
DEFPOINTS
  6
CONTINUOUS
 62
     0
 10
3094.7149907607482
 20
3188.3470919999991
 30
0.0
  0
ENDBLK
  5
7B14
  8
0
  0
BLOCK
  8
0
  2
*D3
 70
     1
 10
0.0
 20
0.0
 30
0.0
  3
*D3
  1

  0
LINE
  5
7DAB
  8
3
  6
CONTINUOUS
 62
     0
 10
2637.2376547607469
 20
2493.347092
 30
0.0
 11
3124.7149907607468
 21
2493.3470919999991
 31
0.0
  0
LINE
  5
7DAC
  8
3
  6
CONTINUOUS
 62
     0
 10
3094.7149907607468
 20
3128.3470919999991
 30
0.0
 11
3094.7149907607468
 21
2553.3470919999991
 31
0.0
  0
INSERT
  5
7DAD
  8
3
  6
CONTINUOUS
 62
     0
  2
_OPEN
 10
3094.7149907607468
 20
3188.3470919999991
 30
0.0
 41
60.0
 42
60.0
 43
60.0
 50
90.0
  0
INSERT
  5
7DAE
  8
3
  6
CONTINUOUS
 62
     0
  2
_OPEN
 10
3094.7149907607468
 20
2493.3470919999991
 30
0.0
 41
60.0
 42
60.0
 43
60.0
 50
270.0
  0
TEXT
  8
3
  40
90
  5
7E33
  62
0
  72
0
  71
0
 10
2839.71
 20
2681.55
 30
0.000000
  1
695
  0
POINT
  5
7DB0
  8
DEFPOINTS
  6
CONTINUOUS
 62
     0
 10
2837.8153527607469
 20
3188.347092
 30
0.0
  0
POINT
  5
7DB1
  8
DEFPOINTS
  6
CONTINUOUS
 62
     0
 10
2622.2376547607469
 20
2493.347092
 30
0.0
  0
POINT
  5
7DB2
  8
DEFPOINTS
  6
CONTINUOUS
 62
     0
 10
3094.7149907607468
 20
2493.3470919999991
 30
0.0
  0
ENDBLK
  5
7B20
  8
0
  0
BLOCK
  8
0
  2
*D4
 70
     1
 10
0.0
 20
0.0
 30
0.0
  3
*D4
  1

  0
LINE
  5
7DB3
  8
3
  6
CONTINUOUS
 62
     0
 10
2637.2376547607469
 20
2493.347092
 30
0.0
 11
3123.5054867607469
 21
2493.3470919999991
 31
0.0
  0
LINE
  5
7DB4
  8
3
  6
CONTINUOUS
 62
     0
 10
2637.2376547607469
 20
2368.347092
 30
0.0
 11
3123.5054867607469
 21
2368.3470919999991
 31
0.0
  0
LINE
  5
7DB5
  8
3
  6
CONTINUOUS
 62
     0
 10
3093.5054867607482
 20
2553.3470919999991
 30
0.0
 11
3093.5054867607482
 21
2613.3470919999991
 31
0.0
  0
LINE
  5
7DB6
  8
3
  6
CONTINUOUS
 62
     0
 10
3093.5054867607482
 20
2308.3470919999991
 30
0.0
 11
3093.5054867607482
 21
1974.0613777142851
 31
0.0
  0
LINE
  5
7DB7
  8
3
  6
CONTINUOUS
 62
     0
 10
3093.5054867607482
 20
2493.3470919999991
 30
0.0
 11
3093.5054867607482
 21
2368.3470919999991
 31
0.0
  0
INSERT
  5
7DB8
  8
3
  6
CONTINUOUS
 62
     0
  2
_OPEN
 10
3093.5054867607482
 20
2493.3470919999991
 30
0.0
 41
60.0
 42
60.0
 43
60.0
 50
270.0
  0
INSERT
  5
7DB9
  8
3
  6
CONTINUOUS
 62
     0
  2
_OPEN
 10
3093.5054867607482
 20
2368.3470919999991
 30
0.0
 41
60.0
 42
60.0
 43
60.0
 50
90.0
  0
TEXT
  8
3
  40
90
  5
7E34
  62
0
  72
0
  71
0
 10
2838.51
 20
1951.90
 30
0.000000
  1
125
  0
POINT
  5
7DBB
  8
DEFPOINTS
  6
CONTINUOUS
 62
     0
 10
2622.2376547607469
 20
2493.347092
 30
0.0
  0
POINT
  5
7DBC
  8
DEFPOINTS
  6
CONTINUOUS
 62
     0
 10
2622.2376547607469
 20
2368.347092
 30
0.0
  0
POINT
  5
7DBD
  8
DEFPOINTS
  6
CONTINUOUS
 62
     0
 10
3093.5054867607482
 20
2368.3470919999991
 30
0.0
  0
ENDBLK
  5
7C63
  8
0
  0
BLOCK
  8
0
  2
*D5
 70
     1
 10
0.0
 20
0.0
 30
0.0
  3
*D5
  1

  0
LINE
  5
7DBE
  8
3
  6
CONTINUOUS
 62
     0
 10
2712.2376547607469
 20
4017.847092
 30
0.0
 11
3442.9902187607481
 21
4017.8470919999991
 31
0.0
  0
LINE
  5
7DBF
  8
3
  6
CONTINUOUS
 62
     0
 10
2637.2376547607469
 20
2368.347092
 30
0.0
 11
3442.9902187607472
 21
2368.3470919999991
 31
0.0
  0
LINE
  5
7DC0
  8
3
  6
CONTINUOUS
 62
     0
 10
3412.9902187607481
 20
3957.8470919999991
 30
0.0
 11
3412.9902187607472
 21
2428.3470919999991
 31
0.0
  0
INSERT
  5
7DC1
  8
3
  6
CONTINUOUS
 62
     0
  2
_OPEN
 10
3412.9902187607481
 20
4017.8470919999991
 30
0.0
 41
60.0
 42
60.0
 43
60.0
 50
90.0
  0
INSERT
  5
7DC2
  8
3
  6
CONTINUOUS
 62
     0
  2
_OPEN
 10
3412.9902187607472
 20
2368.3470919999991
 30
0.0
 41
60.0
 42
60.0
 43
60.0
 50
270.0
  0
TEXT
  8
3
  40
90
  5
7E35
  62
0
  72
0
  71
0
 10
3157.99
 20
3012.31
 30
0.000000
  1
1650
  0
POINT
  5
7DC4
  8
DEFPOINTS
  6
CONTINUOUS
 62
     0
 10
2697.2376547607469
 20
4017.847092
 30
0.0
  0
POINT
  5
7DC5
  8
DEFPOINTS
  6
CONTINUOUS
 62
     0
 10
2622.2376547607469
 20
2368.347092
 30
0.0
  0
POINT
  5
7DC6
  8
DEFPOINTS
  6
CONTINUOUS
 62
     0
 10
3412.9902187607472
 20
2368.3470919999991
 30
0.0
  0
ENDBLK
  5
7B3D
  8
0
  0
BLOCK
  8
0
  2
*D6
 70
     1
 10
0.0
 20
0.0
 30
0.0
  3
*D6
  1

  0
LINE
  5
7DC7
  8
3
  6
CONTINUOUS
 62
     0
 10
1022.237654760747
 20
2353.3470919999991
 30
0.0
 11
1022.237654760747
 21
2122.648553
 31
0.0
  0
LINE
  5
7DC8
  8
3
  6
CONTINUOUS
 62
     0
 10
2102.2376547607469
 20
2272.1990689999998
 30
0.0
 11
2102.2376547607469
 21
2122.648553
 31
0.0
  0
LINE
  5
7DC9
  8
3
  6
CONTINUOUS
 62
     0
 10
1082.2376547607471
 20
2152.648553
 30
0.0
 11
2042.2376547607471
 21
2152.648553
 31
0.0
  0
INSERT
  5
7DCA
  8
3
  6
CONTINUOUS
 62
     0
  2
_OPEN
 10
1022.237654760747
 20
2152.648553
 30
0.0
 41
60.0
 42
60.0
 43
60.0
 50
180.0
  0
INSERT
  5
7DCB
  8
3
  6
CONTINUOUS
 62
     0
  2
_OPEN
 10
2102.2376547607469
 20
2152.648553
 30
0.0
 41
60.0
 42
60.0
 43
60.0
  0
TEXT
  8
3
  40
90
  5
7E36
  62
0
  72
0
  71
0
 10
1407.00
 20
2068.35
 30
0.000000
  1
1080
  0
POINT
  5
7DCD
  8
DEFPOINTS
  6
CONTINUOUS
 62
     0
 10
1022.237654760747
 20
2368.347092
 30
0.0
  0
POINT
  5
7DCE
  8
DEFPOINTS
  6
CONTINUOUS
 62
     0
 10
2102.2376547607469
 20
2287.1990689999998
 30
0.0
  0
POINT
  5
7DCF
  8
DEFPOINTS
  6
CONTINUOUS
 62
     0
 10
2102.2376547607469
 20
2152.648553
 30
0.0
  0
ENDBLK
  5
7B4A
  8
0
  0
BLOCK
  8
0
  2
*D7
 70
     1
 10
0.0
 20
0.0
 30
0.0
  3
*D7
  1

  0
LINE
  5
7DD0
  8
3
  6
CONTINUOUS
 62
     0
 10
2622.2376547607469
 20
2353.3470919999991
 30
0.0
 11
2622.2376547607469
 21
2122.648553
 31
0.0
  0
LINE
  5
7DD1
  8
3
  6
CONTINUOUS
 62
     0
 10
2162.2376547607469
 20
2152.648553
 30
0.0
 11
2562.2376547607469
 21
2152.648553
 31
0.0
  0
INSERT
  5
7DD2
  8
3
  6
CONTINUOUS
 62
     0
  2
_OPEN
 10
2102.2376547607469
 20
2152.648553
 30
0.0
 41
60.0
 42
60.0
 43
60.0
 50
180.0
  0
INSERT
  5
7DD3
  8
3
  6
CONTINUOUS
 62
     0
  2
_OPEN
 10
2622.2376547607469
 20
2152.648553
 30
0.0
 41
60.0
 42
60.0
 43
60.0
  0
TEXT
  8
3
  40
90
  5
7E37
  62
0
  72
0
  71
0
 10
2182.24
 20
2068.35
 30
0.000000
  1
520
  0
POINT
  5
7DD5
  8
DEFPOINTS
  6
CONTINUOUS
 62
     0
 10
2102.2376547607469
 20
2287.1990689999998
 30
0.0
  0
POINT
  5
7DD6
  8
DEFPOINTS
  6
CONTINUOUS
 62
     0
 10
2622.2376547607469
 20
2368.347092
 30
0.0
  0
POINT
  5
7DD7
  8
DEFPOINTS
  6
CONTINUOUS
 62
     0
 10
2622.2376547607469
 20
2152.648553
 30
0.0
  0
ENDBLK
  5
7B56
  8
0
  0
BLOCK
  8
0
  2
*D8
 70
     1
 10
0.0
 20
0.0
 30
0.0
  3
*D8
  1

  0
LINE
  5
7DD8
  8
3
  6
CONTINUOUS
 62
     0
 10
2697.2376547607469
 20
4032.8470919999991
 30
0.0
 11
2697.2376547607469
 21
4202.8006960000002
 31
0.0
  0
LINE
  5
7DD9
  8
3
  6
CONTINUOUS
 62
     0
 10
2102.2376547607469
 20
4118.8173369999986
 30
0.0
 11
2102.2376547607469
 21
4202.8006960000002
 31
0.0
  0
LINE
  5
7DDA
  8
3
  6
CONTINUOUS
 62
     0
 10
2637.2376547607469
 20
4172.8006960000002
 30
0.0
 11
2162.2376547607469
 21
4172.8006960000002
 31
0.0
  0
INSERT
  5
7DDB
  8
3
  6
CONTINUOUS
 62
     0
  2
_OPEN
 10
2697.2376547607469
 20
4172.8006960000002
 30
0.0
 41
60.0
 42
60.0
 43
60.0
  0
INSERT
  5
7DDC
  8
3
  6
CONTINUOUS
 62
     0
  2
_OPEN
 10
2102.2376547607469
 20
4172.8006960000002
 30
0.0
 41
60.0
 42
60.0
 43
60.0
 50
180.0
  0
TEXT
  8
3
  40
90
  5
7E38
  62
0
  72
0
  71
0
 10
2225.14
 20
4088.50
 30
0.000000
  1
595
  0
POINT
  5
7DDE
  8
DEFPOINTS
  6
CONTINUOUS
 62
     0
 10
2697.2376547607469
 20
4017.847092
 30
0.0
  0
POINT
  5
7DDF
  8
DEFPOINTS
  6
CONTINUOUS
 62
     0
 10
2102.2376547607469
 20
4103.8173369999986
 30
0.0
  0
POINT
  5
7DE0
  8
DEFPOINTS
  6
CONTINUOUS
 62
     0
 10
2102.2376547607469
 20
4172.8006960000002
 30
0.0
  0
ENDBLK
  5
7B63
  8
0
  0
BLOCK
  8
0
  2
*D9
 70
     1
 10
0.0
 20
0.0
 30
0.0
  3
*D9
  1

  0
LINE
  5
7DE1
  8
3
  6
CONTINUOUS
 62
     0
 10
4501.1610920000003
 20
3990.347092
 30
0.0
 11
4501.1610920000003
 21
4167.2555069999999
 31
0.0
  0
LINE
  5
7DE2
  8
3
  6
CONTINUOUS
 62
     0
 10
5101.1610920000003
 20
3990.347092
 30
0.0
 11
5101.1610920000003
 21
4167.2555069999999
 31
0.0
  0
LINE
  5
7DE3
  8
3
  6
CONTINUOUS
 62
     0
 10
4561.1610920000003
 20
4137.2555069999989
 30
0.0
 11
5041.1610920000003
 21
4137.2555069999989
 31
0.0
  0
INSERT
  5
7DE4
  8
3
  6
CONTINUOUS
 62
     0
  2
_OPEN
 10
4501.1610920000003
 20
4137.2555069999989
 30
0.0
 41
60.0
 42
60.0
 43
60.0
 50
180.0
  0
INSERT
  5
7DE5
  8
3
  6
CONTINUOUS
 62
     0
  2
_OPEN
 10
5101.1610920000003
 20
4137.2555069999989
 30
0.0
 41
60.0
 42
60.0
 43
60.0
  0
TEXT
  8
3
  40
90
  5
7E39
  62
0
  72
0
  71
0
 10
4633.02
 20
4052.96
 30
0.000000
  1
600
  0
POINT
  5
7DE7
  8
DEFPOINTS
  6
CONTINUOUS
 62
     0
 10
4501.1610920000003
 20
3975.3470919999991
 30
0.0
  0
POINT
  5
7DE8
  8
DEFPOINTS
  6
CONTINUOUS
 62
     0
 10
5101.1610920000003
 20
3975.3470919999991
 30
0.0
  0
POINT
  5
7DE9
  8
DEFPOINTS
  6
CONTINUOUS
 62
     0
 10
5101.1610920000003
 20
4137.2555069999989
 30
0.0
  0
ENDBLK
  5
7B7C
  8
0
  0
BLOCK
  8
0
  2
*D10
 70
     1
 10
0.0
 20
0.0
 30
0.0
  3
*D10
  1

  0
LINE
  5
7DEA
  8
3
  6
CONTINUOUS
 62
     0
 10
5120.1610920000003
 20
3613.3470919999991
 30
0.0
 11
5406.2317550000007
 21
3613.3470919999991
 31
0.0
  0
LINE
  5
7DEB
  8
3
  6
CONTINUOUS
 62
     0
 10
5120.1610920000003
 20
2763.347092
 30
0.0
 11
5406.2317550000007
 21
2763.347092
 31
0.0
  0
LINE
  5
7DEC
  8
3
  6
CONTINUOUS
 62
     0
 10
5376.2317549999998
 20
3553.347092
 30
0.0
 11
5376.2317549999998
 21
2823.3470919999991
 31
0.0
  0
INSERT
  5
7DED
  8
3
  6
CONTINUOUS
 62
     0
  2
_OPEN
 10
5376.2317549999998
 20
3613.3470919999991
 30
0.0
 41
60.0
 42
60.0
 43
60.0
 50
90.0
  0
INSERT
  5
7DEE
  8
3
  6
CONTINUOUS
 62
     0
  2
_OPEN
 10
5376.2317549999998
 20
2763.347092
 30
0.0
 41
60.0
 42
60.0
 43
60.0
 50
270.0
  0
TEXT
  8
3
  40
90
  5
7E3A
  62
0
  72
0
  71
0
 10
5121.23
 20
3036.01
 30
0.000000
  1
φ850
  0
POINT
  5
7DF0
  8
DEFPOINTS
  6
CONTINUOUS
 62
     0
 10
5105.1610920000003
 20
3613.347092
 30
0.0
  0
POINT
  5
7DF1
  8
DEFPOINTS
  6
CONTINUOUS
 62
     0
 10
5105.1610920000003
 20
2763.347092
 30
0.0
  0
POINT
  5
7DF2
  8
DEFPOINTS
  6
CONTINUOUS
 62
     0
 10
5376.2317549999998
 20
2763.347092
 30
0.0
  0
ENDBLK
  5
7C84
  8
0
  0
BLOCK
  8
0
  2
*D11
 70
     1
 10
0.0
 20
0.0
 30
0.0
  3
*D11
  1

  0
LINE
  5
7C70
  8
0
  6
BYBLOCK
 62
     0
 10
5105.1610920000003
 20
3628.347092
 30
0.0
 11
5105.1610920000003
 21
4374.6025020000006
 31
0.0
  0
LINE
  5
7C71
  8
0
  6
BYBLOCK
 62
     0
 10
4801.1610920000003
 20
4300.9445479999986
 30
0.0
 11
4801.1610920000003
 21
4374.6025020000006
 31
0.0
  0
LINE
  5
7C72
  8
0
  6
BYBLOCK
 62
     0
 10
5045.1610920000003
 20
4344.6025019999997
 30
0.0
 11
4861.1610920000003
 21
4344.6025019999997
 31
0.0
  0
TEXT
  5
7C73
  8
3
 62
     0
 10
4835.3039491428581
 20
4392.9256378503924
 30
0.0
 40
90.0
  1
304
  0
INSERT
  5
7C74
  8
0
  6
BYBLOCK
 62
     0
  2
_OPEN
 10
5105.1610920000003
 20
4344.6025019999997
 30
0.0
 41
60.0
 42
60.0
 43
60.0
  0
INSERT
  5
7C75
  8
0
  6
BYBLOCK
 62
     0
  2
_OPEN
 10
4801.1610920000003
 20
4344.6025019999997
 30
0.0
 41
60.0
 42
60.0
 43
60.0
 50
180.0
  0
POINT
  5
7C76
  8
DEFPOINTS
  6
BYBLOCK
 62
     0
 10
5105.1610920000003
 20
3613.347092
 30
0.0
  0
POINT
  5
7C77
  8
DEFPOINTS
  6
BYBLOCK
 62
     0
 10
4801.1610920000003
 20
4285.9445479999986
 30
0.0
  0
POINT
  5
7C78
  8
DEFPOINTS
  6
BYBLOCK
 62
     0
 10
4801.1610920000003
 20
4344.6025019999997
 30
0.0
  0
ENDBLK
  5
7C79
  8
0
  0
BLOCK
  8
0
  2
*D12
 70
     1
 10
0.0
 20
0.0
 30
0.0
  3
*D12
  1

  0
LINE
  5
7DF3
  8
3
  6
CONTINUOUS
 62
     0
 10
4241.1610920000003
 20
3858.347092
 30
0.0
 11
4241.1610920000003
 21
4374.6025020000006
 31
0.0
  0
LINE
  5
7DF4
  8
3
  6
CONTINUOUS
 62
     0
 10
4741.1610920000003
 20
4344.6025019999997
 30
0.0
 11
4301.1610920000003
 21
4344.6025019999997
 31
0.0
  0
INSERT
  5
7DF5
  8
3
  6
CONTINUOUS
 62
     0
  2
_OPEN
 10
4801.1610920000003
 20
4344.6025019999997
 30
0.0
 41
60.0
 42
60.0
 43
60.0
  0
INSERT
  5
7DF6
  8
3
  6
CONTINUOUS
 62
     0
  2
_OPEN
 10
4241.1610920000003
 20
4344.6025019999997
 30
0.0
 41
60.0
 42
60.0
 43
60.0
 50
180.0
  0
TEXT
  8
3
  40
90
  5
7E3B
  62
0
  72
0
  71
0
 10
4341.16
 20
4335.30
 30
0.000000
  1
MAX
  0
TEXT
  8
3
  40
90
  5
7E3C
  62
0
  72
0
  71
0
 10
4341.16
 20
4218.30
 30
0.000000
  1
610
  0
POINT
  5
7DF8
  8
DEFPOINTS
  6
CONTINUOUS
 62
     0
 10
4801.1610920000003
 20
4285.9445479999986
 30
0.0
  0
POINT
  5
7DF9
  8
DEFPOINTS
  6
CONTINUOUS
 62
     0
 10
4241.1610920000003
 20
3843.347092
 30
0.0
  0
POINT
  5
7DFA
  8
DEFPOINTS
  6
CONTINUOUS
 62
     0
 10
4241.1610920000003
 20
4344.6025019999997
 30
0.0
  0
ENDBLK
  5
7C8E
  8
0
  0
BLOCK
  8
0
  2
*D13
 70
     1
 10
0.0
 20
0.0
 30
0.0
  3
*D13
  1

  0
LINE
  5
7DFB
  8
3
  6
CONTINUOUS
 62
     0
 10
4333.1610920000003
 20
2353.3470919999991
 30
0.0
 11
4333.1610920000003
 21
2104.8251149999992
 31
0.0
  0
LINE
  5
7DFC
  8
3
  6
CONTINUOUS
 62
     0
 10
4801.1610920000003
 20
2190.642382999999
 30
0.0
 11
4801.1610920000003
 21
2104.8251149999992
 31
0.0
  0
LINE
  5
7DFD
  8
3
  6
CONTINUOUS
 62
     0
 10
4273.1610920000003
 20
2134.8251149999992
 30
0.0
 11
4213.1610920000003
 21
2134.8251149999992
 31
0.0
  0
LINE
  5
7DFE
  8
3
  6
CONTINUOUS
 62
     0
 10
4861.1610920000003
 20
2134.8251149999992
 30
0.0
 11
4921.1610920000012
 21
2134.8251149999992
 31
0.0
  0
LINE
  5
7DFF
  8
3
  6
CONTINUOUS
 62
     0
 10
4333.1610920000003
 20
2134.8251149999992
 30
0.0
 11
4801.1610920000003
 21
2134.8251149999992
 31
0.0
  0
INSERT
  5
7E00
  8
3
  6
CONTINUOUS
 62
     0
  2
_OPEN
 10
4333.1610920000003
 20
2134.8251149999992
 30
0.0
 41
60.0
 42
60.0
 43
60.0
  0
INSERT
  5
7E01
  8
3
  6
CONTINUOUS
 62
     0
  2
_OPEN
 10
4801.1610920000003
 20
2134.8251149999992
 30
0.0
 41
60.0
 42
60.0
 43
60.0
 50
180.0
  0
TEXT
  8
3
  40
90
  5
7E3D
  62
0
  72
0
  71
0
 10
4415.45
 20
2050.53
 30
0.000000
  1
468
  0
POINT
  5
7E03
  8
DEFPOINTS
  6
CONTINUOUS
 62
     0
 10
4333.1610920000003
 20
2368.347092
 30
0.0
  0
POINT
  5
7E04
  8
DEFPOINTS
  6
CONTINUOUS
 62
     0
 10
4801.1610920000003
 20
2205.6423829999999
 30
0.0
  0
POINT
  5
7E05
  8
DEFPOINTS
  6
CONTINUOUS
 62
     0
 10
4801.1610920000003
 20
2134.8251149999992
 30
0.0
  0
ENDBLK
  5
7C42
  8
0
  0
BLOCK
  8
0
  2
*D14
 70
     1
 10
0.0
 20
0.0
 30
0.0
  3
*D14
  1

  0
LINE
  5
7E06
  8
3
  6
CONTINUOUS
 62
     0
 10
5153.1610920000012
 20
2353.3470919999991
 30
0.0
 11
5153.1610920000012
 21
2104.8251149999992
 31
0.0
  0
LINE
  5
7E07
  8
3
  6
CONTINUOUS
 62
     0
 10
4861.1610920000003
 20
2134.8251149999992
 30
0.0
 11
5093.1610920000003
 21
2134.8251149999992
 31
0.0
  0
TEXT
  8
3
  40
90
  5
7E3E
  62
0
  72
0
  71
0
 10
4813.94
 20
2048.72
 30
0.000000
  1
352
  0
INSERT
  5
7E09
  8
3
  6
CONTINUOUS
 62
     0
  2
_OPEN
 10
4801.1610920000003
 20
2134.8251149999992
 30
0.0
 41
60.0
 42
60.0
 43
60.0
 50
180.0
  0
INSERT
  5
7E0A
  8
3
  6
CONTINUOUS
 62
     0
  2
_OPEN
 10
5153.1610920000012
 20
2134.8251149999992
 30
0.0
 41
60.0
 42
60.0
 43
60.0
  0
POINT
  5
7E0B
  8
DEFPOINTS
  6
CONTINUOUS
 62
     0
 10
4801.1610920000003
 20
2205.6423829999999
 30
0.0
  0
POINT
  5
7E0C
  8
DEFPOINTS
  6
CONTINUOUS
 62
     0
 10
5153.1610920000012
 20
2368.347092
 30
0.0
  0
POINT
  5
7E0D
  8
DEFPOINTS
  6
CONTINUOUS
 62
     0
 10
5153.1610920000012
 20
2134.8251149999992
 30
0.0
  0
ENDBLK
  5
7C4C
  8
0
  0
BLOCK
  8
0
  2
*D15
 70
     1
 10
0.0
 20
0.0
 30
0.0
  3
*D15
  1

  0
LINE
  5
7E0E
  8
3
  6
CONTINUOUS
 62
     0
 10
1022.237654760747
 20
6243.4904770000003
 30
0.0
 11
1022.237654760747
 21
6443.546977
 31
0.0
  0
LINE
  5
7E0F
  8
3
  6
CONTINUOUS
 62
     0
 10
2622.2376547607469
 20
6243.4904770000003
 30
0.0
 11
2622.2376547607469
 21
6443.546977
 31
0.0
  0
LINE
  5
7E10
  8
3
  6
CONTINUOUS
 62
     0
 10
1082.2376547607471
 20
6413.546977
 30
0.0
 11
2562.2376547607469
 21
6413.546977
 31
0.0
  0
INSERT
  5
7E11
  8
3
  6
CONTINUOUS
 62
     0
  2
_OPEN
 10
1022.237654760747
 20
6413.546977
 30
0.0
 41
60.0
 42
60.0
 43
60.0
 50
180.0
  0
INSERT
  5
7E12
  8
3
  6
CONTINUOUS
 62
     0
  2
_OPEN
 10
2622.2376547607469
 20
6413.546977
 30
0.0
 41
60.0
 42
60.0
 43
60.0
  0
TEXT
  8
3
  40
90
  5
7E3F
  62
0
  72
0
  71
0
 10
1644.14
 20
6329.25
 30
0.000000
  1
1600
  0
POINT
  5
7E14
  8
DEFPOINTS
  6
CONTINUOUS
 62
     0
 10
1022.237654760747
 20
6228.4904770000012
 30
0.0
  0
POINT
  5
7E15
  8
DEFPOINTS
  6
CONTINUOUS
 62
     0
 10
2622.2376547607469
 20
6228.4904770000012
 30
0.0
  0
POINT
  5
7E16
  8
DEFPOINTS
  6
CONTINUOUS
 62
     0
 10
2622.2376547607469
 20
6413.546977
 30
0.0
  0
ENDBLK
  5
7BE6
  8
0
  0
BLOCK
  8
0
  2
*D16
 70
     1
 10
0.0
 20
0.0
 30
0.0
  3
*D16
  1

  0
LINE
  5
7E17
  8
3
  6
CONTINUOUS
 62
     0
 10
2637.2376547607469
 20
6228.4904770000012
 30
0.0
 11
3010.2070297607479
 21
6228.4904770000012
 31
0.0
  0
LINE
  5
7E18
  8
3
  6
CONTINUOUS
 62
     0
 10
2637.2376547607469
 20
5408.4904770000003
 30
0.0
 11
3010.2070297607479
 21
5408.4904770000003
 31
0.0
  0
LINE
  5
7E19
  8
3
  6
CONTINUOUS
 62
     0
 10
2980.2070297607479
 20
6168.4904770000003
 30
0.0
 11
2980.2070297607479
 21
5468.4904770000003
 31
0.0
  0
INSERT
  5
7E1A
  8
3
  6
CONTINUOUS
 62
     0
  2
_OPEN
 10
2980.2070297607479
 20
6228.4904770000012
 30
0.0
 41
60.0
 42
60.0
 43
60.0
 50
90.0
  0
INSERT
  5
7E1B
  8
3
  6
CONTINUOUS
 62
     0
  2
_OPEN
 10
2980.2070297607479
 20
5408.4904770000003
 30
0.0
 41
60.0
 42
60.0
 43
60.0
 50
270.0
  0
TEXT
  8
3
  40
90
  5
7E40
  62
0
  72
0
  71
0
 10
2725.21
 20
5697.37
 30
0.000000
  1
820
  0
POINT
  5
7E1D
  8
DEFPOINTS
  6
CONTINUOUS
 62
     0
 10
2622.2376547607469
 20
6228.4904770000012
 30
0.0
  0
POINT
  5
7E1E
  8
DEFPOINTS
  6
CONTINUOUS
 62
     0
 10
2622.2376547607469
 20
5408.4904770000003
 30
0.0
  0
POINT
  5
7E1F
  8
DEFPOINTS
  6
CONTINUOUS
 62
     0
 10
2980.2070297607479
 20
5408.4904770000003
 30
0.0
  0
ENDBLK
  5
7BF3
  8
0
  0
BLOCK
  8
0
  2
*D17
 70
     1
 10
0.0
 20
0.0
 30
0.0
  3
*D17
  1

  0
LINE
  5
7E20
  8
3
  6
CONTINUOUS
 62
     0
 10
1438.2334287607471
 20
3203.347092
 30
0.0
 11
1438.2334287607471
 21
4202.8006960000002
 31
0.0
  0
LINE
  5
7E21
  8
3
  6
CONTINUOUS
 62
     0
 10
2042.2376547607471
 20
4172.8006960000002
 30
0.0
 11
1498.2334287607471
 21
4172.8006960000002
 31
0.0
  0
INSERT
  5
7E22
  8
3
  6
CONTINUOUS
 62
     0
  2
_OPEN
 10
2102.2376547607469
 20
4172.8006960000002
 30
0.0
 41
60.0
 42
60.0
 43
60.0
  0
INSERT
  5
7E23
  8
3
  6
CONTINUOUS
 62
     0
  2
_OPEN
 10
1438.2334287607471
 20
4172.8006960000002
 30
0.0
 41
60.0
 42
60.0
 43
60.0
 50
180.0
  0
TEXT
  8
3
  40
90
  5
7E41
  62
0
  72
0
  71
0
 10
1590.24
 20
4088.50
 30
0.000000
  1
664
  0
POINT
  5
7E25
  8
DEFPOINTS
  6
CONTINUOUS
 62
     0
 10
2102.2376547607469
 20
4103.8173369999986
 30
0.0
  0
POINT
  5
7E26
  8
DEFPOINTS
  6
CONTINUOUS
 62
     0
 10
1438.2334287607471
 20
3188.347092
 30
0.0
  0
POINT
  5
7E27
  8
DEFPOINTS
  6
CONTINUOUS
 62
     0
 10
1438.2334287607471
 20
4172.8006960000002
 30
0.0
  0
ENDBLK
  5
7C1E
  8
0
  0
BLOCK
  8
0
  2
*D18
 70
     1
 10
0.0
 20
0.0
 30
0.0
  3
*D18
  1

  0
LINE
  5
7E28
  8
3
 62
     0
 10
2697.2376547607469
 20
4032.8470919999991
 30
0.0
 11
2697.2376547607469
 21
4391.5484178008483
 31
0.0
  0
LINE
  5
7E29
  8
3
 62
     0
 10
1022.237654760747
 20
2608.347092
 30
0.0
 11
1022.237654760747
 21
4391.5484178008483
 31
0.0
  0
LINE
  5
7E2A
  8
3
 62
     0
 10
2637.2376547607469
 20
4361.5484178008492
 30
0.0
 11
1082.2376547607471
 21
4361.5484178008492
 31
0.0
  0
INSERT
  5
7E2B
  8
3
 62
     0
  2
_OPEN
 10
2697.2376547607469
 20
4361.5484178008492
 30
0.0
 41
60.0
 42
60.0
 43
60.0
  0
INSERT
  5
7E2C
  8
3
 62
     0
  2
_OPEN
 10
1022.237654760747
 20
4361.5484178008492
 30
0.0
 41
60.0
 42
60.0
 43
60.0
 50
180.0
  0
TEXT
  8
3
  40
90
  5
7E42
  62
0
  72
0
  71
0
 10
1695.98
 20
4277.25
 30
0.000000
  1
1675
  0
POINT
  5
7E2E
  8
DEFPOINTS
 62
     0
 10
2697.2376547607469
 20
4017.847092
 30
0.0
  0
POINT
  5
7E2F
  8
DEFPOINTS
 62
     0
 10
1022.237654760747
 20
2593.347092
 30
0.0
  0
POINT
  5
7E30
  8
DEFPOINTS
 62
     0
 10
1022.237654760747
 20
4361.5484178008492
 30
0.0
  0
ENDBLK
  5
7C9A
  8
0
  0
ENDSEC
  0
SECTION
  2
ENTITIES
  0
LINE
  5
7A6E
  8
1
  6
CONTINUOUS
 10
5153.1610920000012
 20
2593.347092
 30
0.0
 11
4241.1610920000003
 21
2593.347092
 31
0.0
  0
LINE
  5
7A6F
  8
1
  6
CONTINUOUS
 10
4391.1610919999994
 20
3843.347092
 30
0.0
 11
4241.1610920000003
 21
3843.347092
 31
0.0
  0
LINE
  5
7A70
  8
1
  6
CONTINUOUS
 10
2622.2376547607469
 20
2468.347092
 30
0.0
 11
1022.237654760747
 21
2468.347092
 31
0.0
  0
LINE
  5
7A71
  8
1
  6
CONTINUOUS
 10
2622.2376547607469
 20
2368.347092
 30
0.0
 11
1022.237654760747
 21
2368.347092
 31
0.0
  0
ARC
  5
7A72
  8
1
  6
CONTINUOUS
 10
2154.2376547607469
 20
3240.347092
 30
0.0
 40
717.88999999999987
 50
94.150000000000006
 51
184.75999999999991
  0
ARC
  5
7A73
  8
1
  6
CONTINUOUS
 10
2058.2376547607469
 20
3232.3470919999991
 30
0.0
 40
621.54999999999995
 50
184.75999999999991
 51
276.5
  0
LINE
  5
7A74
  8
1
  6
CONTINUOUS
 10
2622.2376547607469
 20
2593.347092
 30
0.0
 11
1022.237654760747
 21
2593.347092
 31
0.0
  0
LINE
  5
7A76
  8
1
  6
CONTINUOUS
 10
2622.2376547607469
 20
2493.347092
 30
0.0
 11
1022.237654760747
 21
2493.347092
 31
0.0
  0
LINE
  5
7A78
  8
1
  6
CONTINUOUS
 10
1952.2376547607471
 20
3843.347092
 30
0.0
 11
1042.2376547607471
 21
2893.347092
 31
0.0
  0
LINE
  5
7A79
  8
1
  6
CONTINUOUS
 10
1999.4576547607469
 20
3359.9170919999988
 30
0.0
 11
1161.067654760747
 21
2857.6870920000001
 31
0.0
  0
LINE
  5
7A7A
  8
1
  6
CONTINUOUS
 10
2158.5276547607468
 20
2996.4270919999999
 30
0.0
 11
1220.7176547607471
 21
2721.3770920000002
 31
0.0
  0
ARC
  5
7A7C
  8
1
  6
CONTINUOUS
 10
1199.617654760747
 20
2793.347092
 30
0.0
 40
162.0
 50
324.97000000000003
 51
215.02999999999989
  0
LINE
  5
7A7D
  8
1
  6
CONTINUOUS
 10
1045.617654760747
 20
2593.347092
 30
0.0
 11
1353.617654760747
 21
2593.347092
 31
0.0
  0
CIRCLE
  5
7A7E
  8
1
  6
CONTINUOUS
 10
1199.617654760747
 20
2793.347092
 30
0.0
 40
75.0
  0
LINE
  5
7A7F
  8
2
  6
CENTER
 10
1124.617654760747
 20
2793.347092
 30
0.0
 11
1274.617654760747
 21
2793.347092
 31
0.0
  0
LINE
  5
7A80
  8
1
  6
CONTINUOUS
 10
1022.237654760747
 20
2468.347092
 30
0.0
 11
1022.237654760747
 21
2368.347092
 31
0.0
  0
LINE
  5
7A81
  8
1
  6
CONTINUOUS
 10
1022.237654760747
 20
2593.347092
 30
0.0
 11
1022.237654760747
 21
2493.347092
 31
0.0
  0
LINE
  5
7A82
  8
1
  6
CONTINUOUS
 10
1045.617654760747
 20
2593.347092
 30
0.0
 11
1045.617654760747
 21
2651.3470919999991
 31
0.0
  0
LINE
  5
7A83
  8
1
  6
CONTINUOUS
 10
1045.617654760747
 20
2651.3470919999991
 30
0.0
 11
1066.9576547607469
 21
2700.367092
 31
0.0
  0
LINE
  5
7A84
  8
1
  6
CONTINUOUS
 10
1042.2376547607471
 20
2893.347092
 30
0.0
 11
1042.2376547607471
 21
2593.347092
 31
0.0
  0
LINE
  5
7A85
  8
2
  6
CENTER
 10
1199.617654760747
 20
2718.347092
 30
0.0
 11
1199.617654760747
 21
2868.347092
 31
0.0
  0
LINE
  5
7A86
  8
1
  6
CONTINUOUS
 10
1353.617654760747
 20
2651.3470919999991
 30
0.0
 11
1332.2676547607471
 21
2700.367092
 31
0.0
  0
LINE
  5
7A87
  8
1
  6
CONTINUOUS
 10
1353.617654760747
 20
2593.347092
 30
0.0
 11
1353.617654760747
 21
2651.3470919999991
 31
0.0
  0
LINE
  5
7A88
  8
1
  6
CONTINUOUS
 10
2697.2376547607469
 20
3975.3470919999991
 30
0.0
 11
2102.2376547607469
 21
3956.347092
 31
0.0
  0
ARC
  5
7A89
  8
1
  6
CONTINUOUS
 10
2067.2376547607469
 20
3153.347092
 30
0.0
 40
542.03999999999985
 50
276.5
 51
359.67999999999989
  0
LINE
  5
7A8A
  8
2
  6
CENTER
 10
2102.2376547607469
 20
6383.8585130000001
 30
0.0
 11
2102.2376547607469
 21
5220.5902029999997
 31
0.0
  0
CIRCLE
  5
7A8C
  8
1
  6
CONTINUOUS
 10
2102.2376547607469
 20
3188.347092
 30
0.0
 40
200.0
  0
LINE
  5
7A8D
  8
1
  6
CONTINUOUS
 10
2522.2376547607469
 20
2593.347092
 30
0.0
 11
2522.2376547607469
 21
3843.347092
 31
0.0
  0
LINE
  5
7A8E
  8
2
  6
CENTER
 10
5231.6818979999998
 20
3188.347092
 30
0.0
 11
4131.0910869999998
 21
3188.347092
 31
0.0
  0
LINE
  5
7A8F
  8
1
  6
CONTINUOUS
 10
2522.2376547607469
 20
3843.347092
 30
0.0
 11
1952.2376547607471
 21
3843.347092
 31
0.0
  0
LINE
  5
7A90
  8
1
  6
CONTINUOUS
 10
2697.2376547607469
 20
3107.847092
 30
0.0
 11
2697.2376547607469
 21
4017.847092
 31
0.0
  0
LINE
  5
7A92
  8
1
  6
CONTINUOUS
 10
2657.2376547607469
 20
3150.347092
 30
0.0
 11
2657.2376547607469
 21
3975.3470919999991
 31
0.0
  0
LINE
  5
7A93
  8
1
  6
CONTINUOUS
 10
4241.1610920000003
 20
3843.347092
 30
0.0
 11
4241.1610920000003
 21
2593.347092
 31
0.0
  0
LINE
  5
7A95
  8
1
  6
CONTINUOUS
 10
2622.2376547607469
 20
2468.347092
 30
0.0
 11
2622.2376547607469
 21
2368.347092
 31
0.0
  0
LINE
  5
7A96
  8
1
  6
CONTINUOUS
 10
2609.2676547607471
 20
3150.347092
 30
0.0
 11
2697.2376547607469
 21
3150.347092
 31
0.0
  0
LINE
  5
7A97
  8
1
  6
CONTINUOUS
 10
2622.2376547607469
 20
2593.347092
 30
0.0
 11
2622.2376547607469
 21
2493.347092
 31
0.0
  0
LINE
  5
7A99
  8
1
  6
CONTINUOUS
 10
1436.347654760747
 20
6176.4904770000003
 30
0.0
 11
2697.2376547607469
 21
6176.4904770000003
 31
0.0
  0
LINE
  5
7A9A
  8
1
  6
CONTINUOUS
 10
1436.347654760747
 20
5576.4904770000003
 30
0.0
 11
2697.2376547607469
 21
5576.4904770000003
 31
0.0
  0
LINE
  5
7A9B
  8
1
  6
CONTINUOUS
 10
1022.237654760747
 20
6228.4904770000012
 30
0.0
 11
2622.2376547607469
 21
6228.4904770000012
 31
0.0
  0
LINE
  5
7A9C
  8
1
  6
CONTINUOUS
 10
1042.2376547607471
 20
5316.4904770000012
 30
0.0
 11
2522.2376547607469
 21
5316.4904770000012
 31
0.0
  0
LINE
  5
7A9D
  8
1
  6
CONTINUOUS
 10
1042.2376547607471
 20
5466.4904770000003
 30
0.0
 11
2522.2376547607469
 21
5466.4904770000003
 31
0.0
  0
LINE
  5
7A9E
  8
1
  6
CONTINUOUS
 10
1274.617654760747
 20
5408.4904770000003
 30
0.0
 11
1902.2376547607471
 21
5408.4904770000003
 31
0.0
  0
LINE
  5
7A9F
  8
1
  6
CONTINUOUS
 10
1022.237654760747
 20
6228.4904770000012
 30
0.0
 11
1022.237654760747
 21
5408.4904770000003
 31
0.0
  0
LINE
  5
7AA0
  8
1
  6
CONTINUOUS
 10
1436.347654760747
 20
5576.4904770000003
 30
0.0
 11
1436.347654760747
 21
6176.4904770000003
 31
0.0
  0
LINE
  5
7AA1
  8
1
  6
CONTINUOUS
 10
1037.617654760747
 20
5999.4904770000012
 30
0.0
 11
1361.617654760747
 21
5999.4904770000012
 31
0.0
  0
LINE
  5
7AA2
  8
1
  6
CONTINUOUS
 10
1037.617654760747
 20
5514.4904770000003
 30
0.0
 11
1361.617654760747
 21
5514.4904770000003
 31
0.0
  0
LINE
  5
7AA3
  8
1
  6
CONTINUOUS
 10
1274.617654760747
 20
5426.4904770000003
 30
0.0
 11
1124.617654760747
 21
5426.4904770000003
 31
0.0
  0
LINE
  5
7AA4
  8
1
  6
CONTINUOUS
 10
1274.617654760747
 20
5356.4904770000012
 30
0.0
 11
1124.617654760747
 21
5356.4904770000012
 31
0.0
  0
LINE
  5
7AA5
  8
1
  6
CONTINUOUS
 10
1220.617654760747
 20
5426.4904770000003
 30
0.0
 11
1220.617654760747
 21
5514.4904770000003
 31
0.0
  0
LINE
  5
7AA6
  8
1
  6
CONTINUOUS
 10
1178.617654760747
 20
5426.4904770000003
 30
0.0
 11
1178.617654760747
 21
5514.4904770000003
 31
0.0
  0
LINE
  5
7AA7
  8
1
  6
CONTINUOUS
 10
1022.237654760747
 20
5408.4904770000003
 30
0.0
 11
1124.617654760747
 21
5408.4904770000003
 31
0.0
  0
LINE
  5
7AA8
  8
1
  6
CONTINUOUS
 10
1042.2376547607471
 20
5466.4904770000003
 30
0.0
 11
1042.2376547607471
 21
5316.4904770000012
 31
0.0
  0
LINE
  5
7AA9
  8
1
  6
CONTINUOUS
 10
1124.617654760747
 20
5356.4904770000012
 30
0.0
 11
1124.617654760747
 21
5426.4904770000003
 31
0.0
  0
LINE
  5
7AAA
  8
1
  6
CONTINUOUS
 10
1037.617654760747
 20
5514.4904770000003
 30
0.0
 11
1037.617654760747
 21
5999.4904770000012
 31
0.0
  0
LINE
  5
7AAB
  8
1
  6
CONTINUOUS
 10
1274.617654760747
 20
5356.4904770000012
 30
0.0
 11
1274.617654760747
 21
5426.4904770000003
 31
0.0
  0
LINE
  5
7AAC
  8
1
  6
CONTINUOUS
 10
1361.617654760747
 20
5514.4904770000003
 30
0.0
 11
1361.617654760747
 21
5999.4904770000012
 31
0.0
  0
LINE
  5
7AAD
  8
1
  6
CONTINUOUS
 10
2302.2376547607469
 20
5408.4904770000003
 30
0.0
 11
2622.2376547607469
 21
5408.4904770000003
 31
0.0
  0
LINE
  5
7AAE
  8
1
  6
CONTINUOUS
 10
2302.2376547607469
 20
5426.4904770000003
 30
0.0
 11
1902.2376547607471
 21
5426.4904770000003
 31
0.0
  0
LINE
  5
7AAF
  8
1
  6
CONTINUOUS
 10
2302.2376547607469
 20
5356.4904770000012
 30
0.0
 11
1902.2376547607471
 21
5356.4904770000012
 31
0.0
  0
LINE
  5
7AB0
  8
1
  6
CONTINUOUS
 10
2081.2376547607469
 20
5426.4904770000003
 30
0.0
 11
2081.2376547607469
 21
5576.4904770000003
 31
0.0
  0
LINE
  5
7AB1
  8
1
  6
CONTINUOUS
 10
1902.2376547607471
 20
5356.4904770000012
 30
0.0
 11
1902.2376547607471
 21
5426.4904770000003
 31
0.0
  0
LINE
  5
7AB2
  8
1
  6
CONTINUOUS
 10
2123.2376547607469
 20
5426.4904770000003
 30
0.0
 11
2123.2376547607469
 21
5576.4904770000003
 31
0.0
  0
LINE
  5
7AB3
  8
1
  6
CONTINUOUS
 10
2302.2376547607469
 20
5356.4904770000012
 30
0.0
 11
2302.2376547607469
 21
5426.4904770000003
 31
0.0
  0
LINE
  5
7AB4
  8
1
  6
CONTINUOUS
 10
2522.2376547607469
 20
5316.4904770000012
 30
0.0
 11
2522.2376547607469
 21
5466.4904770000003
 31
0.0
  0
LINE
  5
7AB5
  8
1
  6
CONTINUOUS
 10
2697.2376547607469
 20
5534.4904770000012
 30
0.0
 11
2697.2376547607469
 21
6218.4904770000003
 31
0.0
  0
LINE
  5
7AB6
  8
1
  6
CONTINUOUS
 10
2622.2376547607469
 20
5576.4904770000003
 30
0.0
 11
2622.2376547607469
 21
5408.4904770000003
 31
0.0
  0
LINE
  5
7AB7
  8
1
  6
CONTINUOUS
 10
2622.2376547607469
 20
6228.4904770000012
 30
0.0
 11
2622.2376547607469
 21
6176.4904770000003
 31
0.0
  0
LINE
  5
7AB8
  8
1
  6
CONTINUOUS
 10
5153.1610920000012
 20
2468.347092
 30
0.0
 11
4333.1610920000003
 21
2468.347092
 31
0.0
  0
LINE
  5
7AB9
  8
1
  6
CONTINUOUS
 10
5153.1610920000012
 20
2368.347092
 30
0.0
 11
4333.1610920000003
 21
2368.347092
 31
0.0
  0
LINE
  5
7ABA
  8
1
  6
CONTINUOUS
 10
5153.1610920000012
 20
2493.347092
 30
0.0
 11
4333.1610920000003
 21
2493.347092
 31
0.0
  0
LINE
  5
7ABB
  8
1
  6
CONTINUOUS
 10
4501.1610920000003
 20
3975.3470919999991
 30
0.0
 11
4501.1610920000003
 21
2593.347092
 31
0.0
  0
LINE
  5
7ABC
  8
1
  6
CONTINUOUS
 10
5101.1610920000003
 20
3975.3470919999991
 30
0.0
 11
5101.1610920000003
 21
2593.347092
 31
0.0
  0
LINE
  5
7ABD
  8
1
  6
CONTINUOUS
 10
5101.1610920000003
 20
3150.347092
 30
0.0
 11
4501.1610920000003
 21
3975.3470919999991
 31
0.0
  0
LINE
  5
7ABE
  8
1
  6
CONTINUOUS
 10
4501.1610920000003
 20
3150.347092
 30
0.0
 11
5101.1610920000003
 21
3975.3470919999991
 31
0.0
  0
LINE
  5
7ABF
  8
1
  6
CONTINUOUS
 10
4391.1610919999994
 20
3843.347092
 30
0.0
 11
4391.1610919999994
 21
2593.347092
 31
0.0
  0
LINE
  5
7AC0
  8
1
  6
CONTINUOUS
 10
4281.1610920000003
 20
3388.347092
 30
0.0
 11
4281.1610920000003
 21
2988.347092
 31
0.0
  0
LINE
  5
7AC1
  8
1
  6
CONTINUOUS
 10
4351.1610920000003
 20
3388.347092
 30
0.0
 11
4351.1610920000003
 21
2988.347092
 31
0.0
  0
LINE
  5
7AC2
  8
1
  6
CONTINUOUS
 10
4501.1610920000003
 20
3150.347092
 30
0.0
 11
5101.1610920000003
 21
3150.347092
 31
0.0
  0
LINE
  5
7AC3
  8
1
  6
CONTINUOUS
 10
4333.1610920000003
 20
2468.347092
 30
0.0
 11
4333.1610920000003
 21
2368.347092
 31
0.0
  0
LINE
  5
7AC4
  8
1
  6
CONTINUOUS
 10
4351.1610920000003
 20
2814.347092
 30
0.0
 11
4501.1610920000003
 21
2814.347092
 31
0.0
  0
LINE
  5
7AC5
  8
1
  6
CONTINUOUS
 10
4351.1610920000003
 20
2772.347092
 30
0.0
 11
4501.1610920000003
 21
2772.347092
 31
0.0
  0
LINE
  5
7AC6
  8
1
  6
CONTINUOUS
 10
4501.1610920000003
 20
3167.3470919999991
 30
0.0
 11
4351.1610920000003
 21
3167.3470919999991
 31
0.0
  0
LINE
  5
7AC7
  8
1
  6
CONTINUOUS
 10
4333.1610920000003
 20
2593.347092
 30
0.0
 11
4333.1610920000003
 21
2493.347092
 31
0.0
  0
LINE
  5
7AC8
  8
1
  6
CONTINUOUS
 10
4281.1610920000003
 20
2988.347092
 30
0.0
 11
4351.1610920000003
 21
2988.347092
 31
0.0
  0
LINE
  5
7AC9
  8
1
  6
CONTINUOUS
 10
4281.1610920000003
 20
2868.347092
 30
0.0
 11
4351.1610920000003
 21
2868.347092
 31
0.0
  0
LINE
  5
7ACA
  8
1
  6
CONTINUOUS
 10
4281.1610920000003
 20
2718.347092
 30
0.0
 11
4351.1610920000003
 21
2718.347092
 31
0.0
  0
LINE
  5
7ACB
  8
1
  6
CONTINUOUS
 10
4281.1610920000003
 20
2868.347092
 30
0.0
 11
4281.1610920000003
 21
2718.347092
 31
0.0
  0
LINE
  5
7ACC
  8
1
  6
CONTINUOUS
 10
4351.1610920000003
 20
2868.347092
 30
0.0
 11
4351.1610920000003
 21
2718.347092
 31
0.0
  0
LINE
  5
7ACD
  8
1
  6
CONTINUOUS
 10
4501.1610920000003
 20
3975.3470919999991
 30
0.0
 11
5101.1610920000003
 21
3975.3470919999991
 31
0.0
  0
LINE
  5
7ACE
  8
1
  6
CONTINUOUS
 10
4501.1610920000003
 20
3209.347092
 30
0.0
 11
4351.1610920000003
 21
3209.347092
 31
0.0
  0
LINE
  5
7ACF
  8
1
  6
CONTINUOUS
 10
4281.1610920000003
 20
3388.347092
 30
0.0
 11
4351.1610920000003
 21
3388.347092
 31
0.0
  0
LINE
  5
7AD0
  8
1
  6
CONTINUOUS
 10
5153.1610920000012
 20
2468.347092
 30
0.0
 11
5153.1610920000012
 21
2368.347092
 31
0.0
  0
LINE
  5
7AD1
  8
1
  6
CONTINUOUS
 10
5153.1610920000012
 20
2593.347092
 30
0.0
 11
5153.1610920000012
 21
2493.347092
 31
0.0
  0
LINE
  5
7AD2
  8
2
  6
CENTER
 10
941.99537376074727
 20
5876.4904770000003
 30
0.0
 11
2783.493550330586
 21
5876.4904770000003
 31
0.0
  0
LINE
  5
7AD3
  8
2
  6
CENTER
 10
4801.1610920000003
 20
4076.6613160000002
 30
0.0
 11
4801.1610920000003
 21
2205.6423829999999
 31
0.0
  0
LINE
  5
7AD4
  8
2
  6
CENTER
 10
2102.2376547607469
 20
4103.8173369999986
 30
0.0
 11
2102.2376547607469
 21
2287.1990689999998
 31
0.0
  0
LINE
  5
7AD5
  8
2
  6
CENTER
 10
2837.8153527607469
 20
3188.347092
 30
0.0
 11
1067.7152187607469
 21
3188.347092
 31
0.0
  0
LINE
  5
7AD6
  8
4
  6
CONTINUOUS
 10
5550.0
 20
1500.0
 30
0.0
 11
5550.0
 21
900.0
 31
0.0
  0
LINE
  5
7AD7
  8
4
  6
CONTINUOUS
 10
3450.0
 20
1500.0
 30
0.0
 11
3450.0
 21
900.0
 31
0.0
  0
LINE
  5
7AD8
  8
4
  6
CONTINUOUS
 10
1950.0
 20
1500.0
 30
0.0
 11
1950.0
 21
900.0
 31
0.0
  0
LINE
  5
7ADB
  8
4
  6
CONTINUOUS
 10
1950.0
 20
900.0
 30
0.0
 11
5550.0
 21
900.0
 31
0.0
  0
LINE
  5
7ADC
  8
4
  6
CONTINUOUS
 10
1950.0
 20
1200.0
 30
0.0
 11
5550.0
 21
1200.0
 31
0.0
  0
TEXT
  5
7ADD
  8
4
  6
CONTINUOUS
 10
2065.5062429999989
 20
1294.6290779999999
 30
0.0
 40
150.0
  1
機器名称
  0
TEXT
  5
7ADE
  8
4
  6
CONTINUOUS
 10
2058.7743179999989
 20
964.9354699999999
 30
0.0
 40
150.0
  1
機器型番
  0
TEXT
  5
7ADF
  8
4
  6
CONTINUOUS
 10
3533.0362359999999
 20
1267.7153069999999
 30
0.0
 40
150.0
  1
ミツヤ多翼送風機
  0
TEXT
  5
7AE0
  8
4
  6
CONTINUOUS
 10
3559.9634869999991
 20
951.47875299999987
 30
0.0
 40
150.0
  1
MFE#5-4
  0
TEXT
  5
7AE2
  8
4
  6
CONTINUOUS
 10
2327.1133869999999
 20
7150.2865239999992
 30
0.0
 40
162.0
  1
床置防振ベット
  0
TEXT
  5
7AE3
  8
4
  6
CONTINUOUS
 10
948.50278000000014
 20
7601.6429289999996
 30
0.0
 40
216.0
  1
ベルト駆動式片吸込両持排煙ファン
  0
LINE
  5
7AE4
  8
4
  6
CONTINUOUS
 10
750.0
 20
7408.2262629999996
 30
0.0
 11
5550.0
 21
7408.2262629999996
 31
0.0
  0
LINE
  5
7AE5
  8
4
  6
CONTINUOUS
 10
750.0
 20
8008.2262629999996
 30
0.0
 11
5550.0
 21
8008.2262629999996
 31
0.0
  0
LINE
  5
7AE6
  8
4
  6
CONTINUOUS
 10
1950.0
 20
1500.0
 30
0.0
 11
5550.0
 21
1500.0
 31
0.0
  0
LINE
  5
7AE7
  8
4
  6
CONTINUOUS
 10
750.0
 20
8008.2262629999996
 30
0.0
 11
750.0
 21
7408.2262629999996
 31
0.0
  0
TEXT
  5
7AE8
  8
4
  6
CONTINUOUS
 10
1019.53689
 20
7146.9584329999998
 30
0.0
 40
162.0
  1
右回転右横向
  0
TEXT
  5
7AE9
  8
4
  6
CONTINUOUS
 10
4406.9086779999989
 20
8118.1832439999989
 30
0.0
 40
168.0
  1
No.
  0
TEXT
  5
7AEA
  8
4
  6
CONTINUOUS
 10
3933.8881879999999
 20
7150.2865239999992
 30
0.0
 40
162.0
  1
縮尺：1/30
  0
LINE
  5
7AEB
  8
4
  6
CONTINUOUS
 10
5550.0
 20
8008.2262629999996
 30
0.0
 11
5550.0
 21
7408.2262629999996
 31
0.0
  0
LINE
  5
7AED
  8
4
  6
CONTINUOUS
 10
4321.8522670000002
 20
8043.7907490000007
 30
0.0
 11
4321.8522670000002
 21
8359.9567849999985
 31
0.0
  0
LINE
  5
7AEE
  8
4
  6
CONTINUOUS
 10
4321.8522670000002
 20
8359.9567849999985
 30
0.0
 11
5550.0
 21
8359.9567849999985
 31
0.0
  0
LINE
  5
7AEF
  8
4
  6
CONTINUOUS
 10
5550.0
 20
8359.9567849999985
 30
0.0
 11
5550.0
 21
8043.7907490000007
 31
0.0
  0
LINE
  5
7AF0
  8
4
  6
CONTINUOUS
 10
5550.0
 20
8043.7907490000007
 30
0.0
 11
4321.8522670000002
 21
8043.7907490000007
 31
0.0
  0
DIMENSION
  5
7B08
  8
3
  6
CONTINUOUS
  2
*D1
 10
2898.2985047607481
 20
3150.347092
 30
0.0
 11
2898.2985047607472
 21
3600.8993930000001
 31
0.0
 70
   128
 13
2697.2376547607469
 23
3975.3470919999991
 33
0.0
 14
2697.2376547607469
 24
3150.347092
 34
0.0
 50
90.0
1001
ACAD
1000
DSTYLE
1002
{
1070
   287
1070
     3
1070
   287
1070
     3
1070
    40
1040
30.0
1070
   143
1040
0.039
1070
   172
1070
     1
1070
   271
1070
     0
1070
   279
1070
     0
1070
   288
1070
     1
1002
}
  0
DIMENSION
  5
7B15
  8
3
  6
CONTINUOUS
  2
*D2
 10
3094.7149907607482
 20
3188.3470919999991
 30
0.0
 11
3094.7149907607468
 21
3600.8993930000001
 31
0.0
 70
   128
 13
2697.2376547607469
 23
3975.3470919999991
 33
0.0
 14
2837.8153527607469
 24
3188.347092
 34
0.0
 50
90.0
1001
ACAD
1000
DSTYLE
1002
{
1070
   287
1070
     3
1070
   287
1070
     3
1070
    40
1040
30.0
1070
   143
1040
0.039
1070
   172
1070
     1
1070
   271
1070
     0
1070
   279
1070
     0
1070
   288
1070
     1
1002
}
  0
DIMENSION
  5
7B21
  8
3
  6
CONTINUOUS
  2
*D3
 10
3094.7149907607468
 20
2493.3470919999991
 30
0.0
 11
3019.7149907607459
 21
2840.847092
 31
0.0
 70
     0
 13
2837.8153527607469
 23
3188.347092
 33
0.0
 14
2622.2376547607469
 24
2493.347092
 34
0.0
 50
90.0
1001
ACAD
1000
DSTYLE
1002
{
1070
   287
1070
     4
1070
   287
1070
     4
1070
    40
1040
30.0
1070
    75
1070
     1
1070
   143
1040
0.039
1070
   172
1070
     1
1070
   271
1070
     0
1070
   279
1070
     1
1070
   288
1070
     1
1002
}
  0
DIMENSION
  5
7B31
  8
3
  6
CONTINUOUS
  2
*D4
 10
3093.5054867607482
 20
2368.3470919999991
 30
0.0
 11
3093.5054867607469
 21
2111.2042348571431
 31
0.0
 70
   128
 13
2622.2376547607469
 23
2493.347092
 33
0.0
 14
2622.2376547607469
 24
2368.347092
 34
0.0
 50
90.0
1001
ACAD
1000
DSTYLE
1002
{
1070
   287
1070
     3
1070
   287
1070
     3
1070
    40
1040
30.0
1070
   143
1040
0.039
1070
   172
1070
     1
1070
   271
1070
     0
1070
   279
1070
     0
1070
   288
1070
     1
1002
}
  0
DIMENSION
  5
7B3E
  8
3
  6
CONTINUOUS
  2
*D5
 10
3412.9902187607472
 20
2368.3470919999991
 30
0.0
 11
3412.9902187607472
 21
3171.6109310000002
 31
0.0
 70
   128
 13
2697.2376547607469
 23
4017.847092
 33
0.0
 14
2622.2376547607469
 24
2368.347092
 34
0.0
 50
90.0
1001
ACAD
1000
DSTYLE
1002
{
1070
   287
1070
     3
1070
   287
1070
     3
1070
    40
1040
30.0
1070
   143
1040
0.039
1070
   172
1070
     1
1070
   271
1070
     0
1070
   279
1070
     0
1070
   288
1070
     1
1002
}
  0
DIMENSION
  5
7B4B
  8
3
  6
CONTINUOUS
  2
*D6
 10
2102.2376547607469
 20
2152.648553
 30
0.0
 11
1587.0008707607469
 21
2152.648553
 31
0.0
 70
   128
 13
1022.237654760747
 23
2368.347092
 33
0.0
 14
2102.2376547607469
 24
2287.1990689999998
 34
0.0
1001
ACAD
1000
DSTYLE
1002
{
1070
   287
1070
     3
1070
   287
1070
     3
1070
    40
1040
30.0
1070
   143
1040
0.039
1070
   172
1070
     1
1070
   271
1070
     0
1070
   279
1070
     0
1070
   288
1070
     1
1002
}
  0
DIMENSION
  5
7B57
  8
3
  6
CONTINUOUS
  2
*D7
 10
2622.2376547607469
 20
2152.648553
 30
0.0
 11
2362.2376547607469
 21
2227.6485529999991
 31
0.0
 70
     0
 13
2102.2376547607469
 23
2287.1990689999998
 33
0.0
 14
2622.2376547607469
 24
2368.347092
 34
0.0
1001
ACAD
1000
DSTYLE
1002
{
1070
   287
1070
     4
1070
   287
1070
     4
1070
    40
1040
30.0
1070
    75
1070
     1
1070
   143
1040
0.039
1070
   172
1070
     1
1070
   271
1070
     0
1070
   279
1070
     1
1070
   288
1070
     1
1002
}
  0
DIMENSION
  5
7B64
  8
3
  6
CONTINUOUS
  2
*D8
 10
2102.2376547607469
 20
4172.8006960000002
 30
0.0
 11
2405.138953760747
 21
4172.8006960000002
 31
0.0
 70
   128
 13
2697.2376547607469
 23
4017.847092
 33
0.0
 14
2102.2376547607469
 24
4103.8173369999986
 34
0.0
1001
ACAD
1000
DSTYLE
1002
{
1070
   287
1070
     3
1070
   287
1070
     3
1070
    40
1040
30.0
1070
   143
1040
0.039
1070
   172
1070
     1
1070
   271
1070
     0
1070
   279
1070
     0
1070
   288
1070
     1
1002
}
  0
DIMENSION
  5
7B7D
  8
3
  6
CONTINUOUS
  2
*D9
 10
5101.1610920000003
 20
4137.2555069999989
 30
0.0
 11
4813.0207689999997
 21
4137.2555069999989
 31
0.0
 70
   128
 13
4501.1610920000003
 23
3975.3470919999991
 33
0.0
 14
5101.1610920000003
 24
3975.3470919999991
 34
0.0
1001
ACAD
1000
DSTYLE
1002
{
1070
   287
1070
     3
1070
   287
1070
     3
1070
    40
1040
30.0
1070
   143
1040
0.039
1070
   172
1070
     1
1070
   271
1070
     0
1070
   279
1070
     0
1070
   288
1070
     1
1002
}
  0
LINE
  5
7B7E
  8
1
  6
CONTINUOUS
 10
5105.1610920000003
 20
3613.347092
 30
0.0
 11
5105.1610920000003
 21
2763.347092
 31
0.0
  0
DIMENSION
  5
7B8D
  8
3
  6
CONTINUOUS
  2
*D10
 10
5376.2317549999998
 20
2763.347092
 30
0.0
 11
5376.2317549999998
 21
3195.3077239999998
 31
0.0
 70
   128
 13
5105.1610920000003
 23
3613.347092
 33
0.0
 14
5105.1610920000003
 24
2763.347092
 34
0.0
 50
90.0
1001
ACAD
1000
DSTYLE
1002
{
1070
   287
1070
     3
1070
   287
1070
     3
1070
     3
1000
φ<>
1070
    40
1040
30.0
1070
   143
1040
0.039
1070
   172
1070
     1
1070
   271
1070
     0
1070
   279
1070
     0
1070
   288
1070
     1
1002
}
  0
DIMENSION
  5
7B9C
  8
3
  6
CONTINUOUS
  2
*D11
 10
4801.1610920000003
 20
4344.6025019999997
 30
0.0
 11
4953.1610920000012
 21
4437.9256378503924
 31
0.0
 70
   128
 13
5105.1610920000003
 23
3613.347092
 33
0.0
 14
4801.1610920000003
 24
4285.9445479999986
 34
0.0
1001
ACAD
1000
DSTYLE
1002
{
1070
   288
1070
     1
1070
   172
1070
     1
1070
    40
1040
30.0
1070
   271
1070
     0
1070
   143
1040
0.039
1002
}
  0
DIMENSION
  5
7BA8
  8
3
  6
CONTINUOUS
  2
*D12
 10
4241.1610920000003
 20
4344.6025019999997
 30
0.0
 11
4521.1610920000003
 21
4494.6025020000006
 31
0.0
 70
     0
  1
MAX\P610
 13
4801.1610920000003
 23
4285.9445479999986
 33
0.0
 14
4241.1610920000003
 24
3843.347092
 34
0.0
1001
ACAD
1000
DSTYLE
1002
{
1070
   287
1070
     4
1070
   287
1070
     4
1070
    40
1040
30.0
1070
    75
1070
     1
1070
   143
1040
0.039
1070
   172
1070
     1
1070
   271
1070
     0
1070
   279
1070
     1
1070
   288
1070
     1
1002
}
  0
DIMENSION
  5
7BB5
  8
3
  6
CONTINUOUS
  2
*D13
 10
4801.1610920000003
 20
2134.8251149999992
 30
0.0
 11
4595.4468070000003
 21
2134.8251149999992
 31
0.0
 70
   128
 13
4333.1610920000003
 23
2368.347092
 33
0.0
 14
4801.1610920000003
 24
2205.6423829999999
 34
0.0
1001
ACAD
1000
DSTYLE
1002
{
1070
   287
1070
     3
1070
   287
1070
     3
1070
    40
1040
30.0
1070
   143
1040
0.039
1070
   172
1070
     1
1070
   271
1070
     0
1070
   279
1070
     0
1070
   288
1070
     1
1002
}
  0
DIMENSION
  5
7BC3
  8
3
  6
CONTINUOUS
  2
*D14
 10
5153.1610920000012
 20
2134.8251149999992
 30
0.0
 11
4993.9376179999999
 21
2133.0192409999991
 31
0.0
 70
   128
 13
4801.1610920000003
 23
2205.6423829999999
 33
0.0
 14
5153.1610920000012
 24
2368.347092
 34
0.0
1001
ACAD
1000
DSTYLE
1002
{
1070
   287
1070
     4
1070
   287
1070
     4
1070
    40
1040
30.0
1070
    75
1070
     1
1070
   143
1040
0.039
1070
   172
1070
     1
1070
   271
1070
     0
1070
   279
1070
     1
1070
   288
1070
     1
1002
}
  0
DIMENSION
  5
7BE7
  8
3
  6
CONTINUOUS
  2
*D15
 10
2622.2376547607469
 20
6413.546977
 30
0.0
 11
1824.1423487607469
 21
6413.546977
 31
0.0
 70
   128
 13
1022.237654760747
 23
6228.4904770000012
 33
0.0
 14
2622.2376547607469
 24
6228.4904770000012
 34
0.0
1001
ACAD
1000
DSTYLE
1002
{
1070
   287
1070
     3
1070
   287
1070
     3
1070
    40
1040
30.0
1070
   143
1040
0.039
1070
   172
1070
     1
1070
   271
1070
     0
1070
   279
1070
     0
1070
   288
1070
     1
1002
}
  0
DIMENSION
  5
7BF4
  8
3
  6
CONTINUOUS
  2
*D16
 10
2980.2070297607479
 20
5408.4904770000003
 30
0.0
 11
2980.207029760747
 21
5856.672192
 31
0.0
 70
   128
 13
2622.2376547607469
 23
6228.4904770000012
 33
0.0
 14
2622.2376547607469
 24
5408.4904770000003
 34
0.0
 50
90.0
1001
ACAD
1000
DSTYLE
1002
{
1070
   287
1070
     3
1070
   287
1070
     3
1070
    40
1040
30.0
1070
   143
1040
0.039
1070
   172
1070
     1
1070
   271
1070
     0
1070
   279
1070
     0
1070
   288
1070
     1
1002
}
  0
DIMENSION
  5
7C1F
  8
3
  6
CONTINUOUS
  2
*D17
 10
1438.2334287607471
 20
4172.8006960000002
 30
0.0
 11
1770.2355417607471
 21
4247.8006960000002
 31
0.0
 70
     0
 13
2102.2376547607469
 23
4103.8173369999986
 33
0.0
 14
1438.2334287607471
 24
3188.347092
 34
0.0
1001
ACAD
1000
DSTYLE
1002
{
1070
   287
1070
     4
1070
   287
1070
     4
1070
    40
1040
30.0
1070
    75
1070
     1
1070
   143
1040
0.039
1070
   172
1070
     1
1070
   271
1070
     0
1070
   279
1070
     1
1070
   288
1070
     1
1002
}
  0
DIMENSION
  5
7C9B
  8
3
  2
*D18
 10
1022.237654760747
 20
4361.5484178008492
 30
0.0
 11
1875.9839057909551
 21
4361.5484178008492
 31
0.0
 70
   128
 13
2697.2376547607469
 23
4017.847092
 33
0.0
 14
1022.237654760747
 24
2593.347092
 34
0.0
1001
ACAD
1000
DSTYLE
1002
{
1070
   287
1070
     3
1070
   287
1070
     3
1070
    40
1040
30.0
1070
   143
1040
0.039
1070
   172
1070
     1
1070
   271
1070
     0
1070
   279
1070
     0
1070
   288
1070
     1
1002
}
  0
LINE
  5
7D84
  8
1
  6
CONTINUOUS
 10
1602.2376547607471
 20
3593.347092
 30
0.0
 11
2602.2376547607469
 21
3593.347092
 31
0.0
  0
LINE
  5
7D85
  8
1
 10
1602.2376547607471
 20
3593.347092
 30
0.0
 11
1602.2376547607471
 21
2593.347092
 31
0.0
  0
LINE
  5
7D86
  8
1
 10
2602.2376547607469
 20
3593.347092
 30
0.0
 11
2602.2376547607469
 21
2593.347092
 31
0.0
  0
ENDSEC
  0
EOF
