  0
SECTION
  2
HEADER
  9
$ACADVER
  1
AC1009
  9
$INSBASE
 10
0.0
 20
0.0
 30
0.0
  9
$EXTMIN
 10
750.0
 20
900.0
 30
0.0
  9
$EXTMAX
 10
5550.0
 20
8359.9567849999985
 30
0.0
  9
$LIMMIN
 10
0.0
 20
0.0
  9
$LIMMAX
 10
297.0
 20
210.0
  9
$ORTHOMODE
 70
     0
  9
$REGENMODE
 70
     1
  9
$FILLMODE
 70
     0
  9
$QTEXTMODE
 70
     0
  9
$MIRRTEXT
 70
     1
  9
$DRAGMODE
 70
     2
  9
$LTSCALE
 40
100.0
  9
$OSMODE
 70
    37
  9
$ATTMODE
 70
     1
  9
$TEXTSIZE
 40
180.0
  9
$TRACEWID
 40
0.05
  9
$TEXTSTYLE
  7
STANDARD
  9
$CLAYER
  8
3
  9
$CELTYPE
  6
BYLAYER
  9
$CECOLOR
 62
   256
  9
$DIMSCALE
 40
30.0
  9
$DIMASZ
 40
2.0
  9
$DIMEXO
 40
0.5
  9
$DIMDLI
 40
10.0
  9
$DIMRND
 40
0.0
  9
$DIMDLE
 40
0.0
  9
$DIMEXE
 40
1.0
  9
$DIMTP
 40
1.0
  9
$DIMTM
 40
1.0
  9
$DIMTXT
 40
3.0
  9
$DIMCEN
 40
0.0
  9
$DIMTSZ
 40
0.0
  9
$DIMTOL
 70
     0
  9
$DIMLIM
 70
     0
  9
$DIMTIH
 70
     0
  9
$DIMTOH
 70
     0
  9
$DIMSE1
 70
     0
  9
$DIMSE2
 70
     0
  9
$DIMTAD
 70
     1
  9
$DIMZIN
 70
     8
  9
$DIMBLK
  1

  9
$DIMASO
 70
     1
  9
$DIMSHO
 70
     1
  9
$DIMPOST
  1

  9
$DIMAPOST
  1

  9
$DIMALT
 70
     0
  9
$DIMALTD
 70
     2
  9
$DIMALTF
 40
0.039
  9
$DIMLFAC
 40
1.0
  9
$DIMTOFL
 70
     1
  9
$DIMTVP
 40
0.0
  9
$DIMTIX
 70
     0
  9
$DIMSOXD
 70
     0
  9
$DIMSAH
 70
     1
  9
$DIMBLK1
  1
OPEN
  9
$DIMBLK2
  1
OPEN
  9
$DIMSTYLE
  2
IGA
  9
$DIMCLRD
 70
     0
  9
$DIMCLRE
 70
     0
  9
$DIMCLRT
 70
     0
  9
$DIMTFAC
 40
10.0
  9
$DIMGAP
 40
1.0
  9
$LUNITS
 70
     2
  9
$LUPREC
 70
     3
  9
$SKETCHINC
 40
0.1
  9
$FILLETRAD
 40
50.0
  9
$AUNITS
 70
     0
  9
$AUPREC
 70
     0
  9
$MENU
  1
acad
  9
$ELEVATION
 40
0.0
  9
$PELEVATION
 40
0.0
  9
$THICKNESS
 40
0.0
  9
$LIMCHECK
 70
     0
  9
$BLIPMODE
 70
     0
  9
$CHAMFERA
 40
0.5
  9
$CHAMFERB
 40
0.5
  9
$SKPOLY
 70
     0
  9
$TDCREATE
 40
2450746.376079977
  9
$TDUPDATE
 40
2454953.8399208328
  9
$TDINDWG
 40
0.0093270718
  9
$TDUSRTIMER
 40
0.0093270718
  9
$USRTIMER
 70
     1
  9
$ANGBASE
 50
0.0
  9
$ANGDIR
 70
     0
  9
$PDMODE
 70
     0
  9
$PDSIZE
 40
0.0
  9
$PLINEWID
 40
0.0
  9
$COORDS
 70
     1
  9
$SPLFRAME
 70
     0
  9
$SPLINETYPE
 70
     6
  9
$SPLINESEGS
 70
     8
  9
$ATTDIA
 70
     0
  9
$ATTREQ
 70
     1
  9
$HANDLING
 70
 10241
  9
$HANDSEED
  5
7E9A
  9
$SURFTAB1
 70
     6
  9
$SURFTAB2
 70
     6
  9
$SURFTYPE
 70
     6
  9
$SURFU
 70
     6
  9
$SURFV
 70
     6
  9
$UCSNAME
  2

  9
$UCSORG
 10
0.0
 20
0.0
 30
0.0
  9
$UCSXDIR
 10
1.0
 20
0.0
 30
0.0
  9
$UCSYDIR
 10
0.0
 20
1.0
 30
0.0
  9
$PUCSNAME
  2

  9
$PUCSORG
 10
0.0
 20
0.0
 30
0.0
  9
$PUCSXDIR
 10
1.0
 20
0.0
 30
0.0
  9
$PUCSYDIR
 10
0.0
 20
1.0
 30
0.0
  9
$USERI1
 70
     0
  9
$USERI2
 70
     0
  9
$USERI3
 70
     0
  9
$USERI4
 70
     0
  9
$USERI5
 70
     0
  9
$USERR1
 40
0.0
  9
$USERR2
 40
0.0
  9
$USERR3
 40
0.0
  9
$USERR4
 40
0.0
  9
$USERR5
 40
0.0
  9
$WORLDVIEW
 70
     1
  9
$SHADEDGE
 70
     3
  9
$SHADEDIF
 70
    70
  9
$TILEMODE
 70
     1
  9
$MAXACTVP
 70
    16
  9
$PLIMCHECK
 70
     0
  9
$PEXTMIN
 10
1.0000000000000000E+020
 20
1.0000000000000000E+020
 30
1.0000000000000000E+020
  9
$PEXTMAX
 10
-1.0000000000000000E+020
 20
-1.0000000000000000E+020
 30
-1.0000000000000000E+020
  9
$PLIMMIN
 10
0.0
 20
0.0
  9
$PLIMMAX
 10
12.0
 20
9.0
  9
$UNITMODE
 70
     0
  9
$VISRETAIN
 70
     0
  9
$PLINEGEN
 70
     0
  9
$PSLTSCALE
 70
     1
  0
ENDSEC
  0
SECTION
  2
TABLES
  0
TABLE
  2
VPORT
 70
     2
  0
VPORT
  2
*ACTIVE
 70
     0
 10
0.0
 20
0.0
 11
1.0
 21
1.0
 12
2998.7085368893058
 22
4614.0102922658152
 13
0.0
 23
0.0
 14
10.0
 24
10.0
 15
10.0
 25
10.0
 16
0.0
 26
0.0
 36
1.0
 17
0.0
 27
0.0
 37
0.0
 40
9063.6721298111861
 41
1.5051150895140659
 42
50.0
 43
0.0
 44
0.0
 50
0.0
 51
0.0
 71
     0
 72
   100
 73
     1
 74
     0
 75
     0
 76
     0
 77
     0
 78
     0
  0
ENDTAB
  0
TABLE
  2
LTYPE
 70
     2
  0
LTYPE
  2
CONTINUOUS
 70
     0
  3
Solid line
 72
    65
 73
     0
 40
0.0
  0
LTYPE
  2
CENTER
 70
     0
  3
____ _ ____ _ ____ _ ____ _ ____ _ ____ _ ____ 
 72
    65
 73
     4
 40
2.0
 49
1.25
 49
-0.25
 49
0.25
 49
-0.25
  0
ENDTAB
  0
TABLE
  2
LAYER
 70
     6
  0
LAYER
  2
0
 70
     0
 62
     7
  6
CONTINUOUS
  0
LAYER
  2
3
 70
     0
 62
     2
  6
CONTINUOUS
  0
LAYER
  2
2
 70
     0
 62
     3
  6
CENTER
  0
LAYER
  2
1
 70
     0
 62
     4
  6
CONTINUOUS
  0
LAYER
  2
4
 70
     0
 62
     7
  6
CONTINUOUS
  0
LAYER
  2
DEFPOINTS
 70
     0
 62
     7
  6
CONTINUOUS
  0
ENDTAB
  0
TABLE
  2
STYLE
 70
     1
  0
STYLE
  2
STANDARD
 70
     0
 40
0.0
 41
1.0
 50
0.0
 71
     0
 42
180.0
  3
simplex.shx
  4
extfont.shx
  0
ENDTAB
  0
TABLE
  2
VIEW
 70
     0
  0
ENDTAB
  0
TABLE
  2
UCS
 70
     0
  0
ENDTAB
  0
TABLE
  2
APPID
 70
     1
  0
APPID
  2
ACAD
 70
     0
  0
ENDTAB
  0
TABLE
  2
DIMSTYLE
 70
     1
  0
DIMSTYLE
  2
IGA
 70
     0
  3

  4

  5

  6
OPEN
  7
OPEN
 40
2.0
 41
2.0
 42
0.5
 43
10.0
 44
1.0
 45
0.0
 46
0.0
 47
1.0
 48
1.0
140
3.0
141
0.0
142
0.0
143
0.03937
144
1.0
145
0.0
146
10.0
147
1.0
 71
     0
 72
     0
 73
     0
 74
     0
 75
     0
 76
     0
 77
     1
 78
     8
170
     0
171
     2
172
     0
173
     1
174
     0
175
     0
176
     0
177
     0
178
     0
  0
ENDTAB
  0
ENDSEC
  0
SECTION
  2
BLOCKS
  0
BLOCK
  8
0
  2
$MODEL_SPACE
 70
     0
 10
0.0
 20
0.0
 30
0.0
  3
$MODEL_SPACE
  1

  0
ENDBLK
  5
1B
  8
0
  0
BLOCK
 67
     1
  8
0
  2
$PAPER_SPACE
 70
     0
 10
0.0
 20
0.0
 30
0.0
  3
$PAPER_SPACE
  1

  0
ENDBLK
  5
18
 67
     1
  8
0
  0
BLOCK
  8
0
  2
_OPEN
 70
     0
 10
0.0
 20
0.0
 30
0.0
  3
_OPEN
  1

  0
LINE
  5
7B61
  8
0
  6
BYBLOCK
 62
     0
 10
-1.0
 20
0.166667
 30
0.0
 11
0.0
 21
0.0
 31
0.0
  0
LINE
  5
7B62
  8
0
  6
BYBLOCK
 62
     0
 10
0.0
 20
0.0
 30
0.0
 11
-1.0
 21
-0.166667
 31
0.0
  0
LINE
  5
7B63
  8
0
  6
BYBLOCK
 62
     0
 10
0.0
 20
0.0
 30
0.0
 11
-1.0
 21
0.0
 31
0.0
  0
ENDBLK
  5
7B64
  8
0
  0
BLOCK
  8
0
  2
*D1
 70
     1
 10
0.0
 20
0.0
 30
0.0
  3
*D1
  1

  0
LINE
  5
7DFE
  8
3
  6
CONTINUOUS
 62
     0
 10
1472.4401680000001
 20
3945.3933569999999
 30
0.0
 11
1296.3679099999999
 21
3945.3933569999999
 31
0.0
  0
LINE
  5
7DFF
  8
3
  6
CONTINUOUS
 62
     0
 10
1472.4401680000001
 20
3120.3933569999999
 30
0.0
 11
1296.3679099999999
 21
3120.3933569999999
 31
0.0
  0
LINE
  5
7E00
  8
3
  6
CONTINUOUS
 62
     0
 10
1326.3679099999999
 20
3885.3933569999999
 30
0.0
 11
1326.3679099999999
 21
3180.3933569999999
 31
0.0
  0
INSERT
  5
7E01
  8
3
  6
CONTINUOUS
 62
     0
  2
_OPEN
 10
1326.3679099999999
 20
3945.3933569999999
 30
0.0
 41
60.0
 42
60.0
 43
60.0
 50
90.0
  0
INSERT
  5
7E02
  8
3
  6
CONTINUOUS
 62
     0
  2
_OPEN
 10
1326.3679099999999
 20
3120.3933569999999
 30
0.0
 41
60.0
 42
60.0
 43
60.0
 50
270.0
  0
TEXT
  8
3
  40
90
  5
7E89
  62
0
  72
0
  71
0
 10
1071.37
 20
3381.92
 30
0.000000
  1
825
  0
POINT
  5
7E04
  8
DEFPOINTS
  6
CONTINUOUS
 62
     0
 10
1487.4401680000001
 20
3945.3933569999999
 30
0.0
  0
POINT
  5
7E05
  8
DEFPOINTS
  6
CONTINUOUS
 62
     0
 10
1487.4401680000001
 20
3120.3933569999999
 30
0.0
  0
POINT
  5
7E06
  8
DEFPOINTS
  6
CONTINUOUS
 62
     0
 10
1326.3679099999999
 20
3120.3933569999999
 30
0.0
  0
ENDBLK
  5
7B71
  8
0
  0
BLOCK
  8
0
  2
*D2
 70
     1
 10
0.0
 20
0.0
 30
0.0
  3
*D2
  1

  0
LINE
  5
7E07
  8
3
  6
CONTINUOUS
 62
     0
 10
1472.4401680000001
 20
3945.3933569999999
 30
0.0
 11
1129.7066789999999
 21
3945.3933569999999
 31
0.0
  0
LINE
  5
7E08
  8
3
  6
CONTINUOUS
 62
     0
 10
1386.519679
 20
3158.3933569999999
 30
0.0
 11
1129.7066789999999
 21
3158.3933569999999
 31
0.0
  0
LINE
  5
7E09
  8
3
  6
CONTINUOUS
 62
     0
 10
1159.7066789999999
 20
3885.3933569999999
 30
0.0
 11
1159.7066789999999
 21
3218.3933569999999
 31
0.0
  0
INSERT
  5
7E0A
  8
3
  6
CONTINUOUS
 62
     0
  2
_OPEN
 10
1159.7066789999999
 20
3945.3933569999999
 30
0.0
 41
60.0
 42
60.0
 43
60.0
 50
90.0
  0
INSERT
  5
7E0B
  8
3
  6
CONTINUOUS
 62
     0
  2
_OPEN
 10
1159.7066789999999
 20
3158.3933569999999
 30
0.0
 41
60.0
 42
60.0
 43
60.0
 50
270.0
  0
TEXT
  8
3
  40
90
  5
7E8A
  62
0
  72
0
  71
0
 10
904.707
 20
3398.04
 30
0.000000
  1
787
  0
POINT
  5
7E0D
  8
DEFPOINTS
  6
CONTINUOUS
 62
     0
 10
1487.4401680000001
 20
3945.3933569999999
 30
0.0
  0
POINT
  5
7E0E
  8
DEFPOINTS
  6
CONTINUOUS
 62
     0
 10
1401.519679
 20
3158.3933569999999
 30
0.0
  0
POINT
  5
7E0F
  8
DEFPOINTS
  6
CONTINUOUS
 62
     0
 10
1159.7066789999999
 20
3158.3933569999999
 30
0.0
  0
ENDBLK
  5
7B7E
  8
0
  0
BLOCK
  8
0
  2
*D3
 70
     1
 10
0.0
 20
0.0
 30
0.0
  3
*D3
  1

  0
LINE
  5
7E10
  8
3
  6
CONTINUOUS
 62
     0
 10
1547.4401680000001
 20
2463.3933569999999
 30
0.0
 11
1129.706678999999
 21
2463.3933569999999
 31
0.0
  0
LINE
  5
7E11
  8
3
  6
CONTINUOUS
 62
     0
 10
1159.7066789999999
 20
3098.3933569999999
 30
0.0
 11
1159.706678999999
 21
2523.3933569999999
 31
0.0
  0
INSERT
  5
7E12
  8
3
  6
CONTINUOUS
 62
     0
  2
_OPEN
 10
1159.7066789999999
 20
3158.3933569999999
 30
0.0
 41
60.0
 42
60.0
 43
60.0
 50
90.0
  0
INSERT
  5
7E13
  8
3
  6
CONTINUOUS
 62
     0
  2
_OPEN
 10
1159.706678999999
 20
2463.3933569999999
 30
0.0
 41
60.0
 42
60.0
 43
60.0
 50
270.0
  0
TEXT
  8
3
  40
90
  5
7E8B
  62
0
  72
0
  71
0
 10
904.707
 20
2651.59
 30
0.000000
  1
695
  0
POINT
  5
7E15
  8
DEFPOINTS
  6
CONTINUOUS
 62
     0
 10
1401.519679
 20
3158.3933569999999
 30
0.0
  0
POINT
  5
7E16
  8
DEFPOINTS
  6
CONTINUOUS
 62
     0
 10
1562.4401680000001
 20
2463.3933569999999
 30
0.0
  0
POINT
  5
7E17
  8
DEFPOINTS
  6
CONTINUOUS
 62
     0
 10
1159.706678999999
 20
2463.3933569999999
 30
0.0
  0
ENDBLK
  5
7B8A
  8
0
  0
BLOCK
  8
0
  2
*D4
 70
     1
 10
0.0
 20
0.0
 30
0.0
  3
*D4
  1

  0
LINE
  5
7E18
  8
3
  6
CONTINUOUS
 62
     0
 10
1472.4401680000001
 20
3987.8933569999999
 30
0.0
 11
924.87586400000066
 21
3987.8933569999999
 31
0.0
  0
LINE
  5
7E19
  8
3
  6
CONTINUOUS
 62
     0
 10
1547.4401680000001
 20
2463.3933569999999
 30
0.0
 11
924.87586400000032
 21
2463.3933569999999
 31
0.0
  0
LINE
  5
7E1A
  8
3
  6
CONTINUOUS
 62
     0
 10
954.87586400000066
 20
3927.8933569999999
 30
0.0
 11
954.87586400000043
 21
2523.3933569999999
 31
0.0
  0
INSERT
  5
7E1B
  8
3
  6
CONTINUOUS
 62
     0
  2
_OPEN
 10
954.87586400000066
 20
3987.8933569999999
 30
0.0
 41
60.0
 42
60.0
 43
60.0
 50
90.0
  0
INSERT
  5
7E1C
  8
3
  6
CONTINUOUS
 62
     0
  2
_OPEN
 10
954.87586400000043
 20
2463.3933569999999
 30
0.0
 41
60.0
 42
60.0
 43
60.0
 50
270.0
  0
TEXT
  8
3
  40
90
  5
7E8C
  62
0
  72
0
  71
0
 10
699.876
 20
3054.21
 30
0.000000
  1
1525
  0
POINT
  5
7E1E
  8
DEFPOINTS
  6
CONTINUOUS
 62
     0
 10
1487.4401680000001
 20
3987.8933569999999
 30
0.0
  0
POINT
  5
7E1F
  8
DEFPOINTS
  6
CONTINUOUS
 62
     0
 10
1562.4401680000001
 20
2463.3933569999999
 30
0.0
  0
POINT
  5
7E20
  8
DEFPOINTS
  6
CONTINUOUS
 62
     0
 10
954.87586400000043
 20
2463.3933569999999
 30
0.0
  0
ENDBLK
  5
7B97
  8
0
  0
BLOCK
  8
0
  2
*D5
 70
     1
 10
0.0
 20
0.0
 30
0.0
  3
*D5
  1

  0
LINE
  5
7E21
  8
3
  6
CONTINUOUS
 62
     0
 10
1562.4401680000001
 20
2448.3933569999999
 30
0.0
 11
1562.4401680000001
 21
2183.0831520000002
 31
0.0
  0
LINE
  5
7E22
  8
3
  6
CONTINUOUS
 62
     0
 10
2082.4401680000001
 20
2265.2306229999999
 30
0.0
 11
2082.4401680000001
 21
2183.0831520000002
 31
0.0
  0
LINE
  5
7E23
  8
3
  6
CONTINUOUS
 62
     0
 10
1622.4401679999989
 20
2213.0831520000002
 30
0.0
 11
2022.4401680000001
 21
2213.0831520000002
 31
0.0
  0
INSERT
  5
7E24
  8
3
  6
CONTINUOUS
 62
     0
  2
_OPEN
 10
1562.4401680000001
 20
2213.0831520000002
 30
0.0
 41
60.0
 42
60.0
 43
60.0
 50
180.0
  0
INSERT
  5
7E25
  8
3
  6
CONTINUOUS
 62
     0
  2
_OPEN
 10
2082.4401680000001
 20
2213.0831520000002
 30
0.0
 41
60.0
 42
60.0
 43
60.0
  0
TEXT
  8
3
  40
90
  5
7E8D
  62
0
  72
0
  71
0
 10
1635.06
 20
2128.78
 30
0.000000
  1
520
  0
POINT
  5
7E27
  8
DEFPOINTS
  6
CONTINUOUS
 62
     0
 10
1562.4401680000001
 20
2463.3933569999999
 30
0.0
  0
POINT
  5
7E28
  8
DEFPOINTS
  6
CONTINUOUS
 62
     0
 10
2082.4401680000001
 20
2280.2306229999999
 30
0.0
  0
POINT
  5
7E29
  8
DEFPOINTS
  6
CONTINUOUS
 62
     0
 10
2082.4401680000001
 20
2213.0831520000002
 30
0.0
  0
ENDBLK
  5
7C68
  8
0
  0
BLOCK
  8
0
  2
*D6
 70
     1
 10
0.0
 20
0.0
 30
0.0
  3
*D6
  1

  0
LINE
  5
7E2A
  8
3
  6
CONTINUOUS
 62
     0
 10
3162.4401680000001
 20
2448.3933569999999
 30
0.0
 11
3162.4401680000001
 21
2183.0831520000002
 31
0.0
  0
LINE
  5
7E2B
  8
3
  6
CONTINUOUS
 62
     0
 10
2142.4401680000001
 20
2213.0831520000002
 30
0.0
 11
3102.4401680000001
 21
2213.0831520000002
 31
0.0
  0
INSERT
  5
7E2C
  8
3
  6
CONTINUOUS
 62
     0
  2
_OPEN
 10
2082.4401680000001
 20
2213.0831520000002
 30
0.0
 41
60.0
 42
60.0
 43
60.0
 50
180.0
  0
INSERT
  5
7E2D
  8
3
  6
CONTINUOUS
 62
     0
  2
_OPEN
 10
3162.4401680000001
 20
2213.0831520000002
 30
0.0
 41
60.0
 42
60.0
 43
60.0
  0
TEXT
  8
3
  40
90
  5
7E8E
  62
0
  72
0
  71
0
 10
2442.44
 20
2128.78
 30
0.000000
  1
1080
  0
POINT
  5
7E2F
  8
DEFPOINTS
  6
CONTINUOUS
 62
     0
 10
2082.4401680000001
 20
2280.2306229999999
 30
0.0
  0
POINT
  5
7E30
  8
DEFPOINTS
  6
CONTINUOUS
 62
     0
 10
3162.4401680000001
 20
2463.3933569999999
 30
0.0
  0
POINT
  5
7E31
  8
DEFPOINTS
  6
CONTINUOUS
 62
     0
 10
3162.4401680000001
 20
2213.0831520000002
 30
0.0
  0
ENDBLK
  5
7C5D
  8
0
  0
BLOCK
  8
0
  2
*D7
 70
     1
 10
0.0
 20
0.0
 30
0.0
  3
*D7
  1

  0
LINE
  5
7E32
  8
3
  6
CONTINUOUS
 62
     0
 10
1487.4401680000001
 20
4002.8933569999999
 30
0.0
 11
1487.4401680000001
 21
4162.1657249999998
 31
0.0
  0
LINE
  5
7E33
  8
3
  6
CONTINUOUS
 62
     0
 10
2082.4401680000001
 20
4100.5188070000004
 30
0.0
 11
2082.4401680000001
 21
4162.1657249999998
 31
0.0
  0
LINE
  5
7E34
  8
3
  6
CONTINUOUS
 62
     0
 10
1547.4401680000001
 20
4132.1657249999998
 30
0.0
 11
2022.4401680000001
 21
4132.1657249999998
 31
0.0
  0
INSERT
  5
7E35
  8
3
  6
CONTINUOUS
 62
     0
  2
_OPEN
 10
1487.4401680000001
 20
4132.1657249999998
 30
0.0
 41
60.0
 42
60.0
 43
60.0
 50
180.0
  0
INSERT
  5
7E36
  8
3
  6
CONTINUOUS
 62
     0
  2
_OPEN
 10
2082.4401680000001
 20
4132.1657249999998
 30
0.0
 41
60.0
 42
60.0
 43
60.0
  0
TEXT
  8
3
  40
90
  5
7E8F
  62
0
  72
0
  71
0
 10
1608.18
 20
4047.87
 30
0.000000
  1
595
  0
POINT
  5
7E38
  8
DEFPOINTS
  6
CONTINUOUS
 62
     0
 10
1487.4401680000001
 20
3987.8933569999999
 30
0.0
  0
POINT
  5
7E39
  8
DEFPOINTS
  6
CONTINUOUS
 62
     0
 10
2082.4401680000001
 20
4085.518806999999
 30
0.0
  0
POINT
  5
7E3A
  8
DEFPOINTS
  6
CONTINUOUS
 62
     0
 10
2082.4401680000001
 20
4132.1657249999998
 30
0.0
  0
ENDBLK
  5
7BBD
  8
0
  0
BLOCK
  8
0
  2
*D8
 70
     1
 10
0.0
 20
0.0
 30
0.0
  3
*D8
  1

  0
LINE
  5
7E3B
  8
3
  6
CONTINUOUS
 62
     0
 10
5070.7619329999989
 20
3960.3933569999999
 30
0.0
 11
5070.7619329999989
 21
4097.7843380000004
 31
0.0
  0
LINE
  5
7E3C
  8
3
  6
CONTINUOUS
 62
     0
 10
4470.7619329999998
 20
3960.3933569999999
 30
0.0
 11
4470.7619329999998
 21
4097.7843380000004
 31
0.0
  0
LINE
  5
7E3D
  8
3
  6
CONTINUOUS
 62
     0
 10
5010.7619329999998
 20
4067.7843379999999
 30
0.0
 11
4530.7619329999989
 21
4067.7843379999999
 31
0.0
  0
INSERT
  5
7E3E
  8
3
  6
CONTINUOUS
 62
     0
  2
_OPEN
 10
5070.7619329999989
 20
4067.7843379999999
 30
0.0
 41
60.0
 42
60.0
 43
60.0
  0
INSERT
  5
7E3F
  8
3
  6
CONTINUOUS
 62
     0
  2
_OPEN
 10
4470.7619329999998
 20
4067.7843379999999
 30
0.0
 41
60.0
 42
60.0
 43
60.0
 50
180.0
  0
TEXT
  8
3
  40
90
  5
7E90
  62
0
  72
0
  71
0
 10
4601.35
 20
3983.48
 30
0.000000
  1
600
  0
POINT
  5
7E41
  8
DEFPOINTS
  6
CONTINUOUS
 62
     0
 10
5070.7619329999989
 20
3945.3933569999999
 30
0.0
  0
POINT
  5
7E42
  8
DEFPOINTS
  6
CONTINUOUS
 62
     0
 10
4470.7619329999998
 20
3945.3933569999999
 30
0.0
  0
POINT
  5
7E43
  8
DEFPOINTS
  6
CONTINUOUS
 62
     0
 10
4470.7619329999998
 20
4067.7843379999999
 30
0.0
  0
ENDBLK
  5
7CBF
  8
0
  0
BLOCK
  8
0
  2
*D9
 70
     1
 10
0.0
 20
0.0
 30
0.0
  3
*D9
  1

  0
LINE
  5
7E44
  8
3
  6
CONTINUOUS
 62
     0
 10
5089.7619329999998
 20
3583.3933569999999
 30
0.0
 11
5397.3526930000007
 21
3583.393356999999
 31
0.0
  0
LINE
  5
7E45
  8
3
  6
CONTINUOUS
 62
     0
 10
5089.7619329999998
 20
2733.3933569999999
 30
0.0
 11
5397.3526930000007
 21
2733.393356999999
 31
0.0
  0
LINE
  5
7E46
  8
3
  6
CONTINUOUS
 62
     0
 10
5367.3526929999998
 20
3523.393356999999
 30
0.0
 11
5367.3526929999998
 21
2793.393356999999
 31
0.0
  0
INSERT
  5
7E47
  8
3
  6
CONTINUOUS
 62
     0
  2
_OPEN
 10
5367.3526929999998
 20
3583.393356999999
 30
0.0
 41
60.0
 42
60.0
 43
60.0
 50
90.0
  0
INSERT
  5
7E48
  8
3
  6
CONTINUOUS
 62
     0
  2
_OPEN
 10
5367.3526929999998
 20
2733.393356999999
 30
0.0
 41
60.0
 42
60.0
 43
60.0
 50
270.0
  0
TEXT
  8
3
  40
90
  5
7E91
  62
0
  72
0
  71
0
 10
5112.35
 20
3021.98
 30
0.000000
  1
φ850
  0
POINT
  5
7E4A
  8
DEFPOINTS
  6
CONTINUOUS
 62
     0
 10
5074.7619329999998
 20
3583.3933569999999
 30
0.0
  0
POINT
  5
7E4B
  8
DEFPOINTS
  6
CONTINUOUS
 62
     0
 10
5074.7619329999998
 20
2733.3933569999999
 30
0.0
  0
POINT
  5
7E4C
  8
DEFPOINTS
  6
CONTINUOUS
 62
     0
 10
5367.3526929999998
 20
2733.393356999999
 30
0.0
  0
ENDBLK
  5
7D05
  8
0
  0
BLOCK
  8
0
  2
*D10
 70
     1
 10
0.0
 20
0.0
 30
0.0
  3
*D10
  1

  0
LINE
  5
7CF1
  8
0
  6
BYBLOCK
 62
     0
 10
5074.7619329999998
 20
3598.393356999999
 30
0.0
 11
5074.7619329999998
 21
4275.0681459999996
 31
0.0
  0
LINE
  5
7CF2
  8
0
  6
BYBLOCK
 62
     0
 10
4770.7619329999998
 20
4220.9121960000002
 30
0.0
 11
4770.7619329999998
 21
4275.0681459999996
 31
0.0
  0
LINE
  5
7CF3
  8
0
  6
BYBLOCK
 62
     0
 10
5014.7619329999989
 20
4245.0681459999996
 30
0.0
 11
4830.7619329999998
 21
4245.0681459999996
 31
0.0
  0
TEXT
  5
7CF4
  8
3
 62
     0
 10
4804.9047901428557
 20
4278.5258215267531
 30
0.0
 40
90.0
  1
304
  0
INSERT
  5
7CF5
  8
0
  6
BYBLOCK
 62
     0
  2
_OPEN
 10
5074.7619329999998
 20
4245.0681459999996
 30
0.0
 41
60.0
 42
60.0
 43
60.0
  0
INSERT
  5
7CF6
  8
0
  6
BYBLOCK
 62
     0
  2
_OPEN
 10
4770.7619329999998
 20
4245.0681459999996
 30
0.0
 41
60.0
 42
60.0
 43
60.0
 50
180.0
  0
POINT
  5
7CF7
  8
DEFPOINTS
  6
BYBLOCK
 62
     0
 10
5074.7619329999998
 20
3583.3933569999999
 30
0.0
  0
POINT
  5
7CF8
  8
DEFPOINTS
  6
BYBLOCK
 62
     0
 10
4770.7619329999998
 20
4205.9121960000002
 30
0.0
  0
POINT
  5
7CF9
  8
DEFPOINTS
  6
BYBLOCK
 62
     0
 10
4770.7619329999998
 20
4245.0681459999996
 30
0.0
  0
ENDBLK
  5
7CFA
  8
0
  0
BLOCK
  8
0
  2
*D11
 70
     1
 10
0.0
 20
0.0
 30
0.0
  3
*D11
  1

  0
LINE
  5
7E4D
  8
3
  6
CONTINUOUS
 62
     0
 10
4210.7619329999989
 20
3828.3933569999999
 30
0.0
 11
4210.7619329999989
 21
4275.0681459999996
 31
0.0
  0
LINE
  5
7E4E
  8
3
  6
CONTINUOUS
 62
     0
 10
4710.7619329999989
 20
4245.0681459999996
 30
0.0
 11
4270.7619329999998
 21
4245.0681459999996
 31
0.0
  0
INSERT
  5
7E4F
  8
3
  6
CONTINUOUS
 62
     0
  2
_OPEN
 10
4770.7619329999998
 20
4245.0681459999996
 30
0.0
 41
60.0
 42
60.0
 43
60.0
  0
INSERT
  5
7E50
  8
3
  6
CONTINUOUS
 62
     0
  2
_OPEN
 10
4210.7619329999989
 20
4245.0681459999996
 30
0.0
 41
60.0
 42
60.0
 43
60.0
 50
180.0
  0
TEXT
  8
3
  40
90
  5
7E92
  62
0
  72
0
  71
0
 10
4310.76
 20
4235.77
 30
0.000000
  1
MAX
  0
TEXT
  8
3
  40
90
  5
7E93
  62
0
  72
0
  71
0
 10
4310.76
 20
4118.77
 30
0.000000
  1
610
  0
POINT
  5
7E52
  8
DEFPOINTS
  6
CONTINUOUS
 62
     0
 10
4770.7619329999998
 20
4205.9121960000002
 30
0.0
  0
POINT
  5
7E53
  8
DEFPOINTS
  6
CONTINUOUS
 62
     0
 10
4210.7619329999989
 20
3813.3933569999999
 30
0.0
  0
POINT
  5
7E54
  8
DEFPOINTS
  6
CONTINUOUS
 62
     0
 10
4210.7619329999989
 20
4245.0681459999996
 30
0.0
  0
ENDBLK
  5
7D0F
  8
0
  0
BLOCK
  8
0
  2
*D12
 70
     1
 10
0.0
 20
0.0
 30
0.0
  3
*D12
  1

  0
LINE
  5
7E55
  8
3
  6
CONTINUOUS
 62
     0
 10
4302.7619329999998
 20
2448.3933569999999
 30
0.0
 11
4302.7619329999998
 21
2178.819563
 31
0.0
  0
LINE
  5
7E56
  8
3
  6
CONTINUOUS
 62
     0
 10
4770.7619329999998
 20
2283.6776570000002
 30
0.0
 11
4770.7619329999998
 21
2178.819563
 31
0.0
  0
LINE
  5
7E57
  8
3
  6
CONTINUOUS
 62
     0
 10
4362.7619329999998
 20
2208.819563
 30
0.0
 11
4710.7619329999989
 21
2208.819563
 31
0.0
  0
INSERT
  5
7E58
  8
3
  6
CONTINUOUS
 62
     0
  2
_OPEN
 10
4302.7619329999998
 20
2208.819563
 30
0.0
 41
60.0
 42
60.0
 43
60.0
 50
180.0
  0
INSERT
  5
7E59
  8
3
  6
CONTINUOUS
 62
     0
  2
_OPEN
 10
4770.7619329999998
 20
2208.819563
 30
0.0
 41
60.0
 42
60.0
 43
60.0
  0
TEXT
  8
3
  40
90
  5
7E94
  62
0
  72
0
  71
0
 10
4385.05
 20
2124.52
 30
0.000000
  1
468
  0
POINT
  5
7E5B
  8
DEFPOINTS
  6
CONTINUOUS
 62
     0
 10
4302.7619329999998
 20
2463.3933569999999
 30
0.0
  0
POINT
  5
7E5C
  8
DEFPOINTS
  6
CONTINUOUS
 62
     0
 10
4770.7619329999998
 20
2298.6776570000002
 30
0.0
  0
POINT
  5
7E5D
  8
DEFPOINTS
  6
CONTINUOUS
 62
     0
 10
4770.7619329999998
 20
2208.819563
 30
0.0
  0
ENDBLK
  5
7CA0
  8
0
  0
BLOCK
  8
0
  2
*D13
 70
     1
 10
0.0
 20
0.0
 30
0.0
  3
*D13
  1

  0
LINE
  5
7E5E
  8
3
  6
CONTINUOUS
 62
     0
 10
5122.7619329999989
 20
2448.3933569999999
 30
0.0
 11
5122.7619329999989
 21
2178.819563
 31
0.0
  0
LINE
  5
7E5F
  8
3
  6
CONTINUOUS
 62
     0
 10
4830.7619329999998
 20
2208.819563
 30
0.0
 11
5062.7619329999998
 21
2208.819563
 31
0.0
  0
TEXT
  8
3
  40
90
  5
7E95
  62
0
  72
0
  71
0
 10
4775.20
 20
2125.63
 30
0.000000
  1
352
  0
INSERT
  5
7E61
  8
3
  6
CONTINUOUS
 62
     0
  2
_OPEN
 10
4770.7619329999998
 20
2208.819563
 30
0.0
 41
60.0
 42
60.0
 43
60.0
 50
180.0
  0
INSERT
  5
7E62
  8
3
  6
CONTINUOUS
 62
     0
  2
_OPEN
 10
5122.7619329999989
 20
2208.819563
 30
0.0
 41
60.0
 42
60.0
 43
60.0
  0
POINT
  5
7E63
  8
DEFPOINTS
  6
CONTINUOUS
 62
     0
 10
4770.7619329999998
 20
2298.6776570000002
 30
0.0
  0
POINT
  5
7E64
  8
DEFPOINTS
  6
CONTINUOUS
 62
     0
 10
5122.7619329999989
 20
2463.3933569999999
 30
0.0
  0
POINT
  5
7E65
  8
DEFPOINTS
  6
CONTINUOUS
 62
     0
 10
5122.7619329999989
 20
2208.819563
 30
0.0
  0
ENDBLK
  5
7CAA
  8
0
  0
BLOCK
  8
0
  2
*D14
 70
     1
 10
0.0
 20
0.0
 30
0.0
  3
*D14
  1

  0
LINE
  5
7E66
  8
3
  6
CONTINUOUS
 62
     0
 10
1562.4401680000001
 20
6365.1911639999998
 30
0.0
 11
1562.4401680000001
 21
6580.1114530000004
 31
0.0
  0
LINE
  5
7E67
  8
3
  6
CONTINUOUS
 62
     0
 10
3162.4401680000001
 20
6365.1911639999998
 30
0.0
 11
3162.4401680000001
 21
6580.1114530000004
 31
0.0
  0
LINE
  5
7E68
  8
3
  6
CONTINUOUS
 62
     0
 10
1622.4401679999989
 20
6550.1114530000013
 30
0.0
 11
3102.4401680000001
 21
6550.1114530000013
 31
0.0
  0
INSERT
  5
7E69
  8
3
  6
CONTINUOUS
 62
     0
  2
_OPEN
 10
1562.4401680000001
 20
6550.1114530000013
 30
0.0
 41
60.0
 42
60.0
 43
60.0
 50
180.0
  0
INSERT
  5
7E6A
  8
3
  6
CONTINUOUS
 62
     0
  2
_OPEN
 10
3162.4401680000001
 20
6550.1114530000013
 30
0.0
 41
60.0
 42
60.0
 43
60.0
  0
TEXT
  8
3
  40
90
  5
7E96
  62
0
  72
0
  71
0
 10
2145.80
 20
6465.81
 30
0.000000
  1
1600
  0
POINT
  5
7E6C
  8
DEFPOINTS
  6
CONTINUOUS
 62
     0
 10
1562.4401680000001
 20
6350.1911639999998
 30
0.0
  0
POINT
  5
7E6D
  8
DEFPOINTS
  6
CONTINUOUS
 62
     0
 10
3162.4401680000001
 20
6350.1911639999998
 30
0.0
  0
POINT
  5
7E6E
  8
DEFPOINTS
  6
CONTINUOUS
 62
     0
 10
3162.4401680000001
 20
6550.1114530000013
 30
0.0
  0
ENDBLK
  5
7C7F
  8
0
  0
BLOCK
  8
0
  2
*D15
 70
     1
 10
0.0
 20
0.0
 30
0.0
  3
*D15
  1

  0
LINE
  5
7E6F
  8
3
  6
CONTINUOUS
 62
     0
 10
3177.4401680000001
 20
6350.1911639999998
 30
0.0
 11
3490.1708100000001
 21
6350.1911639999998
 31
0.0
  0
LINE
  5
7E70
  8
3
  6
CONTINUOUS
 62
     0
 10
3177.4401680000001
 20
5530.1911639999998
 30
0.0
 11
3490.1708100000001
 21
5530.1911639999998
 31
0.0
  0
LINE
  5
7E71
  8
3
  6
CONTINUOUS
 62
     0
 10
3460.170810000001
 20
6290.1911639999998
 30
0.0
 11
3460.170810000001
 21
5590.1911639999998
 31
0.0
  0
INSERT
  5
7E72
  8
3
  6
CONTINUOUS
 62
     0
  2
_OPEN
 10
3460.170810000001
 20
6350.1911639999998
 30
0.0
 41
60.0
 42
60.0
 43
60.0
 50
90.0
  0
INSERT
  5
7E73
  8
3
  6
CONTINUOUS
 62
     0
  2
_OPEN
 10
3460.170810000001
 20
5530.1911639999998
 30
0.0
 41
60.0
 42
60.0
 43
60.0
 50
270.0
  0
TEXT
  8
3
  40
90
  5
7E97
  62
0
  72
0
  71
0
 10
3205.17
 20
5791.17
 30
0.000000
  1
820
  0
POINT
  5
7E75
  8
DEFPOINTS
  6
CONTINUOUS
 62
     0
 10
3162.4401680000001
 20
6350.1911639999998
 30
0.0
  0
POINT
  5
7E76
  8
DEFPOINTS
  6
CONTINUOUS
 62
     0
 10
3162.4401680000001
 20
5530.1911639999998
 30
0.0
  0
POINT
  5
7E77
  8
DEFPOINTS
  6
CONTINUOUS
 62
     0
 10
3460.170810000001
 20
5530.1911639999998
 30
0.0
  0
ENDBLK
  5
7C4D
  8
0
  0
BLOCK
  8
0
  2
*D16
 70
     1
 10
0.0
 20
0.0
 30
0.0
  3
*D16
  1

  0
LINE
  5
7E78
  8
3
  6
CONTINUOUS
 62
     0
 10
2746.4443940000001
 20
3173.3933569999999
 30
0.0
 11
2746.4443940000001
 21
4162.1657249999998
 31
0.0
  0
LINE
  5
7E79
  8
3
  6
CONTINUOUS
 62
     0
 10
2142.4401680000001
 20
4132.1657249999998
 30
0.0
 11
2686.4443940000001
 21
4132.1657249999998
 31
0.0
  0
INSERT
  5
7E7A
  8
3
  6
CONTINUOUS
 62
     0
  2
_OPEN
 10
2082.4401680000001
 20
4132.1657249999998
 30
0.0
 41
60.0
 42
60.0
 43
60.0
 50
180.0
  0
INSERT
  5
7E7B
  8
3
  6
CONTINUOUS
 62
     0
  2
_OPEN
 10
2746.4443940000001
 20
4132.1657249999998
 30
0.0
 41
60.0
 42
60.0
 43
60.0
  0
TEXT
  8
3
  40
90
  5
7E98
  62
0
  72
0
  71
0
 10
2234.44
 20
4047.87
 30
0.000000
  1
664
  0
POINT
  5
7E7D
  8
DEFPOINTS
  6
CONTINUOUS
 62
     0
 10
2082.4401680000001
 20
4085.518806999999
 30
0.0
  0
POINT
  5
7E7E
  8
DEFPOINTS
  6
CONTINUOUS
 62
     0
 10
2746.4443940000001
 20
3158.3933569999999
 30
0.0
  0
POINT
  5
7E7F
  8
DEFPOINTS
  6
CONTINUOUS
 62
     0
 10
2746.4443940000001
 20
4132.1657249999998
 30
0.0
  0
ENDBLK
  5
7C73
  8
0
  0
BLOCK
  8
0
  2
*D17
 70
     1
 10
0.0
 20
0.0
 30
0.0
  3
*D17
  1

  0
LINE
  5
7E80
  8
3
 62
     0
 10
1487.4401680000001
 20
4002.8933569999999
 30
0.0
 11
1487.4401680000001
 21
4371.3673175958356
 31
0.0
  0
LINE
  5
7E81
  8
3
 62
     0
 10
3162.4401680000001
 20
2578.393356999999
 30
0.0
 11
3162.4401680000001
 21
4371.3673175958356
 31
0.0
  0
LINE
  5
7E82
  8
3
 62
     0
 10
1547.4401680000001
 20
4341.3673175958347
 30
0.0
 11
3102.4401680000001
 21
4341.3673175958347
 31
0.0
  0
INSERT
  5
7E83
  8
3
 62
     0
  2
_OPEN
 10
1487.4401680000001
 20
4341.3673175958347
 30
0.0
 41
60.0
 42
60.0
 43
60.0
 50
180.0
  0
INSERT
  5
7E84
  8
3
 62
     0
  2
_OPEN
 10
3162.4401680000001
 20
4341.3673175958347
 30
0.0
 41
60.0
 42
60.0
 43
60.0
  0
TEXT
  8
3
  40
90
  5
7E99
  62
0
  72
0
  71
0
 10
2083.19
 20
4257.07
 30
0.000000
  1
1675
  0
POINT
  5
7E86
  8
DEFPOINTS
 62
     0
 10
1487.4401680000001
 20
3987.8933569999999
 30
0.0
  0
POINT
  5
7E87
  8
DEFPOINTS
 62
     0
 10
3162.4401680000001
 20
2563.3933569999999
 30
0.0
  0
POINT
  5
7E88
  8
DEFPOINTS
 62
     0
 10
3162.4401680000001
 20
4341.3673175958347
 30
0.0
  0
ENDBLK
  5
7CE3
  8
0
  0
ENDSEC
  0
SECTION
  2
ENTITIES
  0
ARC
  5
7AA1
  8
1
  6
CONTINUOUS
 10
2030.4401679999989
 20
3210.3933569999999
 30
0.0
 40
717.88999999999987
 50
355.24000000000001
 51
85.849999999999994
  0
ARC
  5
7AA2
  8
1
  6
CONTINUOUS
 10
2126.4401680000001
 20
3202.3933569999999
 30
0.0
 40
621.54999999999995
 50
263.5
 51
355.24000000000001
  0
LINE
  5
7AA3
  8
1
  6
CONTINUOUS
 10
1562.4401680000001
 20
2563.3933569999999
 30
0.0
 11
3162.4401680000001
 21
2563.3933569999999
 31
0.0
  0
LINE
  5
7AA4
  8
1
  6
CONTINUOUS
 10
1562.4401680000001
 20
2463.3933569999999
 30
0.0
 11
3162.4401680000001
 21
2463.3933569999999
 31
0.0
  0
LINE
  5
7AA5
  8
1
  6
CONTINUOUS
 10
2748.330168
 20
6298.1911639999998
 30
0.0
 11
1487.4401680000001
 21
6298.1911639999998
 31
0.0
  0
LINE
  5
7AA6
  8
1
  6
CONTINUOUS
 10
2748.330168
 20
5698.1911639999998
 30
0.0
 11
1487.4401680000001
 21
5698.1911639999998
 31
0.0
  0
LINE
  5
7AA7
  8
1
  6
CONTINUOUS
 10
3162.4401680000001
 20
6350.1911639999998
 30
0.0
 11
1562.4401680000001
 21
6350.1911639999998
 31
0.0
  0
LINE
  5
7AA8
  8
1
  6
CONTINUOUS
 10
2232.4401680000001
 20
3813.3933569999999
 30
0.0
 11
3142.4401680000001
 21
2863.393356999999
 31
0.0
  0
LINE
  5
7AA9
  8
1
  6
CONTINUOUS
 10
3142.4401680000001
 20
5438.1911639999998
 30
0.0
 11
1662.4401679999989
 21
5438.1911639999998
 31
0.0
  0
LINE
  5
7AAA
  8
1
  6
CONTINUOUS
 10
3142.4401680000001
 20
5588.1911639999998
 30
0.0
 11
1662.4401679999989
 21
5588.1911639999998
 31
0.0
  0
LINE
  5
7AAB
  8
1
  6
CONTINUOUS
 10
2910.060168
 20
5530.1911639999998
 30
0.0
 11
2282.4401680000001
 21
5530.1911639999998
 31
0.0
  0
LINE
  5
7AAC
  8
1
  6
CONTINUOUS
 10
2185.2201679999998
 20
3329.9633570000001
 30
0.0
 11
3023.6101680000002
 21
2827.7333569999992
 31
0.0
  0
LINE
  5
7AAD
  8
1
  6
CONTINUOUS
 10
2026.1501679999999
 20
2966.4733569999989
 30
0.0
 11
2963.9601680000001
 21
2691.4233570000001
 31
0.0
  0
LINE
  5
7AAE
  8
1
  6
CONTINUOUS
 10
1487.4401680000001
 20
3945.3933569999999
 30
0.0
 11
2082.4401680000001
 21
3926.3933569999999
 31
0.0
  0
ARC
  5
7AAF
  8
1
  6
CONTINUOUS
 10
2117.4401680000001
 20
3123.3933569999999
 30
0.0
 40
542.03999999999985
 50
180.31999999999999
 51
263.5
  0
LINE
  5
7AB3
  8
1
  6
CONTINUOUS
 10
1662.4401679999989
 20
3813.3933569999999
 30
0.0
 11
2232.4401680000001
 21
3813.3933569999999
 31
0.0
  0
LINE
  5
7AB4
  8
1
  6
CONTINUOUS
 10
1487.4401680000001
 20
3077.8933569999999
 30
0.0
 11
1487.4401680000001
 21
3987.8933569999999
 31
0.0
  0
LINE
  5
7AB6
  8
1
  6
CONTINUOUS
 10
1527.4401680000001
 20
3120.3933569999999
 30
0.0
 11
1527.4401680000001
 21
3945.3933569999999
 31
0.0
  0
LINE
  5
7AB7
  8
1
  6
CONTINUOUS
 10
1662.4401679999989
 20
2563.3933569999999
 30
0.0
 11
1662.4401679999989
 21
3813.3933569999999
 31
0.0
  0
LINE
  5
7AB8
  8
1
  6
CONTINUOUS
 10
1562.4401680000001
 20
2563.3933569999999
 30
0.0
 11
1562.4401680000001
 21
2463.3933569999999
 31
0.0
  0
LINE
  5
7AB9
  8
1
  6
CONTINUOUS
 10
1575.4101680000001
 20
3120.3933569999999
 30
0.0
 11
1487.4401680000001
 21
3120.3933569999999
 31
0.0
  0
LINE
  5
7ABA
  8
2
  6
CENTER
 10
2082.4401680000001
 20
6526.7284409999993
 30
0.0
 11
2082.4401680000001
 21
5307.9570329999997
 31
0.0
  0
CIRCLE
  5
7ABC
  8
1
  6
CONTINUOUS
 10
2082.4401680000001
 20
3158.3933569999999
 30
0.0
 40
200.0
  0
LINE
  5
7ABD
  8
2
  6
CENTER
 10
1401.519679
 20
3158.3933569999999
 30
0.0
 11
3092.4946809999992
 21
3158.3933569999999
 31
0.0
  0
LINE
  5
7ABE
  8
1
  6
CONTINUOUS
 10
1882.4401679999989
 20
5530.1911639999998
 30
0.0
 11
1562.4401680000001
 21
5530.1911639999998
 31
0.0
  0
LINE
  5
7ABF
  8
1
  6
CONTINUOUS
 10
1487.4401680000001
 20
5656.1911639999989
 30
0.0
 11
1487.4401680000001
 21
6340.1911639999998
 31
0.0
  0
LINE
  5
7AC0
  8
1
  6
CONTINUOUS
 10
1662.4401679999989
 20
5438.1911639999998
 30
0.0
 11
1662.4401679999989
 21
5588.1911639999998
 31
0.0
  0
LINE
  5
7AC1
  8
1
  6
CONTINUOUS
 10
1562.4401680000001
 20
5698.1911639999998
 30
0.0
 11
1562.4401680000001
 21
5530.1911639999998
 31
0.0
  0
LINE
  5
7AC2
  8
1
  6
CONTINUOUS
 10
1562.4401680000001
 20
6350.1911639999998
 30
0.0
 11
1562.4401680000001
 21
6298.1911639999998
 31
0.0
  0
LINE
  5
7AC3
  8
1
  6
CONTINUOUS
 10
1882.4401679999989
 20
5548.1911639999998
 30
0.0
 11
2282.4401680000001
 21
5548.1911639999998
 31
0.0
  0
LINE
  5
7AC4
  8
1
  6
CONTINUOUS
 10
1882.4401679999989
 20
5478.1911639999998
 30
0.0
 11
2282.4401680000001
 21
5478.1911639999998
 31
0.0
  0
LINE
  5
7AC5
  8
1
  6
CONTINUOUS
 10
1882.4401679999989
 20
5478.1911639999998
 30
0.0
 11
1882.4401679999989
 21
5548.1911639999998
 31
0.0
  0
LINE
  5
7AC6
  8
1
  6
CONTINUOUS
 10
2103.4401680000001
 20
5548.1911639999998
 30
0.0
 11
2103.4401680000001
 21
5698.1911639999998
 31
0.0
  0
LINE
  5
7AC7
  8
1
  6
CONTINUOUS
 10
2061.4401680000001
 20
5548.1911639999998
 30
0.0
 11
2061.4401680000001
 21
5698.1911639999998
 31
0.0
  0
LINE
  5
7AC8
  8
1
  6
CONTINUOUS
 10
2282.4401680000001
 20
5478.1911639999998
 30
0.0
 11
2282.4401680000001
 21
5548.1911639999998
 31
0.0
  0
LINE
  5
7AC9
  8
1
  6
CONTINUOUS
 10
4360.7619329999998
 20
3813.3933569999999
 30
0.0
 11
4210.7619329999989
 21
3813.3933569999999
 31
0.0
  0
LINE
  5
7ACA
  8
1
  6
CONTINUOUS
 10
5122.7619329999989
 20
2563.3933569999999
 30
0.0
 11
4210.7619329999989
 21
2563.3933569999999
 31
0.0
  0
ARC
  5
7AD4
  8
1
  6
CONTINUOUS
 10
2985.060168
 20
2763.393356999999
 30
0.0
 40
162.0
 50
324.97000000000003
 51
215.02999999999989
  0
LINE
  5
7AD5
  8
1
  6
CONTINUOUS
 10
3139.060168
 20
2563.3933569999999
 30
0.0
 11
2831.060168
 21
2563.3933569999999
 31
0.0
  0
LINE
  5
7AD6
  8
1
  6
CONTINUOUS
 10
2831.060168
 20
2621.3933569999999
 30
0.0
 11
2852.4101679999999
 21
2670.4133569999999
 31
0.0
  0
LINE
  5
7AD7
  8
1
  6
CONTINUOUS
 10
2831.060168
 20
2563.3933569999999
 30
0.0
 11
2831.060168
 21
2621.3933569999999
 31
0.0
  0
CIRCLE
  5
7AD8
  8
1
  6
CONTINUOUS
 10
2985.060168
 20
2763.393356999999
 30
0.0
 40
75.0
  0
LINE
  5
7AD9
  8
2
  6
CENTER
 10
2985.060168
 20
2688.3933569999999
 30
0.0
 11
2985.060168
 21
2838.3933569999999
 31
0.0
  0
LINE
  5
7ADA
  8
2
  6
CENTER
 10
3060.060168
 20
2763.393356999999
 30
0.0
 11
2910.060168
 21
2763.393356999999
 31
0.0
  0
LINE
  5
7ADB
  8
1
  6
CONTINUOUS
 10
3139.060168
 20
2621.3933569999999
 30
0.0
 11
3117.7201679999989
 21
2670.4133569999999
 31
0.0
  0
LINE
  5
7ADC
  8
1
  6
CONTINUOUS
 10
3142.4401680000001
 20
2863.393356999999
 30
0.0
 11
3142.4401680000001
 21
2563.3933569999999
 31
0.0
  0
LINE
  5
7ADD
  8
1
  6
CONTINUOUS
 10
3162.4401680000001
 20
2563.3933569999999
 30
0.0
 11
3162.4401680000001
 21
2463.3933569999999
 31
0.0
  0
LINE
  5
7ADE
  8
1
  6
CONTINUOUS
 10
3139.060168
 20
2563.3933569999999
 30
0.0
 11
3139.060168
 21
2621.3933569999999
 31
0.0
  0
LINE
  5
7AF3
  8
1
  6
CONTINUOUS
 10
4210.7619329999989
 20
3813.3933569999999
 30
0.0
 11
4210.7619329999989
 21
2563.3933569999999
 31
0.0
  0
LINE
  5
7AF9
  8
1
  6
CONTINUOUS
 10
5122.7619329999989
 20
2463.3933569999999
 30
0.0
 11
4302.7619329999998
 21
2463.3933569999999
 31
0.0
  0
LINE
  5
7AFA
  8
1
  6
CONTINUOUS
 10
4320.7619329999989
 20
3358.3933569999999
 30
0.0
 11
4320.7619329999989
 21
2958.3933569999999
 31
0.0
  0
LINE
  5
7AFB
  8
1
  6
CONTINUOUS
 10
4250.7619329999989
 20
3358.3933569999999
 30
0.0
 11
4250.7619329999989
 21
2958.3933569999999
 31
0.0
  0
LINE
  5
7AFC
  8
1
  6
CONTINUOUS
 10
4360.7619329999998
 20
3813.3933569999999
 30
0.0
 11
4360.7619329999998
 21
2563.3933569999999
 31
0.0
  0
LINE
  5
7AFD
  8
1
  6
CONTINUOUS
 10
4470.7619329999998
 20
3120.3933569999999
 30
0.0
 11
5070.7619329999989
 21
3945.3933569999999
 31
0.0
  0
LINE
  5
7AFE
  8
1
  6
CONTINUOUS
 10
5070.7619329999989
 20
3120.3933569999999
 30
0.0
 11
4470.7619329999998
 21
3945.3933569999999
 31
0.0
  0
LINE
  5
7AFF
  8
1
  6
CONTINUOUS
 10
5070.7619329999989
 20
3945.3933569999999
 30
0.0
 11
5070.7619329999989
 21
2563.3933569999999
 31
0.0
  0
LINE
  5
7B00
  8
1
  6
CONTINUOUS
 10
4470.7619329999998
 20
3945.3933569999999
 30
0.0
 11
4470.7619329999998
 21
2563.3933569999999
 31
0.0
  0
LINE
  5
7B01
  8
1
  6
CONTINUOUS
 10
4470.7619329999998
 20
3120.3933569999999
 30
0.0
 11
5070.7619329999989
 21
3120.3933569999999
 31
0.0
  0
LINE
  5
7B02
  8
1
  6
CONTINUOUS
 10
4302.7619329999998
 20
2563.3933569999999
 30
0.0
 11
4302.7619329999998
 21
2463.3933569999999
 31
0.0
  0
LINE
  5
7B03
  8
1
  6
CONTINUOUS
 10
4470.7619329999998
 20
3137.3933569999999
 30
0.0
 11
4320.7619329999989
 21
3137.3933569999999
 31
0.0
  0
LINE
  5
7B04
  8
1
  6
CONTINUOUS
 10
4470.7619329999998
 20
3179.3933569999999
 30
0.0
 11
4320.7619329999989
 21
3179.3933569999999
 31
0.0
  0
LINE
  5
7B05
  8
1
  6
CONTINUOUS
 10
4320.7619329999989
 20
2742.3933569999999
 30
0.0
 11
4470.7619329999998
 21
2742.3933569999999
 31
0.0
  0
LINE
  5
7B06
  8
1
  6
CONTINUOUS
 10
4320.7619329999989
 20
2784.3933569999999
 30
0.0
 11
4470.7619329999998
 21
2784.3933569999999
 31
0.0
  0
LINE
  5
7B07
  8
1
  6
CONTINUOUS
 10
4320.7619329999989
 20
2838.3933569999999
 30
0.0
 11
4320.7619329999989
 21
2688.3933569999999
 31
0.0
  0
LINE
  5
7B08
  8
1
  6
CONTINUOUS
 10
4250.7619329999989
 20
2838.3933569999999
 30
0.0
 11
4250.7619329999989
 21
2688.3933569999999
 31
0.0
  0
LINE
  5
7B09
  8
1
  6
CONTINUOUS
 10
4250.7619329999989
 20
2688.3933569999999
 30
0.0
 11
4320.7619329999989
 21
2688.3933569999999
 31
0.0
  0
LINE
  5
7B0A
  8
1
  6
CONTINUOUS
 10
4250.7619329999989
 20
2838.3933569999999
 30
0.0
 11
4320.7619329999989
 21
2838.3933569999999
 31
0.0
  0
LINE
  5
7B0B
  8
1
  6
CONTINUOUS
 10
4250.7619329999989
 20
2958.3933569999999
 30
0.0
 11
4320.7619329999989
 21
2958.3933569999999
 31
0.0
  0
LINE
  5
7B0C
  8
1
  6
CONTINUOUS
 10
4470.7619329999998
 20
3945.3933569999999
 30
0.0
 11
5070.7619329999989
 21
3945.3933569999999
 31
0.0
  0
LINE
  5
7B0D
  8
1
  6
CONTINUOUS
 10
4250.7619329999989
 20
3358.3933569999999
 30
0.0
 11
4320.7619329999989
 21
3358.3933569999999
 31
0.0
  0
LINE
  5
7B0E
  8
1
  6
CONTINUOUS
 10
5122.7619329999989
 20
2563.3933569999999
 30
0.0
 11
5122.7619329999989
 21
2463.3933569999999
 31
0.0
  0
LINE
  5
7B15
  8
1
  6
CONTINUOUS
 10
3147.060168
 20
6121.1911639999989
 30
0.0
 11
2823.0601679999991
 21
6121.1911639999989
 31
0.0
  0
LINE
  5
7B16
  8
1
  6
CONTINUOUS
 10
3147.060168
 20
5636.1911639999998
 30
0.0
 11
2823.0601679999991
 21
5636.1911639999998
 31
0.0
  0
LINE
  5
7B17
  8
1
  6
CONTINUOUS
 10
3162.4401680000001
 20
5530.1911639999998
 30
0.0
 11
3060.060168
 21
5530.1911639999998
 31
0.0
  0
LINE
  5
7B18
  8
1
  6
CONTINUOUS
 10
2823.0601679999991
 20
5636.1911639999998
 30
0.0
 11
2823.0601679999991
 21
6121.1911639999989
 31
0.0
  0
LINE
  5
7B19
  8
1
  6
CONTINUOUS
 10
2748.330168
 20
5698.1911639999998
 30
0.0
 11
2748.330168
 21
6298.1911639999998
 31
0.0
  0
LINE
  5
7B1A
  8
1
  6
CONTINUOUS
 10
2964.0601679999991
 20
5548.1911639999998
 30
0.0
 11
2964.0601679999991
 21
5636.1911639999998
 31
0.0
  0
LINE
  5
7B1B
  8
1
  6
CONTINUOUS
 10
3006.060168
 20
5548.1911639999998
 30
0.0
 11
3006.060168
 21
5636.1911639999998
 31
0.0
  0
LINE
  5
7B1C
  8
1
  6
CONTINUOUS
 10
3060.060168
 20
5478.1911639999998
 30
0.0
 11
3060.060168
 21
5548.1911639999998
 31
0.0
  0
LINE
  5
7B1D
  8
1
  6
CONTINUOUS
 10
2910.060168
 20
5478.1911639999998
 30
0.0
 11
2910.060168
 21
5548.1911639999998
 31
0.0
  0
LINE
  5
7B1E
  8
1
  6
CONTINUOUS
 10
2910.060168
 20
5548.1911639999998
 30
0.0
 11
3060.060168
 21
5548.1911639999998
 31
0.0
  0
LINE
  5
7B1F
  8
1
  6
CONTINUOUS
 10
2910.060168
 20
5478.1911639999998
 30
0.0
 11
3060.060168
 21
5478.1911639999998
 31
0.0
  0
LINE
  5
7B20
  8
1
  6
CONTINUOUS
 10
3147.060168
 20
5636.1911639999998
 30
0.0
 11
3147.060168
 21
6121.1911639999989
 31
0.0
  0
LINE
  5
7B21
  8
1
  6
CONTINUOUS
 10
3162.4401680000001
 20
6350.1911639999998
 30
0.0
 11
3162.4401680000001
 21
5530.1911639999998
 31
0.0
  0
LINE
  5
7B22
  8
1
  6
CONTINUOUS
 10
3142.4401680000001
 20
5588.1911639999998
 30
0.0
 11
3142.4401680000001
 21
5438.1911639999998
 31
0.0
  0
LINE
  5
7B3C
  8
2
  6
CENTER
 10
3256.7318329999989
 20
5998.1911639999998
 30
0.0
 11
1361.1809310000001
 21
5998.1911639999998
 31
0.0
  0
LINE
  5
7B3D
  8
2
  6
CENTER
 10
4770.7619329999998
 20
4044.8621479999988
 30
0.0
 11
4770.7619329999998
 21
2298.6776570000002
 31
0.0
  0
LINE
  5
7B3E
  8
2
  6
CENTER
 10
2082.4401680000001
 20
4085.518806999999
 30
0.0
 11
2082.4401680000001
 21
2280.2306229999999
 31
0.0
  0
LINE
  5
7B3F
  8
2
  6
CENTER
 10
4157.4858189999986
 20
3158.3933569999999
 30
0.0
 11
5215.5108829999999
 21
3158.3933569999999
 31
0.0
  0
LINE
  5
7B40
  8
4
  6
CONTINUOUS
 10
5550.0
 20
1500.0
 30
0.0
 11
5550.0
 21
900.0
 31
0.0
  0
LINE
  5
7B41
  8
4
  6
CONTINUOUS
 10
3450.0
 20
1500.0
 30
0.0
 11
3450.0
 21
900.0
 31
0.0
  0
LINE
  5
7B42
  8
4
  6
CONTINUOUS
 10
1950.0
 20
1500.0
 30
0.0
 11
1950.0
 21
900.0
 31
0.0
  0
LINE
  5
7B45
  8
4
  6
CONTINUOUS
 10
1950.0
 20
900.0
 30
0.0
 11
5550.0
 21
900.0
 31
0.0
  0
LINE
  5
7B46
  8
4
  6
CONTINUOUS
 10
1950.0
 20
1200.0
 30
0.0
 11
5550.0
 21
1200.0
 31
0.0
  0
TEXT
  5
7B47
  8
4
  6
CONTINUOUS
 10
2065.5062429999989
 20
1294.6290779999999
 30
0.0
 40
150.0
  1
機器名称
  0
TEXT
  5
7B48
  8
4
  6
CONTINUOUS
 10
2058.7743179999989
 20
964.9354699999999
 30
0.0
 40
150.0
  1
機器型番
  0
TEXT
  5
7B49
  8
4
  6
CONTINUOUS
 10
3533.0362359999999
 20
1267.7153069999999
 30
0.0
 40
150.0
  1
ミツヤ多翼送風機
  0
TEXT
  5
7B4A
  8
4
  6
CONTINUOUS
 10
3559.9634869999991
 20
951.47875299999987
 30
0.0
 40
150.0
  1
MFE#5-4
  0
TEXT
  5
7B4C
  8
4
  6
CONTINUOUS
 10
2714.3572960000001
 20
7150.2865239999992
 30
0.0
 40
162.0
  1
床置ベット
  0
TEXT
  5
7B4D
  8
4
  6
CONTINUOUS
 10
948.50278000000014
 20
7601.6429289999996
 30
0.0
 40
216.0
  1
ベルト駆動式片吸込両持排煙ファン
  0
LINE
  5
7B4E
  8
4
  6
CONTINUOUS
 10
750.0
 20
7408.2262629999996
 30
0.0
 11
5550.0
 21
7408.2262629999996
 31
0.0
  0
LINE
  5
7B4F
  8
4
  6
CONTINUOUS
 10
750.0
 20
8008.2262629999996
 30
0.0
 11
5550.0
 21
8008.2262629999996
 31
0.0
  0
LINE
  5
7B50
  8
4
  6
CONTINUOUS
 10
1950.0
 20
1500.0
 30
0.0
 11
5550.0
 21
1500.0
 31
0.0
  0
LINE
  5
7B51
  8
4
  6
CONTINUOUS
 10
750.0
 20
8008.2262629999996
 30
0.0
 11
750.0
 21
7408.2262629999996
 31
0.0
  0
TEXT
  5
7B52
  8
4
  6
CONTINUOUS
 10
1406.7807999999991
 20
7146.9584329999998
 30
0.0
 40
162.0
  1
左回転左横向
  0
TEXT
  5
7B53
  8
4
  6
CONTINUOUS
 10
4406.9086779999989
 20
8118.1832439999989
 30
0.0
 40
168.0
  1
No.
  0
TEXT
  5
7B54
  8
4
  6
CONTINUOUS
 10
3933.8881879999999
 20
7150.2865239999992
 30
0.0
 40
162.0
  1
縮尺：1/30
  0
LINE
  5
7B55
  8
4
  6
CONTINUOUS
 10
5550.0
 20
8008.2262629999996
 30
0.0
 11
5550.0
 21
7408.2262629999996
 31
0.0
  0
LINE
  5
7B57
  8
4
  6
CONTINUOUS
 10
4321.8522670000002
 20
8043.7907490000007
 30
0.0
 11
4321.8522670000002
 21
8359.9567849999985
 31
0.0
  0
LINE
  5
7B58
  8
4
  6
CONTINUOUS
 10
4321.8522670000002
 20
8359.9567849999985
 30
0.0
 11
5550.0
 21
8359.9567849999985
 31
0.0
  0
LINE
  5
7B59
  8
4
  6
CONTINUOUS
 10
5550.0
 20
8359.9567849999985
 30
0.0
 11
5550.0
 21
8043.7907490000007
 31
0.0
  0
LINE
  5
7B5A
  8
4
  6
CONTINUOUS
 10
5550.0
 20
8043.7907490000007
 30
0.0
 11
4321.8522670000002
 21
8043.7907490000007
 31
0.0
  0
DIMENSION
  5
7B72
  8
3
  6
CONTINUOUS
  2
*D1
 10
1326.3679099999999
 20
3120.3933569999999
 30
0.0
 11
1326.3679099999999
 21
3541.2196899999999
 31
0.0
 70
   128
 13
1487.4401680000001
 23
3945.3933569999999
 33
0.0
 14
1487.4401680000001
 24
3120.3933569999999
 34
0.0
 50
90.0
1001
ACAD
1000
DSTYLE
1002
{
1070
   287
1070
     3
1070
   287
1070
     3
1070
    40
1040
30.0
1070
   143
1040
0.039
1070
   172
1070
     1
1070
   271
1070
     0
1070
   279
1070
     0
1070
   288
1070
     1
1002
}
  0
DIMENSION
  5
7B7F
  8
3
  6
CONTINUOUS
  2
*D2
 10
1159.7066789999999
 20
3158.3933569999999
 30
0.0
 11
1159.706678999999
 21
3557.3364149999989
 31
0.0
 70
   128
 13
1487.4401680000001
 23
3945.3933569999999
 33
0.0
 14
1401.519679
 24
3158.3933569999999
 34
0.0
 50
90.0
1001
ACAD
1000
DSTYLE
1002
{
1070
   287
1070
     3
1070
   287
1070
     3
1070
    40
1040
30.0
1070
   143
1040
0.039
1070
   172
1070
     1
1070
   271
1070
     0
1070
   279
1070
     0
1070
   288
1070
     1
1002
}
  0
DIMENSION
  5
7B8B
  8
3
  6
CONTINUOUS
  2
*D3
 10
1159.706678999999
 20
2463.3933569999999
 30
0.0
 11
1084.706678999999
 21
2810.8933569999999
 31
0.0
 70
     0
 13
1401.519679
 23
3158.3933569999999
 33
0.0
 14
1562.4401680000001
 24
2463.3933569999999
 34
0.0
 50
90.0
1001
ACAD
1000
DSTYLE
1002
{
1070
   287
1070
     4
1070
   287
1070
     4
1070
    40
1040
30.0
1070
    75
1070
     1
1070
   143
1040
0.039
1070
   172
1070
     1
1070
   271
1070
     0
1070
   279
1070
     1
1070
   288
1070
     1
1002
}
  0
DIMENSION
  5
7B98
  8
3
  6
CONTINUOUS
  2
*D4
 10
954.87586400000043
 20
2463.3933569999999
 30
0.0
 11
954.87586399999998
 21
3213.5132749999989
 31
0.0
 70
   128
 13
1487.4401680000001
 23
3987.8933569999999
 33
0.0
 14
1562.4401680000001
 24
2463.3933569999999
 34
0.0
 50
90.0
1001
ACAD
1000
DSTYLE
1002
{
1070
   287
1070
     3
1070
   287
1070
     3
1070
    40
1040
30.0
1070
   143
1040
0.039
1070
   172
1070
     1
1070
   271
1070
     0
1070
   279
1070
     0
1070
   288
1070
     1
1002
}
  0
DIMENSION
  5
7BA5
  8
3
  6
CONTINUOUS
  2
*D5
 10
2082.4401680000001
 20
2213.0831520000002
 30
0.0
 11
1815.0629650000001
 21
2213.0831520000002
 31
0.0
 70
   128
 13
1562.4401680000001
 23
2463.3933569999999
 33
0.0
 14
2082.4401680000001
 24
2280.2306229999999
 34
0.0
1001
ACAD
1000
DSTYLE
1002
{
1070
   287
1070
     3
1070
   287
1070
     3
1070
    40
1040
30.0
1070
   143
1040
0.039
1070
   172
1070
     1
1070
   271
1070
     0
1070
   279
1070
     0
1070
   288
1070
     1
1002
}
  0
DIMENSION
  5
7BB1
  8
3
  6
CONTINUOUS
  2
*D6
 10
3162.4401680000001
 20
2213.0831520000002
 30
0.0
 11
2622.4401680000001
 21
2288.0831520000002
 31
0.0
 70
     0
 13
2082.4401680000001
 23
2280.2306229999999
 33
0.0
 14
3162.4401680000001
 24
2463.3933569999999
 34
0.0
1001
ACAD
1000
DSTYLE
1002
{
1070
   287
1070
     4
1070
   287
1070
     4
1070
    40
1040
30.0
1070
    75
1070
     1
1070
   143
1040
0.039
1070
   172
1070
     1
1070
   271
1070
     0
1070
   279
1070
     1
1070
   288
1070
     1
1002
}
  0
DIMENSION
  5
7BBE
  8
3
  6
CONTINUOUS
  2
*D7
 10
2082.4401680000001
 20
4132.1657249999998
 30
0.0
 11
1788.182117999999
 21
4132.1657249999998
 31
0.0
 70
   128
 13
1487.4401680000001
 23
3987.8933569999999
 33
0.0
 14
2082.4401680000001
 24
4085.518806999999
 34
0.0
1001
ACAD
1000
DSTYLE
1002
{
1070
   287
1070
     3
1070
   287
1070
     3
1070
    40
1040
30.0
1070
   143
1040
0.039
1070
   172
1070
     1
1070
   271
1070
     0
1070
   279
1070
     0
1070
   288
1070
     1
1002
}
  0
DIMENSION
  5
7BD7
  8
3
  6
CONTINUOUS
  2
*D8
 10
4470.7619329999998
 20
4067.7843379999999
 30
0.0
 11
4781.3502429999999
 21
4067.7843379999999
 31
0.0
 70
   128
 13
5070.7619329999989
 23
3945.3933569999999
 33
0.0
 14
4470.7619329999998
 24
3945.3933569999999
 34
0.0
1001
ACAD
1000
DSTYLE
1002
{
1070
   287
1070
     3
1070
   287
1070
     3
1070
    40
1040
30.0
1070
   143
1040
0.039
1070
   172
1070
     1
1070
   271
1070
     0
1070
   279
1070
     0
1070
   288
1070
     1
1002
}
  0
LINE
  5
7BD8
  8
1
  6
CONTINUOUS
 10
5074.7619329999998
 20
3583.3933569999999
 30
0.0
 11
5074.7619329999998
 21
2733.3933569999999
 31
0.0
  0
DIMENSION
  5
7BE7
  8
3
  6
CONTINUOUS
  2
*D9
 10
5367.3526929999998
 20
2733.393356999999
 30
0.0
 11
5367.3526929999998
 21
3181.2798459999999
 31
0.0
 70
   128
 13
5074.7619329999998
 23
3583.3933569999999
 33
0.0
 14
5074.7619329999998
 24
2733.3933569999999
 34
0.0
 50
90.0
1001
ACAD
1000
DSTYLE
1002
{
1070
   287
1070
     3
1070
   287
1070
     3
1070
     3
1000
φ<>
1070
    40
1040
30.0
1070
   143
1040
0.039
1070
   172
1070
     1
1070
   271
1070
     0
1070
   279
1070
     0
1070
   288
1070
     1
1002
}
  0
DIMENSION
  5
7BF6
  8
3
  6
CONTINUOUS
  2
*D10
 10
4770.7619329999998
 20
4245.0681459999996
 30
0.0
 11
4922.7619329999998
 21
4323.5258215267531
 31
0.0
 70
   128
 13
5074.7619329999998
 23
3583.3933569999999
 33
0.0
 14
4770.7619329999998
 24
4205.9121960000002
 34
0.0
1001
ACAD
1000
DSTYLE
1002
{
1070
   288
1070
     1
1070
   172
1070
     1
1070
    40
1040
30.0
1070
   271
1070
     0
1070
   143
1040
0.039
1002
}
  0
DIMENSION
  5
7C02
  8
3
  6
CONTINUOUS
  2
*D11
 10
4210.7619329999989
 20
4245.0681459999996
 30
0.0
 11
4490.7619329999989
 21
4395.0681459999996
 31
0.0
 70
     0
  1
MAX\P610
 13
4770.7619329999998
 23
4205.9121960000002
 33
0.0
 14
4210.7619329999989
 24
3813.3933569999999
 34
0.0
1001
ACAD
1000
DSTYLE
1002
{
1070
   287
1070
     4
1070
   287
1070
     4
1070
    40
1040
30.0
1070
    75
1070
     1
1070
   143
1040
0.039
1070
   172
1070
     1
1070
   271
1070
     0
1070
   279
1070
     1
1070
   288
1070
     1
1002
}
  0
DIMENSION
  5
7C0F
  8
3
  6
CONTINUOUS
  2
*D12
 10
4770.7619329999998
 20
2208.819563
 30
0.0
 11
4565.0476470000003
 21
2208.819563
 31
0.0
 70
   128
 13
4302.7619329999998
 23
2463.3933569999999
 33
0.0
 14
4770.7619329999998
 24
2298.6776570000002
 34
0.0
1001
ACAD
1000
DSTYLE
1002
{
1070
   287
1070
     3
1070
   287
1070
     3
1070
    40
1040
30.0
1070
   143
1040
0.039
1070
   172
1070
     1
1070
   271
1070
     0
1070
   279
1070
     0
1070
   288
1070
     1
1002
}
  0
DIMENSION
  5
7C1D
  8
3
  6
CONTINUOUS
  2
*D13
 10
5122.7619329999989
 20
2208.819563
 30
0.0
 11
4955.2006609999999
 21
2209.9344860000001
 31
0.0
 70
   128
 13
4770.7619329999998
 23
2298.6776570000002
 33
0.0
 14
5122.7619329999989
 24
2463.3933569999999
 34
0.0
1001
ACAD
1000
DSTYLE
1002
{
1070
   287
1070
     4
1070
   287
1070
     4
1070
    40
1040
30.0
1070
    75
1070
     1
1070
   143
1040
0.039
1070
   172
1070
     1
1070
   271
1070
     0
1070
   279
1070
     1
1070
   288
1070
     1
1002
}
  0
DIMENSION
  5
7C41
  8
3
  6
CONTINUOUS
  2
*D14
 10
3162.4401680000001
 20
6550.1114530000013
 30
0.0
 11
2325.7990570000002
 21
6550.1114530000013
 31
0.0
 70
   128
 13
1562.4401680000001
 23
6350.1911639999998
 33
0.0
 14
3162.4401680000001
 24
6350.1911639999998
 34
0.0
1001
ACAD
1000
DSTYLE
1002
{
1070
   287
1070
     3
1070
   287
1070
     3
1070
    40
1040
30.0
1070
   143
1040
0.039
1070
   172
1070
     1
1070
   271
1070
     0
1070
   279
1070
     0
1070
   288
1070
     1
1002
}
  0
DIMENSION
  5
7C4E
  8
3
  6
CONTINUOUS
  2
*D15
 10
3460.170810000001
 20
5530.1911639999998
 30
0.0
 11
3460.1708100000001
 21
5950.4672760000003
 31
0.0
 70
   128
 13
3162.4401680000001
 23
6350.1911639999998
 33
0.0
 14
3162.4401680000001
 24
5530.1911639999998
 34
0.0
 50
90.0
1001
ACAD
1000
DSTYLE
1002
{
1070
   287
1070
     3
1070
   287
1070
     3
1070
    40
1040
30.0
1070
   143
1040
0.039
1070
   172
1070
     1
1070
   271
1070
     0
1070
   279
1070
     0
1070
   288
1070
     1
1002
}
  0
DIMENSION
  5
7C74
  8
3
  6
CONTINUOUS
  2
*D16
 10
2746.4443940000001
 20
4132.1657249999998
 30
0.0
 11
2414.4422810000001
 21
4207.1657249999998
 31
0.0
 70
     0
 13
2082.4401680000001
 23
4085.518806999999
 33
0.0
 14
2746.4443940000001
 24
3158.3933569999999
 34
0.0
1001
ACAD
1000
DSTYLE
1002
{
1070
   287
1070
     4
1070
   287
1070
     4
1070
    40
1040
30.0
1070
    75
1070
     1
1070
   143
1040
0.039
1070
   172
1070
     1
1070
   271
1070
     0
1070
   279
1070
     1
1070
   288
1070
     1
1002
}
  0
DIMENSION
  5
7CE4
  8
3
  2
*D17
 10
3162.4401680000001
 20
4341.3673175958347
 30
0.0
 11
2263.1857924148489
 21
4341.3673175958347
 31
0.0
 70
   128
 13
1487.4401680000001
 23
3987.8933569999999
 33
0.0
 14
3162.4401680000001
 24
2563.3933569999999
 34
0.0
1001
ACAD
1000
DSTYLE
1002
{
1070
   287
1070
     3
1070
   287
1070
     3
1070
    40
1040
30.0
1070
   143
1040
0.039
1070
   172
1070
     1
1070
   271
1070
     0
1070
   279
1070
     0
1070
   288
1070
     1
1002
}
  0
LINE
  5
7DE9
  8
1
  6
CONTINUOUS
 10
1582.4401680000001
 20
3563.3933569999999
 30
0.0
 11
2582.4401680000001
 21
3563.3933569999999
 31
0.0
  0
LINE
  5
7DEA
  8
1
 10
1582.4401680000001
 20
3563.3933569999999
 30
0.0
 11
1582.4401680000001
 21
2563.3933569999999
 31
0.0
  0
LINE
  5
7DEB
  8
1
 10
2582.4401680000001
 20
3563.3933569999999
 30
0.0
 11
2582.4401680000001
 21
2563.3933569999999
 31
0.0
  0
ENDSEC
  0
EOF
