  0
SECTION
  2
HEADER
  9
$ACADVER
  1
AC1009
  9
$INSBASE
 10
0.0
 20
0.0
 30
0.0
  9
$EXTMIN
 10
750.0
 20
900.0
 30
0.0
  9
$EXTMAX
 10
5550.0
 20
8359.9567800000004
 30
0.0
  9
$LIMMIN
 10
0.0
 20
0.0
  9
$LIMMAX
 10
297.0
 20
210.0
  9
$ORTHOMODE
 70
     0
  9
$REGENMODE
 70
     1
  9
$FILLMODE
 70
     0
  9
$QTEXTMODE
 70
     0
  9
$MIRRTEXT
 70
     1
  9
$DRAGMODE
 70
     2
  9
$LTSCALE
 40
100.0
  9
$OSMODE
 70
    37
  9
$ATTMODE
 70
     1
  9
$TEXTSIZE
 40
180.0
  9
$TRACEWID
 40
0.05
  9
$TEXTSTYLE
  7
STANDARD
  9
$CLAYER
  8
3
  9
$CELTYPE
  6
BYLAYER
  9
$CECOLOR
 62
   256
  9
$DIMSCALE
 40
30.0
  9
$DIMASZ
 40
2.0
  9
$DIMEXO
 40
0.5
  9
$DIMDLI
 40
10.0
  9
$DIMRND
 40
0.0
  9
$DIMDLE
 40
0.0
  9
$DIMEXE
 40
1.0
  9
$DIMTP
 40
1.0
  9
$DIMTM
 40
1.0
  9
$DIMTXT
 40
3.0
  9
$DIMCEN
 40
0.0
  9
$DIMTSZ
 40
0.0
  9
$DIMTOL
 70
     0
  9
$DIMLIM
 70
     0
  9
$DIMTIH
 70
     0
  9
$DIMTOH
 70
     0
  9
$DIMSE1
 70
     0
  9
$DIMSE2
 70
     0
  9
$DIMTAD
 70
     1
  9
$DIMZIN
 70
     8
  9
$DIMBLK
  1

  9
$DIMASO
 70
     1
  9
$DIMSHO
 70
     1
  9
$DIMPOST
  1
(<>)
  9
$DIMAPOST
  1

  9
$DIMALT
 70
     0
  9
$DIMALTD
 70
     2
  9
$DIMALTF
 40
0.039
  9
$DIMLFAC
 40
1.0
  9
$DIMTOFL
 70
     1
  9
$DIMTVP
 40
0.0
  9
$DIMTIX
 70
     0
  9
$DIMSOXD
 70
     0
  9
$DIMSAH
 70
     1
  9
$DIMBLK1
  1
DOT
  9
$DIMBLK2
  1
OPEN
  9
$DIMSTYLE
  2
IGA
  9
$DIMCLRD
 70
     0
  9
$DIMCLRE
 70
     0
  9
$DIMCLRT
 70
     0
  9
$DIMTFAC
 40
10.0
  9
$DIMGAP
 40
1.0
  9
$LUNITS
 70
     2
  9
$LUPREC
 70
     3
  9
$SKETCHINC
 40
0.1
  9
$FILLETRAD
 40
50.0
  9
$AUNITS
 70
     0
  9
$AUPREC
 70
     0
  9
$MENU
  1
acad
  9
$ELEVATION
 40
0.0
  9
$PELEVATION
 40
0.0
  9
$THICKNESS
 40
0.0
  9
$LIMCHECK
 70
     0
  9
$BLIPMODE
 70
     0
  9
$CHAMFERA
 40
0.5
  9
$CHAMFERB
 40
0.5
  9
$SKPOLY
 70
     0
  9
$TDCREATE
 40
2450743.4780277768
  9
$TDUPDATE
 40
2454953.8396284138
  9
$TDINDWG
 40
0.0159521991
  9
$TDUSRTIMER
 40
0.0159521991
  9
$USRTIMER
 70
     1
  9
$ANGBASE
 50
0.0
  9
$ANGDIR
 70
     0
  9
$PDMODE
 70
     0
  9
$PDSIZE
 40
0.0
  9
$PLINEWID
 40
0.0
  9
$COORDS
 70
     1
  9
$SPLFRAME
 70
     0
  9
$SPLINETYPE
 70
     6
  9
$SPLINESEGS
 70
     8
  9
$ATTDIA
 70
     0
  9
$ATTREQ
 70
     1
  9
$HANDLING
 70
 10241
  9
$HANDSEED
  5
80F5
  9
$SURFTAB1
 70
     6
  9
$SURFTAB2
 70
     6
  9
$SURFTYPE
 70
     6
  9
$SURFU
 70
     6
  9
$SURFV
 70
     6
  9
$UCSNAME
  2

  9
$UCSORG
 10
0.0
 20
0.0
 30
0.0
  9
$UCSXDIR
 10
1.0
 20
0.0
 30
0.0
  9
$UCSYDIR
 10
0.0
 20
1.0
 30
0.0
  9
$PUCSNAME
  2

  9
$PUCSORG
 10
0.0
 20
0.0
 30
0.0
  9
$PUCSXDIR
 10
1.0
 20
0.0
 30
0.0
  9
$PUCSYDIR
 10
0.0
 20
1.0
 30
0.0
  9
$USERI1
 70
     0
  9
$USERI2
 70
     0
  9
$USERI3
 70
     0
  9
$USERI4
 70
     0
  9
$USERI5
 70
     0
  9
$USERR1
 40
0.0
  9
$USERR2
 40
0.0
  9
$USERR3
 40
0.0
  9
$USERR4
 40
0.0
  9
$USERR5
 40
0.0
  9
$WORLDVIEW
 70
     1
  9
$SHADEDGE
 70
     3
  9
$SHADEDIF
 70
    70
  9
$TILEMODE
 70
     1
  9
$MAXACTVP
 70
    16
  9
$PLIMCHECK
 70
     0
  9
$PEXTMIN
 10
1.0000000000000000E+020
 20
1.0000000000000000E+020
 30
1.0000000000000000E+020
  9
$PEXTMAX
 10
-1.0000000000000000E+020
 20
-1.0000000000000000E+020
 30
-1.0000000000000000E+020
  9
$PLIMMIN
 10
0.0
 20
0.0
  9
$PLIMMAX
 10
12.0
 20
9.0
  9
$UNITMODE
 70
     0
  9
$VISRETAIN
 70
     0
  9
$PLINEGEN
 70
     0
  9
$PSLTSCALE
 70
     1
  0
ENDSEC
  0
SECTION
  2
TABLES
  0
TABLE
  2
VPORT
 70
     2
  0
VPORT
  2
*ACTIVE
 70
     0
 10
0.0
 20
0.0
 11
1.0
 21
1.0
 12
3431.0974385352761
 22
4603.2005627919098
 13
0.0
 23
0.0
 14
10.0
 24
10.0
 15
10.0
 25
10.0
 16
0.0
 26
0.0
 36
1.0
 17
0.0
 27
0.0
 37
0.0
 40
9063.6721243903012
 41
1.5051150895140659
 42
50.0
 43
0.0
 44
0.0
 50
0.0
 51
0.0
 71
     0
 72
   100
 73
     1
 74
     0
 75
     0
 76
     0
 77
     0
 78
     0
  0
ENDTAB
  0
TABLE
  2
LTYPE
 70
     2
  0
LTYPE
  2
CONTINUOUS
 70
     0
  3
Solid line
 72
    65
 73
     0
 40
0.0
  0
LTYPE
  2
CENTER
 70
     0
  3
____ _ ____ _ ____ _ ____ _ ____ _ ____ _ ____ 
 72
    65
 73
     4
 40
2.0
 49
1.25
 49
-0.25
 49
0.25
 49
-0.25
  0
ENDTAB
  0
TABLE
  2
LAYER
 70
     6
  0
LAYER
  2
0
 70
     0
 62
     7
  6
CONTINUOUS
  0
LAYER
  2
3
 70
     0
 62
     2
  6
CONTINUOUS
  0
LAYER
  2
2
 70
     0
 62
     3
  6
CENTER
  0
LAYER
  2
1
 70
     0
 62
     4
  6
CONTINUOUS
  0
LAYER
  2
4
 70
     0
 62
     7
  6
CONTINUOUS
  0
LAYER
  2
DEFPOINTS
 70
     0
 62
     7
  6
CONTINUOUS
  0
ENDTAB
  0
TABLE
  2
STYLE
 70
     1
  0
STYLE
  2
STANDARD
 70
     0
 40
0.0
 41
1.0
 50
0.0
 71
     0
 42
180.0
  3
simplex.shx
  4
extfont.shx
  0
ENDTAB
  0
TABLE
  2
VIEW
 70
     0
  0
ENDTAB
  0
TABLE
  2
UCS
 70
     0
  0
ENDTAB
  0
TABLE
  2
APPID
 70
     1
  0
APPID
  2
ACAD
 70
     0
  0
ENDTAB
  0
TABLE
  2
DIMSTYLE
 70
     1
  0
DIMSTYLE
  2
IGA
 70
     0
  3

  4

  5

  6
OPEN
  7
OPEN
 40
2.0
 41
2.0
 42
0.5
 43
10.0
 44
1.0
 45
0.0
 46
0.0
 47
1.0
 48
1.0
140
3.0
141
0.0
142
0.0
143
0.03937
144
1.0
145
0.0
146
10.0
147
1.0
 71
     0
 72
     0
 73
     0
 74
     0
 75
     0
 76
     0
 77
     1
 78
     8
170
     0
171
     2
172
     0
173
     1
174
     0
175
     0
176
     0
177
     0
178
     0
  0
ENDTAB
  0
ENDSEC
  0
SECTION
  2
BLOCKS
  0
BLOCK
  8
0
  2
$MODEL_SPACE
 70
     0
 10
0.0
 20
0.0
 30
0.0
  3
$MODEL_SPACE
  1

  0
ENDBLK
  5
1B
  8
0
  0
BLOCK
 67
     1
  8
0
  2
$PAPER_SPACE
 70
     0
 10
0.0
 20
0.0
 30
0.0
  3
$PAPER_SPACE
  1

  0
ENDBLK
  5
18
 67
     1
  8
0
  0
BLOCK
  8
0
  2
_OPEN
 70
     0
 10
0.0
 20
0.0
 30
0.0
  3
_OPEN
  1

  0
LINE
  5
7B6F
  8
0
  6
BYBLOCK
 62
     0
 10
-1.0
 20
0.166667
 30
0.0
 11
0.0
 21
0.0
 31
0.0
  0
LINE
  5
7B70
  8
0
  6
BYBLOCK
 62
     0
 10
0.0
 20
0.0
 30
0.0
 11
-1.0
 21
-0.166667
 31
0.0
  0
LINE
  5
7B71
  8
0
  6
BYBLOCK
 62
     0
 10
0.0
 20
0.0
 30
0.0
 11
-1.0
 21
0.0
 31
0.0
  0
ENDBLK
  5
7B72
  8
0
  0
BLOCK
  8
0
  2
*D1
 70
     1
 10
0.0
 20
0.0
 30
0.0
  3
*D1
  1

  0
LINE
  5
8052
  8
3
  6
CONTINUOUS
 62
     0
 10
2693.7701638803942
 20
3866.776366140909
 30
0.0
 11
2693.7701638803942
 21
4169.7552881409101
 31
0.0
  0
LINE
  5
8053
  8
3
  6
CONTINUOUS
 62
     0
 10
1963.770163880394
 20
3866.776366140909
 30
0.0
 11
1963.770163880394
 21
4169.7552881409101
 31
0.0
  0
LINE
  5
8054
  8
3
  6
CONTINUOUS
 62
     0
 10
2633.7701638803942
 20
4139.7552881409101
 30
0.0
 11
2023.770163880394
 21
4139.7552881409101
 31
0.0
  0
INSERT
  5
8055
  8
3
  6
CONTINUOUS
 62
     0
  2
_OPEN
 10
2693.7701638803942
 20
4139.7552881409101
 30
0.0
 41
60.0
 42
60.0
 43
60.0
  0
INSERT
  5
8056
  8
3
  6
CONTINUOUS
 62
     0
  2
_OPEN
 10
1963.770163880394
 20
4139.7552881409101
 30
0.0
 41
60.0
 42
60.0
 43
60.0
 50
180.0
  0
TEXT
  8
3
  40
90
  5
80E4
  62
0
  72
0
  71
0
 10
2125.56
 20
4055.46
 30
0.000000
  1
730
  0
POINT
  5
8058
  8
DEFPOINTS
  6
CONTINUOUS
 62
     0
 10
2693.7701638803942
 20
3851.7763661409099
 30
0.0
  0
POINT
  5
8059
  8
DEFPOINTS
  6
CONTINUOUS
 62
     0
 10
1963.770163880394
 20
3851.7763661409099
 30
0.0
  0
POINT
  5
805A
  8
DEFPOINTS
  6
CONTINUOUS
 62
     0
 10
1963.770163880394
 20
4139.7552881409101
 30
0.0
  0
ENDBLK
  5
7D1D
  8
0
  0
BLOCK
  8
0
  2
*D2
 70
     1
 10
0.0
 20
0.0
 30
0.0
  3
*D2
  1

  0
LINE
  5
805B
  8
3
  6
CONTINUOUS
 62
     0
 10
2693.7701638803942
 20
3866.776366140909
 30
0.0
 11
2693.7701638803942
 21
4339.9475861409101
 31
0.0
  0
LINE
  5
805C
  8
3
  6
CONTINUOUS
 62
     0
 10
1997.770163880394
 20
4265.1657591409103
 30
0.0
 11
1997.770163880394
 21
4339.9475861409101
 31
0.0
  0
LINE
  5
805D
  8
3
  6
CONTINUOUS
 62
     0
 10
2633.7701638803942
 20
4309.9475861409101
 30
0.0
 11
2057.7701638803942
 21
4309.9475861409101
 31
0.0
  0
INSERT
  5
805E
  8
3
  6
CONTINUOUS
 62
     0
  2
_OPEN
 10
2693.7701638803942
 20
4309.9475861409101
 30
0.0
 41
60.0
 42
60.0
 43
60.0
  0
INSERT
  5
805F
  8
3
  6
CONTINUOUS
 62
     0
  2
_OPEN
 10
1997.770163880394
 20
4309.9475861409101
 30
0.0
 41
60.0
 42
60.0
 43
60.0
 50
180.0
  0
TEXT
  8
3
  40
90
  5
80E5
  62
0
  72
0
  71
0
 10
2106.63
 20
4225.65
 30
0.000000
  1
696
  0
POINT
  5
8061
  8
DEFPOINTS
  6
CONTINUOUS
 62
     0
 10
2693.7701638803942
 20
3851.7763661409099
 30
0.0
  0
POINT
  5
8062
  8
DEFPOINTS
  6
CONTINUOUS
 62
     0
 10
1997.770163880394
 20
4250.1657591409103
 30
0.0
  0
POINT
  5
8063
  8
DEFPOINTS
  6
CONTINUOUS
 62
     0
 10
1997.770163880394
 20
4309.9475861409101
 30
0.0
  0
ENDBLK
  5
7D12
  8
0
  0
BLOCK
  8
0
  2
*D3
 70
     1
 10
0.0
 20
0.0
 30
0.0
  3
*D3
  1

  0
LINE
  5
8064
  8
3
  6
CONTINUOUS
 62
     0
 10
1908.770163880394
 20
3851.7763661409099
 30
0.0
 11
1297.6121568803951
 21
3851.7763661409099
 31
0.0
  0
LINE
  5
8065
  8
3
  6
CONTINUOUS
 62
     0
 10
1332.4562288803941
 20
3316.776366140909
 30
0.0
 11
1297.6121568803951
 21
3316.776366140909
 31
0.0
  0
LINE
  5
8066
  8
3
  6
CONTINUOUS
 62
     0
 10
1327.6121568803951
 20
3791.7763661409099
 30
0.0
 11
1327.6121568803951
 21
3376.7763661409099
 31
0.0
  0
INSERT
  5
8067
  8
3
  6
CONTINUOUS
 62
     0
  2
_OPEN
 10
1327.6121568803951
 20
3851.7763661409099
 30
0.0
 41
60.0
 42
60.0
 43
60.0
 50
90.0
  0
INSERT
  5
8068
  8
3
  6
CONTINUOUS
 62
     0
  2
_OPEN
 10
1327.6121568803951
 20
3316.776366140909
 30
0.0
 41
60.0
 42
60.0
 43
60.0
 50
270.0
  0
TEXT
  8
3
  40
90
  5
80E6
  62
0
  72
0
  71
0
 10
1072.61
 20
3426.48
 30
0.000000
  1
535
  0
POINT
  5
806A
  8
DEFPOINTS
  6
CONTINUOUS
 62
     0
 10
1923.770163880394
 20
3851.7763661409099
 30
0.0
  0
POINT
  5
806B
  8
DEFPOINTS
  6
CONTINUOUS
 62
     0
 10
1347.4562288803941
 20
3316.776366140909
 30
0.0
  0
POINT
  5
806C
  8
DEFPOINTS
  6
CONTINUOUS
 62
     0
 10
1327.6121568803951
 20
3316.776366140909
 30
0.0
  0
ENDBLK
  5
7BA5
  8
0
  0
BLOCK
  8
0
  2
*D4
 70
     1
 10
0.0
 20
0.0
 30
0.0
  3
*D4
  1

  0
LINE
  5
806D
  8
3
  6
CONTINUOUS
 62
     0
 10
1512.770163880394
 20
2691.7763661409099
 30
0.0
 11
1297.612156880394
 21
2691.7763661409099
 31
0.0
  0
LINE
  5
806E
  8
3
  6
CONTINUOUS
 62
     0
 10
1327.612156880394
 20
3256.7763661409099
 30
0.0
 11
1327.612156880394
 21
2751.7763661409099
 31
0.0
  0
INSERT
  5
806F
  8
3
  6
CONTINUOUS
 62
     0
  2
_OPEN
 10
1327.612156880394
 20
3316.776366140909
 30
0.0
 41
60.0
 42
60.0
 43
60.0
 50
90.0
  0
INSERT
  5
8070
  8
3
  6
CONTINUOUS
 62
     0
  2
_OPEN
 10
1327.612156880394
 20
2691.7763661409099
 30
0.0
 41
60.0
 42
60.0
 43
60.0
 50
270.0
  0
TEXT
  8
3
  40
90
  5
80E7
  62
0
  72
0
  71
0
 10
1072.61
 20
2844.98
 30
0.000000
  1
625
  0
POINT
  5
8072
  8
DEFPOINTS
  6
CONTINUOUS
 62
     0
 10
1347.4562288803941
 20
3316.776366140909
 30
0.0
  0
POINT
  5
8073
  8
DEFPOINTS
  6
CONTINUOUS
 62
     0
 10
1527.770163880394
 20
2691.7763661409099
 30
0.0
  0
POINT
  5
8074
  8
DEFPOINTS
  6
CONTINUOUS
 62
     0
 10
1327.612156880394
 20
2691.7763661409099
 30
0.0
  0
ENDBLK
  5
7BB1
  8
0
  0
BLOCK
  8
0
  2
*D5
 70
     1
 10
0.0
 20
0.0
 30
0.0
  3
*D5
  1

  0
LINE
  5
8075
  8
3
  6
CONTINUOUS
 62
     0
 10
5077.8449099396303
 20
3693.7763661409099
 30
0.0
 11
5340.4761169396306
 21
3693.776366140909
 31
0.0
  0
LINE
  5
8076
  8
3
  6
CONTINUOUS
 62
     0
 10
5077.8449099396303
 20
2939.7763661409099
 30
0.0
 11
5340.4761169396306
 21
2939.7763661409099
 31
0.0
  0
LINE
  5
8077
  8
3
  6
CONTINUOUS
 62
     0
 10
5310.4761169396297
 20
3633.776366140909
 30
0.0
 11
5310.4761169396297
 21
2999.7763661409099
 31
0.0
  0
INSERT
  5
8078
  8
3
  6
CONTINUOUS
 62
     0
  2
_OPEN
 10
5310.4761169396297
 20
3693.776366140909
 30
0.0
 41
60.0
 42
60.0
 43
60.0
 50
90.0
  0
INSERT
  5
8079
  8
3
  6
CONTINUOUS
 62
     0
  2
_OPEN
 10
5310.4761169396297
 20
2939.7763661409099
 30
0.0
 41
60.0
 42
60.0
 43
60.0
 50
270.0
  0
TEXT
  8
3
  40
90
  5
80E8
  62
0
  72
0
  71
0
 10
5055.48
 20
3125.61
 30
0.000000
  1
φ754
  0
POINT
  5
807B
  8
DEFPOINTS
  6
CONTINUOUS
 62
     0
 10
5062.8449099396294
 20
3693.7763661409099
 30
0.0
  0
POINT
  5
807C
  8
DEFPOINTS
  6
CONTINUOUS
 62
     0
 10
5062.8449099396294
 20
2939.7763661409099
 30
0.0
  0
POINT
  5
807D
  8
DEFPOINTS
  6
CONTINUOUS
 62
     0
 10
5310.4761169396297
 20
2939.7763661409099
 30
0.0
  0
ENDBLK
  5
7E40
  8
0
  0
BLOCK
  8
0
  2
*D6
 70
     1
 10
0.0
 20
0.0
 30
0.0
  3
*D6
  1

  0
LINE
  5
807E
  8
3
  6
CONTINUOUS
 62
     0
 10
1527.770163880394
 20
6207.9282376514757
 30
0.0
 11
1527.770163880394
 21
6462.6515846514758
 31
0.0
  0
LINE
  5
807F
  8
3
  6
CONTINUOUS
 62
     0
 10
3027.7701638803942
 20
6207.9282376514757
 30
0.0
 11
3027.7701638803942
 21
6462.6515846514758
 31
0.0
  0
LINE
  5
8080
  8
3
  6
CONTINUOUS
 62
     0
 10
1587.770163880394
 20
6432.6515846514749
 30
0.0
 11
2967.7701638803942
 21
6432.6515846514749
 31
0.0
  0
INSERT
  5
8081
  8
3
  6
CONTINUOUS
 62
     0
  2
_OPEN
 10
1527.770163880394
 20
6432.6515846514749
 30
0.0
 41
60.0
 42
60.0
 43
60.0
 50
180.0
  0
INSERT
  5
8082
  8
3
  6
CONTINUOUS
 62
     0
  2
_OPEN
 10
3027.7701638803942
 20
6432.6515846514749
 30
0.0
 41
60.0
 42
60.0
 43
60.0
  0
TEXT
  8
3
  40
90
  5
80E9
  62
0
  72
0
  71
0
 10
2066.89
 20
6348.35
 30
0.000000
  1
1500
  0
POINT
  5
8084
  8
DEFPOINTS
  6
CONTINUOUS
 62
     0
 10
1527.770163880394
 20
6192.9282376514748
 30
0.0
  0
POINT
  5
8085
  8
DEFPOINTS
  6
CONTINUOUS
 62
     0
 10
3027.7701638803942
 20
6192.9282376514748
 30
0.0
  0
POINT
  5
8086
  8
DEFPOINTS
  6
CONTINUOUS
 62
     0
 10
3027.7701638803942
 20
6432.6515846514749
 30
0.0
  0
ENDBLK
  5
7D34
  8
0
  0
BLOCK
  8
0
  2
*D7
 70
     1
 10
0.0
 20
0.0
 30
0.0
  3
*D7
  1

  0
LINE
  5
8087
  8
3
  6
CONTINUOUS
 62
     0
 10
3042.7701638803942
 20
6192.9282376514748
 30
0.0
 11
3311.0285328803948
 21
6192.9282376514748
 31
0.0
  0
LINE
  5
8088
  8
3
  6
CONTINUOUS
 62
     0
 10
3042.7701638803942
 20
5432.9282376514748
 30
0.0
 11
3311.0285328803948
 21
5432.9282376514748
 31
0.0
  0
LINE
  5
8089
  8
3
  6
CONTINUOUS
 62
     0
 10
3281.0285328803948
 20
6132.9282376514748
 30
0.0
 11
3281.0285328803948
 21
5492.9282376514757
 31
0.0
  0
INSERT
  5
808A
  8
3
  6
CONTINUOUS
 62
     0
  2
_OPEN
 10
3281.0285328803948
 20
6192.9282376514748
 30
0.0
 41
60.0
 42
60.0
 43
60.0
 50
90.0
  0
INSERT
  5
808B
  8
3
  6
CONTINUOUS
 62
     0
  2
_OPEN
 10
3281.0285328803948
 20
5432.9282376514748
 30
0.0
 41
60.0
 42
60.0
 43
60.0
 50
270.0
  0
TEXT
  8
3
  40
90
  5
80EA
  62
0
  72
0
  71
0
 10
3026.03
 20
5685.81
 30
0.000000
  1
760
  0
POINT
  5
808D
  8
DEFPOINTS
  6
CONTINUOUS
 62
     0
 10
3027.7701638803942
 20
6192.9282376514748
 30
0.0
  0
POINT
  5
808E
  8
DEFPOINTS
  6
CONTINUOUS
 62
     0
 10
3027.7701638803942
 20
5432.9282376514748
 30
0.0
  0
POINT
  5
808F
  8
DEFPOINTS
  6
CONTINUOUS
 62
     0
 10
3281.0285328803948
 20
5432.9282376514748
 30
0.0
  0
ENDBLK
  5
7C7E
  8
0
  0
BLOCK
  8
0
  2
*D8
 70
     1
 10
0.0
 20
0.0
 30
0.0
  3
*D8
  1

  0
LINE
  5
8090
  8
3
  6
CONTINUOUS
 62
     0
 10
1489.5229876844351
 20
3331.776366140909
 30
0.0
 11
1489.5229876844351
 21
4339.9475861409101
 31
0.0
  0
LINE
  5
8091
  8
3
  6
CONTINUOUS
 62
     0
 10
1937.7701638803951
 20
4309.9475861409101
 30
0.0
 11
1549.5229876844351
 21
4309.9475861409101
 31
0.0
  0
INSERT
  5
8092
  8
3
  6
CONTINUOUS
 62
     0
  2
_OPEN
 10
1997.770163880394
 20
4309.9475861409101
 30
0.0
 41
60.0
 42
60.0
 43
60.0
  0
INSERT
  5
8093
  8
3
  6
CONTINUOUS
 62
     0
  2
_OPEN
 10
1489.5229876844351
 20
4309.9475861409101
 30
0.0
 41
60.0
 42
60.0
 43
60.0
 50
180.0
  0
TEXT
  8
3
  40
90
  5
80EB
  62
0
  72
0
  71
0
 10
1563.65
 20
4225.65
 30
0.000000
  1
508
  0
POINT
  5
8095
  8
DEFPOINTS
  6
CONTINUOUS
 62
     0
 10
1997.770163880394
 20
4250.1657591409103
 30
0.0
  0
POINT
  5
8096
  8
DEFPOINTS
  6
CONTINUOUS
 62
     0
 10
1489.5229876844351
 20
3316.776366140909
 30
0.0
  0
POINT
  5
8097
  8
DEFPOINTS
  6
CONTINUOUS
 62
     0
 10
1489.5229876844351
 20
4309.9475861409101
 30
0.0
  0
ENDBLK
  5
7E9F
  8
0
  0
BLOCK
  8
0
  2
*D9
 70
     1
 10
0.0
 20
0.0
 30
0.0
  3
*D9
  1

  0
LINE
  5
8098
  8
3
  6
CONTINUOUS
 62
     0
 10
4530.8449099396294
 20
3866.776366140909
 30
0.0
 11
4530.8449099396294
 21
4067.7471681409102
 31
0.0
  0
LINE
  5
8099
  8
3
  6
CONTINUOUS
 62
     0
 10
5060.8449099396294
 20
3866.776366140909
 30
0.0
 11
5060.8449099396294
 21
4067.7471681409102
 31
0.0
  0
LINE
  5
809A
  8
3
  6
CONTINUOUS
 62
     0
 10
4590.8449099396294
 20
4037.7471681409102
 30
0.0
 11
5000.8449099396303
 21
4037.7471681409102
 31
0.0
  0
INSERT
  5
809B
  8
3
  6
CONTINUOUS
 62
     0
  2
_OPEN
 10
4530.8449099396294
 20
4037.7471681409102
 30
0.0
 41
60.0
 42
60.0
 43
60.0
 50
180.0
  0
INSERT
  5
809C
  8
3
  6
CONTINUOUS
 62
     0
  2
_OPEN
 10
5060.8449099396294
 20
4037.7471681409102
 30
0.0
 41
60.0
 42
60.0
 43
60.0
  0
TEXT
  8
3
  40
90
  5
80EC
  62
0
  72
0
  71
0
 10
4625.42
 20
3953.45
 30
0.000000
  1
530
  0
POINT
  5
809E
  8
DEFPOINTS
  6
CONTINUOUS
 62
     0
 10
4530.8449099396294
 20
3851.7763661409099
 30
0.0
  0
POINT
  5
809F
  8
DEFPOINTS
  6
CONTINUOUS
 62
     0
 10
5060.8449099396294
 20
3851.7763661409099
 30
0.0
  0
POINT
  5
80A0
  8
DEFPOINTS
  6
CONTINUOUS
 62
     0
 10
5060.8449099396294
 20
4037.7471681409102
 30
0.0
  0
ENDBLK
  5
7E20
  8
0
  0
BLOCK
  8
0
  2
*D10
 70
     1
 10
0.0
 20
0.0
 30
0.0
  3
*D10
  1

  0
LINE
  5
80A1
  8
3
  6
CONTINUOUS
 62
     0
 10
4295.8449099396303
 20
3946.7763661409099
 30
0.0
 11
4295.8449099396303
 21
4327.5699546220476
 31
0.0
  0
LINE
  5
80A2
  8
3
  6
CONTINUOUS
 62
     0
 10
4795.8449099396303
 20
4213.1784538346492
 30
0.0
 11
4795.8449099396303
 21
4327.5699546220476
 31
0.0
  0
LINE
  5
80A3
  8
3
  6
CONTINUOUS
 62
     0
 10
4355.8449099396294
 20
4297.5699546220476
 30
0.0
 11
4735.8449099396294
 21
4297.5699546220476
 31
0.0
  0
INSERT
  5
80A4
  8
3
  6
CONTINUOUS
 62
     0
  2
_OPEN
 10
4295.8449099396303
 20
4297.5699546220476
 30
0.0
 41
60.0
 42
60.0
 43
60.0
 50
180.0
  0
INSERT
  5
80A5
  8
3
  6
CONTINUOUS
 62
     0
  2
_OPEN
 10
4795.8449099396303
 20
4297.5699546220476
 30
0.0
 41
60.0
 42
60.0
 43
60.0
  0
TEXT
  8
3
  40
90
  5
80ED
  62
0
  72
0
  71
0
 10
4397.27
 20
4288.27
 30
0.000000
  1
MAX
  0
TEXT
  8
3
  40
90
  5
80EE
  62
0
  72
0
  71
0
 10
4397.27
 20
4171.27
 30
0.000000
  1
560
  0
POINT
  5
80A7
  8
DEFPOINTS
  6
CONTINUOUS
 62
     0
 10
4295.8449099396303
 20
3931.7763661409099
 30
0.0
  0
POINT
  5
80A8
  8
DEFPOINTS
  6
CONTINUOUS
 62
     0
 10
4795.8449099396303
 20
4198.1784538346501
 30
0.0
  0
POINT
  5
80A9
  8
DEFPOINTS
  6
CONTINUOUS
 62
     0
 10
4795.8449099396303
 20
4297.5699546220476
 30
0.0
  0
ENDBLK
  5
7EDD
  8
0
  0
BLOCK
  8
0
  2
*D11
 70
     1
 10
0.0
 20
0.0
 30
0.0
  3
*D11
  1

  0
LINE
  5
80AA
  8
3
  6
CONTINUOUS
 62
     0
 10
5062.8449099396294
 20
3708.776366140909
 30
0.0
 11
5062.8449099396294
 21
4327.5699546220476
 31
0.0
  0
LINE
  5
80AB
  8
3
  6
CONTINUOUS
 62
     0
 10
4855.8449099396294
 20
4297.5699546220476
 30
0.0
 11
5002.8449099396294
 21
4297.5699546220476
 31
0.0
  0
TEXT
  8
3
  40
90
  5
80EF
  62
0
  72
0
  71
0
 10
4776.32
 20
4213.91
 30
0.000000
  1
267
  0
INSERT
  5
80AD
  8
3
  6
CONTINUOUS
 62
     0
  2
_OPEN
 10
4795.8449099396303
 20
4297.5699546220476
 30
0.0
 41
60.0
 42
60.0
 43
60.0
 50
180.0
  0
INSERT
  5
80AE
  8
3
  6
CONTINUOUS
 62
     0
  2
_OPEN
 10
5062.8449099396294
 20
4297.5699546220476
 30
0.0
 41
60.0
 42
60.0
 43
60.0
  0
POINT
  5
80AF
  8
DEFPOINTS
  6
CONTINUOUS
 62
     0
 10
4795.8449099396303
 20
4198.1784538346501
 30
0.0
  0
POINT
  5
80B0
  8
DEFPOINTS
  6
CONTINUOUS
 62
     0
 10
5062.8449099396294
 20
3693.7763661409099
 30
0.0
  0
POINT
  5
80B1
  8
DEFPOINTS
  6
CONTINUOUS
 62
     0
 10
5062.8449099396294
 20
4297.5699546220476
 30
0.0
  0
ENDBLK
  5
7EE7
  8
0
  0
BLOCK
  8
0
  2
*D12
 70
     1
 10
0.0
 20
0.0
 30
0.0
  3
*D12
  1

  0
LINE
  5
80B2
  8
3
 62
     0
 10
1527.770163880394
 20
2481.7763661409099
 30
0.0
 11
1527.770163880394
 21
2277.8764747629971
 31
0.0
  0
LINE
  5
80B3
  8
3
 62
     0
 10
1997.770163880394
 20
2481.7763661409099
 30
0.0
 11
1997.770163880394
 21
2277.8764747629971
 31
0.0
  0
LINE
  5
80B4
  8
3
 62
     0
 10
1587.770163880394
 20
2307.8764747629971
 30
0.0
 11
1937.7701638803951
 21
2307.8764747629971
 31
0.0
  0
INSERT
  5
80B5
  8
3
 62
     0
  2
_OPEN
 10
1527.770163880394
 20
2307.8764747629971
 30
0.0
 41
60.0
 42
60.0
 43
60.0
 50
180.0
  0
INSERT
  5
80B6
  8
3
 62
     0
  2
_OPEN
 10
1997.770163880394
 20
2307.8764747629971
 30
0.0
 41
60.0
 42
60.0
 43
60.0
  0
TEXT
  8
3
  40
90
  5
80F0
  62
0
  72
0
  71
0
 10
1582.77
 20
2223.58
 30
0.000000
  1
470
  0
POINT
  5
80B8
  8
DEFPOINTS
 62
     0
 10
1527.770163880394
 20
2496.7763661409099
 30
0.0
  0
POINT
  5
80B9
  8
DEFPOINTS
 62
     0
 10
1997.770163880394
 20
2496.7763661409099
 30
0.0
  0
POINT
  5
80BA
  8
DEFPOINTS
 62
     0
 10
1997.770163880394
 20
2307.8764747629971
 30
0.0
  0
ENDBLK
  5
7EFB
  8
0
  0
BLOCK
  8
0
  2
*D13
 70
     1
 10
0.0
 20
0.0
 30
0.0
  3
*D13
  1

  0
LINE
  5
80BB
  8
3
 62
     0
 10
1997.770163880394
 20
2481.7763661409099
 30
0.0
 11
1997.770163880394
 21
2277.8764747629971
 31
0.0
  0
LINE
  5
80BC
  8
3
 62
     0
 10
3027.7701638803942
 20
2481.7763661409099
 30
0.0
 11
3027.7701638803942
 21
2277.8764747629971
 31
0.0
  0
LINE
  5
80BD
  8
3
 62
     0
 10
2057.7701638803942
 20
2307.8764747629971
 30
0.0
 11
2967.7701638803942
 21
2307.8764747629971
 31
0.0
  0
INSERT
  5
80BE
  8
3
 62
     0
  2
_OPEN
 10
1997.770163880394
 20
2307.8764747629971
 30
0.0
 41
60.0
 42
60.0
 43
60.0
 50
180.0
  0
INSERT
  5
80BF
  8
3
 62
     0
  2
_OPEN
 10
3027.7701638803942
 20
2307.8764747629971
 30
0.0
 41
60.0
 42
60.0
 43
60.0
  0
TEXT
  8
3
  40
90
  5
80F1
  62
0
  72
0
  71
0
 10
2332.77
 20
2223.58
 30
0.000000
  1
1030
  0
POINT
  5
80C1
  8
DEFPOINTS
 62
     0
 10
1997.770163880394
 20
2496.7763661409099
 30
0.0
  0
POINT
  5
80C2
  8
DEFPOINTS
 62
     0
 10
3027.7701638803942
 20
2496.7763661409099
 30
0.0
  0
POINT
  5
80C3
  8
DEFPOINTS
 62
     0
 10
3027.7701638803942
 20
2307.8764747629971
 30
0.0
  0
ENDBLK
  5
7F08
  8
0
  0
BLOCK
  8
0
  2
*D14
 70
     1
 10
0.0
 20
0.0
 30
0.0
  3
*D14
  1

  0
LINE
  5
80C4
  8
3
 62
     0
 10
4352.8449099396294
 20
2481.7763661409099
 30
0.0
 11
4352.8449099396294
 21
2277.8764747629971
 31
0.0
  0
LINE
  5
80C5
  8
3
 62
     0
 10
4795.8449099396303
 20
2481.7763661409099
 30
0.0
 11
4795.8449099396303
 21
2277.8764747629971
 31
0.0
  0
LINE
  5
80C6
  8
3
 62
     0
 10
4412.8449099396294
 20
2307.8764747629971
 30
0.0
 11
4735.8449099396303
 21
2307.8764747629971
 31
0.0
  0
INSERT
  5
80C7
  8
3
 62
     0
  2
_OPEN
 10
4352.8449099396294
 20
2307.8764747629971
 30
0.0
 41
60.0
 42
60.0
 43
60.0
 50
180.0
  0
INSERT
  5
80C8
  8
3
 62
     0
  2
_OPEN
 10
4795.8449099396303
 20
2307.8764747629971
 30
0.0
 41
60.0
 42
60.0
 43
60.0
  0
TEXT
  8
3
  40
90
  5
80F2
  62
0
  72
0
  71
0
 10
4394.34
 20
2223.58
 30
0.000000
  1
443
  0
POINT
  5
80CA
  8
DEFPOINTS
 62
     0
 10
4352.8449099396294
 20
2496.7763661409099
 30
0.0
  0
POINT
  5
80CB
  8
DEFPOINTS
 62
     0
 10
4795.8449099396303
 20
2496.7763661409099
 30
0.0
  0
POINT
  5
80CC
  8
DEFPOINTS
 62
     0
 10
4795.8449099396303
 20
2307.8764747629971
 30
0.0
  0
ENDBLK
  5
7F15
  8
0
  0
BLOCK
  8
0
  2
*D15
 70
     1
 10
0.0
 20
0.0
 30
0.0
  3
*D15
  1

  0
LINE
  5
80CD
  8
3
 62
     0
 10
4795.8449099396303
 20
2481.7763661409099
 30
0.0
 11
4795.8449099396303
 21
2277.8764747629971
 31
0.0
  0
LINE
  5
80CE
  8
3
 62
     0
 10
5112.8449099396294
 20
2481.7763661409099
 30
0.0
 11
5112.8449099396294
 21
2277.8764747629971
 31
0.0
  0
LINE
  5
80CF
  8
3
 62
     0
 10
4855.8449099396303
 20
2307.8764747629971
 30
0.0
 11
5052.8449099396294
 21
2307.8764747629971
 31
0.0
  0
INSERT
  5
80D0
  8
3
 62
     0
  2
_OPEN
 10
4795.8449099396303
 20
2307.8764747629971
 30
0.0
 41
60.0
 42
60.0
 43
60.0
 50
180.0
  0
INSERT
  5
80D1
  8
3
 62
     0
  2
_OPEN
 10
5112.8449099396294
 20
2307.8764747629971
 30
0.0
 41
60.0
 42
60.0
 43
60.0
  0
TEXT
  8
3
  40
90
  5
80F3
  62
0
  72
0
  71
0
 10
4774.34
 20
2223.58
 30
0.000000
  1
317
  0
POINT
  5
80D3
  8
DEFPOINTS
 62
     0
 10
4795.8449099396303
 20
2496.7763661409099
 30
0.0
  0
POINT
  5
80D4
  8
DEFPOINTS
 62
     0
 10
5112.8449099396294
 20
2496.7763661409099
 30
0.0
  0
POINT
  5
80D5
  8
DEFPOINTS
 62
     0
 10
5112.8449099396294
 20
2307.8764747629971
 30
0.0
  0
ENDBLK
  5
7F24
  8
0
  0
BLOCK
  8
0
  2
_DOT
 70
     0
 10
0.0
 20
0.0
 30
0.0
  3
_DOT
  1

  0
POLYLINE
  5
7F28
  8
0
  6
BYBLOCK
 62
     0
 66
     1
 10
0.0
 20
0.0
 30
0.0
 70
     1
 40
0.5
 41
0.5
  0
VERTEX
  5
80D6
  8
0
  6
BYBLOCK
 62
     0
 10
-0.25
 20
0.0
 30
0.0
 42
1.0
  0
VERTEX
  5
80D7
  8
0
  6
BYBLOCK
 62
     0
 10
0.25
 20
0.0
 30
0.0
 42
1.0
  0
SEQEND
  5
80D8
  8
0
  6
BYBLOCK
 62
     0
  0
LINE
  5
7F2C
  8
0
  6
BYBLOCK
 62
     0
 10
-0.5
 20
0.0
 30
0.0
 11
-1.0
 21
0.0
 31
0.0
  0
ENDBLK
  5
7F2D
  8
0
  0
BLOCK
  8
0
  2
*D17
 70
     1
 10
0.0
 20
0.0
 30
0.0
  3
*D17
  1

  0
LINE
  5
80D9
  8
3
 62
     0
 10
1512.770163880394
 20
2596.7763661409099
 30
0.0
 11
1297.664707325519
 21
2596.7763661409099
 31
0.0
  0
LINE
  5
80DA
  8
3
 62
     0
 10
1512.770163880394
 20
2496.7763661409099
 30
0.0
 11
1297.664707325519
 21
2496.7763661409099
 31
0.0
  0
LINE
  5
80DB
  8
3
 62
     0
 10
1327.664707325519
 20
2656.7763661409099
 30
0.0
 11
1327.664707325519
 21
2716.7763661409099
 31
0.0
  0
LINE
  5
80DC
  8
3
 62
     0
 10
1327.664707325519
 20
2436.7763661409099
 30
0.0
 11
1327.664707325519
 21
2102.4906518551961
 31
0.0
  0
LINE
  5
80DD
  8
3
 62
     0
 10
1327.664707325519
 20
2596.7763661409099
 30
0.0
 11
1327.664707325519
 21
2496.7763661409099
 31
0.0
  0
INSERT
  5
80DE
  8
3
 62
     0
  2
_DOT
 10
1327.664707325519
 20
2596.7763661409099
 30
0.0
 41
60.0
 42
60.0
 43
60.0
 50
270.0
  0
INSERT
  5
80DF
  8
3
 62
     0
  2
_OPEN
 10
1327.664707325519
 20
2496.7763661409099
 30
0.0
 41
60.0
 42
60.0
 43
60.0
 50
90.0
  0
TEXT
  8
3
  40
90
  5
80F4
  62
0
  72
0
  71
0
 10
1072.66
 20
2080.33
 30
0.000000
  1
100
  0
POINT
  5
80E1
  8
DEFPOINTS
 62
     0
 10
1527.770163880394
 20
2596.7763661409099
 30
0.0
  0
POINT
  5
80E2
  8
DEFPOINTS
 62
     0
 10
1527.770163880394
 20
2496.7763661409099
 30
0.0
  0
POINT
  5
80E3
  8
DEFPOINTS
 62
     0
 10
1327.664707325519
 20
2496.7763661409099
 30
0.0
  0
ENDBLK
  5
7F3B
  8
0
  0
BLOCK
  8
0
  2
*D18
 70
     1
 10
0.0
 20
0.0
 30
0.0
  3
*D18
  1

  0
LINE
  5
7F3F
  8
0
  6
BYBLOCK
 62
     0
 10
1512.770163880394
 20
2596.7763661409099
 30
0.0
 11
1297.664707325519
 21
2596.7763661409099
 31
0.0
  0
LINE
  5
7F40
  8
0
  6
BYBLOCK
 62
     0
 10
1512.770163880394
 20
2691.7763661409099
 30
0.0
 11
1297.664707325519
 21
2691.7763661409099
 31
0.0
  0
LINE
  5
7F41
  8
0
  6
BYBLOCK
 62
     0
 10
1327.664707325519
 20
2536.7763661409099
 30
0.0
 11
1327.664707325519
 21
2476.7763661409099
 31
0.0
  0
LINE
  5
7F42
  8
0
  6
BYBLOCK
 62
     0
 10
1327.664707325519
 20
2751.7763661409099
 30
0.0
 11
1327.664707325519
 21
2811.7763661409099
 31
0.0
  0
TEXT
  5
7F43
  8
3
 62
     0
 10
1214.0932787540901
 20
2513.5620804266241
 30
0.0
 40
90.0
  1
(95)
 50
90.0
  0
LINE
  5
7F44
  8
0
  6
BYBLOCK
 62
     0
 10
1327.664707325519
 20
2596.7763661409099
 30
0.0
 11
1327.664707325519
 21
2691.7763661409099
 31
0.0
  0
INSERT
  5
7F45
  8
0
  6
BYBLOCK
 62
     0
  2
_DOT
 10
1327.664707325519
 20
2596.7763661409099
 30
0.0
 41
60.0
 42
60.0
 43
60.0
 50
90.0
  0
INSERT
  5
7F46
  8
0
  6
BYBLOCK
 62
     0
  2
_OPEN
 10
1327.664707325519
 20
2691.7763661409099
 30
0.0
 41
60.0
 42
60.0
 43
60.0
 50
270.0
  0
POINT
  5
7F47
  8
DEFPOINTS
  6
BYBLOCK
 62
     0
 10
1527.770163880394
 20
2596.7763661409099
 30
0.0
  0
POINT
  5
7F48
  8
DEFPOINTS
  6
BYBLOCK
 62
     0
 10
1527.770163880394
 20
2691.7763661409099
 30
0.0
  0
POINT
  5
7F49
  8
DEFPOINTS
  6
BYBLOCK
 62
     0
 10
1327.664707325519
 20
2691.7763661409099
 30
0.0
  0
ENDBLK
  5
7F4A
  8
0
  0
ENDSEC
  0
SECTION
  2
ENTITIES
  0
LINE
  5
7AB7
  8
1
  6
CONTINUOUS
 10
2064.510163880394
 20
3451.1063661409089
 30
0.0
 11
2844.8401638803948
 21
3063.4163661409102
 31
0.0
  0
LINE
  5
7AB8
  8
1
  6
CONTINUOUS
 10
1953.3301638803939
 20
3173.5063661409099
 30
0.0
 11
2785.5401638803942
 21
2915.36636614091
 31
0.0
  0
POLYLINE
  5
7AB9
  8
1
  6
CONTINUOUS
 66
     1
 10
0.0
 20
0.0
 30
0.0
  0
VERTEX
  5
804C
  8
1
  6
CONTINUOUS
 10
2693.7701638803942
 20
3851.7763661409099
 30
0.0
  0
VERTEX
  5
804D
  8
1
  6
CONTINUOUS
 10
2677.7701638803942
 20
3316.776366140909
 30
0.0
 42
-0.4200000000000001
  0
VERTEX
  5
804E
  8
1
  6
CONTINUOUS
 10
1985.980163880394
 20
2731.7563661409099
 30
0.0
 42
-0.43
  0
VERTEX
  5
804F
  8
1
  6
CONTINUOUS
 10
1493.0001638803949
 20
3348.696366140909
 30
0.0
 42
-0.37
  0
VERTEX
  5
8050
  8
1
  6
CONTINUOUS
 10
1963.770163880394
 20
3765.5463661409099
 30
0.0
 42
-0.34
  0
SEQEND
  5
8051
  8
1
  6
CONTINUOUS
  0
LINE
  5
7AC0
  8
1
  6
CONTINUOUS
 10
1923.770163880394
 20
3851.7763661409099
 30
0.0
 11
2733.7701638803942
 21
3851.7763661409099
 31
0.0
  0
LINE
  5
7AC1
  8
1
  6
CONTINUOUS
 10
1527.770163880394
 20
2691.7763661409099
 30
0.0
 11
3027.7701638803942
 21
2691.7763661409099
 31
0.0
  0
LINE
  5
7AC2
  8
1
  6
CONTINUOUS
 10
1527.770163880394
 20
2791.776366140909
 30
0.0
 11
3027.7701638803942
 21
2791.7763661409099
 31
0.0
  0
LINE
  5
7AC3
  8
1
  6
CONTINUOUS
 10
1627.770163880394
 20
5515.9282376514748
 30
0.0
 11
2987.7701638803942
 21
5515.9282376514748
 31
0.0
  0
LINE
  5
7AC4
  8
1
  6
CONTINUOUS
 10
1627.770163880394
 20
5375.9282376514757
 30
0.0
 11
2987.7701638803942
 21
5375.9282376514757
 31
0.0
  0
LINE
  5
7AC5
  8
1
  6
CONTINUOUS
 10
2976.2301638803938
 20
5575.1982376514761
 30
0.0
 11
2647.2501638803951
 21
5575.1982376514761
 31
0.0
  0
LINE
  5
7AC6
  8
1
  6
CONTINUOUS
 10
2976.2301638803938
 20
6031.1382376514748
 30
0.0
 11
2687.8101638803942
 21
6031.1382376514748
 31
0.0
  0
LINE
  5
7AC7
  8
1
  6
CONTINUOUS
 10
2147.7701638803942
 20
3931.7763661409099
 30
0.0
 11
2987.7701638803942
 21
3091.7763661409099
 31
0.0
  0
ARC
  5
7AC8
  8
1
  6
CONTINUOUS
 10
2809.2501638803951
 20
2991.7763661409099
 30
0.0
 40
162.0
 50
324.97000000000003
 51
215.02999999999989
  0
LINE
  5
7AC9
  8
1
  6
CONTINUOUS
 10
2147.7701638803942
 20
5432.9282376514748
 30
0.0
 11
2729.2501638803942
 21
5432.9282376514748
 31
0.0
  0
LINE
  5
7ACA
  8
1
  6
CONTINUOUS
 10
1527.770163880394
 20
6192.9282376514748
 30
0.0
 11
3027.7701638803942
 21
6192.9282376514748
 31
0.0
  0
LINE
  5
7ACB
  8
1
  6
CONTINUOUS
 10
1527.770163880394
 20
2496.7763661409099
 30
0.0
 11
3027.7701638803942
 21
2496.7763661409099
 31
0.0
  0
LINE
  5
7ACC
  8
1
  6
CONTINUOUS
 10
1527.770163880394
 20
2596.7763661409099
 30
0.0
 11
3027.7701638803942
 21
2596.7763661409099
 31
0.0
  0
LINE
  5
7AD1
  8
2
  6
CENTER
 10
1997.770163880394
 20
6440.5728876514759
 30
0.0
 11
1997.770163880394
 21
5193.6916936514763
 31
0.0
  0
CIRCLE
  5
7AD2
  8
1
  6
CONTINUOUS
 10
1997.770163880394
 20
3316.776366140909
 30
0.0
 40
150.0
  0
LINE
  5
7AD3
  8
1
  6
CONTINUOUS
 10
1627.770163880394
 20
2791.7763661409099
 30
0.0
 11
1627.770163880394
 21
3931.7763661409099
 31
0.0
  0
LINE
  5
7AD4
  8
1
  6
CONTINUOUS
 10
1527.770163880394
 20
2791.7763661409099
 30
0.0
 11
1527.770163880394
 21
2691.7763661409099
 31
0.0
  0
LINE
  5
7AD5
  8
1
  6
CONTINUOUS
 10
1527.770163880394
 20
2596.7763661409099
 30
0.0
 11
1527.770163880394
 21
2496.7763661409099
 31
0.0
  0
LINE
  5
7AD6
  8
1
  6
CONTINUOUS
 10
2655.2501638803942
 20
2791.7763661409099
 30
0.0
 11
2655.2501638803942
 21
2849.7763661409099
 31
0.0
  0
LINE
  5
7AD7
  8
1
  6
CONTINUOUS
 10
2655.2501638803942
 20
2849.7763661409099
 30
0.0
 11
2676.5901638803948
 21
2898.7863661409101
 31
0.0
  0
LINE
  5
7AD9
  8
1
  6
CONTINUOUS
 10
1627.770163880394
 20
3931.7763661409099
 30
0.0
 11
2147.7701638803942
 21
3931.7763661409099
 31
0.0
  0
LINE
  5
7ADA
  8
2
  6
CENTER
 10
1360.1097368803939
 20
3316.776366140909
 30
0.0
 11
3006.600844880395
 21
3316.776366140909
 31
0.0
  0
LINE
  5
7ADB
  8
1
  6
CONTINUOUS
 10
1963.770163880394
 20
3765.5463661409099
 30
0.0
 11
1963.770163880394
 21
3851.7763661409099
 31
0.0
  0
LINE
  5
7ADC
  8
1
  6
CONTINUOUS
 10
1963.770163880394
 20
3821.7763661409099
 30
0.0
 11
2692.8701638803941
 21
3821.7763661409099
 31
0.0
  0
LINE
  5
7ADD
  8
1
  6
CONTINUOUS
 10
2687.8101638803942
 20
6140.9282376514748
 30
0.0
 11
1488.4001638803941
 21
6140.9282376514748
 31
0.0
  0
LINE
  5
7ADE
  8
1
  6
CONTINUOUS
 10
2687.8101638803942
 20
5610.9282376514748
 30
0.0
 11
1488.4001638803941
 21
5610.9282376514748
 31
0.0
  0
LINE
  5
7ADF
  8
1
  6
CONTINUOUS
 10
1527.770163880394
 20
5432.9282376514748
 30
0.0
 11
1847.770163880394
 21
5432.9282376514748
 31
0.0
  0
LINE
  5
7AE0
  8
1
  6
CONTINUOUS
 10
1627.770163880394
 20
5375.9282376514757
 30
0.0
 11
1627.770163880394
 21
5515.9282376514748
 31
0.0
  0
LINE
  5
7AE1
  8
1
  6
CONTINUOUS
 10
1527.770163880394
 20
6192.9282376514748
 30
0.0
 11
1527.770163880394
 21
6140.9282376514748
 31
0.0
  0
LINE
  5
7AE2
  8
1
  6
CONTINUOUS
 10
1488.4001638803941
 20
5610.9282376514748
 30
0.0
 11
1488.4001638803941
 21
6140.9282376514748
 31
0.0
  0
LINE
  5
7AE3
  8
1
  6
CONTINUOUS
 10
1527.770163880394
 20
5610.9282376514748
 30
0.0
 11
1527.770163880394
 21
5432.9282376514748
 31
0.0
  0
LINE
  5
7AE4
  8
1
  6
CONTINUOUS
 10
2687.8101638803942
 20
5610.9282376514748
 30
0.0
 11
1957.8101638803939
 21
6140.9282376514748
 31
0.0
  0
LINE
  5
7AE5
  8
1
  6
CONTINUOUS
 10
2687.8101638803942
 20
6140.9282376514748
 30
0.0
 11
1957.8101638803939
 21
5610.9282376514748
 31
0.0
  0
LINE
  5
7AE6
  8
1
  6
CONTINUOUS
 10
2687.8101638803942
 20
5610.9282376514748
 30
0.0
 11
2687.8101638803942
 21
6140.9282376514748
 31
0.0
  0
LINE
  5
7AE7
  8
1
  6
CONTINUOUS
 10
1957.8101638803939
 20
5610.9282376514748
 30
0.0
 11
1957.8101638803939
 21
6140.9282376514748
 31
0.0
  0
LINE
  5
7AE8
  8
1
  6
CONTINUOUS
 10
1976.770163880394
 20
5485.9282376514748
 30
0.0
 11
1976.770163880394
 21
5610.9282376514748
 31
0.0
  0
LINE
  5
7AE9
  8
1
  6
CONTINUOUS
 10
2018.770163880394
 20
5485.9282376514748
 30
0.0
 11
2018.770163880394
 21
5610.9282376514748
 31
0.0
  0
LINE
  5
7AEA
  8
1
  6
CONTINUOUS
 10
1847.770163880394
 20
5485.9282376514748
 30
0.0
 11
2147.7701638803942
 21
5485.9282376514748
 31
0.0
  0
LINE
  5
7AEB
  8
1
  6
CONTINUOUS
 10
1847.770163880394
 20
5405.9282376514757
 30
0.0
 11
2147.7701638803942
 21
5405.9282376514757
 31
0.0
  0
LINE
  5
7AEC
  8
1
  6
CONTINUOUS
 10
1847.770163880394
 20
5405.9282376514757
 30
0.0
 11
1847.770163880394
 21
5485.9282376514748
 31
0.0
  0
LINE
  5
7AED
  8
1
  6
CONTINUOUS
 10
2147.7701638803942
 20
5405.9282376514757
 30
0.0
 11
2147.7701638803942
 21
5485.9282376514748
 31
0.0
  0
LINE
  5
7AEE
  8
1
  6
CONTINUOUS
 10
2647.2501638803951
 20
5575.1982376514761
 30
0.0
 11
2647.2501638803951
 21
5610.9282376514748
 31
0.0
  0
LINE
  5
7AEF
  8
1
  6
CONTINUOUS
 10
5112.8449099396294
 20
2596.7763661409099
 30
0.0
 11
4352.8449099396294
 21
2596.7763661409099
 31
0.0
  0
LINE
  5
7AF0
  8
1
  6
CONTINUOUS
 10
5112.8449099396294
 20
2496.7763661409099
 30
0.0
 11
4352.8449099396294
 21
2496.7763661409099
 31
0.0
  0
LINE
  5
7AF1
  8
1
  6
CONTINUOUS
 10
5100.8449099396294
 20
3851.7763661409099
 30
0.0
 11
4490.8449099396294
 21
3851.7763661409099
 31
0.0
  0
LINE
  5
7AF2
  8
1
  6
CONTINUOUS
 10
5112.8449099396294
 20
2691.7763661409099
 30
0.0
 11
4352.8449099396294
 21
2691.7763661409099
 31
0.0
  0
LINE
  5
7AF3
  8
1
  6
CONTINUOUS
 10
5112.8449099396294
 20
2791.7763661409099
 30
0.0
 11
4295.8449099396303
 21
2791.7763661409099
 31
0.0
  0
LINE
  5
7AF5
  8
1
  6
CONTINUOUS
 10
4530.8449099396294
 20
3851.7763661409099
 30
0.0
 11
4530.8449099396294
 21
2791.7763661409099
 31
0.0
  0
LINE
  5
7AF9
  8
1
  6
CONTINUOUS
 10
4295.8449099396303
 20
3931.7763661409099
 30
0.0
 11
4295.8449099396303
 21
2791.7763661409099
 31
0.0
  0
LINE
  5
7AFA
  8
1
  6
CONTINUOUS
 10
4435.8449099396294
 20
3931.7763661409099
 30
0.0
 11
4435.8449099396294
 21
2791.7763661409099
 31
0.0
  0
LINE
  5
7AFB
  8
1
  6
CONTINUOUS
 10
4405.8449099396294
 20
3166.7763661409099
 30
0.0
 11
4405.8449099396294
 21
3466.776366140909
 31
0.0
  0
LINE
  5
7AFC
  8
1
  6
CONTINUOUS
 10
4325.8449099396294
 20
3166.7763661409099
 30
0.0
 11
4325.8449099396294
 21
3466.776366140909
 31
0.0
  0
LINE
  5
7B0E
  8
1
  6
CONTINUOUS
 10
3027.7701638803942
 20
2791.7763661409099
 30
0.0
 11
3027.7701638803942
 21
2691.7763661409099
 31
0.0
  0
LINE
  5
7B0F
  8
1
  6
CONTINUOUS
 10
2987.7701638803942
 20
2791.7763661409099
 30
0.0
 11
2987.7701638803942
 21
3091.7763661409099
 31
0.0
  0
CIRCLE
  5
7B10
  8
1
  6
CONTINUOUS
 10
2809.2501638803951
 20
2991.7763661409099
 30
0.0
 40
80.0
  0
LINE
  5
7B11
  8
1
  6
CONTINUOUS
 10
2963.2501638803942
 20
2849.7763661409099
 30
0.0
 11
2941.9001638803938
 21
2898.7863661409101
 31
0.0
  0
LINE
  5
7B12
  8
1
  6
CONTINUOUS
 10
2963.2501638803942
 20
2791.7763661409099
 30
0.0
 11
2963.2501638803942
 21
2849.7763661409099
 31
0.0
  0
LINE
  5
7B13
  8
2
  6
CENTER
 10
2889.2501638803942
 20
2991.7763661409099
 30
0.0
 11
2729.2501638803942
 21
2991.7763661409099
 31
0.0
  0
LINE
  5
7B14
  8
2
  6
CENTER
 10
2809.2501638803951
 20
2911.7763661409099
 30
0.0
 11
2809.2501638803951
 21
3071.7763661409099
 31
0.0
  0
LINE
  5
7B15
  8
1
  6
CONTINUOUS
 10
3027.7701638803942
 20
2596.7763661409099
 30
0.0
 11
3027.7701638803942
 21
2496.7763661409099
 31
0.0
  0
LINE
  5
7B27
  8
1
  6
CONTINUOUS
 10
4352.8449099396294
 20
2596.7763661409099
 30
0.0
 11
4352.8449099396294
 21
2496.7763661409099
 31
0.0
  0
LINE
  5
7B28
  8
1
  6
CONTINUOUS
 10
4352.8449099396294
 20
2791.7763661409099
 30
0.0
 11
4352.8449099396294
 21
2691.7763661409099
 31
0.0
  0
LINE
  5
7B29
  8
1
  6
CONTINUOUS
 10
4405.8449099396294
 20
2871.7763661409099
 30
0.0
 11
4405.8449099396294
 21
3031.7763661409099
 31
0.0
  0
LINE
  5
7B2A
  8
1
  6
CONTINUOUS
 10
4325.8449099396294
 20
2871.7763661409099
 30
0.0
 11
4325.8449099396294
 21
3031.7763661409099
 31
0.0
  0
LINE
  5
7B2B
  8
1
  6
CONTINUOUS
 10
4325.8449099396294
 20
3166.7763661409099
 30
0.0
 11
4405.8449099396294
 21
3166.7763661409099
 31
0.0
  0
LINE
  5
7B2C
  8
1
  6
CONTINUOUS
 10
4325.8449099396294
 20
2871.7763661409099
 30
0.0
 11
4405.8449099396294
 21
2871.7763661409099
 31
0.0
  0
LINE
  5
7B2D
  8
1
  6
CONTINUOUS
 10
4325.8449099396294
 20
3031.7763661409099
 30
0.0
 11
4405.8449099396294
 21
3031.7763661409099
 31
0.0
  0
LINE
  5
7B2E
  8
1
  6
CONTINUOUS
 10
4405.8449099396294
 20
2972.7763661409099
 30
0.0
 11
4530.8449099396294
 21
2972.7763661409099
 31
0.0
  0
LINE
  5
7B2F
  8
1
  6
CONTINUOUS
 10
4405.8449099396294
 20
2930.7763661409099
 30
0.0
 11
4530.8449099396294
 21
2930.7763661409099
 31
0.0
  0
LINE
  5
7B3B
  8
1
  6
CONTINUOUS
 10
2729.2501638803942
 20
5485.9282376514748
 30
0.0
 11
2889.2501638803942
 21
5485.9282376514748
 31
0.0
  0
LINE
  5
7B3C
  8
1
  6
CONTINUOUS
 10
2729.2501638803942
 20
5405.9282376514757
 30
0.0
 11
2889.2501638803942
 21
5405.9282376514757
 31
0.0
  0
LINE
  5
7B3D
  8
1
  6
CONTINUOUS
 10
2729.2501638803942
 20
5405.9282376514757
 30
0.0
 11
2729.2501638803942
 21
5485.9282376514748
 31
0.0
  0
LINE
  5
7B3E
  8
1
  6
CONTINUOUS
 10
2889.2501638803942
 20
5405.9282376514757
 30
0.0
 11
2889.2501638803942
 21
5485.9282376514748
 31
0.0
  0
LINE
  5
7B3F
  8
1
  6
CONTINUOUS
 10
2987.7701638803942
 20
5375.9282376514757
 30
0.0
 11
2987.7701638803942
 21
5515.9282376514748
 31
0.0
  0
LINE
  5
7B40
  8
1
  6
CONTINUOUS
 10
3027.7701638803942
 20
6192.9282376514748
 30
0.0
 11
3027.7701638803942
 21
5432.9282376514748
 31
0.0
  0
LINE
  5
7B41
  8
1
  6
CONTINUOUS
 10
2976.2301638803938
 20
5575.1982376514761
 30
0.0
 11
2976.2301638803938
 21
6031.1382376514748
 31
0.0
  0
LINE
  5
7B42
  8
1
  6
CONTINUOUS
 10
2830.2501638803942
 20
5485.9282376514748
 30
0.0
 11
2830.2501638803942
 21
5575.1982376514761
 31
0.0
  0
LINE
  5
7B43
  8
1
  6
CONTINUOUS
 10
2788.2501638803951
 20
5485.9282376514748
 30
0.0
 11
2788.2501638803951
 21
5575.1982376514761
 31
0.0
  0
LINE
  5
7B44
  8
1
  6
CONTINUOUS
 10
2889.2501638803942
 20
5432.9282376514748
 30
0.0
 11
3027.7701638803942
 21
5432.9282376514748
 31
0.0
  0
LINE
  5
7B56
  8
1
  6
CONTINUOUS
 10
4435.8449099396294
 20
3931.7763661409099
 30
0.0
 11
4295.8449099396303
 21
3931.7763661409099
 31
0.0
  0
LINE
  5
7B57
  8
1
  6
CONTINUOUS
 10
4325.8449099396294
 20
3466.776366140909
 30
0.0
 11
4405.8449099396294
 21
3466.776366140909
 31
0.0
  0
LINE
  5
7B58
  8
1
  6
CONTINUOUS
 10
4405.8449099396294
 20
3295.776366140909
 30
0.0
 11
4530.8449099396294
 21
3295.776366140909
 31
0.0
  0
LINE
  5
7B59
  8
1
  6
CONTINUOUS
 10
4405.8449099396294
 20
3337.776366140909
 30
0.0
 11
4530.8449099396294
 21
3337.776366140909
 31
0.0
  0
LINE
  5
7B66
  8
1
  6
CONTINUOUS
 10
5060.8449099396294
 20
3851.7763661409099
 30
0.0
 11
5060.8449099396294
 21
2791.7763661409099
 31
0.0
  0
LINE
  5
7B67
  8
1
  6
CONTINUOUS
 10
5112.8449099396294
 20
2596.7763661409099
 30
0.0
 11
5112.8449099396294
 21
2496.7763661409099
 31
0.0
  0
LINE
  5
7B68
  8
1
  6
CONTINUOUS
 10
5112.8449099396294
 20
2791.7763661409099
 30
0.0
 11
5112.8449099396294
 21
2691.7763661409099
 31
0.0
  0
LINE
  5
7B69
  8
2
  6
CENTER
 10
4832.4513641231733
 20
4293.7053186220473
 30
0.0
 11
4832.4513641231733
 21
4293.3584366220493
 31
0.0
  0
LINE
  5
7B6A
  8
2
  6
CENTER
 10
1372.9431098803941
 20
5875.9282376514757
 30
0.0
 11
3107.6020868803939
 21
5875.9282376514757
 31
0.0
  0
LINE
  5
7B6B
  8
2
  6
CENTER
 10
1997.770163880394
 20
4250.1657591409103
 30
0.0
 11
1997.770163880394
 21
2496.7763661409099
 31
0.0
  0
LINE
  5
7B6C
  8
2
  6
CENTER
 10
4174.7563189396287
 20
3316.776366140909
 30
0.0
 11
5143.4728779396291
 21
3316.776366140909
 31
0.0
  0
DIMENSION
  5
7B80
  8
3
  6
CONTINUOUS
  2
*D1
 10
1963.770163880394
 20
4139.7552881409101
 30
0.0
 11
2305.555996880395
 21
4139.7552881409101
 31
0.0
 70
   128
 13
2693.7701638803942
 23
3851.7763661409099
 33
0.0
 14
1963.770163880394
 24
3851.7763661409099
 34
0.0
1001
ACAD
1000
DSTYLE
1002
{
1070
   287
1070
     3
1070
   287
1070
     3
1070
    40
1040
30.0
1070
   143
1040
0.039
1070
   172
1070
     1
1070
   271
1070
     0
1070
   279
1070
     0
1070
   288
1070
     1
1002
}
  0
DIMENSION
  5
7B8D
  8
3
  6
CONTINUOUS
  2
*D2
 10
1997.770163880394
 20
4309.9475861409101
 30
0.0
 11
2286.628060880395
 21
4309.9475861409101
 31
0.0
 70
   128
 13
2693.7701638803942
 23
3851.7763661409099
 33
0.0
 14
1997.770163880394
 24
4250.1657591409103
 34
0.0
1001
ACAD
1000
DSTYLE
1002
{
1070
   287
1070
     3
1070
   287
1070
     3
1070
    40
1040
30.0
1070
   143
1040
0.039
1070
   172
1070
     1
1070
   271
1070
     0
1070
   279
1070
     0
1070
   288
1070
     1
1002
}
  0
DIMENSION
  5
7BA6
  8
3
  6
CONTINUOUS
  2
*D3
 10
1327.6121568803951
 20
3316.776366140909
 30
0.0
 11
1327.612156880394
 21
3585.7810031409099
 31
0.0
 70
   128
 13
1923.770163880394
 23
3851.7763661409099
 33
0.0
 14
1347.4562288803941
 24
3316.776366140909
 34
0.0
 50
90.0
1001
ACAD
1000
DSTYLE
1002
{
1070
   287
1070
     3
1070
   287
1070
     3
1070
    40
1040
30.0
1070
   143
1040
0.039
1070
   172
1070
     1
1070
   271
1070
     0
1070
   279
1070
     0
1070
   288
1070
     1
1002
}
  0
DIMENSION
  5
7BB2
  8
3
  6
CONTINUOUS
  2
*D4
 10
1327.612156880394
 20
2691.7763661409099
 30
0.0
 11
1252.612156880394
 21
3004.2763661409099
 31
0.0
 70
     0
 13
1347.4562288803941
 23
3316.776366140909
 33
0.0
 14
1527.770163880394
 24
2691.7763661409099
 34
0.0
 50
90.0
1001
ACAD
1000
DSTYLE
1002
{
1070
   287
1070
     4
1070
   287
1070
     4
1070
    40
1040
30.0
1070
    75
1070
     1
1070
   143
1040
0.039
1070
   172
1070
     1
1070
   271
1070
     0
1070
   279
1070
     1
1070
   288
1070
     1
1002
}
  0
LINE
  5
7C03
  8
1
  6
CONTINUOUS
 10
5062.8449099396294
 20
3693.7763661409099
 30
0.0
 11
5062.8449099396294
 21
2939.7763661409099
 31
0.0
  0
DIMENSION
  5
7C19
  8
3
  6
CONTINUOUS
  2
*D5
 10
5310.4761169396297
 20
2939.7763661409099
 30
0.0
 11
5310.4761169396288
 21
3284.9121951409088
 31
0.0
 70
   128
 13
5062.8449099396294
 23
3693.7763661409099
 33
0.0
 14
5062.8449099396294
 24
2939.7763661409099
 34
0.0
 50
90.0
1001
ACAD
1000
DSTYLE
1002
{
1070
   287
1070
     3
1070
   287
1070
     3
1070
     3
1000
φ<>
1070
    40
1040
30.0
1070
   143
1040
0.039
1070
   172
1070
     1
1070
   271
1070
     0
1070
   279
1070
     0
1070
   288
1070
     1
1002
}
  0
LINE
  5
7C65
  8
2
  6
CENTER
 10
4795.8449099396303
 20
4017.7868307160061
 30
0.0
 11
4795.8449099396303
 21
2496.7763661409099
 31
0.0
  0
DIMENSION
  5
7C72
  8
3
  6
CONTINUOUS
  2
*D6
 10
3027.7701638803942
 20
6432.6515846514749
 30
0.0
 11
2246.8930658803938
 21
6432.6515846514749
 31
0.0
 70
   128
 13
1527.770163880394
 23
6192.9282376514748
 33
0.0
 14
3027.7701638803942
 24
6192.9282376514748
 34
0.0
1001
ACAD
1000
DSTYLE
1002
{
1070
   287
1070
     3
1070
   287
1070
     3
1070
    40
1040
30.0
1070
   143
1040
0.039
1070
   172
1070
     1
1070
   271
1070
     0
1070
   279
1070
     0
1070
   288
1070
     1
1002
}
  0
DIMENSION
  5
7C7F
  8
3
  6
CONTINUOUS
  2
*D7
 10
3281.0285328803948
 20
5432.9282376514748
 30
0.0
 11
3281.0285328803939
 21
5845.1109826514758
 31
0.0
 70
   128
 13
3027.7701638803942
 23
6192.9282376514748
 33
0.0
 14
3027.7701638803942
 24
5432.9282376514748
 34
0.0
 50
90.0
1001
ACAD
1000
DSTYLE
1002
{
1070
   287
1070
     3
1070
   287
1070
     3
1070
    40
1040
30.0
1070
   143
1040
0.039
1070
   172
1070
     1
1070
   271
1070
     0
1070
   279
1070
     0
1070
   288
1070
     1
1002
}
  0
LINE
  5
7C80
  8
4
  6
CONTINUOUS
 10
5550.0
 20
1500.0
 30
0.0
 11
5550.0
 21
900.0
 31
0.0
  0
LINE
  5
7C81
  8
4
  6
CONTINUOUS
 10
3450.0
 20
1500.0
 30
0.0
 11
3450.0
 21
900.0
 31
0.0
  0
LINE
  5
7C82
  8
4
  6
CONTINUOUS
 10
1950.0
 20
1500.0
 30
0.0
 11
1950.0
 21
900.0
 31
0.0
  0
LINE
  5
7C85
  8
4
  6
CONTINUOUS
 10
1950.0
 20
900.0
 30
0.0
 11
5550.0
 21
900.0
 31
0.0
  0
LINE
  5
7C86
  8
4
  6
CONTINUOUS
 10
1950.0
 20
1200.0
 30
0.0
 11
5550.0
 21
1200.0
 31
0.0
  0
TEXT
  5
7C87
  8
4
  6
CONTINUOUS
 10
2065.5062399999988
 20
1294.6290899999999
 30
0.0
 40
150.0
  1
機器名称
  0
TEXT
  5
7C88
  8
4
  6
CONTINUOUS
 10
2058.7743300000002
 20
964.9354800000001
 30
0.0
 40
150.0
  1
機器型番
  0
TEXT
  5
7C89
  8
4
  6
CONTINUOUS
 10
3533.0362500000001
 20
1267.71531
 30
0.0
 40
150.0
  1
ミツヤ多翼送風機
  0
TEXT
  5
7C8A
  8
4
  6
CONTINUOUS
 10
3559.9634999999998
 20
951.47874000000013
 30
0.0
 40
150.0
  1
MFE#4 1/2-4
  0
TEXT
  5
7C8C
  8
4
  6
CONTINUOUS
 10
2316.8704699999998
 20
7150.2865199999997
 30
0.0
 40
162.0
  1
床置防振ベット
  0
TEXT
  5
7C8D
  8
4
  6
CONTINUOUS
 10
948.50276999999994
 20
7601.6429400000006
 30
0.0
 40
216.0
  1
ベルト駆動式片吸込両持排煙ファン
  0
LINE
  5
7C8E
  8
4
  6
CONTINUOUS
 10
750.0
 20
7408.2262499999997
 30
0.0
 11
5550.0
 21
7408.2262499999997
 31
0.0
  0
LINE
  5
7C8F
  8
4
  6
CONTINUOUS
 10
750.0
 20
8008.2262499999988
 30
0.0
 11
5550.0
 21
8008.2262499999988
 31
0.0
  0
LINE
  5
7C90
  8
4
  6
CONTINUOUS
 10
1950.0
 20
1500.0
 30
0.0
 11
5550.0
 21
1500.0
 31
0.0
  0
LINE
  5
7C91
  8
4
  6
CONTINUOUS
 10
750.0
 20
8008.2262499999988
 30
0.0
 11
750.0
 21
7408.2262499999997
 31
0.0
  0
TEXT
  5
7C92
  8
4
  6
CONTINUOUS
 10
1009.293949999999
 20
7146.9584400000003
 30
0.0
 40
162.0
  1
左回転上向
  0
TEXT
  5
7C93
  8
4
  6
CONTINUOUS
 10
4406.9086799999986
 20
8118.1832400000003
 30
0.0
 40
168.0
  1
No.
  0
TEXT
  5
7C94
  8
4
  6
CONTINUOUS
 10
3933.8881799999999
 20
7150.2865199999997
 30
0.0
 40
162.0
  1
縮尺：1/30
  0
LINE
  5
7C95
  8
4
  6
CONTINUOUS
 10
5550.0
 20
8008.2262499999988
 30
0.0
 11
5550.0
 21
7408.2262499999997
 31
0.0
  0
LINE
  5
7C97
  8
4
  6
CONTINUOUS
 10
4321.8522599999997
 20
8043.7907400000004
 30
0.0
 11
4321.8522599999997
 21
8359.9567800000004
 31
0.0
  0
LINE
  5
7C98
  8
4
  6
CONTINUOUS
 10
4321.8522599999997
 20
8359.9567800000004
 30
0.0
 11
5550.0
 21
8359.9567800000004
 31
0.0
  0
LINE
  5
7C99
  8
4
  6
CONTINUOUS
 10
5550.0
 20
8359.9567800000004
 30
0.0
 11
5550.0
 21
8043.7907400000004
 31
0.0
  0
LINE
  5
7C9A
  8
4
  6
CONTINUOUS
 10
5550.0
 20
8043.7907400000004
 30
0.0
 11
4321.8522599999997
 21
8043.7907400000004
 31
0.0
  0
DIMENSION
  5
7D29
  8
3
  6
CONTINUOUS
  2
*D8
 10
1489.5229876844351
 20
4309.9475861409101
 30
0.0
 11
1743.6465757824139
 21
4384.9475861409101
 31
0.0
 70
     0
 13
1997.770163880394
 23
4250.1657591409103
 33
0.0
 14
1489.5229876844351
 24
3316.776366140909
 34
0.0
1001
ACAD
1000
DSTYLE
1002
{
1070
   287
1070
     4
1070
   287
1070
     4
1070
    40
1040
30.0
1070
    75
1070
     1
1070
   143
1040
0.039
1070
   172
1070
     1
1070
   271
1070
     0
1070
   279
1070
     1
1070
   288
1070
     1
1002
}
  0
DIMENSION
  5
7DA4
  8
3
  6
CONTINUOUS
  2
*D9
 10
5060.8449099396294
 20
4037.7471681409102
 30
0.0
 11
4805.4195459396296
 21
4037.7471681409102
 31
0.0
 70
   128
 13
4530.8449099396294
 23
3851.7763661409099
 33
0.0
 14
5060.8449099396294
 24
3851.7763661409099
 34
0.0
1001
ACAD
1000
DSTYLE
1002
{
1070
   287
1070
     3
1070
   287
1070
     3
1070
    40
1040
30.0
1070
   143
1040
0.039
1070
   172
1070
     1
1070
   271
1070
     0
1070
   279
1070
     0
1070
   288
1070
     1
1002
}
  0
DIMENSION
  5
7DB1
  8
3
  6
CONTINUOUS
  2
*D10
 10
4795.8449099396303
 20
4297.5699546220476
 30
0.0
 11
4577.2734813682009
 21
4297.5699546220476
 31
0.0
 70
   128
  1
MAX\P560
 13
4295.8449099396303
 23
3931.7763661409099
 33
0.0
 14
4795.8449099396303
 24
4198.1784538346501
 34
0.0
1001
ACAD
1000
DSTYLE
1002
{
1070
   287
1070
     3
1070
   287
1070
     3
1070
    40
1040
30.0
1070
   143
1040
0.039
1070
   172
1070
     1
1070
   271
1070
     0
1070
   279
1070
     0
1070
   288
1070
     1
1002
}
  0
DIMENSION
  5
7DBF
  8
3
  6
CONTINUOUS
  2
*D11
 10
5062.8449099396294
 20
4297.5699546220476
 30
0.0
 11
4956.3173651231746
 21
4298.2111356220475
 31
0.0
 70
   128
 13
4795.8449099396303
 23
4198.1784538346501
 33
0.0
 14
5062.8449099396294
 24
3693.7763661409099
 34
0.0
1001
ACAD
1000
DSTYLE
1002
{
1070
   287
1070
     4
1070
   287
1070
     4
1070
    40
1040
30.0
1070
    75
1070
     1
1070
   143
1040
0.039
1070
   172
1070
     1
1070
   271
1070
     0
1070
   279
1070
     1
1070
   288
1070
     1
1002
}
  0
DIMENSION
  5
7EFC
  8
3
  2
*D12
 10
1997.770163880394
 20
2307.8764747629971
 30
0.0
 11
1762.7701638803951
 21
2382.8764747629971
 31
0.0
 70
     0
 13
1527.770163880394
 23
2496.7763661409099
 33
0.0
 14
1997.770163880394
 24
2496.7763661409099
 34
0.0
1001
ACAD
1000
DSTYLE
1002
{
1070
   287
1070
     3
1070
   287
1070
     3
1070
    40
1040
30.0
1070
   143
1040
0.039
1070
   172
1070
     1
1070
   271
1070
     0
1070
   279
1070
     0
1002
}
  0
DIMENSION
  5
7F09
  8
3
  2
*D13
 10
3027.7701638803942
 20
2307.8764747629971
 30
0.0
 11
2512.7701638803951
 21
2382.8764747629971
 31
0.0
 70
     0
 13
1997.770163880394
 23
2496.7763661409099
 33
0.0
 14
3027.7701638803942
 24
2496.7763661409099
 34
0.0
1001
ACAD
1000
DSTYLE
1002
{
1070
   287
1070
     3
1070
   287
1070
     3
1070
    40
1040
30.0
1070
   143
1040
0.039
1070
   172
1070
     1
1070
   271
1070
     0
1070
   279
1070
     0
1002
}
  0
DIMENSION
  5
7F16
  8
3
  2
*D14
 10
4795.8449099396303
 20
2307.8764747629971
 30
0.0
 11
4574.3449099396294
 21
2382.8764747629971
 31
0.0
 70
     0
 13
4352.8449099396294
 23
2496.7763661409099
 33
0.0
 14
4795.8449099396303
 24
2496.7763661409099
 34
0.0
1001
ACAD
1000
DSTYLE
1002
{
1070
   287
1070
     3
1070
   287
1070
     3
1070
    40
1040
30.0
1070
   143
1040
0.039
1070
   172
1070
     1
1070
   271
1070
     0
1070
   279
1070
     0
1002
}
  0
DIMENSION
  5
7F25
  8
3
  2
*D15
 10
5112.8449099396294
 20
2307.8764747629971
 30
0.0
 11
4954.3449099396303
 21
2382.8764747629971
 31
0.0
 70
     0
 13
4795.8449099396303
 23
2496.7763661409099
 33
0.0
 14
5112.8449099396294
 24
2496.7763661409099
 34
0.0
1001
ACAD
1000
DSTYLE
1002
{
1070
   287
1070
     3
1070
   287
1070
     3
1070
    40
1040
30.0
1070
   143
1040
0.039
1070
   172
1070
     1
1070
   271
1070
     0
1070
   279
1070
     0
1002
}
  0
DIMENSION
  5
7F3C
  8
3
  2
*D17
 10
1327.664707325519
 20
2496.7763661409099
 30
0.0
 11
1252.6647073255181
 21
2239.633508998053
 31
0.0
 70
     0
 13
1527.770163880394
 23
2596.7763661409099
 33
0.0
 14
1527.770163880394
 24
2496.7763661409099
 34
0.0
 50
90.0
1001
ACAD
1000
DSTYLE
1002
{
1070
   287
1070
     3
1070
   287
1070
     3
1070
    40
1040
30.0
1070
   143
1040
0.039
1070
   172
1070
     1
1070
   271
1070
     0
1070
   279
1070
     0
1070
     6
1000
DOT
1002
}
  0
DIMENSION
  5
7F4B
  8
3
  2
*D18
 10
1327.664707325519
 20
2691.7763661409099
 30
0.0
 11
1184.0932787540901
 21
2644.2763661409099
 31
0.0
 70
     0
 13
1527.770163880394
 23
2596.7763661409099
 33
0.0
 14
1527.770163880394
 24
2691.7763661409099
 34
0.0
 50
90.0
1001
ACAD
1000
DSTYLE
1002
{
1070
   172
1070
     1
1070
    40
1040
30.0
1070
     3
1000
(<>)
1070
   271
1070
     0
1070
     6
1000
_DOT
1070
   143
1040
0.039
1002
}
  0
LINE
  5
802F
  8
1
  6
CONTINUOUS
 10
1537.770163880394
 20
3711.7763661409099
 30
0.0
 11
2457.7701638803951
 21
3711.776366140909
 31
0.0
  0
LINE
  5
8030
  8
1
 10
1537.770163880394
 20
3711.7763661409099
 30
0.0
 11
1537.770163880394
 21
2791.7763661409099
 31
0.0
  0
LINE
  5
8031
  8
1
 10
2457.7701638803951
 20
3711.776366140909
 30
0.0
 11
2457.7701638803951
 21
2791.7763661409099
 31
0.0
  0
ENDSEC
  0
EOF
