  0
SECTION
  2
HEADER
  9
$ACADVER
  1
AC1009
  9
$INSBASE
 10
0.0
 20
0.0
 30
0.0
  9
$EXTMIN
 10
750.0
 20
900.0
 30
0.0
  9
$EXTMAX
 10
5550.0
 20
8359.9567849999985
 30
0.0
  9
$LIMMIN
 10
0.0
 20
0.0
  9
$LIMMAX
 10
297.0
 20
210.0
  9
$ORTHOMODE
 70
     0
  9
$REGENMODE
 70
     1
  9
$FILLMODE
 70
     0
  9
$QTEXTMODE
 70
     0
  9
$MIRRTEXT
 70
     1
  9
$DRAGMODE
 70
     2
  9
$LTSCALE
 40
100.0
  9
$OSMODE
 70
    37
  9
$ATTMODE
 70
     1
  9
$TEXTSIZE
 40
180.0
  9
$TRACEWID
 40
0.05
  9
$TEXTSTYLE
  7
STANDARD
  9
$CLAYER
  8
3
  9
$CELTYPE
  6
BYLAYER
  9
$CECOLOR
 62
   256
  9
$DIMSCALE
 40
30.0
  9
$DIMASZ
 40
2.0
  9
$DIMEXO
 40
0.5
  9
$DIMDLI
 40
10.0
  9
$DIMRND
 40
0.0
  9
$DIMDLE
 40
0.0
  9
$DIMEXE
 40
1.0
  9
$DIMTP
 40
1.0
  9
$DIMTM
 40
1.0
  9
$DIMTXT
 40
3.0
  9
$DIMCEN
 40
0.0
  9
$DIMTSZ
 40
0.0
  9
$DIMTOL
 70
     0
  9
$DIMLIM
 70
     0
  9
$DIMTIH
 70
     0
  9
$DIMTOH
 70
     0
  9
$DIMSE1
 70
     0
  9
$DIMSE2
 70
     0
  9
$DIMTAD
 70
     1
  9
$DIMZIN
 70
     8
  9
$DIMBLK
  1

  9
$DIMASO
 70
     1
  9
$DIMSHO
 70
     1
  9
$DIMPOST
  1

  9
$DIMAPOST
  1

  9
$DIMALT
 70
     0
  9
$DIMALTD
 70
     2
  9
$DIMALTF
 40
0.039
  9
$DIMLFAC
 40
1.0
  9
$DIMTOFL
 70
     1
  9
$DIMTVP
 40
0.0
  9
$DIMTIX
 70
     0
  9
$DIMSOXD
 70
     0
  9
$DIMSAH
 70
     1
  9
$DIMBLK1
  1
OPEN
  9
$DIMBLK2
  1
OPEN
  9
$DIMSTYLE
  2
IGA
  9
$DIMCLRD
 70
     0
  9
$DIMCLRE
 70
     0
  9
$DIMCLRT
 70
     0
  9
$DIMTFAC
 40
10.0
  9
$DIMGAP
 40
1.0
  9
$LUNITS
 70
     2
  9
$LUPREC
 70
     3
  9
$SKETCHINC
 40
0.1
  9
$FILLETRAD
 40
50.0
  9
$AUNITS
 70
     0
  9
$AUPREC
 70
     0
  9
$MENU
  1
acad
  9
$ELEVATION
 40
0.0
  9
$PELEVATION
 40
0.0
  9
$THICKNESS
 40
0.0
  9
$LIMCHECK
 70
     0
  9
$BLIPMODE
 70
     0
  9
$CHAMFERA
 40
0.5
  9
$CHAMFERB
 40
0.5
  9
$SKPOLY
 70
     0
  9
$TDCREATE
 40
2450743.4533049762
  9
$TDUPDATE
 40
2454953.839219525
  9
$TDINDWG
 40
0.009780625
  9
$TDUSRTIMER
 40
0.009780625
  9
$USRTIMER
 70
     1
  9
$ANGBASE
 50
0.0
  9
$ANGDIR
 70
     0
  9
$PDMODE
 70
     0
  9
$PDSIZE
 40
0.0
  9
$PLINEWID
 40
0.0
  9
$COORDS
 70
     1
  9
$SPLFRAME
 70
     0
  9
$SPLINETYPE
 70
     6
  9
$SPLINESEGS
 70
     8
  9
$ATTDIA
 70
     0
  9
$ATTREQ
 70
     1
  9
$HANDLING
 70
 10241
  9
$HANDSEED
  5
8071
  9
$SURFTAB1
 70
     6
  9
$SURFTAB2
 70
     6
  9
$SURFTYPE
 70
     6
  9
$SURFU
 70
     6
  9
$SURFV
 70
     6
  9
$UCSNAME
  2

  9
$UCSORG
 10
0.0
 20
0.0
 30
0.0
  9
$UCSXDIR
 10
1.0
 20
0.0
 30
0.0
  9
$UCSYDIR
 10
0.0
 20
1.0
 30
0.0
  9
$PUCSNAME
  2

  9
$PUCSORG
 10
0.0
 20
0.0
 30
0.0
  9
$PUCSXDIR
 10
1.0
 20
0.0
 30
0.0
  9
$PUCSYDIR
 10
0.0
 20
1.0
 30
0.0
  9
$USERI1
 70
     0
  9
$USERI2
 70
     0
  9
$USERI3
 70
     0
  9
$USERI4
 70
     0
  9
$USERI5
 70
     0
  9
$USERR1
 40
0.0
  9
$USERR2
 40
0.0
  9
$USERR3
 40
0.0
  9
$USERR4
 40
0.0
  9
$USERR5
 40
0.0
  9
$WORLDVIEW
 70
     1
  9
$SHADEDGE
 70
     3
  9
$SHADEDIF
 70
    70
  9
$TILEMODE
 70
     1
  9
$MAXACTVP
 70
    16
  9
$PLIMCHECK
 70
     0
  9
$PEXTMIN
 10
1.0000000000000000E+020
 20
1.0000000000000000E+020
 30
1.0000000000000000E+020
  9
$PEXTMAX
 10
-1.0000000000000000E+020
 20
-1.0000000000000000E+020
 30
-1.0000000000000000E+020
  9
$PLIMMIN
 10
0.0
 20
0.0
  9
$PLIMMAX
 10
12.0
 20
9.0
  9
$UNITMODE
 70
     0
  9
$VISRETAIN
 70
     0
  9
$PLINEGEN
 70
     0
  9
$PSLTSCALE
 70
     1
  0
ENDSEC
  0
SECTION
  2
TABLES
  0
TABLE
  2
VPORT
 70
     2
  0
VPORT
  2
*ACTIVE
 70
     0
 10
0.0
 20
0.0
 11
1.0
 21
1.0
 12
3106.8057695661382
 22
4581.5811121034731
 13
0.0
 23
0.0
 14
10.0
 24
10.0
 15
10.0
 25
10.0
 16
0.0
 26
0.0
 36
1.0
 17
0.0
 27
0.0
 37
0.0
 40
9063.6721298111861
 41
1.5051150895140659
 42
50.0
 43
0.0
 44
0.0
 50
0.0
 51
0.0
 71
     0
 72
   100
 73
     1
 74
     0
 75
     0
 76
     0
 77
     0
 78
     0
  0
ENDTAB
  0
TABLE
  2
LTYPE
 70
     2
  0
LTYPE
  2
CONTINUOUS
 70
     0
  3
Solid line
 72
    65
 73
     0
 40
0.0
  0
LTYPE
  2
CENTER
 70
     0
  3
____ _ ____ _ ____ _ ____ _ ____ _ ____ _ ____ 
 72
    65
 73
     4
 40
2.0
 49
1.25
 49
-0.25
 49
0.25
 49
-0.25
  0
ENDTAB
  0
TABLE
  2
LAYER
 70
     6
  0
LAYER
  2
0
 70
     0
 62
     7
  6
CONTINUOUS
  0
LAYER
  2
3
 70
     0
 62
     2
  6
CONTINUOUS
  0
LAYER
  2
2
 70
     0
 62
     3
  6
CENTER
  0
LAYER
  2
1
 70
     0
 62
     4
  6
CONTINUOUS
  0
LAYER
  2
4
 70
     0
 62
     7
  6
CONTINUOUS
  0
LAYER
  2
DEFPOINTS
 70
     0
 62
     7
  6
CONTINUOUS
  0
ENDTAB
  0
TABLE
  2
STYLE
 70
     1
  0
STYLE
  2
STANDARD
 70
     0
 40
0.0
 41
1.0
 50
0.0
 71
     0
 42
180.0
  3
simplex.shx
  4
extfont.shx
  0
ENDTAB
  0
TABLE
  2
VIEW
 70
     0
  0
ENDTAB
  0
TABLE
  2
UCS
 70
     0
  0
ENDTAB
  0
TABLE
  2
APPID
 70
     1
  0
APPID
  2
ACAD
 70
     0
  0
ENDTAB
  0
TABLE
  2
DIMSTYLE
 70
     1
  0
DIMSTYLE
  2
IGA
 70
     0
  3

  4

  5

  6
OPEN
  7
OPEN
 40
2.0
 41
2.0
 42
0.5
 43
10.0
 44
1.0
 45
0.0
 46
0.0
 47
1.0
 48
1.0
140
3.0
141
0.0
142
0.0
143
0.03937
144
1.0
145
0.0
146
10.0
147
1.0
 71
     0
 72
     0
 73
     0
 74
     0
 75
     0
 76
     0
 77
     1
 78
     8
170
     0
171
     2
172
     0
173
     1
174
     0
175
     0
176
     0
177
     0
178
     0
  0
ENDTAB
  0
ENDSEC
  0
SECTION
  2
BLOCKS
  0
BLOCK
  8
0
  2
$MODEL_SPACE
 70
     0
 10
0.0
 20
0.0
 30
0.0
  3
$MODEL_SPACE
  1

  0
ENDBLK
  5
1B
  8
0
  0
BLOCK
 67
     1
  8
0
  2
$PAPER_SPACE
 70
     0
 10
0.0
 20
0.0
 30
0.0
  3
$PAPER_SPACE
  1

  0
ENDBLK
  5
18
 67
     1
  8
0
  0
BLOCK
  8
0
  2
_OPEN
 70
     0
 10
0.0
 20
0.0
 30
0.0
  3
_OPEN
  1

  0
LINE
  5
7B5D
  8
0
  6
BYBLOCK
 62
     0
 10
-1.0
 20
0.166667
 30
0.0
 11
0.0
 21
0.0
 31
0.0
  0
LINE
  5
7B5E
  8
0
  6
BYBLOCK
 62
     0
 10
0.0
 20
0.0
 30
0.0
 11
-1.0
 21
-0.166667
 31
0.0
  0
LINE
  5
7B5F
  8
0
  6
BYBLOCK
 62
     0
 10
0.0
 20
0.0
 30
0.0
 11
-1.0
 21
0.0
 31
0.0
  0
ENDBLK
  5
7B60
  8
0
  0
BLOCK
  8
0
  2
*D1
 70
     1
 10
0.0
 20
0.0
 30
0.0
  3
*D1
  1

  0
LINE
  5
7FC6
  8
3
  6
CONTINUOUS
 62
     0
 10
1480.1712110000001
 20
4151.2216790000002
 30
0.0
 11
1351.9990399999999
 21
4151.2216790000002
 31
0.0
  0
LINE
  5
7FC7
  8
3
  6
CONTINUOUS
 62
     0
 10
1480.1712110000001
 20
3421.2216790000002
 30
0.0
 11
1351.9990399999999
 21
3421.2216790000002
 31
0.0
  0
LINE
  5
7FC8
  8
3
  6
CONTINUOUS
 62
     0
 10
1381.9990400000011
 20
4091.2216789999989
 30
0.0
 11
1381.9990399999999
 21
3481.2216790000002
 31
0.0
  0
INSERT
  5
7FC9
  8
3
  6
CONTINUOUS
 62
     0
  2
_OPEN
 10
1381.9990400000011
 20
4151.2216790000002
 30
0.0
 41
60.0
 42
60.0
 43
60.0
 50
90.0
  0
INSERT
  5
7FCA
  8
3
  6
CONTINUOUS
 62
     0
  2
_OPEN
 10
1381.9990399999999
 20
3421.2216790000002
 30
0.0
 41
60.0
 42
60.0
 43
60.0
 50
270.0
  0
TEXT
  8
3
  40
90
  5
805F
  62
0
  72
0
  71
0
 10
1127.00
 20
3630.31
 30
0.000000
  1
730
  0
POINT
  5
7FCC
  8
DEFPOINTS
  6
CONTINUOUS
 62
     0
 10
1495.1712109999989
 20
4151.2216790000002
 30
0.0
  0
POINT
  5
7FCD
  8
DEFPOINTS
  6
CONTINUOUS
 62
     0
 10
1495.1712109999989
 20
3421.2216790000002
 30
0.0
  0
POINT
  5
7FCE
  8
DEFPOINTS
  6
CONTINUOUS
 62
     0
 10
1381.9990399999999
 20
3421.2216790000002
 30
0.0
  0
ENDBLK
  5
7B6D
  8
0
  0
BLOCK
  8
0
  2
*D2
 70
     1
 10
0.0
 20
0.0
 30
0.0
  3
*D2
  1

  0
LINE
  5
7FCF
  8
3
  6
CONTINUOUS
 62
     0
 10
1366.9990399999999
 20
4151.2216790000002
 30
0.0
 11
1189.2054599999999
 21
4151.2216790000002
 31
0.0
  0
LINE
  5
7FD0
  8
3
  6
CONTINUOUS
 62
     0
 10
1313.14708
 20
3455.2216789999989
 30
0.0
 11
1189.2054599999999
 21
3455.2216789999989
 31
0.0
  0
LINE
  5
7FD1
  8
3
  6
CONTINUOUS
 62
     0
 10
1219.2054599999999
 20
4091.2216789999989
 30
0.0
 11
1219.2054599999999
 21
3515.2216789999989
 31
0.0
  0
INSERT
  5
7FD2
  8
3
  6
CONTINUOUS
 62
     0
  2
_OPEN
 10
1219.2054599999999
 20
4151.2216790000002
 30
0.0
 41
60.0
 42
60.0
 43
60.0
 50
90.0
  0
INSERT
  5
7FD3
  8
3
  6
CONTINUOUS
 62
     0
  2
_OPEN
 10
1219.2054599999999
 20
3455.2216789999989
 30
0.0
 41
60.0
 42
60.0
 43
60.0
 50
270.0
  0
TEXT
  8
3
  40
90
  5
8060
  62
0
  72
0
  71
0
 10
964.205
 20
3637.38
 30
0.000000
  1
696
  0
POINT
  5
7FD5
  8
DEFPOINTS
  6
CONTINUOUS
 62
     0
 10
1381.9990399999999
 20
4151.2216790000002
 30
0.0
  0
POINT
  5
7FD6
  8
DEFPOINTS
  6
CONTINUOUS
 62
     0
 10
1328.14708
 20
3455.2216789999989
 30
0.0
  0
POINT
  5
7FD7
  8
DEFPOINTS
  6
CONTINUOUS
 62
     0
 10
1219.2054599999999
 20
3455.2216789999989
 30
0.0
  0
ENDBLK
  5
7B7A
  8
0
  0
BLOCK
  8
0
  2
*D3
 70
     1
 10
0.0
 20
0.0
 30
0.0
  3
*D3
  1

  0
LINE
  5
7FD8
  8
3
  6
CONTINUOUS
 62
     0
 10
1545.1712109999989
 20
2830.2216790000002
 30
0.0
 11
1189.205459999999
 21
2830.2216790000002
 31
0.0
  0
LINE
  5
7FD9
  8
3
  6
CONTINUOUS
 62
     0
 10
1219.205459999999
 20
3395.2216790000002
 30
0.0
 11
1219.205459999999
 21
2890.2216789999989
 31
0.0
  0
INSERT
  5
7FDA
  8
3
  6
CONTINUOUS
 62
     0
  2
_OPEN
 10
1219.205459999999
 20
3455.2216789999989
 30
0.0
 41
60.0
 42
60.0
 43
60.0
 50
90.0
  0
INSERT
  5
7FDB
  8
3
  6
CONTINUOUS
 62
     0
  2
_OPEN
 10
1219.205459999999
 20
2830.2216790000002
 30
0.0
 41
60.0
 42
60.0
 43
60.0
 50
270.0
  0
TEXT
  8
3
  40
90
  5
8061
  62
0
  72
0
  71
0
 10
964.205
 20
2983.42
 30
0.000000
  1
625
  0
POINT
  5
7FDD
  8
DEFPOINTS
  6
CONTINUOUS
 62
     0
 10
1328.14708
 20
3455.2216789999989
 30
0.0
  0
POINT
  5
7FDE
  8
DEFPOINTS
  6
CONTINUOUS
 62
     0
 10
1560.1712110000001
 20
2830.2216790000002
 30
0.0
  0
POINT
  5
7FDF
  8
DEFPOINTS
  6
CONTINUOUS
 62
     0
 10
1219.205459999999
 20
2830.2216790000002
 30
0.0
  0
ENDBLK
  5
7B86
  8
0
  0
BLOCK
  8
0
  2
*D4
 70
     1
 10
0.0
 20
0.0
 30
0.0
  3
*D4
  1

  0
LINE
  5
7FE0
  8
3
  6
CONTINUOUS
 62
     0
 10
1545.1712109999989
 20
2830.2216790000002
 30
0.0
 11
1189.5090170000001
 21
2830.2216790000002
 31
0.0
  0
LINE
  5
7FE1
  8
3
  6
CONTINUOUS
 62
     0
 10
1545.1712109999989
 20
2704.2216789999989
 30
0.0
 11
1189.5090170000001
 21
2704.2216789999989
 31
0.0
  0
LINE
  5
7FE2
  8
3
  6
CONTINUOUS
 62
     0
 10
1219.5090170000001
 20
2890.2216789999989
 30
0.0
 11
1219.5090170000001
 21
2950.2216790000002
 31
0.0
  0
LINE
  5
7FE3
  8
3
  6
CONTINUOUS
 62
     0
 10
1219.5090170000001
 20
2644.2216790000002
 30
0.0
 11
1219.5090170000001
 21
2314.2216790000002
 31
0.0
  0
LINE
  5
7FE4
  8
3
  6
CONTINUOUS
 62
     0
 10
1219.5090170000001
 20
2830.2216790000002
 30
0.0
 11
1219.5090170000001
 21
2704.2216789999989
 31
0.0
  0
INSERT
  5
7FE5
  8
3
  6
CONTINUOUS
 62
     0
  2
_OPEN
 10
1219.5090170000001
 20
2830.2216790000002
 30
0.0
 41
60.0
 42
60.0
 43
60.0
 50
270.0
  0
INSERT
  5
7FE6
  8
3
  6
CONTINUOUS
 62
     0
  2
_OPEN
 10
1219.5090170000001
 20
2704.2216789999989
 30
0.0
 41
60.0
 42
60.0
 43
60.0
 50
90.0
  0
TEXT
  8
3
  40
90
  5
8062
  62
0
  72
0
  71
0
 10
964.509
 20
2289.92
 30
0.000000
  1
126
  0
POINT
  5
7FE8
  8
DEFPOINTS
  6
CONTINUOUS
 62
     0
 10
1560.1712110000001
 20
2830.2216790000002
 30
0.0
  0
POINT
  5
7FE9
  8
DEFPOINTS
  6
CONTINUOUS
 62
     0
 10
1560.1712110000001
 20
2704.2216789999989
 30
0.0
  0
POINT
  5
7FEA
  8
DEFPOINTS
  6
CONTINUOUS
 62
     0
 10
1219.5090170000001
 20
2704.2216789999989
 30
0.0
  0
ENDBLK
  5
7EC7
  8
0
  0
BLOCK
  8
0
  2
*D5
 70
     1
 10
0.0
 20
0.0
 30
0.0
  3
*D5
  1

  0
LINE
  5
7FEB
  8
3
  6
CONTINUOUS
 62
     0
 10
1480.1712110000001
 20
4191.2216790000002
 30
0.0
 11
1006.020434
 21
4191.2216790000002
 31
0.0
  0
LINE
  5
7FEC
  8
3
  6
CONTINUOUS
 62
     0
 10
1545.1712109999989
 20
2704.2216789999989
 30
0.0
 11
1006.020434
 21
2704.2216790000002
 31
0.0
  0
LINE
  5
7FED
  8
3
  6
CONTINUOUS
 62
     0
 10
1036.020434
 20
4131.2216790000002
 30
0.0
 11
1036.020434
 21
2764.2216790000002
 31
0.0
  0
INSERT
  5
7FEE
  8
3
  6
CONTINUOUS
 62
     0
  2
_OPEN
 10
1036.020434
 20
4191.2216790000002
 30
0.0
 41
60.0
 42
60.0
 43
60.0
 50
90.0
  0
INSERT
  5
7FEF
  8
3
  6
CONTINUOUS
 62
     0
  2
_OPEN
 10
1036.020434
 20
2704.2216789999989
 30
0.0
 41
60.0
 42
60.0
 43
60.0
 50
270.0
  0
TEXT
  8
3
  40
90
  5
8063
  62
0
  72
0
  71
0
 10
781.020
 20
3276.74
 30
0.000000
  1
1487
  0
POINT
  5
7FF1
  8
DEFPOINTS
  6
CONTINUOUS
 62
     0
 10
1495.1712109999989
 20
4191.2216790000002
 30
0.0
  0
POINT
  5
7FF2
  8
DEFPOINTS
  6
CONTINUOUS
 62
     0
 10
1560.1712110000001
 20
2704.2216789999989
 30
0.0
  0
POINT
  5
7FF3
  8
DEFPOINTS
  6
CONTINUOUS
 62
     0
 10
1036.020434
 20
2704.2216789999989
 30
0.0
  0
ENDBLK
  5
7CC5
  8
0
  0
BLOCK
  8
0
  2
*D6
 70
     1
 10
0.0
 20
0.0
 30
0.0
  3
*D6
  1

  0
LINE
  5
7FF4
  8
3
  6
CONTINUOUS
 62
     0
 10
1560.1712110000001
 20
2689.2216790000002
 30
0.0
 11
1560.1712110000001
 21
2386.0017419999999
 31
0.0
  0
LINE
  5
7FF5
  8
3
  6
CONTINUOUS
 62
     0
 10
2030.1712110000001
 20
2480.7345579999992
 30
0.0
 11
2030.1712110000001
 21
2386.0017419999999
 31
0.0
  0
LINE
  5
7FF6
  8
3
  6
CONTINUOUS
 62
     0
 10
1620.1712109999989
 20
2416.0017419999999
 30
0.0
 11
1970.1712110000001
 21
2416.0017419999999
 31
0.0
  0
INSERT
  5
7FF7
  8
3
  6
CONTINUOUS
 62
     0
  2
_OPEN
 10
1560.1712110000001
 20
2416.0017419999999
 30
0.0
 41
60.0
 42
60.0
 43
60.0
 50
180.0
  0
INSERT
  5
7FF8
  8
3
  6
CONTINUOUS
 62
     0
  2
_OPEN
 10
2030.1712110000001
 20
2416.0017419999999
 30
0.0
 41
60.0
 42
60.0
 43
60.0
  0
TEXT
  8
3
  40
90
  5
8064
  62
0
  72
0
  71
0
 10
1585.89
 20
2331.70
 30
0.000000
  1
470
  0
POINT
  5
7FFA
  8
DEFPOINTS
  6
CONTINUOUS
 62
     0
 10
1560.1712110000001
 20
2704.2216789999989
 30
0.0
  0
POINT
  5
7FFB
  8
DEFPOINTS
  6
CONTINUOUS
 62
     0
 10
2030.1712110000001
 20
2495.7345580000001
 30
0.0
  0
POINT
  5
7FFC
  8
DEFPOINTS
  6
CONTINUOUS
 62
     0
 10
2030.1712110000001
 20
2416.0017419999999
 30
0.0
  0
ENDBLK
  5
7CA0
  8
0
  0
BLOCK
  8
0
  2
*D7
 70
     1
 10
0.0
 20
0.0
 30
0.0
  3
*D7
  1

  0
LINE
  5
7FFD
  8
3
  6
CONTINUOUS
 62
     0
 10
3060.1712109999999
 20
2689.2216790000002
 30
0.0
 11
3060.1712109999999
 21
2386.0017419999999
 31
0.0
  0
LINE
  5
7FFE
  8
3
  6
CONTINUOUS
 62
     0
 10
2090.1712109999989
 20
2416.0017419999999
 30
0.0
 11
3000.1712109999999
 21
2416.0017419999999
 31
0.0
  0
INSERT
  5
7FFF
  8
3
  6
CONTINUOUS
 62
     0
  2
_OPEN
 10
2030.1712110000001
 20
2416.0017419999999
 30
0.0
 41
60.0
 42
60.0
 43
60.0
 50
180.0
  0
INSERT
  5
8000
  8
3
  6
CONTINUOUS
 62
     0
  2
_OPEN
 10
3060.1712109999999
 20
2416.0017419999999
 30
0.0
 41
60.0
 42
60.0
 43
60.0
  0
TEXT
  8
3
  40
90
  5
8065
  62
0
  72
0
  71
0
 10
2365.17
 20
2331.70
 30
0.000000
  1
1030
  0
POINT
  5
8002
  8
DEFPOINTS
  6
CONTINUOUS
 62
     0
 10
2030.1712110000001
 20
2495.7345580000001
 30
0.0
  0
POINT
  5
8003
  8
DEFPOINTS
  6
CONTINUOUS
 62
     0
 10
3060.1712109999999
 20
2704.2216789999989
 30
0.0
  0
POINT
  5
8004
  8
DEFPOINTS
  6
CONTINUOUS
 62
     0
 10
3060.1712109999999
 20
2416.0017419999999
 30
0.0
  0
ENDBLK
  5
7C95
  8
0
  0
BLOCK
  8
0
  2
*D8
 70
     1
 10
0.0
 20
0.0
 30
0.0
  3
*D8
  1

  0
LINE
  5
8005
  8
3
  6
CONTINUOUS
 62
     0
 10
4989.904258390221
 20
3832.2216789999989
 30
0.0
 11
5248.148329390222
 21
3832.2216789999989
 31
0.0
  0
LINE
  5
8006
  8
3
  6
CONTINUOUS
 62
     0
 10
4989.904258390221
 20
3078.2216790000002
 30
0.0
 11
5248.148329390222
 21
3078.2216789999989
 31
0.0
  0
LINE
  5
8007
  8
3
  6
CONTINUOUS
 62
     0
 10
5218.1483293902211
 20
3772.2216789999989
 30
0.0
 11
5218.1483293902211
 21
3138.2216789999989
 31
0.0
  0
INSERT
  5
8008
  8
3
  6
CONTINUOUS
 62
     0
  2
_OPEN
 10
5218.1483293902211
 20
3832.2216789999989
 30
0.0
 41
60.0
 42
60.0
 43
60.0
 50
90.0
  0
INSERT
  5
8009
  8
3
  6
CONTINUOUS
 62
     0
  2
_OPEN
 10
5218.1483293902211
 20
3078.2216789999989
 30
0.0
 41
60.0
 42
60.0
 43
60.0
 50
270.0
  0
TEXT
  8
3
  40
90
  5
8066
  62
0
  72
0
  71
0
 10
4963.15
 20
3312.10
 30
0.000000
  1
φ754
  0
POINT
  5
800B
  8
DEFPOINTS
  6
CONTINUOUS
 62
     0
 10
4974.904258390221
 20
3832.2216789999989
 30
0.0
  0
POINT
  5
800C
  8
DEFPOINTS
  6
CONTINUOUS
 62
     0
 10
4974.904258390221
 20
3078.2216790000002
 30
0.0
  0
POINT
  5
800D
  8
DEFPOINTS
  6
CONTINUOUS
 62
     0
 10
5218.1483293902211
 20
3078.2216789999989
 30
0.0
  0
ENDBLK
  5
7E97
  8
0
  0
BLOCK
  8
0
  2
*D9
 70
     1
 10
0.0
 20
0.0
 30
0.0
  3
*D9
  1

  0
LINE
  5
7EA4
  8
0
  6
BYBLOCK
 62
     0
 10
4974.904258390221
 20
3847.2216790000002
 30
0.0
 11
4974.904258390221
 21
4498.4662250000001
 31
0.0
  0
LINE
  5
7EA5
  8
0
  6
BYBLOCK
 62
     0
 10
4707.904258390221
 20
4453.7572069999987
 30
0.0
 11
4707.904258390221
 21
4498.4662250000001
 31
0.0
  0
LINE
  5
7EA6
  8
0
  6
BYBLOCK
 62
     0
 10
4914.904258390221
 20
4468.4662250000001
 30
0.0
 11
4767.9042583902201
 21
4468.4662250000001
 31
0.0
  0
TEXT
  5
7EA7
  8
3
 62
     0
 10
4744.1474478548453
 20
4518.6410027321936
 30
0.0
 40
90.0
  1
267
  0
INSERT
  5
7EA8
  8
0
  6
BYBLOCK
 62
     0
  2
_OPEN
 10
4974.904258390221
 20
4468.4662250000001
 30
0.0
 41
60.0
 42
60.0
 43
60.0
  0
INSERT
  5
7EA9
  8
0
  6
BYBLOCK
 62
     0
  2
_OPEN
 10
4707.904258390221
 20
4468.4662250000001
 30
0.0
 41
60.0
 42
60.0
 43
60.0
 50
180.0
  0
POINT
  5
7EAA
  8
DEFPOINTS
  6
BYBLOCK
 62
     0
 10
4974.904258390221
 20
3832.2216789999989
 30
0.0
  0
POINT
  5
7EAB
  8
DEFPOINTS
  6
BYBLOCK
 62
     0
 10
4707.904258390221
 20
4438.7572069999997
 30
0.0
  0
POINT
  5
7EAC
  8
DEFPOINTS
  6
BYBLOCK
 62
     0
 10
4707.904258390221
 20
4468.4662250000001
 30
0.0
  0
ENDBLK
  5
7EAD
  8
0
  0
BLOCK
  8
0
  2
*D10
 70
     1
 10
0.0
 20
0.0
 30
0.0
  3
*D10
  1

  0
LINE
  5
800E
  8
3
  6
CONTINUOUS
 62
     0
 10
4207.904258390221
 20
4085.2216789999989
 30
0.0
 11
4207.904258390221
 21
4498.4662250000001
 31
0.0
  0
LINE
  5
800F
  8
3
  6
CONTINUOUS
 62
     0
 10
4647.904258390221
 20
4468.4662250000001
 30
0.0
 11
4267.9042583902201
 21
4468.4662250000001
 31
0.0
  0
INSERT
  5
8010
  8
3
  6
CONTINUOUS
 62
     0
  2
_OPEN
 10
4707.904258390221
 20
4468.4662250000001
 30
0.0
 41
60.0
 42
60.0
 43
60.0
  0
INSERT
  5
8011
  8
3
  6
CONTINUOUS
 62
     0
  2
_OPEN
 10
4207.904258390221
 20
4468.4662250000001
 30
0.0
 41
60.0
 42
60.0
 43
60.0
 50
180.0
  0
TEXT
  8
3
  40
90
  5
8067
  62
0
  72
0
  71
0
 10
4277.90
 20
4459.17
 30
0.000000
  1
MAX
  0
TEXT
  8
3
  40
90
  5
8068
  62
0
  72
0
  71
0
 10
4277.90
 20
4342.17
 30
0.000000
  1
560
  0
POINT
  5
8013
  8
DEFPOINTS
  6
CONTINUOUS
 62
     0
 10
4707.904258390221
 20
4438.7572069999997
 30
0.0
  0
POINT
  5
8014
  8
DEFPOINTS
  6
CONTINUOUS
 62
     0
 10
4207.904258390221
 20
4070.2216790000002
 30
0.0
  0
POINT
  5
8015
  8
DEFPOINTS
  6
CONTINUOUS
 62
     0
 10
4207.904258390221
 20
4468.4662250000001
 30
0.0
  0
ENDBLK
  5
7E8C
  8
0
  0
BLOCK
  8
0
  2
*D11
 70
     1
 10
0.0
 20
0.0
 30
0.0
  3
*D11
  1

  0
LINE
  5
8016
  8
3
  6
CONTINUOUS
 62
     0
 10
4264.9042583902201
 20
2689.2216790000002
 30
0.0
 11
4264.9042583902201
 21
2415.170658
 31
0.0
  0
LINE
  5
8017
  8
3
  6
CONTINUOUS
 62
     0
 10
4707.904258390221
 20
2466.757145
 30
0.0
 11
4707.904258390221
 21
2415.170658
 31
0.0
  0
LINE
  5
8018
  8
3
  6
CONTINUOUS
 62
     0
 10
4324.904258390221
 20
2445.170658
 30
0.0
 11
4647.904258390221
 21
2445.170658
 31
0.0
  0
INSERT
  5
8019
  8
3
  6
CONTINUOUS
 62
     0
  2
_OPEN
 10
4264.9042583902201
 20
2445.170658
 30
0.0
 41
60.0
 42
60.0
 43
60.0
 50
180.0
  0
INSERT
  5
801A
  8
3
  6
CONTINUOUS
 62
     0
  2
_OPEN
 10
4707.904258390221
 20
2445.170658
 30
0.0
 41
60.0
 42
60.0
 43
60.0
  0
TEXT
  8
3
  40
90
  5
8069
  62
0
  72
0
  71
0
 10
4322.19
 20
2360.87
 30
0.000000
  1
443
  0
POINT
  5
801C
  8
DEFPOINTS
  6
CONTINUOUS
 62
     0
 10
4264.9042583902201
 20
2704.2216789999989
 30
0.0
  0
POINT
  5
801D
  8
DEFPOINTS
  6
CONTINUOUS
 62
     0
 10
4707.904258390221
 20
2481.757145
 30
0.0
  0
POINT
  5
801E
  8
DEFPOINTS
  6
CONTINUOUS
 62
     0
 10
4707.904258390221
 20
2445.170658
 30
0.0
  0
ENDBLK
  5
7CF4
  8
0
  0
BLOCK
  8
0
  2
*D12
 70
     1
 10
0.0
 20
0.0
 30
0.0
  3
*D12
  1

  0
LINE
  5
801F
  8
3
  6
CONTINUOUS
 62
     0
 10
5024.904258390221
 20
2689.2216790000002
 30
0.0
 11
5024.904258390221
 21
2415.170658
 31
0.0
  0
LINE
  5
8020
  8
3
  6
CONTINUOUS
 62
     0
 10
4767.9042583902201
 20
2445.170658
 30
0.0
 11
4964.9042583902201
 21
2445.170658
 31
0.0
  0
TEXT
  8
3
  40
90
  5
806A
  62
0
  72
0
  71
0
 10
4702.99
 20
2362.10
 30
0.000000
  1
317
  0
INSERT
  5
8022
  8
3
  6
CONTINUOUS
 62
     0
  2
_OPEN
 10
4707.904258390221
 20
2445.170658
 30
0.0
 41
60.0
 42
60.0
 43
60.0
 50
180.0
  0
INSERT
  5
8023
  8
3
  6
CONTINUOUS
 62
     0
  2
_OPEN
 10
5024.904258390221
 20
2445.170658
 30
0.0
 41
60.0
 42
60.0
 43
60.0
  0
POINT
  5
8024
  8
DEFPOINTS
  6
CONTINUOUS
 62
     0
 10
4707.904258390221
 20
2481.757145
 30
0.0
  0
POINT
  5
8025
  8
DEFPOINTS
  6
CONTINUOUS
 62
     0
 10
5024.904258390221
 20
2704.2216789999989
 30
0.0
  0
POINT
  5
8026
  8
DEFPOINTS
  6
CONTINUOUS
 62
     0
 10
5024.904258390221
 20
2445.170658
 30
0.0
  0
ENDBLK
  5
7D16
  8
0
  0
BLOCK
  8
0
  2
*D13
 70
     1
 10
0.0
 20
0.0
 30
0.0
  3
*D13
  1

  0
LINE
  5
8027
  8
3
  6
CONTINUOUS
 62
     0
 10
4972.904258390221
 20
4166.2216790000002
 30
0.0
 11
4972.904258390221
 21
4321.6815649999999
 31
0.0
  0
LINE
  5
8028
  8
3
  6
CONTINUOUS
 62
     0
 10
4442.9042583902201
 20
4166.2216790000002
 30
0.0
 11
4442.9042583902201
 21
4321.6815649999999
 31
0.0
  0
LINE
  5
8029
  8
3
  6
CONTINUOUS
 62
     0
 10
4912.904258390221
 20
4291.6815649999999
 30
0.0
 11
4502.904258390221
 21
4291.6815649999999
 31
0.0
  0
INSERT
  5
802A
  8
3
  6
CONTINUOUS
 62
     0
  2
_OPEN
 10
4972.904258390221
 20
4291.6815649999999
 30
0.0
 41
60.0
 42
60.0
 43
60.0
  0
INSERT
  5
802B
  8
3
  6
CONTINUOUS
 62
     0
  2
_OPEN
 10
4442.9042583902201
 20
4291.6815649999999
 30
0.0
 41
60.0
 42
60.0
 43
60.0
 50
180.0
  0
TEXT
  8
3
  40
90
  5
806B
  62
0
  72
0
  71
0
 10
4514.38
 20
4207.38
 30
0.000000
  1
530
  0
POINT
  5
802D
  8
DEFPOINTS
  6
CONTINUOUS
 62
     0
 10
4972.904258390221
 20
4151.2216790000002
 30
0.0
  0
POINT
  5
802E
  8
DEFPOINTS
  6
CONTINUOUS
 62
     0
 10
4442.9042583902201
 20
4151.2216790000002
 30
0.0
  0
POINT
  5
802F
  8
DEFPOINTS
  6
CONTINUOUS
 62
     0
 10
4442.9042583902201
 20
4291.6815649999999
 30
0.0
  0
ENDBLK
  5
7C34
  8
0
  0
BLOCK
  8
0
  2
*D14
 70
     1
 10
0.0
 20
0.0
 30
0.0
  3
*D14
  1

  0
LINE
  5
8030
  8
3
  6
CONTINUOUS
 62
     0
 10
1560.1712110000001
 20
6224.8258070000011
 30
0.0
 11
1560.1712110000001
 21
6482.5821130000013
 31
0.0
  0
LINE
  5
8031
  8
3
  6
CONTINUOUS
 62
     0
 10
3060.1712109999999
 20
6224.8258070000011
 30
0.0
 11
3060.1712109999999
 21
6482.5821130000013
 31
0.0
  0
LINE
  5
8032
  8
3
  6
CONTINUOUS
 62
     0
 10
1620.1712109999989
 20
6452.5821130000013
 30
0.0
 11
3000.1712109999999
 21
6452.5821130000013
 31
0.0
  0
INSERT
  5
8033
  8
3
  6
CONTINUOUS
 62
     0
  2
_OPEN
 10
1560.1712110000001
 20
6452.5821130000013
 30
0.0
 41
60.0
 42
60.0
 43
60.0
 50
180.0
  0
INSERT
  5
8034
  8
3
  6
CONTINUOUS
 62
     0
  2
_OPEN
 10
3060.1712109999999
 20
6452.5821130000013
 30
0.0
 41
60.0
 42
60.0
 43
60.0
  0
TEXT
  8
3
  40
90
  5
806C
  62
0
  72
0
  71
0
 10
2136.29
 20
6368.28
 30
0.000000
  1
1500
  0
POINT
  5
8036
  8
DEFPOINTS
  6
CONTINUOUS
 62
     0
 10
1560.1712110000001
 20
6209.8258070000002
 30
0.0
  0
POINT
  5
8037
  8
DEFPOINTS
  6
CONTINUOUS
 62
     0
 10
3060.1712109999999
 20
6209.8258070000002
 30
0.0
  0
POINT
  5
8038
  8
DEFPOINTS
  6
CONTINUOUS
 62
     0
 10
3060.1712109999999
 20
6452.5821130000013
 30
0.0
  0
ENDBLK
  5
7CE9
  8
0
  0
BLOCK
  8
0
  2
*D15
 70
     1
 10
0.0
 20
0.0
 30
0.0
  3
*D15
  1

  0
LINE
  5
8039
  8
3
  6
CONTINUOUS
 62
     0
 10
3075.1712109999999
 20
6209.8258070000002
 30
0.0
 11
3372.5996470000009
 21
6209.8258070000002
 31
0.0
  0
LINE
  5
803A
  8
3
  6
CONTINUOUS
 62
     0
 10
3075.1712109999999
 20
5449.8258070000002
 30
0.0
 11
3372.5996470000009
 21
5449.8258070000002
 31
0.0
  0
LINE
  5
803B
  8
3
  6
CONTINUOUS
 62
     0
 10
3342.5996470000009
 20
6149.8258070000002
 30
0.0
 11
3342.5996470000009
 21
5509.8258070000002
 31
0.0
  0
INSERT
  5
803C
  8
3
  6
CONTINUOUS
 62
     0
  2
_OPEN
 10
3342.5996470000009
 20
6209.8258070000002
 30
0.0
 41
60.0
 42
60.0
 43
60.0
 50
90.0
  0
INSERT
  5
803D
  8
3
  6
CONTINUOUS
 62
     0
  2
_OPEN
 10
3342.5996470000009
 20
5449.8258070000002
 30
0.0
 41
60.0
 42
60.0
 43
60.0
 50
270.0
  0
TEXT
  8
3
  40
90
  5
806D
  62
0
  72
0
  71
0
 10
3087.60
 20
5674.10
 30
0.000000
  1
760
  0
POINT
  5
803F
  8
DEFPOINTS
  6
CONTINUOUS
 62
     0
 10
3060.1712109999999
 20
6209.8258070000002
 30
0.0
  0
POINT
  5
8040
  8
DEFPOINTS
  6
CONTINUOUS
 62
     0
 10
3060.1712109999999
 20
5449.8258070000002
 30
0.0
  0
POINT
  5
8041
  8
DEFPOINTS
  6
CONTINUOUS
 62
     0
 10
3342.5996470000009
 20
5449.8258070000002
 30
0.0
  0
ENDBLK
  5
7C65
  8
0
  0
BLOCK
  8
0
  2
*D16
 70
     1
 10
0.0
 20
0.0
 30
0.0
  3
*D16
  1

  0
LINE
  5
8042
  8
3
  6
CONTINUOUS
 62
     0
 10
1495.1712109999989
 20
4206.2216790000002
 30
0.0
 11
1495.1712109999989
 21
4358.0924940000004
 31
0.0
  0
LINE
  5
8043
  8
3
  6
CONTINUOUS
 62
     0
 10
2030.1712110000001
 20
4271.5421969999998
 30
0.0
 11
2030.1712110000001
 21
4358.0924940000004
 31
0.0
  0
LINE
  5
8044
  8
3
  6
CONTINUOUS
 62
     0
 10
1555.1712110000001
 20
4328.0924939999986
 30
0.0
 11
1970.1712110000001
 21
4328.0924939999986
 31
0.0
  0
INSERT
  5
8045
  8
3
  6
CONTINUOUS
 62
     0
  2
_OPEN
 10
1495.1712109999989
 20
4328.0924939999986
 30
0.0
 41
60.0
 42
60.0
 43
60.0
 50
180.0
  0
INSERT
  5
8046
  8
3
  6
CONTINUOUS
 62
     0
  2
_OPEN
 10
2030.1712110000001
 20
4328.0924939999986
 30
0.0
 41
60.0
 42
60.0
 43
60.0
  0
TEXT
  8
3
  40
90
  5
806E
  62
0
  72
0
  71
0
 10
1564.88
 20
4243.79
 30
0.000000
  1
535
  0
POINT
  5
8048
  8
DEFPOINTS
  6
CONTINUOUS
 62
     0
 10
1495.1712109999989
 20
4191.2216790000002
 30
0.0
  0
POINT
  5
8049
  8
DEFPOINTS
  6
CONTINUOUS
 62
     0
 10
2030.1712110000001
 20
4256.5421969999989
 30
0.0
  0
POINT
  5
804A
  8
DEFPOINTS
  6
CONTINUOUS
 62
     0
 10
2030.1712110000001
 20
4328.0924939999986
 30
0.0
  0
ENDBLK
  5
7CD1
  8
0
  0
BLOCK
  8
0
  2
*D17
 70
     1
 10
0.0
 20
0.0
 30
0.0
  3
*D17
  1

  0
LINE
  5
804B
  8
3
  6
CONTINUOUS
 62
     0
 10
2616.168737
 20
3470.2216790000002
 30
0.0
 11
2616.168737
 21
4358.0924940000004
 31
0.0
  0
LINE
  5
804C
  8
3
  6
CONTINUOUS
 62
     0
 10
2090.1712109999989
 20
4328.0924939999986
 30
0.0
 11
2556.168737
 21
4328.0924939999986
 31
0.0
  0
INSERT
  5
804D
  8
3
  6
CONTINUOUS
 62
     0
  2
_OPEN
 10
2030.1712110000001
 20
4328.0924939999986
 30
0.0
 41
60.0
 42
60.0
 43
60.0
 50
180.0
  0
INSERT
  5
804E
  8
3
  6
CONTINUOUS
 62
     0
  2
_OPEN
 10
2616.168737
 20
4328.0924939999986
 30
0.0
 41
60.0
 42
60.0
 43
60.0
  0
TEXT
  8
3
  40
90
  5
806F
  62
0
  72
0
  71
0
 10
2143.17
 20
4243.79
 30
0.000000
  1
586
  0
POINT
  5
8050
  8
DEFPOINTS
  6
CONTINUOUS
 62
     0
 10
2030.1712110000001
 20
4256.5421969999989
 30
0.0
  0
POINT
  5
8051
  8
DEFPOINTS
  6
CONTINUOUS
 62
     0
 10
2616.168737
 20
3455.2216789999989
 30
0.0
  0
POINT
  5
8052
  8
DEFPOINTS
  6
CONTINUOUS
 62
     0
 10
2616.168737
 20
4328.0924939999986
 30
0.0
  0
ENDBLK
  5
7CDD
  8
0
  0
BLOCK
  8
0
  2
*D18
 70
     1
 10
0.0
 20
0.0
 30
0.0
  3
*D18
  1

  0
LINE
  5
8053
  8
3
 62
     0
 10
1495.1712109999989
 20
4206.2216790000002
 30
0.0
 11
1495.1712109999989
 21
4536.3898459439624
 31
0.0
  0
LINE
  5
8054
  8
3
 62
     0
 10
3060.1712109999999
 20
2945.2216789999989
 30
0.0
 11
3060.1712109999999
 21
4536.3898459439624
 31
0.0
  0
LINE
  5
8055
  8
3
 62
     0
 10
1555.1712110000001
 20
4506.3898459439633
 30
0.0
 11
3000.1712109999999
 21
4506.3898459439633
 31
0.0
  0
INSERT
  5
8056
  8
3
 62
     0
  2
_OPEN
 10
1495.1712109999989
 20
4506.3898459439633
 30
0.0
 41
60.0
 42
60.0
 43
60.0
 50
180.0
  0
INSERT
  5
8057
  8
3
 62
     0
  2
_OPEN
 10
3060.1712109999999
 20
4506.3898459439633
 30
0.0
 41
60.0
 42
60.0
 43
60.0
  0
TEXT
  8
3
  40
90
  5
8070
  62
0
  72
0
  71
0
 10
2056.87
 20
4422.09
 30
0.000000
  1
1565
  0
POINT
  5
8059
  8
DEFPOINTS
 62
     0
 10
1495.1712109999989
 20
4191.2216790000002
 30
0.0
  0
POINT
  5
805A
  8
DEFPOINTS
 62
     0
 10
3060.1712109999999
 20
2930.2216790000002
 30
0.0
  0
POINT
  5
805B
  8
DEFPOINTS
 62
     0
 10
3060.1712109999999
 20
4506.3898459439633
 30
0.0
  0
ENDBLK
  5
7EB9
  8
0
  0
BLOCK
  8
0
  2
_DOT
 70
     0
 10
0.0
 20
0.0
 30
0.0
  3
_DOT
  1

  0
POLYLINE
  5
7FA6
  8
0
  6
BYBLOCK
 62
     0
 66
     1
 10
0.0
 20
0.0
 30
0.0
 70
     1
 40
0.5
 41
0.5
  0
VERTEX
  5
805C
  8
0
  6
BYBLOCK
 62
     0
 10
-0.25
 20
0.0
 30
0.0
 42
1.0
  0
VERTEX
  5
805D
  8
0
  6
BYBLOCK
 62
     0
 10
0.25
 20
0.0
 30
0.0
 42
1.0
  0
SEQEND
  5
805E
  8
0
  6
BYBLOCK
 62
     0
  0
LINE
  5
7FA7
  8
0
  6
BYBLOCK
 62
     0
 10
-0.5
 20
0.0
 30
0.0
 11
-1.0
 21
0.0
 31
0.0
  0
ENDBLK
  5
7FA9
  8
0
  0
ENDSEC
  0
SECTION
  2
ENTITIES
  0
LINE
  5
7AB1
  8
1
  6
CONTINUOUS
 10
1560.1712110000001
 20
2930.2216790000002
 30
0.0
 11
3060.1712109999999
 21
2930.2216790000002
 31
0.0
  0
LINE
  5
7AB2
  8
1
  6
CONTINUOUS
 10
1495.1712109999989
 20
4151.2216790000002
 30
0.0
 11
2030.1712110000001
 21
4135.2216789999993
 31
0.0
  0
ARC
  5
7AB3
  8
1
  6
CONTINUOUS
 10
2060.1712109999989
 20
3425.2216789999989
 30
0.0
 40
478.79000000000002
 50
180.47999999999999
 51
262.56999999999999
  0
LINE
  5
7AB4
  8
1
  6
CONTINUOUS
 10
1560.1712110000001
 20
2830.2216790000002
 30
0.0
 11
3060.1712109999999
 21
2830.2216790000002
 31
0.0
  0
LINE
  5
7AB5
  8
1
  6
CONTINUOUS
 10
1560.1712110000001
 20
5449.8258070000002
 30
0.0
 11
1880.1712110000001
 21
5449.8258070000002
 31
0.0
  0
LINE
  5
7AB6
  8
1
  6
CONTINUOUS
 10
1495.1712109999989
 20
5627.8258070000002
 30
0.0
 11
2617.9112110000001
 21
5627.8258070000002
 31
0.0
  0
LINE
  5
7AB7
  8
1
  6
CONTINUOUS
 10
1495.1712109999989
 20
6157.8258070000002
 30
0.0
 11
2617.9112110000001
 21
6157.8258070000002
 31
0.0
  0
LINE
  5
7AB8
  8
1
  6
CONTINUOUS
 10
1660.1712109999989
 20
5392.8258070000011
 30
0.0
 11
3020.1712109999999
 21
5392.8258070000011
 31
0.0
  0
LINE
  5
7AB9
  8
1
  6
CONTINUOUS
 10
1660.1712109999989
 20
4070.2216790000002
 30
0.0
 11
2180.1712109999999
 21
4070.2216790000002
 31
0.0
  0
LINE
  5
7ABA
  8
1
  6
CONTINUOUS
 10
1660.1712109999989
 20
5532.8258070000002
 30
0.0
 11
3020.1712109999999
 21
5532.8258070000002
 31
0.0
  0
LINE
  5
7ABB
  8
1
  6
CONTINUOUS
 10
1560.1712110000001
 20
6209.8258070000002
 30
0.0
 11
3060.1712109999999
 21
6209.8258070000002
 31
0.0
  0
LINE
  5
7ABC
  8
1
  6
CONTINUOUS
 10
1560.1712110000001
 20
2704.2216789999989
 30
0.0
 11
3060.1712109999999
 21
2704.2216789999989
 31
0.0
  0
LINE
  5
7ABD
  8
1
  6
CONTINUOUS
 10
1560.1712110000001
 20
2804.2216789999989
 30
0.0
 11
3060.1712109999999
 21
2804.2216789999989
 31
0.0
  0
LINE
  5
7ABF
  8
1
  6
CONTINUOUS
 10
1660.1712109999989
 20
2930.2216790000002
 30
0.0
 11
1660.1712109999989
 21
4070.2216790000002
 31
0.0
  0
LINE
  5
7AC0
  8
1
  6
CONTINUOUS
 10
1560.1712110000001
 20
2930.2216790000002
 30
0.0
 11
1560.1712110000001
 21
2830.2216790000002
 31
0.0
  0
LINE
  5
7AC1
  8
1
  6
CONTINUOUS
 10
1560.1712110000001
 20
2804.2216789999989
 30
0.0
 11
1560.1712110000001
 21
2704.2216789999989
 31
0.0
  0
LINE
  5
7AC2
  8
1
  6
CONTINUOUS
 10
1581.4012110000001
 20
3421.2216790000002
 30
0.0
 11
1495.1712109999989
 21
3421.2216790000002
 31
0.0
  0
LINE
  5
7AC3
  8
1
  6
CONTINUOUS
 10
1495.1712109999989
 20
3381.2216790000002
 30
0.0
 11
1495.1712109999989
 21
4191.2216790000002
 31
0.0
  0
LINE
  5
7AC4
  8
1
  6
CONTINUOUS
 10
1525.1712109999989
 20
3421.2216790000002
 30
0.0
 11
1525.1712109999989
 21
4150.3216789999997
 31
0.0
  0
LINE
  5
7AC5
  8
1
  6
CONTINUOUS
 10
1560.1712110000001
 20
6209.8258070000002
 30
0.0
 11
1560.1712110000001
 21
6157.8258070000002
 31
0.0
  0
LINE
  5
7AC6
  8
1
  6
CONTINUOUS
 10
1495.1712109999989
 20
6197.8258070000002
 30
0.0
 11
1495.1712109999989
 21
5587.8258070000002
 31
0.0
  0
LINE
  5
7AC7
  8
1
  6
CONTINUOUS
 10
1660.1712109999989
 20
5392.8258070000011
 30
0.0
 11
1660.1712109999989
 21
5532.8258070000002
 31
0.0
  0
LINE
  5
7AC8
  8
1
  6
CONTINUOUS
 10
1560.1712110000001
 20
5627.8258070000002
 30
0.0
 11
1560.1712110000001
 21
5449.8258070000002
 31
0.0
  0
LINE
  5
7ACA
  8
1
  6
CONTINUOUS
 10
2096.9112110000001
 20
3589.5516789999988
 30
0.0
 11
2877.241211
 21
3201.8616790000001
 31
0.0
  0
LINE
  5
7ACB
  8
2
  6
CENTER
 10
2030.1712110000001
 20
6347.7032719999997
 30
0.0
 11
2030.1712110000001
 21
5277.1253109999989
 31
0.0
  0
ARC
  5
7ACD
  8
1
  6
CONTINUOUS
 10
2069.1712109999999
 20
3494.2216789999989
 30
0.0
 40
548.36999999999989
 50
262.56999999999999
 51
354.68999999999988
  0
CIRCLE
  5
7ACE
  8
1
  6
CONTINUOUS
 10
2030.1712110000001
 20
3455.2216789999989
 30
0.0
 40
150.0
  0
LINE
  5
7ACF
  8
1
  6
CONTINUOUS
 10
2180.1712109999999
 20
4070.2216790000002
 30
0.0
 11
3020.1712109999999
 21
3230.2216789999989
 31
0.0
  0
LINE
  5
7ADA
  8
1
  6
CONTINUOUS
 10
1985.731211
 20
3311.9516789999989
 30
0.0
 11
2817.9412109999989
 21
3053.8116789999999
 31
0.0
  0
LINE
  5
7ADB
  8
1
  6
CONTINUOUS
 10
3060.1712109999999
 20
2930.2216790000002
 30
0.0
 11
3060.1712109999999
 21
2830.2216790000002
 31
0.0
  0
LINE
  5
7ADC
  8
1
  6
CONTINUOUS
 10
2687.6512109999999
 20
2988.2216790000002
 30
0.0
 11
2708.991211
 21
3037.231679
 31
0.0
  0
LINE
  5
7ADD
  8
1
  6
CONTINUOUS
 10
2687.6512109999999
 20
2930.2216790000002
 30
0.0
 11
2687.6512109999999
 21
2988.2216790000002
 31
0.0
  0
LINE
  5
7ADE
  8
2
  6
CENTER
 10
2841.6512109999999
 20
3050.2216789999989
 30
0.0
 11
2841.6512109999999
 21
3210.2216789999989
 31
0.0
  0
LINE
  5
7ADF
  8
2
  6
CENTER
 10
2921.6512109999999
 20
3130.2216789999989
 30
0.0
 11
2761.6512109999999
 21
3130.2216789999989
 31
0.0
  0
LINE
  5
7AE0
  8
1
  6
CONTINUOUS
 10
2995.6512109999999
 20
2930.2216790000002
 30
0.0
 11
2995.6512109999999
 21
2988.2216790000002
 31
0.0
  0
LINE
  5
7AE1
  8
1
  6
CONTINUOUS
 10
2995.6512109999999
 20
2988.2216790000002
 30
0.0
 11
2974.301211
 21
3037.231679
 31
0.0
  0
ARC
  5
7AE2
  8
1
  6
CONTINUOUS
 10
2841.6512109999999
 20
3130.2216789999989
 30
0.0
 40
162.0
 50
324.97000000000003
 51
215.02999999999989
  0
CIRCLE
  5
7AE3
  8
1
  6
CONTINUOUS
 10
2841.6512109999999
 20
3130.2216789999989
 30
0.0
 40
80.0
  0
LINE
  5
7AE4
  8
1
  6
CONTINUOUS
 10
3020.1712109999999
 20
2930.2216790000002
 30
0.0
 11
3020.1712109999999
 21
3230.2216789999989
 31
0.0
  0
LINE
  5
7AE5
  8
1
  6
CONTINUOUS
 10
3060.1712109999999
 20
2804.2216789999989
 30
0.0
 11
3060.1712109999999
 21
2704.2216789999989
 31
0.0
  0
ARC
  5
7AF8
  8
1
  6
CONTINUOUS
 10
1983.1712109999989
 20
3502.2216790000002
 30
0.0
 40
634.74000000000001
 50
354.68999999999988
 51
85.750000000000014
  0
LINE
  5
7AF9
  8
2
  6
CENTER
 10
1328.14708
 20
3455.2216789999989
 30
0.0
 11
3081.7768110000002
 21
3455.2216789999989
 31
0.0
  0
LINE
  5
7AFA
  8
1
  6
CONTINUOUS
 10
2180.1712109999999
 20
5449.8258070000002
 30
0.0
 11
2761.6512109999999
 21
5449.8258070000002
 31
0.0
  0
LINE
  5
7AFB
  8
1
  6
CONTINUOUS
 10
2617.9112110000001
 20
6157.8258070000002
 30
0.0
 11
2617.9112110000001
 21
5627.8258070000002
 31
0.0
  0
LINE
  5
7AFC
  8
1
  6
CONTINUOUS
 10
2180.1712109999999
 20
5422.8258070000002
 30
0.0
 11
2180.1712109999999
 21
5502.8258070000002
 31
0.0
  0
LINE
  5
7AFD
  8
1
  6
CONTINUOUS
 10
1880.1712110000001
 20
5422.8258070000002
 30
0.0
 11
1880.1712110000001
 21
5502.8258070000002
 31
0.0
  0
LINE
  5
7AFE
  8
1
  6
CONTINUOUS
 10
1880.1712110000001
 20
5422.8258070000002
 30
0.0
 11
2180.1712109999999
 21
5422.8258070000002
 31
0.0
  0
LINE
  5
7AFF
  8
1
  6
CONTINUOUS
 10
1880.1712110000001
 20
5502.8258070000002
 30
0.0
 11
2180.1712109999999
 21
5502.8258070000002
 31
0.0
  0
LINE
  5
7B00
  8
1
  6
CONTINUOUS
 10
2051.1712109999989
 20
5502.8258070000002
 30
0.0
 11
2051.1712109999989
 21
5627.8258070000002
 31
0.0
  0
LINE
  5
7B01
  8
1
  6
CONTINUOUS
 10
2009.1712109999989
 20
5502.8258070000002
 30
0.0
 11
2009.1712109999989
 21
5627.8258070000002
 31
0.0
  0
LINE
  5
7B02
  8
1
  6
CONTINUOUS
 10
3008.631210999999
 20
6044.775807
 30
0.0
 11
2679.651210999999
 21
6044.775807
 31
0.0
  0
LINE
  5
7B03
  8
1
  6
CONTINUOUS
 10
2820.651210999999
 20
5502.8258070000002
 30
0.0
 11
2820.651210999999
 21
5588.8358070000004
 31
0.0
  0
LINE
  5
7B04
  8
1
  6
CONTINUOUS
 10
2862.6512109999999
 20
5502.8258070000002
 30
0.0
 11
2862.6512109999999
 21
5588.8358070000004
 31
0.0
  0
LINE
  5
7B05
  8
1
  6
CONTINUOUS
 10
3008.631210999999
 20
5588.8358070000004
 30
0.0
 11
2679.651210999999
 21
5588.8358070000004
 31
0.0
  0
LINE
  5
7B06
  8
1
  6
CONTINUOUS
 10
2679.651210999999
 20
5588.8358070000004
 30
0.0
 11
2679.651210999999
 21
6044.775807
 31
0.0
  0
LINE
  5
7B07
  8
1
  6
CONTINUOUS
 10
3008.631210999999
 20
5588.8358070000004
 30
0.0
 11
3008.631210999999
 21
6044.775807
 31
0.0
  0
LINE
  5
7B08
  8
1
  6
CONTINUOUS
 10
3060.1712109999999
 20
6209.8258070000002
 30
0.0
 11
3060.1712109999999
 21
5449.8258070000002
 31
0.0
  0
LINE
  5
7B09
  8
1
  6
CONTINUOUS
 10
3020.1712109999999
 20
5392.8258070000011
 30
0.0
 11
3020.1712109999999
 21
5532.8258070000002
 31
0.0
  0
LINE
  5
7B0A
  8
1
  6
CONTINUOUS
 10
2921.6512109999999
 20
5422.8258070000002
 30
0.0
 11
2921.6512109999999
 21
5502.8258070000002
 31
0.0
  0
LINE
  5
7B0B
  8
1
  6
CONTINUOUS
 10
2761.6512109999999
 20
5422.8258070000002
 30
0.0
 11
2761.6512109999999
 21
5502.8258070000002
 31
0.0
  0
LINE
  5
7B0C
  8
1
  6
CONTINUOUS
 10
2761.6512109999999
 20
5422.8258070000002
 30
0.0
 11
2921.6512109999999
 21
5422.8258070000002
 31
0.0
  0
LINE
  5
7B0D
  8
1
  6
CONTINUOUS
 10
2761.6512109999999
 20
5502.8258070000002
 30
0.0
 11
2921.6512109999999
 21
5502.8258070000002
 31
0.0
  0
LINE
  5
7B0E
  8
1
  6
CONTINUOUS
 10
2921.6512109999999
 20
5449.8258070000002
 30
0.0
 11
3060.1712109999999
 21
5449.8258070000002
 31
0.0
  0
LINE
  5
7B36
  8
1
  6
CONTINUOUS
 10
4237.904258390221
 20
3305.2216789999989
 30
0.0
 11
4237.904258390221
 21
3605.2216789999989
 31
0.0
  0
LINE
  5
7B37
  8
1
  6
CONTINUOUS
 10
4317.9042583902201
 20
3305.2216789999989
 30
0.0
 11
4317.9042583902201
 21
3605.2216789999989
 31
0.0
  0
LINE
  5
7B38
  8
1
  6
CONTINUOUS
 10
4347.904258390221
 20
4070.2216790000002
 30
0.0
 11
4347.904258390221
 21
2930.2216790000002
 31
0.0
  0
LINE
  5
7B39
  8
1
  6
CONTINUOUS
 10
4207.904258390221
 20
4070.2216790000002
 30
0.0
 11
4207.904258390221
 21
2930.2216790000002
 31
0.0
  0
LINE
  5
7B3A
  8
1
  6
CONTINUOUS
 10
4972.904258390221
 20
4151.2216790000002
 30
0.0
 11
4972.904258390221
 21
2930.2216790000002
 31
0.0
  0
LINE
  5
7B3B
  8
1
  6
CONTINUOUS
 10
4442.9042583902201
 20
4151.2216790000002
 30
0.0
 11
4442.9042583902201
 21
2930.2216790000002
 31
0.0
  0
LINE
  5
7B3C
  8
1
  6
CONTINUOUS
 10
5024.904258390221
 20
2704.2216789999989
 30
0.0
 11
4264.9042583902201
 21
2704.2216789999989
 31
0.0
  0
LINE
  5
7B3D
  8
1
  6
CONTINUOUS
 10
5024.904258390221
 20
2804.2216789999989
 30
0.0
 11
4264.9042583902201
 21
2804.2216789999989
 31
0.0
  0
LINE
  5
7B3E
  8
1
  6
CONTINUOUS
 10
4317.9042583902201
 20
3069.2216789999989
 30
0.0
 11
4442.9042583902201
 21
3069.2216789999989
 31
0.0
  0
LINE
  5
7B3F
  8
1
  6
CONTINUOUS
 10
4317.9042583902201
 20
3111.2216789999989
 30
0.0
 11
4442.9042583902201
 21
3111.2216789999989
 31
0.0
  0
LINE
  5
7B40
  8
1
  6
CONTINUOUS
 10
5024.904258390221
 20
2930.2216790000002
 30
0.0
 11
4207.904258390221
 21
2930.2216790000002
 31
0.0
  0
LINE
  5
7B41
  8
1
  6
CONTINUOUS
 10
5024.904258390221
 20
2830.2216790000002
 30
0.0
 11
4264.9042583902201
 21
2830.2216790000002
 31
0.0
  0
LINE
  5
7B46
  8
1
  6
CONTINUOUS
 10
4264.9042583902201
 20
2804.2216789999989
 30
0.0
 11
4264.9042583902201
 21
2704.2216789999989
 31
0.0
  0
LINE
  5
7B47
  8
1
  6
CONTINUOUS
 10
4237.904258390221
 20
3170.2216789999989
 30
0.0
 11
4317.9042583902201
 21
3170.2216789999989
 31
0.0
  0
LINE
  5
7B48
  8
1
  6
CONTINUOUS
 10
4237.904258390221
 20
3010.2216790000002
 30
0.0
 11
4317.9042583902201
 21
3010.2216790000002
 31
0.0
  0
LINE
  5
7B49
  8
1
  6
CONTINUOUS
 10
4237.904258390221
 20
3305.2216789999989
 30
0.0
 11
4317.9042583902201
 21
3305.2216789999989
 31
0.0
  0
LINE
  5
7B4A
  8
1
  6
CONTINUOUS
 10
4237.904258390221
 20
3010.2216790000002
 30
0.0
 11
4237.904258390221
 21
3170.2216789999989
 31
0.0
  0
LINE
  5
7B4B
  8
1
  6
CONTINUOUS
 10
4317.9042583902201
 20
3010.2216790000002
 30
0.0
 11
4317.9042583902201
 21
3170.2216789999989
 31
0.0
  0
LINE
  5
7B4C
  8
1
  6
CONTINUOUS
 10
4264.9042583902201
 20
2930.2216790000002
 30
0.0
 11
4264.9042583902201
 21
2830.2216790000002
 31
0.0
  0
LINE
  5
7B4D
  8
1
  6
CONTINUOUS
 10
5024.904258390221
 20
2804.2216789999989
 30
0.0
 11
5024.904258390221
 21
2704.2216789999989
 31
0.0
  0
LINE
  5
7B4E
  8
1
  6
CONTINUOUS
 10
5024.904258390221
 20
2930.2216790000002
 30
0.0
 11
5024.904258390221
 21
2830.2216790000002
 31
0.0
  0
LINE
  5
7B4F
  8
1
  6
CONTINUOUS
 10
4317.9042583902201
 20
3476.2216790000002
 30
0.0
 11
4442.9042583902201
 21
3476.2216790000002
 31
0.0
  0
LINE
  5
7B50
  8
1
  6
CONTINUOUS
 10
4317.9042583902201
 20
3434.2216790000002
 30
0.0
 11
4442.9042583902201
 21
3434.2216790000002
 31
0.0
  0
LINE
  5
7B51
  8
1
  6
CONTINUOUS
 10
4237.904258390221
 20
3605.2216789999989
 30
0.0
 11
4317.9042583902201
 21
3605.2216789999989
 31
0.0
  0
LINE
  5
7B52
  8
1
  6
CONTINUOUS
 10
4347.904258390221
 20
4070.2216790000002
 30
0.0
 11
4207.904258390221
 21
4070.2216790000002
 31
0.0
  0
LINE
  5
7B53
  8
1
  6
CONTINUOUS
 10
4442.9042583902201
 20
4151.2216790000002
 30
0.0
 11
4972.904258390221
 21
3421.2216790000002
 31
0.0
  0
LINE
  5
7B54
  8
1
  6
CONTINUOUS
 10
4972.904258390221
 20
4151.2216790000002
 30
0.0
 11
4442.9042583902201
 21
3421.2216790000002
 31
0.0
  0
LINE
  5
7B55
  8
1
  6
CONTINUOUS
 10
4442.9042583902201
 20
4151.2216790000002
 30
0.0
 11
4972.904258390221
 21
4151.2216790000002
 31
0.0
  0
LINE
  5
7B56
  8
1
  6
CONTINUOUS
 10
4442.9042583902201
 20
3421.2216790000002
 30
0.0
 11
4972.904258390221
 21
3421.2216790000002
 31
0.0
  0
LINE
  5
7B57
  8
2
  6
CENTER
 10
3186.1713399999999
 20
5892.8258070000011
 30
0.0
 11
1328.288393
 21
5892.8258070000011
 31
0.0
  0
LINE
  5
7B58
  8
2
  6
CENTER
 10
4707.904258390221
 20
4438.7572069999997
 30
0.0
 11
4707.904258390221
 21
4426.2268009999998
 31
0.0
  0
LINE
  5
7B59
  8
2
  6
CENTER
 10
2030.1712110000001
 20
4256.5421969999989
 30
0.0
 11
2030.1712110000001
 21
2495.7345580000001
 31
0.0
  0
LINE
  5
7B5A
  8
2
  6
CENTER
 10
4097.0466003902202
 20
3455.2216789999989
 30
0.0
 11
5041.1988233902212
 21
3455.2216789999989
 31
0.0
  0
DIMENSION
  5
7B6E
  8
3
  6
CONTINUOUS
  2
*D1
 10
1381.9990399999999
 20
3421.2216790000002
 30
0.0
 11
1381.9990399999999
 21
3789.6131
 31
0.0
 70
   128
 13
1495.1712109999989
 23
4151.2216790000002
 33
0.0
 14
1495.1712109999989
 24
3421.2216790000002
 34
0.0
 50
90.0
1001
ACAD
1000
DSTYLE
1002
{
1070
   287
1070
     3
1070
   287
1070
     3
1070
    40
1040
30.0
1070
   143
1040
0.039
1070
   172
1070
     1
1070
   271
1070
     0
1070
   279
1070
     0
1070
   288
1070
     1
1002
}
  0
DIMENSION
  5
7B7B
  8
3
  6
CONTINUOUS
  2
*D2
 10
1219.2054599999999
 20
3455.2216789999989
 30
0.0
 11
1219.205459999999
 21
3796.684499
 31
0.0
 70
   128
 13
1381.9990399999999
 23
4151.2216790000002
 33
0.0
 14
1328.14708
 24
3455.2216789999989
 34
0.0
 50
90.0
1001
ACAD
1000
DSTYLE
1002
{
1070
   287
1070
     3
1070
   287
1070
     3
1070
    40
1040
30.0
1070
   143
1040
0.039
1070
   172
1070
     1
1070
   271
1070
     0
1070
   279
1070
     0
1070
   288
1070
     1
1002
}
  0
DIMENSION
  5
7B87
  8
3
  6
CONTINUOUS
  2
*D3
 10
1219.205459999999
 20
2830.2216790000002
 30
0.0
 11
1144.205459999999
 21
3142.7216790000002
 31
0.0
 70
     0
 13
1328.14708
 23
3455.2216789999989
 33
0.0
 14
1560.1712110000001
 24
2830.2216790000002
 34
0.0
 50
90.0
1001
ACAD
1000
DSTYLE
1002
{
1070
   287
1070
     4
1070
   287
1070
     4
1070
    40
1040
30.0
1070
    75
1070
     1
1070
   143
1040
0.039
1070
   172
1070
     1
1070
   271
1070
     0
1070
   279
1070
     1
1070
   288
1070
     1
1002
}
  0
DIMENSION
  5
7B97
  8
3
  6
CONTINUOUS
  2
*D4
 10
1219.5090170000001
 20
2704.2216789999989
 30
0.0
 11
1219.5090170000001
 21
2449.2216790000002
 31
0.0
 70
   128
 13
1560.1712110000001
 23
2830.2216790000002
 33
0.0
 14
1560.1712110000001
 24
2704.2216789999989
 34
0.0
 50
90.0
1001
ACAD
1000
DSTYLE
1002
{
1070
   287
1070
     3
1070
   287
1070
     3
1070
    40
1040
30.0
1070
   143
1040
0.039
1070
   172
1070
     1
1070
   271
1070
     0
1070
   279
1070
     0
1070
   288
1070
     1
1002
}
  0
DIMENSION
  5
7BA4
  8
3
  6
CONTINUOUS
  2
*D5
 10
1036.020434
 20
2704.2216789999989
 30
0.0
 11
1036.020434
 21
3436.0437790000001
 31
0.0
 70
   128
 13
1495.1712109999989
 23
4191.2216790000002
 33
0.0
 14
1560.1712110000001
 24
2704.2216789999989
 34
0.0
 50
90.0
1001
ACAD
1000
DSTYLE
1002
{
1070
   287
1070
     3
1070
   287
1070
     3
1070
    40
1040
30.0
1070
   143
1040
0.039
1070
   172
1070
     1
1070
   271
1070
     0
1070
   279
1070
     0
1070
   288
1070
     1
1002
}
  0
DIMENSION
  5
7BB1
  8
3
  6
CONTINUOUS
  2
*D6
 10
2030.1712110000001
 20
2416.0017419999999
 30
0.0
 11
1765.885497
 21
2416.0017419999999
 31
0.0
 70
   128
 13
1560.1712110000001
 23
2704.2216789999989
 33
0.0
 14
2030.1712110000001
 24
2495.7345580000001
 34
0.0
1001
ACAD
1000
DSTYLE
1002
{
1070
   287
1070
     3
1070
   287
1070
     3
1070
    40
1040
30.0
1070
   143
1040
0.039
1070
   172
1070
     1
1070
   271
1070
     0
1070
   279
1070
     0
1070
   288
1070
     1
1002
}
  0
DIMENSION
  5
7BBD
  8
3
  6
CONTINUOUS
  2
*D7
 10
3060.1712109999999
 20
2416.0017419999999
 30
0.0
 11
2545.1712109999989
 21
2491.0017419999999
 31
0.0
 70
     0
 13
2030.1712110000001
 23
2495.7345580000001
 33
0.0
 14
3060.1712109999999
 24
2704.2216789999989
 34
0.0
1001
ACAD
1000
DSTYLE
1002
{
1070
   287
1070
     4
1070
   287
1070
     4
1070
    40
1040
30.0
1070
    75
1070
     1
1070
   143
1040
0.039
1070
   172
1070
     1
1070
   271
1070
     0
1070
   279
1070
     1
1070
   288
1070
     1
1002
}
  0
LINE
  5
7BE4
  8
1
  6
CONTINUOUS
 10
4974.904258390221
 20
3832.2216789999989
 30
0.0
 11
4974.904258390221
 21
3078.2216790000002
 31
0.0
  0
DIMENSION
  5
7BF3
  8
3
  6
CONTINUOUS
  2
*D8
 10
5218.1483293902211
 20
3078.2216789999989
 30
0.0
 11
5218.1483293902211
 21
3471.4007150000002
 31
0.0
 70
   128
 13
4974.904258390221
 23
3832.2216789999989
 33
0.0
 14
4974.904258390221
 24
3078.2216790000002
 34
0.0
 50
90.0
1001
ACAD
1000
DSTYLE
1002
{
1070
   287
1070
     3
1070
   287
1070
     3
1070
     3
1000
φ<>
1070
    40
1040
30.0
1070
   143
1040
0.039
1070
   172
1070
     1
1070
   271
1070
     0
1070
   279
1070
     0
1070
   288
1070
     1
1002
}
  0
DIMENSION
  5
7C01
  8
3
  6
CONTINUOUS
  2
*D9
 10
4707.904258390221
 20
4468.4662250000001
 30
0.0
 11
4859.8617335691306
 21
4563.6410027321936
 31
0.0
 70
   128
 13
4974.904258390221
 23
3832.2216789999989
 33
0.0
 14
4707.904258390221
 24
4438.7572069999997
 34
0.0
1001
ACAD
1000
DSTYLE
1002
{
1070
   288
1070
     1
1070
   172
1070
     1
1070
    40
1040
30.0
1070
   271
1070
     0
1070
   143
1040
0.039
1002
}
  0
DIMENSION
  5
7C0D
  8
3
  6
CONTINUOUS
  2
*D10
 10
4207.904258390221
 20
4468.4662250000001
 30
0.0
 11
4457.904258390221
 21
4618.4662250000001
 31
0.0
 70
     0
  1
MAX\P560
 13
4707.904258390221
 23
4438.7572069999997
 33
0.0
 14
4207.904258390221
 24
4070.2216790000002
 34
0.0
1001
ACAD
1000
DSTYLE
1002
{
1070
   287
1070
     4
1070
   287
1070
     4
1070
    40
1040
30.0
1070
    75
1070
     1
1070
   143
1040
0.039
1070
   172
1070
     1
1070
   271
1070
     0
1070
   279
1070
     1
1070
   288
1070
     1
1002
}
  0
DIMENSION
  5
7C1A
  8
3
  6
CONTINUOUS
  2
*D11
 10
4707.904258390221
 20
2445.170658
 30
0.0
 11
4502.1899723902206
 21
2445.170658
 31
0.0
 70
   128
 13
4264.9042583902201
 23
2704.2216789999989
 33
0.0
 14
4707.904258390221
 24
2481.757145
 34
0.0
1001
ACAD
1000
DSTYLE
1002
{
1070
   287
1070
     3
1070
   287
1070
     3
1070
    40
1040
30.0
1070
   143
1040
0.039
1070
   172
1070
     1
1070
   271
1070
     0
1070
   279
1070
     0
1070
   288
1070
     1
1002
}
  0
DIMENSION
  5
7C28
  8
3
  6
CONTINUOUS
  2
*D12
 10
5024.904258390221
 20
2445.170658
 30
0.0
 11
4882.9917653902212
 21
2446.3960469999988
 31
0.0
 70
   128
 13
4707.904258390221
 23
2481.757145
 33
0.0
 14
5024.904258390221
 24
2704.2216789999989
 34
0.0
1001
ACAD
1000
DSTYLE
1002
{
1070
   287
1070
     4
1070
   287
1070
     4
1070
    40
1040
30.0
1070
    75
1070
     1
1070
   143
1040
0.039
1070
   172
1070
     1
1070
   271
1070
     0
1070
   279
1070
     1
1070
   288
1070
     1
1002
}
  0
DIMENSION
  5
7C35
  8
3
  6
CONTINUOUS
  2
*D13
 10
4442.9042583902201
 20
4291.6815649999999
 30
0.0
 11
4694.3777923902217
 21
4291.6815649999999
 31
0.0
 70
   128
 13
4972.904258390221
 23
4151.2216790000002
 33
0.0
 14
4442.9042583902201
 24
4151.2216790000002
 34
0.0
1001
ACAD
1000
DSTYLE
1002
{
1070
   287
1070
     3
1070
   287
1070
     3
1070
    40
1040
30.0
1070
   143
1040
0.039
1070
   172
1070
     1
1070
   271
1070
     0
1070
   279
1070
     0
1070
   288
1070
     1
1002
}
  0
LINE
  5
7C4C
  8
2
  6
CENTER
 10
4707.904258390221
 20
4189.279732
 30
0.0
 11
4707.904258390221
 21
2481.757145
 31
0.0
  0
DIMENSION
  5
7C59
  8
3
  6
CONTINUOUS
  2
*D14
 10
3060.1712109999999
 20
6452.5821130000013
 30
0.0
 11
2316.2924440000002
 21
6452.5821130000013
 31
0.0
 70
   128
 13
1560.1712110000001
 23
6209.8258070000002
 33
0.0
 14
3060.1712109999999
 24
6209.8258070000002
 34
0.0
1001
ACAD
1000
DSTYLE
1002
{
1070
   287
1070
     3
1070
   287
1070
     3
1070
    40
1040
30.0
1070
   143
1040
0.039
1070
   172
1070
     1
1070
   271
1070
     0
1070
   279
1070
     0
1070
   288
1070
     1
1002
}
  0
DIMENSION
  5
7C66
  8
3
  6
CONTINUOUS
  2
*D15
 10
3342.5996470000009
 20
5449.8258070000002
 30
0.0
 11
3342.599647
 21
5833.3984909999999
 31
0.0
 70
   128
 13
3060.1712109999999
 23
6209.8258070000002
 33
0.0
 14
3060.1712109999999
 24
5449.8258070000002
 34
0.0
 50
90.0
1001
ACAD
1000
DSTYLE
1002
{
1070
   287
1070
     3
1070
   287
1070
     3
1070
    40
1040
30.0
1070
   143
1040
0.039
1070
   172
1070
     1
1070
   271
1070
     0
1070
   279
1070
     0
1070
   288
1070
     1
1002
}
  0
LINE
  5
7C67
  8
4
  6
CONTINUOUS
 10
5550.0
 20
1500.0
 30
0.0
 11
5550.0
 21
900.0
 31
0.0
  0
LINE
  5
7C68
  8
4
  6
CONTINUOUS
 10
3450.0
 20
1500.0
 30
0.0
 11
3450.0
 21
900.0
 31
0.0
  0
LINE
  5
7C69
  8
4
  6
CONTINUOUS
 10
1950.0
 20
1500.0
 30
0.0
 11
1950.0
 21
900.0
 31
0.0
  0
LINE
  5
7C6C
  8
4
  6
CONTINUOUS
 10
1950.0
 20
900.0
 30
0.0
 11
5550.0
 21
900.0
 31
0.0
  0
LINE
  5
7C6D
  8
4
  6
CONTINUOUS
 10
1950.0
 20
1200.0
 30
0.0
 11
5550.0
 21
1200.0
 31
0.0
  0
TEXT
  5
7C6E
  8
4
  6
CONTINUOUS
 10
2065.5062429999989
 20
1294.6290779999999
 30
0.0
 40
150.0
  1
機器名称
  0
TEXT
  5
7C6F
  8
4
  6
CONTINUOUS
 10
2058.7743179999989
 20
964.9354699999999
 30
0.0
 40
150.0
  1
機器型番
  0
TEXT
  5
7C70
  8
4
  6
CONTINUOUS
 10
3533.0362359999999
 20
1267.7153069999999
 30
0.0
 40
150.0
  1
ミツヤ多翼送風機
  0
TEXT
  5
7C71
  8
4
  6
CONTINUOUS
 10
3559.9634869999991
 20
951.47875299999987
 30
0.0
 40
150.0
  1
MFE#4 1/2-4
  0
TEXT
  5
7C73
  8
4
  6
CONTINUOUS
 10
2354.727382
 20
7150.2865239999992
 30
0.0
 40
162.0
  1
床置防振ベット
  0
TEXT
  5
7C74
  8
4
  6
CONTINUOUS
 10
948.50278000000014
 20
7601.6429289999996
 30
0.0
 40
216.0
  1
ベルト駆動式片吸込両持排煙ファン
  0
LINE
  5
7C75
  8
4
  6
CONTINUOUS
 10
750.0
 20
7408.2262629999996
 30
0.0
 11
5550.0
 21
7408.2262629999996
 31
0.0
  0
LINE
  5
7C76
  8
4
  6
CONTINUOUS
 10
750.0
 20
8008.2262629999996
 30
0.0
 11
5550.0
 21
8008.2262629999996
 31
0.0
  0
LINE
  5
7C77
  8
4
  6
CONTINUOUS
 10
1950.0
 20
1500.0
 30
0.0
 11
5550.0
 21
1500.0
 31
0.0
  0
LINE
  5
7C78
  8
4
  6
CONTINUOUS
 10
750.0
 20
8008.2262629999996
 30
0.0
 11
750.0
 21
7408.2262629999996
 31
0.0
  0
TEXT
  5
7C79
  8
4
  6
CONTINUOUS
 10
1047.150885999999
 20
7146.9584329999998
 30
0.0
 40
162.0
  1
左回転左横向
  0
TEXT
  5
7C7A
  8
4
  6
CONTINUOUS
 10
4406.9086779999989
 20
8118.1832439999989
 30
0.0
 40
168.0
  1
No.
  0
TEXT
  5
7C7B
  8
4
  6
CONTINUOUS
 10
3933.8881879999999
 20
7150.2865239999992
 30
0.0
 40
162.0
  1
縮尺：1/30
  0
LINE
  5
7C7C
  8
4
  6
CONTINUOUS
 10
5550.0
 20
8008.2262629999996
 30
0.0
 11
5550.0
 21
7408.2262629999996
 31
0.0
  0
LINE
  5
7C7E
  8
4
  6
CONTINUOUS
 10
4321.8522670000002
 20
8043.7907490000007
 30
0.0
 11
4321.8522670000002
 21
8359.9567849999985
 31
0.0
  0
LINE
  5
7C7F
  8
4
  6
CONTINUOUS
 10
4321.8522670000002
 20
8359.9567849999985
 30
0.0
 11
5550.0
 21
8359.9567849999985
 31
0.0
  0
LINE
  5
7C80
  8
4
  6
CONTINUOUS
 10
5550.0
 20
8359.9567849999985
 30
0.0
 11
5550.0
 21
8043.7907490000007
 31
0.0
  0
LINE
  5
7C81
  8
4
  6
CONTINUOUS
 10
5550.0
 20
8043.7907490000007
 30
0.0
 11
4321.8522670000002
 21
8043.7907490000007
 31
0.0
  0
DIMENSION
  5
7CD2
  8
3
  6
CONTINUOUS
  2
*D16
 10
2030.1712110000001
 20
4328.0924939999986
 30
0.0
 11
1744.8848170000001
 21
4328.0924939999986
 31
0.0
 70
   128
 13
1495.1712109999989
 23
4191.2216790000002
 33
0.0
 14
2030.1712110000001
 24
4256.5421969999989
 34
0.0
1001
ACAD
1000
DSTYLE
1002
{
1070
   287
1070
     3
1070
   287
1070
     3
1070
    40
1040
30.0
1070
   143
1040
0.039
1070
   172
1070
     1
1070
   271
1070
     0
1070
   279
1070
     0
1070
   288
1070
     1
1002
}
  0
DIMENSION
  5
7CDE
  8
3
  6
CONTINUOUS
  2
*D17
 10
2616.168737
 20
4328.0924939999986
 30
0.0
 11
2323.1699739999999
 21
4403.0924940000004
 31
0.0
 70
     0
 13
2030.1712110000001
 23
4256.5421969999989
 33
0.0
 14
2616.168737
 24
3455.2216789999989
 34
0.0
1001
ACAD
1000
DSTYLE
1002
{
1070
   287
1070
     4
1070
   287
1070
     4
1070
    40
1040
30.0
1070
    75
1070
     1
1070
   143
1040
0.039
1070
   172
1070
     1
1070
   271
1070
     0
1070
   279
1070
     1
1070
   288
1070
     1
1002
}
  0
DIMENSION
  5
7EBA
  8
3
  2
*D18
 10
3060.1712109999999
 20
4506.3898459439633
 30
0.0
 11
2236.8664124214451
 21
4506.3898459439633
 31
0.0
 70
   128
 13
1495.1712109999989
 23
4191.2216790000002
 33
0.0
 14
3060.1712109999999
 24
2930.2216790000002
 34
0.0
1001
ACAD
1000
DSTYLE
1002
{
1070
   287
1070
     3
1070
   287
1070
     3
1070
    40
1040
30.0
1070
   143
1040
0.039
1070
   172
1070
     1
1070
   271
1070
     0
1070
   279
1070
     0
1070
   288
1070
     1
1002
}
  0
LINE
  5
7FB1
  8
1
  6
CONTINUOUS
 10
1570.1712109999989
 20
3850.2216790000002
 30
0.0
 11
2490.1712109999999
 21
3850.2216789999989
 31
0.0
  0
LINE
  5
7FB2
  8
1
 10
1570.1712109999989
 20
3850.2216790000002
 30
0.0
 11
1570.1712109999989
 21
2930.2216790000002
 31
0.0
  0
LINE
  5
7FB3
  8
1
 10
2490.1712109999999
 20
3850.2216789999989
 30
0.0
 11
2490.1712109999989
 21
2930.2216790000002
 31
0.0
  0
ENDSEC
  0
EOF
