  0
SECTION
  2
HEADER
  9
$ACADVER
  1
AC1009
  9
$INSBASE
 10
0.0
 20
0.0
 30
0.0
  9
$EXTMIN
 10
750.0
 20
900.0
 30
0.0
  9
$EXTMAX
 10
5550.0
 20
8359.9567849999985
 30
0.0
  9
$LIMMIN
 10
0.0
 20
0.0
  9
$LIMMAX
 10
297.0
 20
210.0
  9
$ORTHOMODE
 70
     0
  9
$REGENMODE
 70
     1
  9
$FILLMODE
 70
     0
  9
$QTEXTMODE
 70
     0
  9
$MIRRTEXT
 70
     1
  9
$DRAGMODE
 70
     2
  9
$LTSCALE
 40
100.0
  9
$OSMODE
 70
    37
  9
$ATTMODE
 70
     1
  9
$TEXTSIZE
 40
180.0
  9
$TRACEWID
 40
0.05
  9
$TEXTSTYLE
  7
STANDARD
  9
$CLAYER
  8
3
  9
$CELTYPE
  6
BYLAYER
  9
$CECOLOR
 62
   256
  9
$DIMSCALE
 40
30.0
  9
$DIMASZ
 40
2.0
  9
$DIMEXO
 40
0.5
  9
$DIMDLI
 40
10.0
  9
$DIMRND
 40
0.0
  9
$DIMDLE
 40
0.0
  9
$DIMEXE
 40
1.0
  9
$DIMTP
 40
1.0
  9
$DIMTM
 40
1.0
  9
$DIMTXT
 40
3.0
  9
$DIMCEN
 40
0.0
  9
$DIMTSZ
 40
0.0
  9
$DIMTOL
 70
     0
  9
$DIMLIM
 70
     0
  9
$DIMTIH
 70
     0
  9
$DIMTOH
 70
     0
  9
$DIMSE1
 70
     0
  9
$DIMSE2
 70
     0
  9
$DIMTAD
 70
     1
  9
$DIMZIN
 70
     8
  9
$DIMBLK
  1

  9
$DIMASO
 70
     1
  9
$DIMSHO
 70
     1
  9
$DIMPOST
  1

  9
$DIMAPOST
  1

  9
$DIMALT
 70
     0
  9
$DIMALTD
 70
     2
  9
$DIMALTF
 40
0.039
  9
$DIMLFAC
 40
1.0
  9
$DIMTOFL
 70
     1
  9
$DIMTVP
 40
0.0
  9
$DIMTIX
 70
     0
  9
$DIMSOXD
 70
     0
  9
$DIMSAH
 70
     1
  9
$DIMBLK1
  1
OPEN
  9
$DIMBLK2
  1
OPEN
  9
$DIMSTYLE
  2
IGA
  9
$DIMCLRD
 70
     0
  9
$DIMCLRE
 70
     0
  9
$DIMCLRT
 70
     0
  9
$DIMTFAC
 40
10.0
  9
$DIMGAP
 40
1.0
  9
$LUNITS
 70
     2
  9
$LUPREC
 70
     3
  9
$SKETCHINC
 40
0.1
  9
$FILLETRAD
 40
50.0
  9
$AUNITS
 70
     0
  9
$AUPREC
 70
     0
  9
$MENU
  1
acad
  9
$ELEVATION
 40
0.0
  9
$PELEVATION
 40
0.0
  9
$THICKNESS
 40
0.0
  9
$LIMCHECK
 70
     0
  9
$BLIPMODE
 70
     0
  9
$CHAMFERA
 40
0.5
  9
$CHAMFERB
 40
0.5
  9
$SKPOLY
 70
     0
  9
$TDCREATE
 40
2450743.4283087961
  9
$TDUPDATE
 40
2454953.839161654
  9
$TDINDWG
 40
0.0147825926
  9
$TDUSRTIMER
 40
0.0147825926
  9
$USRTIMER
 70
     1
  9
$ANGBASE
 50
0.0
  9
$ANGDIR
 70
     0
  9
$PDMODE
 70
     0
  9
$PDSIZE
 40
0.0
  9
$PLINEWID
 40
0.0
  9
$COORDS
 70
     1
  9
$SPLFRAME
 70
     0
  9
$SPLINETYPE
 70
     6
  9
$SPLINESEGS
 70
     8
  9
$ATTDIA
 70
     0
  9
$ATTREQ
 70
     1
  9
$HANDLING
 70
 10241
  9
$HANDSEED
  5
7F2C
  9
$SURFTAB1
 70
     6
  9
$SURFTAB2
 70
     6
  9
$SURFTYPE
 70
     6
  9
$SURFU
 70
     6
  9
$SURFV
 70
     6
  9
$UCSNAME
  2

  9
$UCSORG
 10
0.0
 20
0.0
 30
0.0
  9
$UCSXDIR
 10
1.0
 20
0.0
 30
0.0
  9
$UCSYDIR
 10
0.0
 20
1.0
 30
0.0
  9
$PUCSNAME
  2

  9
$PUCSORG
 10
0.0
 20
0.0
 30
0.0
  9
$PUCSXDIR
 10
1.0
 20
0.0
 30
0.0
  9
$PUCSYDIR
 10
0.0
 20
1.0
 30
0.0
  9
$USERI1
 70
     0
  9
$USERI2
 70
     0
  9
$USERI3
 70
     0
  9
$USERI4
 70
     0
  9
$USERI5
 70
     0
  9
$USERR1
 40
0.0
  9
$USERR2
 40
0.0
  9
$USERR3
 40
0.0
  9
$USERR4
 40
0.0
  9
$USERR5
 40
0.0
  9
$WORLDVIEW
 70
     1
  9
$SHADEDGE
 70
     3
  9
$SHADEDIF
 70
    70
  9
$TILEMODE
 70
     1
  9
$MAXACTVP
 70
    16
  9
$PLIMCHECK
 70
     0
  9
$PEXTMIN
 10
1.0000000000000000E+020
 20
1.0000000000000000E+020
 30
1.0000000000000000E+020
  9
$PEXTMAX
 10
-1.0000000000000000E+020
 20
-1.0000000000000000E+020
 30
-1.0000000000000000E+020
  9
$PLIMMIN
 10
0.0
 20
0.0
  9
$PLIMMAX
 10
12.0
 20
9.0
  9
$UNITMODE
 70
     0
  9
$VISRETAIN
 70
     0
  9
$PLINEGEN
 70
     0
  9
$PSLTSCALE
 70
     1
  0
ENDSEC
  0
SECTION
  2
TABLES
  0
TABLE
  2
VPORT
 70
     2
  0
VPORT
  2
*ACTIVE
 70
     0
 10
0.0
 20
0.0
 11
1.0
 21
1.0
 12
3063.566873606077
 22
4538.3422145234226
 13
0.0
 23
0.0
 14
10.0
 24
10.0
 15
10.0
 25
10.0
 16
0.0
 26
0.0
 36
1.0
 17
0.0
 27
0.0
 37
0.0
 40
9063.6721106144705
 41
1.5051150895140659
 42
50.0
 43
0.0
 44
0.0
 50
0.0
 51
0.0
 71
     0
 72
   100
 73
     1
 74
     0
 75
     0
 76
     0
 77
     0
 78
     0
  0
ENDTAB
  0
TABLE
  2
LTYPE
 70
     2
  0
LTYPE
  2
CONTINUOUS
 70
     0
  3
Solid line
 72
    65
 73
     0
 40
0.0
  0
LTYPE
  2
CENTER
 70
     0
  3
____ _ ____ _ ____ _ ____ _ ____ _ ____ _ ____ 
 72
    65
 73
     4
 40
2.0
 49
1.25
 49
-0.25
 49
0.25
 49
-0.25
  0
ENDTAB
  0
TABLE
  2
LAYER
 70
     6
  0
LAYER
  2
0
 70
     0
 62
     7
  6
CONTINUOUS
  0
LAYER
  2
3
 70
     0
 62
     2
  6
CONTINUOUS
  0
LAYER
  2
2
 70
     0
 62
     3
  6
CENTER
  0
LAYER
  2
1
 70
     0
 62
     4
  6
CONTINUOUS
  0
LAYER
  2
4
 70
     0
 62
     7
  6
CONTINUOUS
  0
LAYER
  2
DEFPOINTS
 70
     0
 62
     7
  6
CONTINUOUS
  0
ENDTAB
  0
TABLE
  2
STYLE
 70
     1
  0
STYLE
  2
STANDARD
 70
     0
 40
0.0
 41
1.0
 50
0.0
 71
     0
 42
180.0
  3
simplex.shx
  4
extfont.shx
  0
ENDTAB
  0
TABLE
  2
VIEW
 70
     0
  0
ENDTAB
  0
TABLE
  2
UCS
 70
     0
  0
ENDTAB
  0
TABLE
  2
APPID
 70
     1
  0
APPID
  2
ACAD
 70
     0
  0
ENDTAB
  0
TABLE
  2
DIMSTYLE
 70
     1
  0
DIMSTYLE
  2
IGA
 70
     0
  3

  4

  5

  6
OPEN
  7
OPEN
 40
2.0
 41
2.0
 42
0.5
 43
10.0
 44
1.0
 45
0.0
 46
0.0
 47
1.0
 48
1.0
140
3.0
141
0.0
142
0.0
143
0.03937
144
1.0
145
0.0
146
10.0
147
1.0
 71
     0
 72
     0
 73
     0
 74
     0
 75
     0
 76
     0
 77
     1
 78
     8
170
     0
171
     2
172
     0
173
     1
174
     0
175
     0
176
     0
177
     0
178
     0
  0
ENDTAB
  0
ENDSEC
  0
SECTION
  2
BLOCKS
  0
BLOCK
  8
0
  2
$MODEL_SPACE
 70
     0
 10
0.0
 20
0.0
 30
0.0
  3
$MODEL_SPACE
  1

  0
ENDBLK
  5
1B
  8
0
  0
BLOCK
 67
     1
  8
0
  2
$PAPER_SPACE
 70
     0
 10
0.0
 20
0.0
 30
0.0
  3
$PAPER_SPACE
  1

  0
ENDBLK
  5
18
 67
     1
  8
0
  0
BLOCK
  8
0
  2
_OPEN
 70
     0
 10
0.0
 20
0.0
 30
0.0
  3
_OPEN
  1

  0
LINE
  5
7B5E
  8
0
  6
BYBLOCK
 62
     0
 10
-1.0
 20
0.166667
 30
0.0
 11
0.0
 21
0.0
 31
0.0
  0
LINE
  5
7B5F
  8
0
  6
BYBLOCK
 62
     0
 10
0.0
 20
0.0
 30
0.0
 11
-1.0
 21
-0.166667
 31
0.0
  0
LINE
  5
7B60
  8
0
  6
BYBLOCK
 62
     0
 10
0.0
 20
0.0
 30
0.0
 11
-1.0
 21
0.0
 31
0.0
  0
ENDBLK
  5
7B61
  8
0
  0
BLOCK
  8
0
  2
*D1
 70
     1
 10
0.0
 20
0.0
 30
0.0
  3
*D1
  1

  0
LINE
  5
7E8D
  8
3
  6
CONTINUOUS
 62
     0
 10
1677.3546809999989
 20
3462.026378
 30
0.0
 11
1504.4224879999999
 21
3462.026378
 31
0.0
  0
LINE
  5
7E8E
  8
3
  6
CONTINUOUS
 62
     0
 10
1677.3546809999989
 20
2732.026378
 30
0.0
 11
1504.4224879999999
 21
2732.026378
 31
0.0
  0
LINE
  5
7E8F
  8
3
  6
CONTINUOUS
 62
     0
 10
1534.4224879999999
 20
3402.026378
 30
0.0
 11
1534.4224879999999
 21
2792.026378
 31
0.0
  0
INSERT
  5
7E90
  8
3
  6
CONTINUOUS
 62
     0
  2
_OPEN
 10
1534.4224879999999
 20
3462.026378
 30
0.0
 41
60.0
 42
60.0
 43
60.0
 50
90.0
  0
INSERT
  5
7E91
  8
3
  6
CONTINUOUS
 62
     0
  2
_OPEN
 10
1534.4224879999999
 20
2732.026378
 30
0.0
 41
60.0
 42
60.0
 43
60.0
 50
270.0
  0
TEXT
  8
3
  40
90
  5
7F1B
  62
0
  72
0
  71
0
 10
1279.42
 20
2901.11
 30
0.000000
  1
730
  0
POINT
  5
7E93
  8
DEFPOINTS
  6
CONTINUOUS
 62
     0
 10
1692.3546809999989
 20
3462.026378
 30
0.0
  0
POINT
  5
7E94
  8
DEFPOINTS
  6
CONTINUOUS
 62
     0
 10
1692.3546809999989
 20
2732.026378
 30
0.0
  0
POINT
  5
7E95
  8
DEFPOINTS
  6
CONTINUOUS
 62
     0
 10
1534.4224879999999
 20
2732.026378
 30
0.0
  0
ENDBLK
  5
7B6E
  8
0
  0
BLOCK
  8
0
  2
*D2
 70
     1
 10
0.0
 20
0.0
 30
0.0
  3
*D2
  1

  0
LINE
  5
7E96
  8
3
  6
CONTINUOUS
 62
     0
 10
1562.469398
 20
3428.026378
 30
0.0
 11
1334.3197090000001
 21
3428.026378
 31
0.0
  0
LINE
  5
7E97
  8
3
  6
CONTINUOUS
 62
     0
 10
1677.3546809999989
 20
2732.026378
 30
0.0
 11
1334.3197090000001
 21
2732.026378
 31
0.0
  0
LINE
  5
7E98
  8
3
  6
CONTINUOUS
 62
     0
 10
1364.3197090000001
 20
3368.026378
 30
0.0
 11
1364.3197090000001
 21
2792.026378
 31
0.0
  0
INSERT
  5
7E99
  8
3
  6
CONTINUOUS
 62
     0
  2
_OPEN
 10
1364.3197090000001
 20
3428.026378
 30
0.0
 41
60.0
 42
60.0
 43
60.0
 50
90.0
  0
INSERT
  5
7E9A
  8
3
  6
CONTINUOUS
 62
     0
  2
_OPEN
 10
1364.3197090000001
 20
2732.026378
 30
0.0
 41
60.0
 42
60.0
 43
60.0
 50
270.0
  0
TEXT
  8
3
  40
90
  5
7F1C
  62
0
  72
0
  71
0
 10
1109.32
 20
2907.40
 30
0.000000
  1
696
  0
POINT
  5
7E9C
  8
DEFPOINTS
  6
CONTINUOUS
 62
     0
 10
1577.469398
 20
3428.026378
 30
0.0
  0
POINT
  5
7E9D
  8
DEFPOINTS
  6
CONTINUOUS
 62
     0
 10
1692.3546809999989
 20
2732.026378
 30
0.0
  0
POINT
  5
7E9E
  8
DEFPOINTS
  6
CONTINUOUS
 62
     0
 10
1364.3197090000001
 20
2732.026378
 30
0.0
  0
ENDBLK
  5
7B87
  8
0
  0
BLOCK
  8
0
  2
*D3
 70
     1
 10
0.0
 20
0.0
 30
0.0
  3
*D3
  1

  0
LINE
  5
7E9F
  8
3
  6
CONTINUOUS
 62
     0
 10
1562.469398
 20
3428.026378
 30
0.0
 11
1145.3166470000001
 21
3428.026378
 31
0.0
  0
LINE
  5
7EA0
  8
3
  6
CONTINUOUS
 62
     0
 10
1742.3546809999989
 20
2538.026378
 30
0.0
 11
1145.3166470000001
 21
2538.026378
 31
0.0
  0
LINE
  5
7EA1
  8
3
  6
CONTINUOUS
 62
     0
 10
1175.3166470000001
 20
3368.026378
 30
0.0
 11
1175.3166470000001
 21
2598.026378
 31
0.0
  0
INSERT
  5
7EA2
  8
3
  6
CONTINUOUS
 62
     0
  2
_OPEN
 10
1175.3166470000001
 20
3428.026378
 30
0.0
 41
60.0
 42
60.0
 43
60.0
 50
90.0
  0
INSERT
  5
7EA3
  8
3
  6
CONTINUOUS
 62
     0
  2
_OPEN
 10
1175.3166470000001
 20
2538.026378
 30
0.0
 41
60.0
 42
60.0
 43
60.0
 50
270.0
  0
TEXT
  8
3
  40
90
  5
7F1D
  62
0
  72
0
  71
0
 10
920.317
 20
2823.73
 30
0.000000
  1
890
  0
POINT
  5
7EA5
  8
DEFPOINTS
  6
CONTINUOUS
 62
     0
 10
1577.469398
 20
3428.026378
 30
0.0
  0
POINT
  5
7EA6
  8
DEFPOINTS
  6
CONTINUOUS
 62
     0
 10
1757.3546809999989
 20
2538.026378
 30
0.0
  0
POINT
  5
7EA7
  8
DEFPOINTS
  6
CONTINUOUS
 62
     0
 10
1175.3166470000001
 20
2538.026378
 30
0.0
  0
ENDBLK
  5
7D3A
  8
0
  0
BLOCK
  8
0
  2
*D4
 70
     1
 10
0.0
 20
0.0
 30
0.0
  3
*D4
  1

  0
LINE
  5
7EA8
  8
3
  6
CONTINUOUS
 62
     0
 10
1757.3546809999989
 20
2523.026378
 30
0.0
 11
1757.3546809999989
 21
2250.8650699999998
 31
0.0
  0
LINE
  5
7EA9
  8
3
  6
CONTINUOUS
 62
     0
 10
2227.3546809999998
 20
2321.998818
 30
0.0
 11
2227.3546809999998
 21
2250.8650699999998
 31
0.0
  0
LINE
  5
7EAA
  8
3
  6
CONTINUOUS
 62
     0
 10
1817.3546809999989
 20
2280.8650699999989
 30
0.0
 11
2167.3546809999989
 21
2280.8650699999989
 31
0.0
  0
INSERT
  5
7EAB
  8
3
  6
CONTINUOUS
 62
     0
  2
_OPEN
 10
1757.3546809999989
 20
2280.8650699999989
 30
0.0
 41
60.0
 42
60.0
 43
60.0
 50
180.0
  0
INSERT
  5
7EAC
  8
3
  6
CONTINUOUS
 62
     0
  2
_OPEN
 10
2227.3546809999998
 20
2280.8650699999989
 30
0.0
 41
60.0
 42
60.0
 43
60.0
  0
TEXT
  8
3
  40
90
  5
7F1E
  62
0
  72
0
  71
0
 10
1783.07
 20
2196.57
 30
0.000000
  1
470
  0
POINT
  5
7EAE
  8
DEFPOINTS
  6
CONTINUOUS
 62
     0
 10
1757.3546809999989
 20
2538.026378
 30
0.0
  0
POINT
  5
7EAF
  8
DEFPOINTS
  6
CONTINUOUS
 62
     0
 10
2227.3546809999998
 20
2336.998818
 30
0.0
  0
POINT
  5
7EB0
  8
DEFPOINTS
  6
CONTINUOUS
 62
     0
 10
2227.3546809999998
 20
2280.8650699999989
 30
0.0
  0
ENDBLK
  5
7CC8
  8
0
  0
BLOCK
  8
0
  2
*D5
 70
     1
 10
0.0
 20
0.0
 30
0.0
  3
*D5
  1

  0
LINE
  5
7EB1
  8
3
  6
CONTINUOUS
 62
     0
 10
3257.3546809999989
 20
2523.026378
 30
0.0
 11
3257.3546809999989
 21
2250.8650699999998
 31
0.0
  0
LINE
  5
7EB2
  8
3
  6
CONTINUOUS
 62
     0
 10
2287.3546809999989
 20
2280.8650699999989
 30
0.0
 11
3197.3546809999998
 21
2280.8650699999989
 31
0.0
  0
INSERT
  5
7EB3
  8
3
  6
CONTINUOUS
 62
     0
  2
_OPEN
 10
2227.3546809999998
 20
2280.8650699999989
 30
0.0
 41
60.0
 42
60.0
 43
60.0
 50
180.0
  0
INSERT
  5
7EB4
  8
3
  6
CONTINUOUS
 62
     0
  2
_OPEN
 10
3257.3546809999989
 20
2280.8650699999989
 30
0.0
 41
60.0
 42
60.0
 43
60.0
  0
TEXT
  8
3
  40
90
  5
7F1F
  62
0
  72
0
  71
0
 10
2562.35
 20
2196.57
 30
0.000000
  1
1030
  0
POINT
  5
7EB6
  8
DEFPOINTS
  6
CONTINUOUS
 62
     0
 10
2227.3546809999998
 20
2336.998818
 30
0.0
  0
POINT
  5
7EB7
  8
DEFPOINTS
  6
CONTINUOUS
 62
     0
 10
3257.3546809999989
 20
2538.026378
 30
0.0
  0
POINT
  5
7EB8
  8
DEFPOINTS
  6
CONTINUOUS
 62
     0
 10
3257.3546809999989
 20
2280.8650699999989
 30
0.0
  0
ENDBLK
  5
7CBD
  8
0
  0
BLOCK
  8
0
  2
*D6
 70
     1
 10
0.0
 20
0.0
 30
0.0
  3
*D6
  1

  0
LINE
  5
7EB9
  8
3
  6
CONTINUOUS
 62
     0
 10
1692.3546809999989
 20
3517.026378
 30
0.0
 11
1692.3546809999989
 21
4116.5742410000003
 31
0.0
  0
LINE
  5
7EBA
  8
3
  6
CONTINUOUS
 62
     0
 10
2227.3546809999998
 20
4080.7946339999999
 30
0.0
 11
2227.3546809999998
 21
4116.5742410000003
 31
0.0
  0
LINE
  5
7EBB
  8
3
  6
CONTINUOUS
 62
     0
 10
1752.3546809999989
 20
4086.5742409999998
 30
0.0
 11
2167.3546809999989
 21
4086.5742409999998
 31
0.0
  0
INSERT
  5
7EBC
  8
3
  6
CONTINUOUS
 62
     0
  2
_OPEN
 10
1692.3546809999989
 20
4086.5742409999998
 30
0.0
 41
60.0
 42
60.0
 43
60.0
 50
180.0
  0
INSERT
  5
7EBD
  8
3
  6
CONTINUOUS
 62
     0
  2
_OPEN
 10
2227.3546809999998
 20
4086.5742409999998
 30
0.0
 41
60.0
 42
60.0
 43
60.0
  0
TEXT
  8
3
  40
90
  5
7F20
  62
0
  72
0
  71
0
 10
1795.43
 20
4002.27
 30
0.000000
  1
535
  0
POINT
  5
7EBF
  8
DEFPOINTS
  6
CONTINUOUS
 62
     0
 10
1692.3546809999989
 20
3502.026378
 30
0.0
  0
POINT
  5
7EC0
  8
DEFPOINTS
  6
CONTINUOUS
 62
     0
 10
2227.3546809999998
 20
4065.7946339999999
 30
0.0
  0
POINT
  5
7EC1
  8
DEFPOINTS
  6
CONTINUOUS
 62
     0
 10
2227.3546809999998
 20
4086.5742409999998
 30
0.0
  0
ENDBLK
  5
7BD3
  8
0
  0
BLOCK
  8
0
  2
*D7
 70
     1
 10
0.0
 20
0.0
 30
0.0
  3
*D7
  1

  0
LINE
  5
7EC2
  8
3
  6
CONTINUOUS
 62
     0
 10
4882.419688
 20
3805.026378
 30
0.0
 11
5168.0812680000008
 21
3805.0263779999991
 31
0.0
  0
LINE
  5
7EC3
  8
3
  6
CONTINUOUS
 62
     0
 10
4882.419688
 20
3051.026378
 30
0.0
 11
5168.0812680000008
 21
3051.0263779999991
 31
0.0
  0
LINE
  5
7EC4
  8
3
  6
CONTINUOUS
 62
     0
 10
5138.0812680000008
 20
3745.0263779999991
 30
0.0
 11
5138.0812680000008
 21
3111.026378
 31
0.0
  0
INSERT
  5
7EC5
  8
3
  6
CONTINUOUS
 62
     0
  2
_OPEN
 10
5138.0812680000008
 20
3805.0263779999991
 30
0.0
 41
60.0
 42
60.0
 43
60.0
 50
90.0
  0
INSERT
  5
7EC6
  8
3
  6
CONTINUOUS
 62
     0
  2
_OPEN
 10
5138.0812680000008
 20
3051.0263779999991
 30
0.0
 41
60.0
 42
60.0
 43
60.0
 50
270.0
  0
TEXT
  8
3
  40
90
  5
7F21
  62
0
  72
0
  71
0
 10
4883.08
 20
3272.54
 30
0.000000
  1
φ754
  0
POINT
  5
7EC8
  8
DEFPOINTS
  6
CONTINUOUS
 62
     0
 10
4867.419688
 20
3805.026378
 30
0.0
  0
POINT
  5
7EC9
  8
DEFPOINTS
  6
CONTINUOUS
 62
     0
 10
4867.419688
 20
3051.026378
 30
0.0
  0
POINT
  5
7ECA
  8
DEFPOINTS
  6
CONTINUOUS
 62
     0
 10
5138.0812680000008
 20
3051.0263779999991
 30
0.0
  0
ENDBLK
  5
7D88
  8
0
  0
BLOCK
  8
0
  2
*D8
 70
     1
 10
0.0
 20
0.0
 30
0.0
  3
*D8
  1

  0
LINE
  5
7D6A
  8
0
  6
BYBLOCK
 62
     0
 10
4867.419688
 20
3820.026378
 30
0.0
 11
4867.419688
 21
4185.824689
 31
0.0
  0
LINE
  5
7D6B
  8
0
  6
BYBLOCK
 62
     0
 10
4600.419688
 20
4138.8302960000001
 30
0.0
 11
4600.419688
 21
4185.824689
 31
0.0
  0
LINE
  5
7D6C
  8
0
  6
BYBLOCK
 62
     0
 10
4807.419688
 20
4155.824689
 30
0.0
 11
4660.419688
 21
4155.824689
 31
0.0
  0
TEXT
  5
7D6D
  8
3
 62
     0
 10
4638.8980725651209
 20
4198.2506705201367
 30
0.0
 40
90.0
  1
267
  0
INSERT
  5
7D6E
  8
0
  6
BYBLOCK
 62
     0
  2
_OPEN
 10
4867.419688
 20
4155.824689
 30
0.0
 41
60.0
 42
60.0
 43
60.0
  0
INSERT
  5
7D6F
  8
0
  6
BYBLOCK
 62
     0
  2
_OPEN
 10
4600.419688
 20
4155.824689
 30
0.0
 41
60.0
 42
60.0
 43
60.0
 50
180.0
  0
POINT
  5
7D70
  8
DEFPOINTS
  6
BYBLOCK
 62
     0
 10
4867.419688
 20
3805.026378
 30
0.0
  0
POINT
  5
7D71
  8
DEFPOINTS
  6
BYBLOCK
 62
     0
 10
4600.419688
 20
4123.8302960000001
 30
0.0
  0
POINT
  5
7D72
  8
DEFPOINTS
  6
BYBLOCK
 62
     0
 10
4600.419688
 20
4155.824689
 30
0.0
  0
ENDBLK
  5
7D73
  8
0
  0
BLOCK
  8
0
  2
*D9
 70
     1
 10
0.0
 20
0.0
 30
0.0
  3
*D9
  1

  0
LINE
  5
7ECB
  8
3
  6
CONTINUOUS
 62
     0
 10
4100.419688
 20
3793.026378
 30
0.0
 11
4100.419688
 21
4185.824689
 31
0.0
  0
LINE
  5
7ECC
  8
3
  6
CONTINUOUS
 62
     0
 10
4540.419688
 20
4155.824689
 30
0.0
 11
4160.419688
 21
4155.824689
 31
0.0
  0
INSERT
  5
7ECD
  8
3
  6
CONTINUOUS
 62
     0
  2
_OPEN
 10
4600.419688
 20
4155.824689
 30
0.0
 41
60.0
 42
60.0
 43
60.0
  0
INSERT
  5
7ECE
  8
3
  6
CONTINUOUS
 62
     0
  2
_OPEN
 10
4100.419688
 20
4155.824689
 30
0.0
 41
60.0
 42
60.0
 43
60.0
 50
180.0
  0
TEXT
  8
3
  40
90
  5
7F22
  62
0
  72
0
  71
0
 10
4170.42
 20
4146.52
 30
0.000000
  1
MAX
  0
TEXT
  8
3
  40
90
  5
7F23
  62
0
  72
0
  71
0
 10
4170.42
 20
4029.52
 30
0.000000
  1
560
  0
POINT
  5
7ED0
  8
DEFPOINTS
  6
CONTINUOUS
 62
     0
 10
4600.419688
 20
4123.8302960000001
 30
0.0
  0
POINT
  5
7ED1
  8
DEFPOINTS
  6
CONTINUOUS
 62
     0
 10
4100.419688
 20
3778.0263779999991
 30
0.0
  0
POINT
  5
7ED2
  8
DEFPOINTS
  6
CONTINUOUS
 62
     0
 10
4100.419688
 20
4155.824689
 30
0.0
  0
ENDBLK
  5
7D7D
  8
0
  0
BLOCK
  8
0
  2
*D10
 70
     1
 10
0.0
 20
0.0
 30
0.0
  3
*D10
  1

  0
LINE
  5
7ED3
  8
3
  6
CONTINUOUS
 62
     0
 10
4157.419688
 20
2523.026378
 30
0.0
 11
4157.419688
 21
2275.0882099999999
 31
0.0
  0
LINE
  5
7ED4
  8
3
  6
CONTINUOUS
 62
     0
 10
4600.419688
 20
2343.0841879999998
 30
0.0
 11
4600.419688
 21
2275.0882099999999
 31
0.0
  0
LINE
  5
7ED5
  8
3
  6
CONTINUOUS
 62
     0
 10
4217.419688
 20
2305.0882099999999
 30
0.0
 11
4540.419688
 21
2305.0882099999999
 31
0.0
  0
INSERT
  5
7ED6
  8
3
  6
CONTINUOUS
 62
     0
  2
_OPEN
 10
4157.419688
 20
2305.0882099999999
 30
0.0
 41
60.0
 42
60.0
 43
60.0
 50
180.0
  0
INSERT
  5
7ED7
  8
3
  6
CONTINUOUS
 62
     0
  2
_OPEN
 10
4600.419688
 20
2305.0882099999999
 30
0.0
 41
60.0
 42
60.0
 43
60.0
  0
TEXT
  8
3
  40
90
  5
7F24
  62
0
  72
0
  71
0
 10
4183.13
 20
2220.79
 30
0.000000
  1
443
  0
POINT
  5
7ED9
  8
DEFPOINTS
  6
CONTINUOUS
 62
     0
 10
4157.419688
 20
2538.026378
 30
0.0
  0
POINT
  5
7EDA
  8
DEFPOINTS
  6
CONTINUOUS
 62
     0
 10
4600.419688
 20
2358.0841879999989
 30
0.0
  0
POINT
  5
7EDB
  8
DEFPOINTS
  6
CONTINUOUS
 62
     0
 10
4600.419688
 20
2305.0882099999999
 30
0.0
  0
ENDBLK
  5
7D03
  8
0
  0
BLOCK
  8
0
  2
*D11
 70
     1
 10
0.0
 20
0.0
 30
0.0
  3
*D11
  1

  0
LINE
  5
7EDC
  8
3
  6
CONTINUOUS
 62
     0
 10
4865.419688
 20
3874.0263779999991
 30
0.0
 11
4865.419688
 21
4015.8463379999998
 31
0.0
  0
LINE
  5
7EDD
  8
3
  6
CONTINUOUS
 62
     0
 10
4335.419688
 20
3874.0263779999991
 30
0.0
 11
4335.419688
 21
4015.8463379999998
 31
0.0
  0
LINE
  5
7EDE
  8
3
  6
CONTINUOUS
 62
     0
 10
4805.419688
 20
3985.8463379999998
 30
0.0
 11
4395.419687999999
 21
3985.8463379999998
 31
0.0
  0
INSERT
  5
7EDF
  8
3
  6
CONTINUOUS
 62
     0
  2
_OPEN
 10
4865.419688
 20
3985.8463379999998
 30
0.0
 41
60.0
 42
60.0
 43
60.0
  0
INSERT
  5
7EE0
  8
3
  6
CONTINUOUS
 62
     0
  2
_OPEN
 10
4335.419688
 20
3985.8463379999998
 30
0.0
 41
60.0
 42
60.0
 43
60.0
 50
180.0
  0
TEXT
  8
3
  40
90
  5
7F25
  62
0
  72
0
  71
0
 10
4416.27
 20
3901.55
 30
0.000000
  1
530
  0
POINT
  5
7EE2
  8
DEFPOINTS
  6
CONTINUOUS
 62
     0
 10
4865.419688
 20
3859.026378
 30
0.0
  0
POINT
  5
7EE3
  8
DEFPOINTS
  6
CONTINUOUS
 62
     0
 10
4335.419688
 20
3859.026378
 30
0.0
  0
POINT
  5
7EE4
  8
DEFPOINTS
  6
CONTINUOUS
 62
     0
 10
4335.419688
 20
3985.8463379999998
 30
0.0
  0
ENDBLK
  5
7C6F
  8
0
  0
BLOCK
  8
0
  2
*D12
 70
     1
 10
0.0
 20
0.0
 30
0.0
  3
*D12
  1

  0
LINE
  5
7EE5
  8
3
  6
CONTINUOUS
 62
     0
 10
4917.419688
 20
2523.026378
 30
0.0
 11
4917.419688
 21
2275.0882099999999
 31
0.0
  0
LINE
  5
7EE6
  8
3
  6
CONTINUOUS
 62
     0
 10
4660.419688
 20
2305.0882099999999
 30
0.0
 11
4857.419688
 21
2305.0882099999999
 31
0.0
  0
TEXT
  8
3
  40
90
  5
7F26
  62
0
  72
0
  71
0
 10
4586.62
 20
2220.96
 30
0.000000
  1
317
  0
INSERT
  5
7EE8
  8
3
  6
CONTINUOUS
 62
     0
  2
_OPEN
 10
4600.419688
 20
2305.0882099999999
 30
0.0
 41
60.0
 42
60.0
 43
60.0
 50
180.0
  0
INSERT
  5
7EE9
  8
3
  6
CONTINUOUS
 62
     0
  2
_OPEN
 10
4917.419688
 20
2305.0882099999999
 30
0.0
 41
60.0
 42
60.0
 43
60.0
  0
POINT
  5
7EEA
  8
DEFPOINTS
  6
CONTINUOUS
 62
     0
 10
4600.419688
 20
2358.0841879999989
 30
0.0
  0
POINT
  5
7EEB
  8
DEFPOINTS
  6
CONTINUOUS
 62
     0
 10
4917.419688
 20
2538.026378
 30
0.0
  0
POINT
  5
7EEC
  8
DEFPOINTS
  6
CONTINUOUS
 62
     0
 10
4917.419688
 20
2305.0882099999999
 30
0.0
  0
ENDBLK
  5
7D25
  8
0
  0
BLOCK
  8
0
  2
*D13
 70
     1
 10
0.0
 20
0.0
 30
0.0
  3
*D13
  1

  0
LINE
  5
7EED
  8
3
  6
CONTINUOUS
 62
     0
 10
1757.3546809999989
 20
6114.6157890000013
 30
0.0
 11
1757.3546809999989
 21
6345.2929459999996
 31
0.0
  0
LINE
  5
7EEE
  8
3
  6
CONTINUOUS
 62
     0
 10
3257.3546809999989
 20
6114.6157890000013
 30
0.0
 11
3257.3546809999989
 21
6345.2929459999996
 31
0.0
  0
LINE
  5
7EEF
  8
3
  6
CONTINUOUS
 62
     0
 10
1817.3546809999989
 20
6315.2929459999996
 30
0.0
 11
3197.3546809999998
 21
6315.2929459999996
 31
0.0
  0
INSERT
  5
7EF0
  8
3
  6
CONTINUOUS
 62
     0
  2
_OPEN
 10
1757.3546809999989
 20
6315.2929459999996
 30
0.0
 41
60.0
 42
60.0
 43
60.0
 50
180.0
  0
INSERT
  5
7EF1
  8
3
  6
CONTINUOUS
 62
     0
  2
_OPEN
 10
3257.3546809999989
 20
6315.2929459999996
 30
0.0
 41
60.0
 42
60.0
 43
60.0
  0
TEXT
  8
3
  40
90
  5
7F27
  62
0
  72
0
  71
0
 10
2299.44
 20
6230.99
 30
0.000000
  1
1500
  0
POINT
  5
7EF3
  8
DEFPOINTS
  6
CONTINUOUS
 62
     0
 10
1757.3546809999989
 20
6099.6157890000013
 30
0.0
  0
POINT
  5
7EF4
  8
DEFPOINTS
  6
CONTINUOUS
 62
     0
 10
3257.3546809999989
 20
6099.6157890000013
 30
0.0
  0
POINT
  5
7EF5
  8
DEFPOINTS
  6
CONTINUOUS
 62
     0
 10
3257.3546809999989
 20
6315.2929459999996
 30
0.0
  0
ENDBLK
  5
7CF8
  8
0
  0
BLOCK
  8
0
  2
*D14
 70
     1
 10
0.0
 20
0.0
 30
0.0
  3
*D14
  1

  0
LINE
  5
7EF6
  8
3
  6
CONTINUOUS
 62
     0
 10
3272.3546809999998
 20
6099.6157890000013
 30
0.0
 11
3530.0545740000011
 21
6099.6157890000013
 31
0.0
  0
LINE
  5
7EF7
  8
3
  6
CONTINUOUS
 62
     0
 10
3272.3546809999998
 20
5339.6157890000004
 30
0.0
 11
3530.0545740000011
 21
5339.6157890000004
 31
0.0
  0
LINE
  5
7EF8
  8
3
  6
CONTINUOUS
 62
     0
 10
3500.0545740000011
 20
6039.6157890000004
 30
0.0
 11
3500.0545740000011
 21
5399.6157890000013
 31
0.0
  0
INSERT
  5
7EF9
  8
3
  6
CONTINUOUS
 62
     0
  2
_OPEN
 10
3500.0545740000011
 20
6099.6157890000013
 30
0.0
 41
60.0
 42
60.0
 43
60.0
 50
90.0
  0
INSERT
  5
7EFA
  8
3
  6
CONTINUOUS
 62
     0
  2
_OPEN
 10
3500.0545740000011
 20
5339.6157890000004
 30
0.0
 41
60.0
 42
60.0
 43
60.0
 50
270.0
  0
TEXT
  8
3
  40
90
  5
7F28
  62
0
  72
0
  71
0
 10
3245.05
 20
5590.50
 30
0.000000
  1
760
  0
POINT
  5
7EFC
  8
DEFPOINTS
  6
CONTINUOUS
 62
     0
 10
3257.3546809999989
 20
6099.6157890000013
 30
0.0
  0
POINT
  5
7EFD
  8
DEFPOINTS
  6
CONTINUOUS
 62
     0
 10
3257.3546809999989
 20
5339.6157890000004
 30
0.0
  0
POINT
  5
7EFE
  8
DEFPOINTS
  6
CONTINUOUS
 62
     0
 10
3500.0545740000011
 20
5339.6157890000004
 30
0.0
  0
ENDBLK
  5
7CAD
  8
0
  0
BLOCK
  8
0
  2
*D15
 70
     1
 10
0.0
 20
0.0
 30
0.0
  3
*D15
  1

  0
LINE
  5
7EFF
  8
3
  6
CONTINUOUS
 62
     0
 10
2212.3546809999989
 20
3936.0077825285271
 30
0.0
 11
1145.3166470000001
 21
3936.0077825285271
 31
0.0
  0
LINE
  5
7F00
  8
3
  6
CONTINUOUS
 62
     0
 10
1175.316646999999
 20
3488.026378
 30
0.0
 11
1175.3166470000001
 21
3876.0077825285271
 31
0.0
  0
INSERT
  5
7F01
  8
3
  6
CONTINUOUS
 62
     0
  2
_OPEN
 10
1175.316646999999
 20
3428.026378
 30
0.0
 41
60.0
 42
60.0
 43
60.0
 50
270.0
  0
INSERT
  5
7F02
  8
3
  6
CONTINUOUS
 62
     0
  2
_OPEN
 10
1175.3166470000001
 20
3936.0077825285271
 30
0.0
 41
60.0
 42
60.0
 43
60.0
 50
90.0
  0
TEXT
  8
3
  40
90
  5
7F29
  62
0
  72
0
  71
0
 10
920.317
 20
3522.72
 30
0.000000
  1
508
  0
POINT
  5
7F04
  8
DEFPOINTS
  6
CONTINUOUS
 62
     0
 10
1577.469398
 20
3428.026378
 30
0.0
  0
POINT
  5
7F05
  8
DEFPOINTS
  6
CONTINUOUS
 62
     0
 10
2227.3546809999998
 20
3936.0077825285271
 30
0.0
  0
POINT
  5
7F06
  8
DEFPOINTS
  6
CONTINUOUS
 62
     0
 10
1175.3166470000001
 20
3936.0077825285271
 30
0.0
  0
ENDBLK
  5
7D50
  8
0
  0
BLOCK
  8
0
  2
*D16
 70
     1
 10
0.0
 20
0.0
 30
0.0
  3
*D16
  1

  0
LINE
  5
7F07
  8
3
  6
CONTINUOUS
 62
     0
 10
2813.352206999999
 20
3443.026378
 30
0.0
 11
2813.352206999999
 21
4116.5742410000003
 31
0.0
  0
LINE
  5
7F08
  8
3
  6
CONTINUOUS
 62
     0
 10
2287.3546809999989
 20
4086.5742409999998
 30
0.0
 11
2753.3522069999999
 21
4086.5742409999998
 31
0.0
  0
INSERT
  5
7F09
  8
3
  6
CONTINUOUS
 62
     0
  2
_OPEN
 10
2227.3546809999998
 20
4086.5742409999998
 30
0.0
 41
60.0
 42
60.0
 43
60.0
 50
180.0
  0
INSERT
  5
7F0A
  8
3
  6
CONTINUOUS
 62
     0
  2
_OPEN
 10
2813.352206999999
 20
4086.5742409999998
 30
0.0
 41
60.0
 42
60.0
 43
60.0
  0
TEXT
  8
3
  40
90
  5
7F2A
  62
0
  72
0
  71
0
 10
2340.35
 20
4002.27
 30
0.000000
  1
586
  0
POINT
  5
7F0C
  8
DEFPOINTS
  6
CONTINUOUS
 62
     0
 10
2227.3546809999998
 20
4065.7946339999999
 30
0.0
  0
POINT
  5
7F0D
  8
DEFPOINTS
  6
CONTINUOUS
 62
     0
 10
2813.352206999999
 20
3428.026378
 30
0.0
  0
POINT
  5
7F0E
  8
DEFPOINTS
  6
CONTINUOUS
 62
     0
 10
2813.352206999999
 20
4086.5742409999998
 30
0.0
  0
ENDBLK
  5
7CDF
  8
0
  0
BLOCK
  8
0
  2
*D17
 70
     1
 10
0.0
 20
0.0
 30
0.0
  3
*D17
  1

  0
LINE
  5
7F0F
  8
3
 62
     0
 10
1692.3546809999989
 20
3517.026378
 30
0.0
 11
1692.3546809999989
 21
4317.4103282008209
 31
0.0
  0
LINE
  5
7F10
  8
3
 62
     0
 10
3257.3546809999989
 20
2653.026378
 30
0.0
 11
3257.3546809999989
 21
4317.4103282008209
 31
0.0
  0
LINE
  5
7F11
  8
3
 62
     0
 10
1752.3546809999989
 20
4287.4103282008218
 30
0.0
 11
3197.3546809999998
 21
4287.4103282008218
 31
0.0
  0
INSERT
  5
7F12
  8
3
 62
     0
  2
_OPEN
 10
1692.3546809999989
 20
4287.4103282008218
 30
0.0
 41
60.0
 42
60.0
 43
60.0
 50
180.0
  0
INSERT
  5
7F13
  8
3
 62
     0
  2
_OPEN
 10
3257.3546809999989
 20
4287.4103282008218
 30
0.0
 41
60.0
 42
60.0
 43
60.0
  0
TEXT
  8
3
  40
90
  5
7F2B
  62
0
  72
0
  71
0
 10
2289.04
 20
4203.11
 30
0.000000
  1
1565
  0
POINT
  5
7F15
  8
DEFPOINTS
 62
     0
 10
1692.3546809999989
 20
3502.026378
 30
0.0
  0
POINT
  5
7F16
  8
DEFPOINTS
 62
     0
 10
3257.3546809999989
 20
2638.026378
 30
0.0
  0
POINT
  5
7F17
  8
DEFPOINTS
 62
     0
 10
3257.3546809999989
 20
4287.4103282008218
 30
0.0
  0
ENDBLK
  5
7D5C
  8
0
  0
BLOCK
  8
0
  2
_DOT
 70
     0
 10
0.0
 20
0.0
 30
0.0
  3
_DOT
  1

  0
POLYLINE
  5
7E65
  8
0
  6
BYBLOCK
 62
     0
 66
     1
 10
0.0
 20
0.0
 30
0.0
 70
     1
 40
0.5
 41
0.5
  0
VERTEX
  5
7F18
  8
0
  6
BYBLOCK
 62
     0
 10
-0.25
 20
0.0
 30
0.0
 42
1.0
  0
VERTEX
  5
7F19
  8
0
  6
BYBLOCK
 62
     0
 10
0.25
 20
0.0
 30
0.0
 42
1.0
  0
SEQEND
  5
7F1A
  8
0
  6
BYBLOCK
 62
     0
  0
LINE
  5
7E66
  8
0
  6
BYBLOCK
 62
     0
 10
-0.5
 20
0.0
 30
0.0
 11
-1.0
 21
0.0
 31
0.0
  0
ENDBLK
  5
7E68
  8
0
  0
ENDSEC
  0
SECTION
  2
ENTITIES
  0
ARC
  5
7AA0
  8
1
  6
CONTINUOUS
 10
2180.3546809999989
 20
3381.026378
 30
0.0
 40
634.74000000000001
 50
274.25
 51
5.3099999999999987
  0
LINE
  5
7AA1
  8
1
  6
CONTINUOUS
 10
1857.354681
 20
2638.026378
 30
0.0
 11
1857.354681
 21
3778.0263779999991
 31
0.0
  0
CIRCLE
  5
7AA2
  8
1
  6
CONTINUOUS
 10
2227.3546809999998
 20
3428.026378
 30
0.0
 40
150.0
  0
LINE
  5
7AA3
  8
1
  6
CONTINUOUS
 10
2377.3546809999989
 20
3778.0263779999991
 30
0.0
 11
3217.3546809999989
 21
2938.0263779999991
 31
0.0
  0
LINE
  5
7AA4
  8
1
  6
CONTINUOUS
 10
1722.3546809999989
 20
3462.026378
 30
0.0
 11
1722.3546809999989
 21
2732.9263780000001
 31
0.0
  0
LINE
  5
7AA5
  8
1
  6
CONTINUOUS
 10
1692.3546809999989
 20
3502.026378
 30
0.0
 11
1692.3546809999989
 21
2692.0263779999991
 31
0.0
  0
LINE
  5
7AA6
  8
2
  6
CENTER
 10
2227.3546809999998
 20
6298.5010979999997
 30
0.0
 11
2227.3546809999998
 21
5163.2159190000002
 31
0.0
  0
LINE
  5
7AAA
  8
1
  6
CONTINUOUS
 10
3090.2746809999999
 20
2899.2863779999998
 30
0.0
 11
2323.8146809999989
 21
3542.8963779999999
 31
0.0
  0
LINE
  5
7AAB
  8
1
  6
CONTINUOUS
 10
1692.3546809999989
 20
2732.026378
 30
0.0
 11
2227.3546809999998
 21
2748.026378
 31
0.0
  0
LINE
  5
7AAC
  8
1
  6
CONTINUOUS
 10
1757.3546809999989
 20
2638.0263779999991
 30
0.0
 11
3257.3546809999989
 21
2638.026378
 31
0.0
  0
LINE
  5
7AAD
  8
1
  6
CONTINUOUS
 10
1757.3546809999989
 20
2538.026378
 30
0.0
 11
3257.3546809999989
 21
2538.026378
 31
0.0
  0
LINE
  5
7AAE
  8
1
  6
CONTINUOUS
 10
1757.3546809999989
 20
2638.026378
 30
0.0
 11
1757.3546809999989
 21
2538.026378
 31
0.0
  0
LINE
  5
7AAF
  8
2
  6
CENTER
 10
3118.8346809999998
 20
2838.026378
 30
0.0
 11
2958.8346809999989
 21
2838.026378
 31
0.0
  0
ARC
  5
7AB0
  8
1
  6
CONTINUOUS
 10
3038.8346809999989
 20
2838.026378
 30
0.0
 40
162.0
 50
324.97000000000003
 51
215.02999999999989
  0
CIRCLE
  5
7AB1
  8
1
  6
CONTINUOUS
 10
3038.8346809999989
 20
2838.026378
 30
0.0
 40
80.0
  0
LINE
  5
7AB2
  8
1
  6
CONTINUOUS
 10
2884.8346809999998
 20
2696.026378
 30
0.0
 11
2906.1746809999991
 21
2745.0363779999998
 31
0.0
  0
LINE
  5
7AB3
  8
1
  6
CONTINUOUS
 10
2884.8346809999998
 20
2638.026378
 30
0.0
 11
2884.8346809999998
 21
2696.026378
 31
0.0
  0
LINE
  5
7AB4
  8
1
  6
CONTINUOUS
 10
2996.4146810000002
 20
2770.1963780000001
 30
0.0
 11
2147.8246810000001
 21
3300.8463780000002
 31
0.0
  0
LINE
  5
7AB5
  8
2
  6
CENTER
 10
3038.8346809999989
 20
2758.026378
 30
0.0
 11
3038.8346809999989
 21
2918.026378
 31
0.0
  0
LINE
  5
7AB6
  8
1
  6
CONTINUOUS
 10
3192.8346809999989
 20
2638.026378
 30
0.0
 11
3192.8346809999989
 21
2696.026378
 31
0.0
  0
LINE
  5
7AB7
  8
1
  6
CONTINUOUS
 10
3192.8346809999989
 20
2696.026378
 30
0.0
 11
3171.4846809999999
 21
2745.0363779999998
 31
0.0
  0
LINE
  5
7AB8
  8
1
  6
CONTINUOUS
 10
3217.3546809999989
 20
2638.026378
 30
0.0
 11
3217.3546809999989
 21
2938.0263779999991
 31
0.0
  0
LINE
  5
7AB9
  8
1
  6
CONTINUOUS
 10
3257.3546809999989
 20
2638.026378
 30
0.0
 11
3257.3546809999989
 21
2538.026378
 31
0.0
  0
LINE
  5
7ABA
  8
1
  6
CONTINUOUS
 10
1757.3546809999989
 20
6099.6157890000013
 30
0.0
 11
3257.3546809999989
 21
6099.6157890000013
 31
0.0
  0
ARC
  5
7ABB
  8
1
  6
CONTINUOUS
 10
2257.3546809999998
 20
3458.026378
 30
0.0
 40
478.79000000000002
 50
97.430000000000021
 51
179.52000000000001
  0
LINE
  5
7ABC
  8
1
  6
CONTINUOUS
 10
1857.354681
 20
3778.0263779999991
 30
0.0
 11
2377.3546809999989
 21
3778.0263779999991
 31
0.0
  0
LINE
  5
7ABD
  8
1
  6
CONTINUOUS
 10
1757.3546809999989
 20
5339.6157890000004
 30
0.0
 11
2077.3546809999998
 21
5339.6157890000004
 31
0.0
  0
LINE
  5
7ABE
  8
1
  6
CONTINUOUS
 10
1692.3546809999989
 20
5517.6157890000004
 30
0.0
 11
2815.094681
 21
5517.6157890000004
 31
0.0
  0
LINE
  5
7ABF
  8
1
  6
CONTINUOUS
 10
1692.3546809999989
 20
6047.6157890000004
 30
0.0
 11
2815.094681
 21
6047.6157890000004
 31
0.0
  0
LINE
  5
7AC0
  8
1
  6
CONTINUOUS
 10
1857.354681
 20
5282.6157890000013
 30
0.0
 11
3217.3546809999989
 21
5282.6157890000013
 31
0.0
  0
LINE
  5
7AC1
  8
1
  6
CONTINUOUS
 10
1857.354681
 20
5422.6157890000004
 30
0.0
 11
3217.3546809999989
 21
5422.6157890000004
 31
0.0
  0
LINE
  5
7AC3
  8
1
  6
CONTINUOUS
 10
1757.3546809999989
 20
5517.6157890000004
 30
0.0
 11
1757.3546809999989
 21
5339.6157890000004
 31
0.0
  0
LINE
  5
7AC4
  8
1
  6
CONTINUOUS
 10
1857.354681
 20
5282.6157890000013
 30
0.0
 11
1857.354681
 21
5422.6157890000004
 31
0.0
  0
LINE
  5
7AC5
  8
1
  6
CONTINUOUS
 10
1778.5846809999989
 20
3462.026378
 30
0.0
 11
1692.3546809999989
 21
3462.026378
 31
0.0
  0
LINE
  5
7AC6
  8
1
  6
CONTINUOUS
 10
1757.3546809999989
 20
6099.6157890000013
 30
0.0
 11
1757.3546809999989
 21
6047.6157890000004
 31
0.0
  0
LINE
  5
7AC7
  8
1
  6
CONTINUOUS
 10
1692.3546809999989
 20
6087.6157890000004
 30
0.0
 11
1692.3546809999989
 21
5477.6157890000013
 31
0.0
  0
LINE
  5
7AC8
  8
1
  6
CONTINUOUS
 10
3017.8346809999998
 20
5392.6157890000004
 30
0.0
 11
3017.8346809999998
 21
5478.6257889999997
 31
0.0
  0
LINE
  5
7AC9
  8
1
  6
CONTINUOUS
 10
3059.8346809999989
 20
5392.6157890000004
 30
0.0
 11
3059.8346809999989
 21
5478.6257889999997
 31
0.0
  0
LINE
  5
7ACA
  8
1
  6
CONTINUOUS
 10
3257.3546809999989
 20
6099.6157890000013
 30
0.0
 11
3257.3546809999989
 21
5339.6157890000004
 31
0.0
  0
LINE
  5
7ACB
  8
1
  6
CONTINUOUS
 10
3217.3546809999989
 20
5282.6157890000013
 30
0.0
 11
3217.3546809999989
 21
5422.6157890000004
 31
0.0
  0
LINE
  5
7ACC
  8
1
  6
CONTINUOUS
 10
2248.3546809999989
 20
5392.6157890000004
 30
0.0
 11
2248.3546809999989
 21
5517.6157890000004
 31
0.0
  0
LINE
  5
7ACD
  8
1
  6
CONTINUOUS
 10
2206.3546809999998
 20
5392.6157890000004
 30
0.0
 11
2206.3546809999998
 21
5517.6157890000004
 31
0.0
  0
LINE
  5
7ACE
  8
1
  6
CONTINUOUS
 10
2958.8346809999989
 20
5312.6157890000004
 30
0.0
 11
3118.8346809999998
 21
5312.6157890000004
 31
0.0
  0
LINE
  5
7ACF
  8
1
  6
CONTINUOUS
 10
2958.8346809999989
 20
5392.6157890000004
 30
0.0
 11
3118.8346809999998
 21
5392.6157890000004
 31
0.0
  0
LINE
  5
7AD0
  8
1
  6
CONTINUOUS
 10
2377.3546809999989
 20
5339.6157890000004
 30
0.0
 11
2958.8346809999989
 21
5339.6157890000004
 31
0.0
  0
ARC
  5
7AD1
  8
1
  6
CONTINUOUS
 10
2266.3546809999998
 20
3389.026378
 30
0.0
 40
548.36999999999989
 50
5.3099999999999987
 51
97.430000000000021
  0
LINE
  5
7AD2
  8
1
  6
CONTINUOUS
 10
2958.8346809999989
 20
5312.6157890000004
 30
0.0
 11
2958.8346809999989
 21
5392.6157890000004
 31
0.0
  0
LINE
  5
7AD3
  8
1
  6
CONTINUOUS
 10
2377.3546809999989
 20
5312.6157890000004
 30
0.0
 11
2377.3546809999989
 21
5392.6157890000004
 31
0.0
  0
LINE
  5
7AD4
  8
1
  6
CONTINUOUS
 10
2077.3546809999998
 20
5312.6157890000004
 30
0.0
 11
2077.3546809999998
 21
5392.6157890000004
 31
0.0
  0
LINE
  5
7AD5
  8
1
  6
CONTINUOUS
 10
2077.3546809999998
 20
5312.6157890000004
 30
0.0
 11
2377.3546809999989
 21
5312.6157890000004
 31
0.0
  0
LINE
  5
7AD6
  8
1
  6
CONTINUOUS
 10
2077.3546809999998
 20
5392.6157890000004
 30
0.0
 11
2377.3546809999989
 21
5392.6157890000004
 31
0.0
  0
LINE
  5
7AD7
  8
2
  6
CENTER
 10
1577.469398
 20
3428.026378
 30
0.0
 11
2997.721368
 21
3428.026378
 31
0.0
  0
LINE
  5
7AD8
  8
1
  6
CONTINUOUS
 10
3118.8346809999998
 20
5339.6157890000004
 30
0.0
 11
3257.3546809999989
 21
5339.6157890000004
 31
0.0
  0
LINE
  5
7AD9
  8
1
  6
CONTINUOUS
 10
3118.8346809999998
 20
5312.6157890000004
 30
0.0
 11
3118.8346809999998
 21
5392.6157890000004
 31
0.0
  0
LINE
  5
7ADA
  8
1
  6
CONTINUOUS
 10
3205.8146809999989
 20
5934.5657890000002
 30
0.0
 11
2876.8346809999998
 21
5934.5657890000002
 31
0.0
  0
LINE
  5
7ADB
  8
1
  6
CONTINUOUS
 10
3205.8146809999989
 20
5478.6257889999997
 30
0.0
 11
2876.8346809999998
 21
5478.6257889999997
 31
0.0
  0
LINE
  5
7ADC
  8
1
  6
CONTINUOUS
 10
2876.8346809999998
 20
5478.6257889999997
 30
0.0
 11
2876.8346809999998
 21
5934.5657890000002
 31
0.0
  0
LINE
  5
7ADD
  8
1
  6
CONTINUOUS
 10
2815.094681
 20
6047.6157890000004
 30
0.0
 11
2815.094681
 21
5517.6157890000004
 31
0.0
  0
LINE
  5
7ADE
  8
1
  6
CONTINUOUS
 10
3205.8146809999989
 20
5478.6257889999997
 30
0.0
 11
3205.8146809999989
 21
5934.5657890000002
 31
0.0
  0
LINE
  5
7AE7
  8
1
  6
CONTINUOUS
 10
4130.419687999999
 20
3278.0263779999991
 30
0.0
 11
4130.419687999999
 21
3578.026378
 31
0.0
  0
LINE
  5
7AE8
  8
1
  6
CONTINUOUS
 10
4210.419688
 20
3278.0263779999991
 30
0.0
 11
4210.419688
 21
3578.026378
 31
0.0
  0
LINE
  5
7AE9
  8
1
  6
CONTINUOUS
 10
4240.419688
 20
3778.0263779999991
 30
0.0
 11
4240.419688
 21
2638.026378
 31
0.0
  0
LINE
  5
7AEA
  8
1
  6
CONTINUOUS
 10
4100.419688
 20
3778.0263779999991
 30
0.0
 11
4100.419688
 21
2638.026378
 31
0.0
  0
LINE
  5
7AEB
  8
1
  6
CONTINUOUS
 10
4335.419688
 20
3462.026378
 30
0.0
 11
4865.419688
 21
2732.026378
 31
0.0
  0
LINE
  5
7AEC
  8
1
  6
CONTINUOUS
 10
4865.419688
 20
3462.026378
 30
0.0
 11
4335.419688
 21
2732.026378
 31
0.0
  0
LINE
  5
7AED
  8
1
  6
CONTINUOUS
 10
4865.419688
 20
3859.026378
 30
0.0
 11
4865.419688
 21
2638.026378
 31
0.0
  0
LINE
  5
7AEE
  8
1
  6
CONTINUOUS
 10
4335.419688
 20
3859.026378
 30
0.0
 11
4335.419688
 21
2638.026378
 31
0.0
  0
LINE
  5
7B02
  8
1
  6
CONTINUOUS
 10
4917.419688
 20
2638.026378
 30
0.0
 11
4100.419688
 21
2638.026378
 31
0.0
  0
LINE
  5
7B03
  8
1
  6
CONTINUOUS
 10
4917.419688
 20
2538.026378
 30
0.0
 11
4157.419688
 21
2538.026378
 31
0.0
  0
LINE
  5
7B04
  8
1
  6
CONTINUOUS
 10
4335.419688
 20
2732.026378
 30
0.0
 11
4865.419688
 21
2732.026378
 31
0.0
  0
LINE
  5
7B05
  8
1
  6
CONTINUOUS
 10
4210.419688
 20
2777.026378
 30
0.0
 11
4335.419688
 21
2777.026378
 31
0.0
  0
LINE
  5
7B06
  8
1
  6
CONTINUOUS
 10
4210.419688
 20
2819.026378
 30
0.0
 11
4335.419688
 21
2819.026378
 31
0.0
  0
LINE
  5
7B07
  8
1
  6
CONTINUOUS
 10
4130.419687999999
 20
2878.026378
 30
0.0
 11
4210.419688
 21
2878.026378
 31
0.0
  0
LINE
  5
7B08
  8
1
  6
CONTINUOUS
 10
4130.419687999999
 20
2718.026378
 30
0.0
 11
4210.419688
 21
2718.026378
 31
0.0
  0
LINE
  5
7B09
  8
1
  6
CONTINUOUS
 10
4130.419687999999
 20
3278.0263779999991
 30
0.0
 11
4210.419688
 21
3278.0263779999991
 31
0.0
  0
LINE
  5
7B0A
  8
1
  6
CONTINUOUS
 10
4130.419687999999
 20
2718.026378
 30
0.0
 11
4130.419687999999
 21
2878.026378
 31
0.0
  0
LINE
  5
7B0B
  8
1
  6
CONTINUOUS
 10
4210.419688
 20
2718.026378
 30
0.0
 11
4210.419688
 21
2878.026378
 31
0.0
  0
LINE
  5
7B0C
  8
1
  6
CONTINUOUS
 10
4157.419688
 20
2638.026378
 30
0.0
 11
4157.419688
 21
2538.026378
 31
0.0
  0
LINE
  5
7B0D
  8
1
  6
CONTINUOUS
 10
4917.419688
 20
2638.026378
 30
0.0
 11
4917.419688
 21
2538.026378
 31
0.0
  0
LINE
  5
7B33
  8
1
  6
CONTINUOUS
 10
4335.419688
 20
3859.026378
 30
0.0
 11
4865.419688
 21
3859.026378
 31
0.0
  0
LINE
  5
7B34
  8
1
  6
CONTINUOUS
 10
4335.419688
 20
3462.026378
 30
0.0
 11
4865.419688
 21
3462.026378
 31
0.0
  0
LINE
  5
7B35
  8
1
  6
CONTINUOUS
 10
4210.419688
 20
3449.026378
 30
0.0
 11
4335.419688
 21
3449.026378
 31
0.0
  0
LINE
  5
7B36
  8
1
  6
CONTINUOUS
 10
4210.419688
 20
3407.0263779999991
 30
0.0
 11
4335.419688
 21
3407.0263779999991
 31
0.0
  0
LINE
  5
7B37
  8
1
  6
CONTINUOUS
 10
4130.419687999999
 20
3578.026378
 30
0.0
 11
4210.419688
 21
3578.026378
 31
0.0
  0
LINE
  5
7B38
  8
1
  6
CONTINUOUS
 10
4240.419688
 20
3778.0263779999991
 30
0.0
 11
4100.419688
 21
3778.0263779999991
 31
0.0
  0
LINE
  5
7B39
  8
2
  6
CENTER
 10
4600.419688
 20
4005.8844359999998
 30
0.0
 11
4600.419688
 21
2358.0841879999989
 31
0.0
  0
LINE
  5
7B3A
  8
2
  6
CENTER
 10
3356.6370630000001
 20
5782.6157890000013
 30
0.0
 11
1539.722632
 21
5782.6157890000013
 31
0.0
  0
LINE
  5
7B3B
  8
2
  6
CENTER
 10
2227.3546809999998
 20
4059.522809999999
 30
0.0
 11
2227.3546809999998
 21
2330.726995
 31
0.0
  0
LINE
  5
7B3C
  8
2
  6
CENTER
 10
3997.4919199999999
 20
3428.026378
 30
0.0
 11
4997.262487
 21
3428.026378
 31
0.0
  0
LINE
  5
7B3D
  8
4
  6
CONTINUOUS
 10
5550.0
 20
1500.0
 30
0.0
 11
5550.0
 21
900.0
 31
0.0
  0
LINE
  5
7B3E
  8
4
  6
CONTINUOUS
 10
3450.0
 20
1500.0
 30
0.0
 11
3450.0
 21
900.0
 31
0.0
  0
LINE
  5
7B3F
  8
4
  6
CONTINUOUS
 10
1950.0
 20
1500.0
 30
0.0
 11
1950.0
 21
900.0
 31
0.0
  0
LINE
  5
7B42
  8
4
  6
CONTINUOUS
 10
1950.0
 20
900.0
 30
0.0
 11
5550.0
 21
900.0
 31
0.0
  0
LINE
  5
7B43
  8
4
  6
CONTINUOUS
 10
1950.0
 20
1200.0
 30
0.0
 11
5550.0
 21
1200.0
 31
0.0
  0
TEXT
  5
7B44
  8
4
  6
CONTINUOUS
 10
2065.5062429999989
 20
1294.6290779999999
 30
0.0
 40
150.0
  1
機器名称
  0
TEXT
  5
7B45
  8
4
  6
CONTINUOUS
 10
2058.7743179999989
 20
964.9354699999999
 30
0.0
 40
150.0
  1
機器型番
  0
TEXT
  5
7B46
  8
4
  6
CONTINUOUS
 10
3533.0362359999999
 20
1267.7153069999999
 30
0.0
 40
150.0
  1
ミツヤ多翼送風機
  0
TEXT
  5
7B47
  8
4
  6
CONTINUOUS
 10
3559.9634869999991
 20
951.47875299999987
 30
0.0
 40
150.0
  1
MFE#4 1/2-4
  0
TEXT
  5
7B49
  8
4
  6
CONTINUOUS
 10
2714.3572960000001
 20
7150.2865239999992
 30
0.0
 40
162.0
  1
床置ベット
  0
TEXT
  5
7B4A
  8
4
  6
CONTINUOUS
 10
948.50278000000014
 20
7601.6429289999996
 30
0.0
 40
216.0
  1
ベルト駆動式片吸込両持排煙ファン
  0
LINE
  5
7B4B
  8
4
  6
CONTINUOUS
 10
750.0
 20
7408.2262629999996
 30
0.0
 11
5550.0
 21
7408.2262629999996
 31
0.0
  0
LINE
  5
7B4C
  8
4
  6
CONTINUOUS
 10
750.0
 20
8008.2262629999996
 30
0.0
 11
5550.0
 21
8008.2262629999996
 31
0.0
  0
LINE
  5
7B4D
  8
4
  6
CONTINUOUS
 10
1950.0
 20
1500.0
 30
0.0
 11
5550.0
 21
1500.0
 31
0.0
  0
LINE
  5
7B4E
  8
4
  6
CONTINUOUS
 10
750.0
 20
8008.2262629999996
 30
0.0
 11
750.0
 21
7408.2262629999996
 31
0.0
  0
TEXT
  5
7B4F
  8
4
  6
CONTINUOUS
 10
1174.1528370000001
 20
7146.9584329999998
 30
0.0
 40
162.0
  1
右回転左横向
  0
TEXT
  5
7B50
  8
4
  6
CONTINUOUS
 10
4406.9086779999989
 20
8118.1832439999989
 30
0.0
 40
168.0
  1
No.
  0
TEXT
  5
7B51
  8
4
  6
CONTINUOUS
 10
3933.8881879999999
 20
7150.2865239999992
 30
0.0
 40
162.0
  1
縮尺：1/30
  0
LINE
  5
7B52
  8
4
  6
CONTINUOUS
 10
5550.0
 20
8008.2262629999996
 30
0.0
 11
5550.0
 21
7408.2262629999996
 31
0.0
  0
LINE
  5
7B54
  8
4
  6
CONTINUOUS
 10
4321.8522670000002
 20
8043.7907490000007
 30
0.0
 11
4321.8522670000002
 21
8359.9567849999985
 31
0.0
  0
LINE
  5
7B55
  8
4
  6
CONTINUOUS
 10
4321.8522670000002
 20
8359.9567849999985
 30
0.0
 11
5550.0
 21
8359.9567849999985
 31
0.0
  0
LINE
  5
7B56
  8
4
  6
CONTINUOUS
 10
5550.0
 20
8359.9567849999985
 30
0.0
 11
5550.0
 21
8043.7907490000007
 31
0.0
  0
LINE
  5
7B57
  8
4
  6
CONTINUOUS
 10
5550.0
 20
8043.7907490000007
 30
0.0
 11
4321.8522670000002
 21
8043.7907490000007
 31
0.0
  0
DIMENSION
  5
7B6F
  8
3
  6
CONTINUOUS
  2
*D1
 10
1534.4224879999999
 20
2732.026378
 30
0.0
 11
1534.4224879999999
 21
3060.408719999999
 31
0.0
 70
   128
 13
1692.3546809999989
 23
3462.026378
 33
0.0
 14
1692.3546809999989
 24
2732.026378
 34
0.0
 50
90.0
1001
ACAD
1000
DSTYLE
1002
{
1070
   287
1070
     3
1070
   287
1070
     3
1070
    40
1040
30.0
1070
   143
1040
0.039
1070
   172
1070
     1
1070
   271
1070
     0
1070
   279
1070
     0
1070
   288
1070
     1
1002
}
  0
DIMENSION
  5
7B88
  8
3
  6
CONTINUOUS
  2
*D2
 10
1364.3197090000001
 20
2732.026378
 30
0.0
 11
1364.3197090000001
 21
3066.7042190000002
 31
0.0
 70
   128
 13
1577.469398
 23
3428.026378
 33
0.0
 14
1692.3546809999989
 24
2732.026378
 34
0.0
 50
90.0
1001
ACAD
1000
DSTYLE
1002
{
1070
   287
1070
     3
1070
   287
1070
     3
1070
    40
1040
30.0
1070
   143
1040
0.039
1070
   172
1070
     1
1070
   271
1070
     0
1070
   279
1070
     0
1070
   288
1070
     1
1002
}
  0
DIMENSION
  5
7BA1
  8
3
  6
CONTINUOUS
  2
*D3
 10
1175.3166470000001
 20
2538.026378
 30
0.0
 11
1100.316646999999
 21
2983.026378
 31
0.0
 70
     0
 13
1577.469398
 23
3428.026378
 33
0.0
 14
1757.3546809999989
 24
2538.026378
 34
0.0
 50
90.0
1001
ACAD
1000
DSTYLE
1002
{
1070
   287
1070
     3
1070
   287
1070
     3
1070
    40
1040
30.0
1070
   143
1040
0.039
1070
   172
1070
     1
1070
   271
1070
     0
1070
   279
1070
     0
1070
   288
1070
     1
1002
}
  0
DIMENSION
  5
7BBB
  8
3
  6
CONTINUOUS
  2
*D4
 10
2227.3546809999998
 20
2280.8650699999989
 30
0.0
 11
1963.0689669999999
 21
2280.8650699999989
 31
0.0
 70
   128
 13
1757.3546809999989
 23
2538.026378
 33
0.0
 14
2227.3546809999998
 24
2336.998818
 34
0.0
1001
ACAD
1000
DSTYLE
1002
{
1070
   287
1070
     3
1070
   287
1070
     3
1070
    40
1040
30.0
1070
   143
1040
0.039
1070
   172
1070
     1
1070
   271
1070
     0
1070
   279
1070
     0
1070
   288
1070
     1
1002
}
  0
DIMENSION
  5
7BC7
  8
3
  6
CONTINUOUS
  2
*D5
 10
3257.3546809999989
 20
2280.8650699999989
 30
0.0
 11
2742.3546809999998
 21
2355.8650699999989
 31
0.0
 70
     0
 13
2227.3546809999998
 23
2336.998818
 33
0.0
 14
3257.3546809999989
 24
2538.026378
 34
0.0
1001
ACAD
1000
DSTYLE
1002
{
1070
   287
1070
     4
1070
   287
1070
     4
1070
    40
1040
30.0
1070
    75
1070
     1
1070
   143
1040
0.039
1070
   172
1070
     1
1070
   271
1070
     0
1070
   279
1070
     1
1070
   288
1070
     1
1002
}
  0
DIMENSION
  5
7BD4
  8
3
  6
CONTINUOUS
  2
*D6
 10
2227.3546809999998
 20
4086.5742409999998
 30
0.0
 11
1975.4296770000001
 21
4086.5742409999998
 31
0.0
 70
   128
 13
1692.3546809999989
 23
3502.026378
 33
0.0
 14
2227.3546809999998
 24
4065.7946339999999
 34
0.0
1001
ACAD
1000
DSTYLE
1002
{
1070
   287
1070
     3
1070
   287
1070
     3
1070
    40
1040
30.0
1070
   143
1040
0.039
1070
   172
1070
     1
1070
   271
1070
     0
1070
   279
1070
     0
1070
   288
1070
     1
1002
}
  0
LINE
  5
7BEE
  8
1
  6
CONTINUOUS
 10
4867.419688
 20
3805.026378
 30
0.0
 11
4867.419688
 21
3051.026378
 31
0.0
  0
DIMENSION
  5
7BFD
  8
3
  6
CONTINUOUS
  2
*D7
 10
5138.0812680000008
 20
3051.0263779999991
 30
0.0
 11
5138.0812679999999
 21
3431.8428749999998
 31
0.0
 70
   128
 13
4867.419688
 23
3805.026378
 33
0.0
 14
4867.419688
 24
3051.026378
 34
0.0
 50
90.0
1001
ACAD
1000
DSTYLE
1002
{
1070
   287
1070
     3
1070
   287
1070
     3
1070
     3
1000
φ<>
1070
    40
1040
30.0
1070
   143
1040
0.039
1070
   172
1070
     1
1070
   271
1070
     0
1070
   279
1070
     0
1070
   288
1070
     1
1002
}
  0
DIMENSION
  5
7C0B
  8
3
  6
CONTINUOUS
  2
*D8
 10
4600.419688
 20
4155.824689
 30
0.0
 11
4754.6123582794053
 21
4243.2506705201367
 31
0.0
 70
   128
 13
4867.419688
 23
3805.026378
 33
0.0
 14
4600.419688
 24
4123.8302960000001
 34
0.0
1001
ACAD
1000
DSTYLE
1002
{
1070
   288
1070
     1
1070
   172
1070
     1
1070
    40
1040
30.0
1070
   271
1070
     0
1070
   143
1040
0.039
1002
}
  0
DIMENSION
  5
7C17
  8
3
  6
CONTINUOUS
  2
*D9
 10
4100.419688
 20
4155.824689
 30
0.0
 11
4350.419688
 21
4305.824689
 31
0.0
 70
     0
  1
MAX\P560
 13
4600.419688
 23
4123.8302960000001
 33
0.0
 14
4100.419688
 24
3778.0263779999991
 34
0.0
1001
ACAD
1000
DSTYLE
1002
{
1070
   287
1070
     4
1070
   287
1070
     4
1070
    40
1040
30.0
1070
    75
1070
     1
1070
   143
1040
0.039
1070
   172
1070
     1
1070
   271
1070
     0
1070
   279
1070
     1
1070
   288
1070
     1
1002
}
  0
DIMENSION
  5
7C24
  8
3
  6
CONTINUOUS
  2
*D10
 10
4600.419688
 20
2305.0882099999999
 30
0.0
 11
4363.1339740000003
 21
2305.0882099999999
 31
0.0
 70
   128
 13
4157.419688
 23
2538.026378
 33
0.0
 14
4600.419688
 24
2358.0841879999989
 34
0.0
1001
ACAD
1000
DSTYLE
1002
{
1070
   287
1070
     3
1070
   287
1070
     3
1070
    40
1040
30.0
1070
   143
1040
0.039
1070
   172
1070
     1
1070
   271
1070
     0
1070
   279
1070
     0
1070
   288
1070
     1
1002
}
  0
DIMENSION
  5
7C70
  8
3
  6
CONTINUOUS
  2
*D11
 10
4335.419688
 20
3985.8463379999998
 30
0.0
 11
4596.2724479999988
 21
3985.8463379999998
 31
0.0
 70
   128
 13
4865.419688
 23
3859.026378
 33
0.0
 14
4335.419688
 24
3859.026378
 34
0.0
1001
ACAD
1000
DSTYLE
1002
{
1070
   287
1070
     3
1070
   287
1070
     3
1070
    40
1040
30.0
1070
   143
1040
0.039
1070
   172
1070
     1
1070
   271
1070
     0
1070
   279
1070
     0
1070
   288
1070
     1
1002
}
  0
DIMENSION
  5
7C94
  8
3
  6
CONTINUOUS
  2
*D12
 10
4917.419688
 20
2305.0882099999999
 30
0.0
 11
4766.6227669999998
 21
2305.2629859999988
 31
0.0
 70
   128
 13
4600.419688
 23
2358.0841879999989
 33
0.0
 14
4917.419688
 24
2538.026378
 34
0.0
1001
ACAD
1000
DSTYLE
1002
{
1070
   287
1070
     4
1070
   287
1070
     4
1070
    40
1040
30.0
1070
    75
1070
     1
1070
   143
1040
0.039
1070
   172
1070
     1
1070
   271
1070
     0
1070
   279
1070
     1
1070
   288
1070
     1
1002
}
  0
DIMENSION
  5
7CA1
  8
3
  6
CONTINUOUS
  2
*D13
 10
3257.3546809999989
 20
6315.2929459999996
 30
0.0
 11
2479.437899
 21
6315.2929459999996
 31
0.0
 70
   128
 13
1757.3546809999989
 23
6099.6157890000013
 33
0.0
 14
3257.3546809999989
 24
6099.6157890000013
 34
0.0
1001
ACAD
1000
DSTYLE
1002
{
1070
   287
1070
     3
1070
   287
1070
     3
1070
    40
1040
30.0
1070
   143
1040
0.039
1070
   172
1070
     1
1070
   271
1070
     0
1070
   279
1070
     0
1070
   288
1070
     1
1002
}
  0
DIMENSION
  5
7CAE
  8
3
  6
CONTINUOUS
  2
*D14
 10
3500.0545740000011
 20
5339.6157890000004
 30
0.0
 11
3500.0545739999989
 21
5749.7960999999996
 31
0.0
 70
   128
 13
3257.3546809999989
 23
6099.6157890000013
 33
0.0
 14
3257.3546809999989
 24
5339.6157890000004
 34
0.0
 50
90.0
1001
ACAD
1000
DSTYLE
1002
{
1070
   287
1070
     3
1070
   287
1070
     3
1070
    40
1040
30.0
1070
   143
1040
0.039
1070
   172
1070
     1
1070
   271
1070
     0
1070
   279
1070
     0
1070
   288
1070
     1
1002
}
  0
DIMENSION
  5
7CD4
  8
3
  6
CONTINUOUS
  2
*D15
 10
1175.3166470000001
 20
3936.0077825285271
 30
0.0
 11
1100.316646999999
 21
3682.0170802642642
 31
0.0
 70
     0
 13
1577.469398
 23
3428.026378
 33
0.0
 14
2227.3546809999998
 24
3936.0077825285271
 34
0.0
 50
90.0
1001
ACAD
1000
DSTYLE
1002
{
1070
   287
1070
     4
1070
   287
1070
     4
1070
    40
1040
30.0
1070
    75
1070
     1
1070
   143
1040
0.039
1070
   172
1070
     1
1070
   271
1070
     0
1070
   279
1070
     1
1070
   288
1070
     1
1002
}
  0
DIMENSION
  5
7CE0
  8
3
  6
CONTINUOUS
  2
*D16
 10
2813.352206999999
 20
4086.5742409999998
 30
0.0
 11
2520.3534439999989
 21
4161.5742410000003
 31
0.0
 70
     0
 13
2227.3546809999998
 23
4065.7946339999999
 33
0.0
 14
2813.352206999999
 24
3428.026378
 34
0.0
1001
ACAD
1000
DSTYLE
1002
{
1070
   287
1070
     4
1070
   287
1070
     4
1070
    40
1040
30.0
1070
    75
1070
     1
1070
   143
1040
0.039
1070
   172
1070
     1
1070
   271
1070
     0
1070
   279
1070
     1
1070
   288
1070
     1
1002
}
  0
DIMENSION
  5
7D5D
  8
3
  2
*D17
 10
3257.3546809999989
 20
4287.4103282008218
 30
0.0
 11
2469.0411671877
 21
4287.4103282008218
 31
0.0
 70
   128
 13
1692.3546809999989
 23
3502.026378
 33
0.0
 14
3257.3546809999989
 24
2638.026378
 34
0.0
1001
ACAD
1000
DSTYLE
1002
{
1070
   287
1070
     3
1070
   287
1070
     3
1070
    40
1040
30.0
1070
   143
1040
0.039
1070
   172
1070
     1
1070
   271
1070
     0
1070
   279
1070
     0
1070
   288
1070
     1
1002
}
  0
LINE
  5
7E70
  8
1
  6
CONTINUOUS
 10
1767.3546809999989
 20
3558.026378
 30
0.0
 11
2687.3546809999998
 21
3558.0263779999991
 31
0.0
  0
LINE
  5
7E71
  8
1
 10
1767.3546809999989
 20
3558.026378
 30
0.0
 11
1767.3546809999989
 21
2638.026378
 31
0.0
  0
LINE
  5
7E72
  8
1
 10
2687.3546809999998
 20
3558.0263779999991
 30
0.0
 11
2687.3546809999989
 21
2638.026378
 31
0.0
  0
ENDSEC
  0
EOF
