  0
SECTION
  2
HEADER
  9
$ACADVER
  1
AC1009
  9
$INSBASE
 10
0.0
 20
0.0
 30
0.0
  9
$EXTMIN
 10
750.0
 20
900.0
 30
0.0
  9
$EXTMAX
 10
5550.0
 20
8359.9567849999985
 30
0.0
  9
$LIMMIN
 10
0.0
 20
0.0
  9
$LIMMAX
 10
297.0
 20
210.0
  9
$ORTHOMODE
 70
     0
  9
$REGENMODE
 70
     1
  9
$FILLMODE
 70
     0
  9
$QTEXTMODE
 70
     0
  9
$MIRRTEXT
 70
     1
  9
$DRAGMODE
 70
     2
  9
$LTSCALE
 40
100.0
  9
$OSMODE
 70
    37
  9
$ATTMODE
 70
     1
  9
$TEXTSIZE
 40
180.0
  9
$TRACEWID
 40
0.05
  9
$TEXTSTYLE
  7
STANDARD
  9
$CLAYER
  8
3
  9
$CELTYPE
  6
BYLAYER
  9
$CECOLOR
 62
   256
  9
$DIMSCALE
 40
30.0
  9
$DIMASZ
 40
2.0
  9
$DIMEXO
 40
0.5
  9
$DIMDLI
 40
10.0
  9
$DIMRND
 40
0.0
  9
$DIMDLE
 40
0.0
  9
$DIMEXE
 40
1.0
  9
$DIMTP
 40
1.0
  9
$DIMTM
 40
1.0
  9
$DIMTXT
 40
3.0
  9
$DIMCEN
 40
0.0
  9
$DIMTSZ
 40
0.0
  9
$DIMTOL
 70
     0
  9
$DIMLIM
 70
     0
  9
$DIMTIH
 70
     0
  9
$DIMTOH
 70
     0
  9
$DIMSE1
 70
     0
  9
$DIMSE2
 70
     0
  9
$DIMTAD
 70
     1
  9
$DIMZIN
 70
     8
  9
$DIMBLK
  1

  9
$DIMASO
 70
     1
  9
$DIMSHO
 70
     1
  9
$DIMPOST
  1
(<>)
  9
$DIMAPOST
  1

  9
$DIMALT
 70
     0
  9
$DIMALTD
 70
     2
  9
$DIMALTF
 40
0.039
  9
$DIMLFAC
 40
1.0
  9
$DIMTOFL
 70
     1
  9
$DIMTVP
 40
0.0
  9
$DIMTIX
 70
     0
  9
$DIMSOXD
 70
     0
  9
$DIMSAH
 70
     1
  9
$DIMBLK1
  1
DOT
  9
$DIMBLK2
  1
OPEN
  9
$DIMSTYLE
  2
IGA
  9
$DIMCLRD
 70
     0
  9
$DIMCLRE
 70
     0
  9
$DIMCLRT
 70
     0
  9
$DIMTFAC
 40
10.0
  9
$DIMGAP
 40
1.0
  9
$LUNITS
 70
     2
  9
$LUPREC
 70
     3
  9
$SKETCHINC
 40
0.1
  9
$FILLETRAD
 40
50.0
  9
$AUNITS
 70
     0
  9
$AUPREC
 70
     0
  9
$MENU
  1
acad
  9
$ELEVATION
 40
0.0
  9
$PELEVATION
 40
0.0
  9
$THICKNESS
 40
0.0
  9
$LIMCHECK
 70
     0
  9
$BLIPMODE
 70
     0
  9
$CHAMFERA
 40
0.5
  9
$CHAMFERB
 40
0.5
  9
$SKPOLY
 70
     0
  9
$TDCREATE
 40
2450738.6083964119
  9
$TDUPDATE
 40
2454953.8388119088
  9
$TDINDWG
 40
0.0169031829
  9
$TDUSRTIMER
 40
0.0169031829
  9
$USRTIMER
 70
     1
  9
$ANGBASE
 50
0.0
  9
$ANGDIR
 70
     0
  9
$PDMODE
 70
     0
  9
$PDSIZE
 40
0.0
  9
$PLINEWID
 40
0.0
  9
$COORDS
 70
     1
  9
$SPLFRAME
 70
     0
  9
$SPLINETYPE
 70
     6
  9
$SPLINESEGS
 70
     8
  9
$ATTDIA
 70
     0
  9
$ATTREQ
 70
     1
  9
$HANDLING
 70
 10241
  9
$HANDSEED
  5
7FFD
  9
$SURFTAB1
 70
     6
  9
$SURFTAB2
 70
     6
  9
$SURFTYPE
 70
     6
  9
$SURFU
 70
     6
  9
$SURFV
 70
     6
  9
$UCSNAME
  2

  9
$UCSORG
 10
0.0
 20
0.0
 30
0.0
  9
$UCSXDIR
 10
1.0
 20
0.0
 30
0.0
  9
$UCSYDIR
 10
0.0
 20
1.0
 30
0.0
  9
$PUCSNAME
  2

  9
$PUCSORG
 10
0.0
 20
0.0
 30
0.0
  9
$PUCSXDIR
 10
1.0
 20
0.0
 30
0.0
  9
$PUCSYDIR
 10
0.0
 20
1.0
 30
0.0
  9
$USERI1
 70
     0
  9
$USERI2
 70
     0
  9
$USERI3
 70
     0
  9
$USERI4
 70
     0
  9
$USERI5
 70
     0
  9
$USERR1
 40
0.0
  9
$USERR2
 40
0.0
  9
$USERR3
 40
0.0
  9
$USERR4
 40
0.0
  9
$USERR5
 40
0.0
  9
$WORLDVIEW
 70
     1
  9
$SHADEDGE
 70
     3
  9
$SHADEDIF
 70
    70
  9
$TILEMODE
 70
     1
  9
$MAXACTVP
 70
    16
  9
$PLIMCHECK
 70
     0
  9
$PEXTMIN
 10
1.0000000000000000E+020
 20
1.0000000000000000E+020
 30
1.0000000000000000E+020
  9
$PEXTMAX
 10
-1.0000000000000000E+020
 20
-1.0000000000000000E+020
 30
-1.0000000000000000E+020
  9
$PLIMMIN
 10
0.0
 20
0.0
  9
$PLIMMAX
 10
12.0
 20
9.0
  9
$UNITMODE
 70
     0
  9
$VISRETAIN
 70
     0
  9
$PLINEGEN
 70
     0
  9
$PSLTSCALE
 70
     1
  0
ENDSEC
  0
SECTION
  2
TABLES
  0
TABLE
  2
VPORT
 70
     2
  0
VPORT
  2
*ACTIVE
 70
     0
 10
0.0
 20
0.0
 11
1.0
 21
1.0
 12
2977.089096132589
 22
4581.5811121034703
 13
0.0
 23
0.0
 14
10.0
 24
10.0
 15
10.0
 25
10.0
 16
0.0
 26
0.0
 36
1.0
 17
0.0
 27
0.0
 37
0.0
 40
9063.6721298111788
 41
1.5051150895140659
 42
50.0
 43
0.0
 44
0.0
 50
0.0
 51
0.0
 71
     0
 72
   100
 73
     1
 74
     0
 75
     0
 76
     0
 77
     0
 78
     0
  0
ENDTAB
  0
TABLE
  2
LTYPE
 70
     2
  0
LTYPE
  2
CONTINUOUS
 70
     0
  3
Solid line
 72
    65
 73
     0
 40
0.0
  0
LTYPE
  2
CENTER
 70
     0
  3
____ _ ____ _ ____ _ ____ _ ____ _ ____ _ ____ 
 72
    65
 73
     4
 40
2.0
 49
1.25
 49
-0.25
 49
0.25
 49
-0.25
  0
ENDTAB
  0
TABLE
  2
LAYER
 70
     6
  0
LAYER
  2
0
 70
     0
 62
     7
  6
CONTINUOUS
  0
LAYER
  2
3
 70
     0
 62
     2
  6
CONTINUOUS
  0
LAYER
  2
2
 70
     0
 62
     3
  6
CENTER
  0
LAYER
  2
1
 70
     0
 62
     4
  6
CONTINUOUS
  0
LAYER
  2
4
 70
     0
 62
     7
  6
CONTINUOUS
  0
LAYER
  2
DEFPOINTS
 70
     0
 62
     7
  6
CONTINUOUS
  0
ENDTAB
  0
TABLE
  2
STYLE
 70
     1
  0
STYLE
  2
STANDARD
 70
     0
 40
0.0
 41
1.0
 50
0.0
 71
     0
 42
180.0
  3
simplex.shx
  4
extfont.shx
  0
ENDTAB
  0
TABLE
  2
VIEW
 70
     0
  0
ENDTAB
  0
TABLE
  2
UCS
 70
     0
  0
ENDTAB
  0
TABLE
  2
APPID
 70
     1
  0
APPID
  2
ACAD
 70
     0
  0
ENDTAB
  0
TABLE
  2
DIMSTYLE
 70
     1
  0
DIMSTYLE
  2
IGA
 70
     0
  3

  4

  5

  6
OPEN
  7
OPEN
 40
2.0
 41
2.0
 42
0.5
 43
10.0
 44
1.0
 45
0.0
 46
0.0
 47
1.0
 48
1.0
140
3.0
141
0.0
142
0.0
143
0.03937
144
1.0
145
0.0
146
10.0
147
1.0
 71
     0
 72
     0
 73
     0
 74
     0
 75
     0
 76
     0
 77
     1
 78
     8
170
     0
171
     2
172
     0
173
     1
174
     0
175
     0
176
     0
177
     0
178
     0
  0
ENDTAB
  0
ENDSEC
  0
SECTION
  2
BLOCKS
  0
BLOCK
  8
0
  2
$MODEL_SPACE
 70
     0
 10
0.0
 20
0.0
 30
0.0
  3
$MODEL_SPACE
  1

  0
ENDBLK
  5
1B
  8
0
  0
BLOCK
 67
     1
  8
0
  2
$PAPER_SPACE
 70
     0
 10
0.0
 20
0.0
 30
0.0
  3
$PAPER_SPACE
  1

  0
ENDBLK
  5
18
 67
     1
  8
0
  0
BLOCK
  8
0
  2
_OPEN
 70
     0
 10
0.0
 20
0.0
 30
0.0
  3
_OPEN
  1

  0
LINE
  5
7B94
  8
0
  6
BYBLOCK
 62
     0
 10
-1.0
 20
0.166667
 30
0.0
 11
0.0
 21
0.0
 31
0.0
  0
LINE
  5
7B95
  8
0
  6
BYBLOCK
 62
     0
 10
0.0
 20
0.0
 30
0.0
 11
-1.0
 21
-0.166667
 31
0.0
  0
LINE
  5
7B96
  8
0
  6
BYBLOCK
 62
     0
 10
0.0
 20
0.0
 30
0.0
 11
-1.0
 21
0.0
 31
0.0
  0
ENDBLK
  5
7B97
  8
0
  0
BLOCK
  8
0
  2
*D1
 70
     1
 10
0.0
 20
0.0
 30
0.0
  3
*D1
  1

  0
LINE
  5
7F5B
  8
3
  6
CONTINUOUS
 62
     0
 10
1743.464618
 20
3729.923389
 30
0.0
 11
1568.777165
 21
3729.923389
 31
0.0
  0
LINE
  5
7F5C
  8
3
  6
CONTINUOUS
 62
     0
 10
1743.464618
 20
3079.923389
 30
0.0
 11
1568.777165
 21
3079.923389
 31
0.0
  0
LINE
  5
7F5D
  8
3
  6
CONTINUOUS
 62
     0
 10
1598.777165
 20
3669.923389
 30
0.0
 11
1598.777165
 21
3139.923389
 31
0.0
  0
INSERT
  5
7F5E
  8
3
  6
CONTINUOUS
 62
     0
  2
_OPEN
 10
1598.777165
 20
3729.923389
 30
0.0
 41
60.0
 42
60.0
 43
60.0
 50
90.0
  0
INSERT
  5
7F5F
  8
3
  6
CONTINUOUS
 62
     0
  2
_OPEN
 10
1598.777165
 20
3079.923389
 30
0.0
 41
60.0
 42
60.0
 43
60.0
 50
270.0
  0
TEXT
  8
3
  40
90
  5
7FEC
  62
0
  72
0
  71
0
 10
1343.78
 20
3249.13
 30
0.000000
  1
650
  0
POINT
  5
7F61
  8
DEFPOINTS
  6
CONTINUOUS
 62
     0
 10
1758.464618
 20
3729.923389
 30
0.0
  0
POINT
  5
7F62
  8
DEFPOINTS
  6
CONTINUOUS
 62
     0
 10
1758.464618
 20
3079.923389
 30
0.0
  0
POINT
  5
7F63
  8
DEFPOINTS
  6
CONTINUOUS
 62
     0
 10
1598.777165
 20
3079.923389
 30
0.0
  0
ENDBLK
  5
7BA4
  8
0
  0
BLOCK
  8
0
  2
*D2
 70
     1
 10
0.0
 20
0.0
 30
0.0
  3
*D2
  1

  0
LINE
  5
7F64
  8
3
  6
CONTINUOUS
 62
     0
 10
1643.4555339999999
 20
3699.923389
 30
0.0
 11
1403.8029449999999
 21
3699.923389
 31
0.0
  0
LINE
  5
7F65
  8
3
  6
CONTINUOUS
 62
     0
 10
1743.464618
 20
3079.923389
 30
0.0
 11
1403.8029449999999
 21
3079.923389
 31
0.0
  0
LINE
  5
7F66
  8
3
  6
CONTINUOUS
 62
     0
 10
1433.8029449999999
 20
3639.9233889999991
 30
0.0
 11
1433.8029449999999
 21
3139.923389
 31
0.0
  0
INSERT
  5
7F67
  8
3
  6
CONTINUOUS
 62
     0
  2
_OPEN
 10
1433.8029449999999
 20
3699.923389
 30
0.0
 41
60.0
 42
60.0
 43
60.0
 50
90.0
  0
INSERT
  5
7F68
  8
3
  6
CONTINUOUS
 62
     0
  2
_OPEN
 10
1433.8029449999999
 20
3079.923389
 30
0.0
 41
60.0
 42
60.0
 43
60.0
 50
270.0
  0
TEXT
  8
3
  40
90
  5
7FED
  62
0
  72
0
  71
0
 10
1178.80
 20
3249.13
 30
0.000000
  1
620
  0
POINT
  5
7F6A
  8
DEFPOINTS
  6
CONTINUOUS
 62
     0
 10
1658.4555339999999
 20
3699.923389
 30
0.0
  0
POINT
  5
7F6B
  8
DEFPOINTS
  6
CONTINUOUS
 62
     0
 10
1758.464618
 20
3079.923389
 30
0.0
  0
POINT
  5
7F6C
  8
DEFPOINTS
  6
CONTINUOUS
 62
     0
 10
1433.8029449999999
 20
3079.923389
 30
0.0
  0
ENDBLK
  5
7BB1
  8
0
  0
BLOCK
  8
0
  2
*D3
 70
     1
 10
0.0
 20
0.0
 30
0.0
  3
*D3
  1

  0
LINE
  5
7F6D
  8
3
  6
CONTINUOUS
 62
     0
 10
1798.4646179999991
 20
2899.9233889999991
 30
0.0
 11
1246.021281
 21
2899.9233889999991
 31
0.0
  0
LINE
  5
7F6E
  8
3
  6
CONTINUOUS
 62
     0
 10
1276.021281
 20
3639.9233889999991
 30
0.0
 11
1276.021281
 21
2959.923389
 31
0.0
  0
INSERT
  5
7F6F
  8
3
  6
CONTINUOUS
 62
     0
  2
_OPEN
 10
1276.021281
 20
3699.923389
 30
0.0
 41
60.0
 42
60.0
 43
60.0
 50
90.0
  0
INSERT
  5
7F70
  8
3
  6
CONTINUOUS
 62
     0
  2
_OPEN
 10
1276.021281
 20
2899.9233889999991
 30
0.0
 41
60.0
 42
60.0
 43
60.0
 50
270.0
  0
TEXT
  8
3
  40
90
  5
7FEE
  62
0
  72
0
  71
0
 10
1021.02
 20
3140.62
 30
0.000000
  1
800
  0
POINT
  5
7F72
  8
DEFPOINTS
  6
CONTINUOUS
 62
     0
 10
1658.4555339999999
 20
3699.923389
 30
0.0
  0
POINT
  5
7F73
  8
DEFPOINTS
  6
CONTINUOUS
 62
     0
 10
1813.464618
 20
2899.9233889999991
 30
0.0
  0
POINT
  5
7F74
  8
DEFPOINTS
  6
CONTINUOUS
 62
     0
 10
1276.021281
 20
2899.9233889999991
 30
0.0
  0
ENDBLK
  5
7CFE
  8
0
  0
BLOCK
  8
0
  2
*D4
 70
     1
 10
0.0
 20
0.0
 30
0.0
  3
*D4
  1

  0
LINE
  5
7F75
  8
3
  6
CONTINUOUS
 62
     0
 10
1758.464618
 20
3784.923389
 30
0.0
 11
1758.464618
 21
4382.5153369999998
 31
0.0
  0
LINE
  5
7F76
  8
3
  6
CONTINUOUS
 62
     0
 10
2243.464618
 20
4346.1353529999997
 30
0.0
 11
2243.464618
 21
4382.5153369999998
 31
0.0
  0
LINE
  5
7F77
  8
3
  6
CONTINUOUS
 62
     0
 10
1818.464618
 20
4352.5153369999989
 30
0.0
 11
2183.4646179999991
 21
4352.5153369999989
 31
0.0
  0
INSERT
  5
7F78
  8
3
  6
CONTINUOUS
 62
     0
  2
_OPEN
 10
1758.464618
 20
4352.5153369999989
 30
0.0
 41
60.0
 42
60.0
 43
60.0
 50
180.0
  0
INSERT
  5
7F79
  8
3
  6
CONTINUOUS
 62
     0
  2
_OPEN
 10
2243.464618
 20
4352.5153369999989
 30
0.0
 41
60.0
 42
60.0
 43
60.0
  0
TEXT
  8
3
  40
90
  5
7FEF
  62
0
  72
0
  71
0
 10
1819.74
 20
4268.22
 30
0.000000
  1
485
  0
POINT
  5
7F7B
  8
DEFPOINTS
  6
CONTINUOUS
 62
     0
 10
1758.464618
 20
3769.923389
 30
0.0
  0
POINT
  5
7F7C
  8
DEFPOINTS
  6
CONTINUOUS
 62
     0
 10
2243.464618
 20
4331.1353529999988
 30
0.0
  0
POINT
  5
7F7D
  8
DEFPOINTS
  6
CONTINUOUS
 62
     0
 10
2243.464618
 20
4352.5153369999989
 30
0.0
  0
ENDBLK
  5
7D33
  8
0
  0
BLOCK
  8
0
  2
*D5
 70
     1
 10
0.0
 20
0.0
 30
0.0
  3
*D5
  1

  0
LINE
  5
7F7E
  8
3
  6
CONTINUOUS
 62
     0
 10
5151.4044819999999
 20
4168.1778359999998
 30
0.0
 11
5151.4044819999999
 21
4255.3711520000006
 31
0.0
  0
LINE
  5
7F7F
  8
3
  6
CONTINUOUS
 62
     0
 10
4676.4044819999999
 20
4168.1778359999998
 30
0.0
 11
4676.4044819999999
 21
4255.3711520000006
 31
0.0
  0
LINE
  5
7F80
  8
3
  6
CONTINUOUS
 62
     0
 10
5091.4044819999999
 20
4225.3711520000006
 30
0.0
 11
4736.4044819999999
 21
4225.3711520000006
 31
0.0
  0
INSERT
  5
7F81
  8
3
  6
CONTINUOUS
 62
     0
  2
_OPEN
 10
5151.4044819999999
 20
4225.3711520000006
 30
0.0
 41
60.0
 42
60.0
 43
60.0
  0
INSERT
  5
7F82
  8
3
  6
CONTINUOUS
 62
     0
  2
_OPEN
 10
4676.4044819999999
 20
4225.3711520000006
 30
0.0
 41
60.0
 42
60.0
 43
60.0
 50
180.0
  0
TEXT
  8
3
  40
90
  5
7FF0
  62
0
  72
0
  71
0
 10
4702.12
 20
4141.07
 30
0.000000
  1
475
  0
POINT
  5
7F84
  8
DEFPOINTS
  6
CONTINUOUS
 62
     0
 10
5151.4044819999999
 20
4153.1778359999998
 30
0.0
  0
POINT
  5
7F85
  8
DEFPOINTS
  6
CONTINUOUS
 62
     0
 10
4676.4044819999999
 20
4153.1778359999998
 30
0.0
  0
POINT
  5
7F86
  8
DEFPOINTS
  6
CONTINUOUS
 62
     0
 10
4676.4044819999999
 20
4225.3711520000006
 30
0.0
  0
ENDBLK
  5
7C26
  8
0
  0
BLOCK
  8
0
  2
*D6
 70
     1
 10
0.0
 20
0.0
 30
0.0
  3
*D6
  1

  0
LINE
  5
7F87
  8
3
  6
CONTINUOUS
 62
     0
 10
5169.904481999999
 20
4034.923389
 30
0.0
 11
5457.2771140000013
 21
4034.923389
 31
0.0
  0
LINE
  5
7F88
  8
3
  6
CONTINUOUS
 62
     0
 10
5169.904481999999
 20
3364.9233889999991
 30
0.0
 11
5457.2771140000013
 21
3364.9233889999991
 31
0.0
  0
LINE
  5
7F89
  8
3
  6
CONTINUOUS
 62
     0
 10
5427.2771140000023
 20
3974.923389
 30
0.0
 11
5427.2771140000023
 21
3424.9233889999991
 31
0.0
  0
INSERT
  5
7F8A
  8
3
  6
CONTINUOUS
 62
     0
  2
_OPEN
 10
5427.2771140000023
 20
4034.923389
 30
0.0
 41
60.0
 42
60.0
 43
60.0
 50
90.0
  0
INSERT
  5
7F8B
  8
3
  6
CONTINUOUS
 62
     0
  2
_OPEN
 10
5427.2771140000023
 20
3364.9233889999991
 30
0.0
 41
60.0
 42
60.0
 43
60.0
 50
270.0
  0
TEXT
  8
3
  40
90
  5
7FF1
  62
0
  72
0
  71
0
 10
5172.28
 20
3528.61
 30
0.000000
  1
φ670
  0
POINT
  5
7F8D
  8
DEFPOINTS
  6
CONTINUOUS
 62
     0
 10
5154.9044819999999
 20
4034.923389
 30
0.0
  0
POINT
  5
7F8E
  8
DEFPOINTS
  6
CONTINUOUS
 62
     0
 10
5154.9044819999999
 20
3364.9233889999991
 30
0.0
  0
POINT
  5
7F8F
  8
DEFPOINTS
  6
CONTINUOUS
 62
     0
 10
5427.2771140000023
 20
3364.9233889999991
 30
0.0
  0
ENDBLK
  5
7DD0
  8
0
  0
BLOCK
  8
0
  2
*D7
 70
     1
 10
0.0
 20
0.0
 30
0.0
  3
*D7
  1

  0
LINE
  5
7F90
  8
3
  6
CONTINUOUS
 62
     0
 10
4433.904481999999
 20
4014.9233889999991
 30
0.0
 11
4433.904481999999
 21
4456.0222290000011
 31
0.0
  0
LINE
  5
7F91
  8
3
  6
CONTINUOUS
 62
     0
 10
4853.9044819999999
 20
4426.0222289999992
 30
0.0
 11
4493.9044819999999
 21
4426.0222289999992
 31
0.0
  0
INSERT
  5
7F92
  8
3
  6
CONTINUOUS
 62
     0
  2
_OPEN
 10
4913.9044819999999
 20
4426.0222289999992
 30
0.0
 41
60.0
 42
60.0
 43
60.0
  0
INSERT
  5
7F93
  8
3
  6
CONTINUOUS
 62
     0
  2
_OPEN
 10
4433.904481999999
 20
4426.0222289999992
 30
0.0
 41
60.0
 42
60.0
 43
60.0
 50
180.0
  0
TEXT
  8
3
  40
90
  5
7FF2
  62
0
  72
0
  71
0
 10
4493.90
 20
4416.72
 30
0.000000
  1
MAX
  0
TEXT
  8
3
  40
90
  5
7FF3
  62
0
  72
0
  71
0
 10
4493.90
 20
4299.72
 30
0.000000
  1
530
  0
POINT
  5
7F95
  8
DEFPOINTS
  6
CONTINUOUS
 62
     0
 10
4913.9044819999999
 20
4366.5642440000001
 30
0.0
  0
POINT
  5
7F96
  8
DEFPOINTS
  6
CONTINUOUS
 62
     0
 10
4433.904481999999
 20
3999.923389
 30
0.0
  0
POINT
  5
7F97
  8
DEFPOINTS
  6
CONTINUOUS
 62
     0
 10
4433.904481999999
 20
4426.0222289999992
 30
0.0
  0
ENDBLK
  5
7DDA
  8
0
  0
BLOCK
  8
0
  2
*D8
 70
     1
 10
0.0
 20
0.0
 30
0.0
  3
*D8
  1

  0
LINE
  5
7F98
  8
3
  6
CONTINUOUS
 62
     0
 10
1813.464618
 20
6060.6280560000014
 30
0.0
 11
1813.464618
 21
6323.0986950000006
 31
0.0
  0
LINE
  5
7F99
  8
3
  6
CONTINUOUS
 62
     0
 10
3223.4646179999991
 20
6060.6280560000014
 30
0.0
 11
3223.4646179999991
 21
6323.0986950000006
 31
0.0
  0
LINE
  5
7F9A
  8
3
  6
CONTINUOUS
 62
     0
 10
1873.4646179999991
 20
6293.0986950000006
 30
0.0
 11
3163.464618
 21
6293.0986950000006
 31
0.0
  0
INSERT
  5
7F9B
  8
3
  6
CONTINUOUS
 62
     0
  2
_OPEN
 10
1813.464618
 20
6293.0986950000006
 30
0.0
 41
60.0
 42
60.0
 43
60.0
 50
180.0
  0
INSERT
  5
7F9C
  8
3
  6
CONTINUOUS
 62
     0
  2
_OPEN
 10
3223.4646179999991
 20
6293.0986950000006
 30
0.0
 41
60.0
 42
60.0
 43
60.0
  0
TEXT
  8
3
  40
90
  5
7FF4
  62
0
  72
0
  71
0
 10
2293.15
 20
6208.80
 30
0.000000
  1
1410
  0
POINT
  5
7F9E
  8
DEFPOINTS
  6
CONTINUOUS
 62
     0
 10
1813.464618
 20
6045.6280559999996
 30
0.0
  0
POINT
  5
7F9F
  8
DEFPOINTS
  6
CONTINUOUS
 62
     0
 10
3223.4646179999991
 20
6045.6280559999996
 30
0.0
  0
POINT
  5
7FA0
  8
DEFPOINTS
  6
CONTINUOUS
 62
     0
 10
3223.4646179999991
 20
6293.0986950000006
 30
0.0
  0
ENDBLK
  5
7D8D
  8
0
  0
BLOCK
  8
0
  2
*D9
 70
     1
 10
0.0
 20
0.0
 30
0.0
  3
*D9
  1

  0
LINE
  5
7FA1
  8
3
  6
CONTINUOUS
 62
     0
 10
3238.464618
 20
6045.6280559999996
 30
0.0
 11
3507.3383670000012
 21
6045.6280559999996
 31
0.0
  0
LINE
  5
7FA2
  8
3
  6
CONTINUOUS
 62
     0
 10
3238.464618
 20
5345.6280559999996
 30
0.0
 11
3507.3383670000012
 21
5345.6280559999996
 31
0.0
  0
LINE
  5
7FA3
  8
3
  6
CONTINUOUS
 62
     0
 10
3477.3383670000012
 20
5985.6280560000014
 30
0.0
 11
3477.3383670000012
 21
5405.6280560000014
 31
0.0
  0
INSERT
  5
7FA4
  8
3
  6
CONTINUOUS
 62
     0
  2
_OPEN
 10
3477.3383670000012
 20
6045.6280559999996
 30
0.0
 41
60.0
 42
60.0
 43
60.0
 50
90.0
  0
INSERT
  5
7FA5
  8
3
  6
CONTINUOUS
 62
     0
  2
_OPEN
 10
3477.3383670000012
 20
5345.6280559999996
 30
0.0
 41
60.0
 42
60.0
 43
60.0
 50
270.0
  0
TEXT
  8
3
  40
90
  5
7FF5
  62
0
  72
0
  71
0
 10
3222.34
 20
5530.61
 30
0.000000
  1
700
  0
POINT
  5
7FA7
  8
DEFPOINTS
  6
CONTINUOUS
 62
     0
 10
3223.4646179999991
 20
6045.6280559999996
 30
0.0
  0
POINT
  5
7FA8
  8
DEFPOINTS
  6
CONTINUOUS
 62
     0
 10
3223.4646179999991
 20
5345.6280559999996
 30
0.0
  0
POINT
  5
7FA9
  8
DEFPOINTS
  6
CONTINUOUS
 62
     0
 10
3477.3383670000012
 20
5345.6280559999996
 30
0.0
  0
ENDBLK
  5
7C9B
  8
0
  0
BLOCK
  8
0
  2
*D10
 70
     1
 10
0.0
 20
0.0
 30
0.0
  3
*D10
  1

  0
LINE
  5
7FAA
  8
3
  6
CONTINUOUS
 62
     0
 10
2228.4646179999991
 20
4151.9217514359279
 30
0.0
 11
1246.021281
 21
4151.9217514359289
 31
0.0
  0
LINE
  5
7FAB
  8
3
  6
CONTINUOUS
 62
     0
 10
1276.021281
 20
3759.923389
 30
0.0
 11
1276.021281
 21
4091.9217514359279
 31
0.0
  0
INSERT
  5
7FAC
  8
3
  6
CONTINUOUS
 62
     0
  2
_OPEN
 10
1276.021281
 20
3699.923389
 30
0.0
 41
60.0
 42
60.0
 43
60.0
 50
270.0
  0
INSERT
  5
7FAD
  8
3
  6
CONTINUOUS
 62
     0
  2
_OPEN
 10
1276.021281
 20
4151.9217514359289
 30
0.0
 41
60.0
 42
60.0
 43
60.0
 50
90.0
  0
TEXT
  8
3
  40
90
  5
7FF6
  62
0
  72
0
  71
0
 10
1021.02
 20
3766.62
 30
0.000000
  1
452
  0
POINT
  5
7FAF
  8
DEFPOINTS
  6
CONTINUOUS
 62
     0
 10
1658.4555339999999
 20
3699.923389
 30
0.0
  0
POINT
  5
7FB0
  8
DEFPOINTS
  6
CONTINUOUS
 62
     0
 10
2243.464618
 20
4151.9217514359279
 30
0.0
  0
POINT
  5
7FB1
  8
DEFPOINTS
  6
CONTINUOUS
 62
     0
 10
1276.021281
 20
4151.9217514359289
 30
0.0
  0
ENDBLK
  5
7DFD
  8
0
  0
BLOCK
  8
0
  2
*D11
 70
     1
 10
0.0
 20
0.0
 30
0.0
  3
*D11
  1

  0
LINE
  5
7FB2
  8
3
  6
CONTINUOUS
 62
     0
 10
2765.464618
 20
3714.9233889999991
 30
0.0
 11
2765.464618
 21
4382.5153369999998
 31
0.0
  0
LINE
  5
7FB3
  8
3
  6
CONTINUOUS
 62
     0
 10
2303.464618
 20
4352.5153369999989
 30
0.0
 11
2705.464618
 21
4352.5153369999989
 31
0.0
  0
INSERT
  5
7FB4
  8
3
  6
CONTINUOUS
 62
     0
  2
_OPEN
 10
2243.464618
 20
4352.5153369999989
 30
0.0
 41
60.0
 42
60.0
 43
60.0
 50
180.0
  0
INSERT
  5
7FB5
  8
3
  6
CONTINUOUS
 62
     0
  2
_OPEN
 10
2765.464618
 20
4352.5153369999989
 30
0.0
 41
60.0
 42
60.0
 43
60.0
  0
TEXT
  8
3
  40
90
  5
7FF7
  62
0
  72
0
  71
0
 10
2324.46
 20
4268.22
 30
0.000000
  1
522
  0
POINT
  5
7FB7
  8
DEFPOINTS
  6
CONTINUOUS
 62
     0
 10
2243.464618
 20
4331.1353529999988
 30
0.0
  0
POINT
  5
7FB8
  8
DEFPOINTS
  6
CONTINUOUS
 62
     0
 10
2765.464618
 20
3699.923389
 30
0.0
  0
POINT
  5
7FB9
  8
DEFPOINTS
  6
CONTINUOUS
 62
     0
 10
2765.464618
 20
4352.5153369999989
 30
0.0
  0
ENDBLK
  5
7D28
  8
0
  0
BLOCK
  8
0
  2
*D12
 70
     1
 10
0.0
 20
0.0
 30
0.0
  3
*D12
  1

  0
LINE
  5
7DBC
  8
0
  6
BYBLOCK
 62
     0
 10
4913.9044819999999
 20
4381.5642440000001
 30
0.0
 11
4913.9044819999999
 21
4456.0222290000011
 31
0.0
  0
LINE
  5
7DBD
  8
0
  6
BYBLOCK
 62
     0
 10
5154.9044819999999
 20
4049.9233889999991
 30
0.0
 11
5154.9044819999999
 21
4456.0222290000011
 31
0.0
  0
LINE
  5
7DBE
  8
0
  6
BYBLOCK
 62
     0
 10
4973.9044819999999
 20
4426.0222289999992
 30
0.0
 11
5094.9044819999999
 21
4426.0222289999992
 31
0.0
  0
TEXT
  5
7DBF
  8
3
 62
     0
 10
4932.4102897711027
 20
4477.3250214749487
 30
0.0
 40
90.0
  1
241
  0
INSERT
  5
7DC0
  8
0
  6
BYBLOCK
 62
     0
  2
_OPEN
 10
4913.9044819999999
 20
4426.0222289999992
 30
0.0
 41
60.0
 42
60.0
 43
60.0
 50
180.0
  0
INSERT
  5
7DC1
  8
0
  6
BYBLOCK
 62
     0
  2
_OPEN
 10
5154.9044819999999
 20
4426.0222289999992
 30
0.0
 41
60.0
 42
60.0
 43
60.0
  0
POINT
  5
7DC2
  8
DEFPOINTS
  6
BYBLOCK
 62
     0
 10
4913.9044819999999
 20
4366.5642440000001
 30
0.0
  0
POINT
  5
7DC3
  8
DEFPOINTS
  6
BYBLOCK
 62
     0
 10
5154.9044819999999
 20
4034.923389
 30
0.0
  0
POINT
  5
7DC4
  8
DEFPOINTS
  6
BYBLOCK
 62
     0
 10
5154.9044819999999
 20
4426.0222289999992
 30
0.0
  0
ENDBLK
  5
7DC5
  8
0
  0
BLOCK
  8
0
  2
*D13
 70
     1
 10
0.0
 20
0.0
 30
0.0
  3
*D13
  1

  0
LINE
  5
7FBA
  8
3
 62
     0
 10
1813.464618
 20
2689.923389
 30
0.0
 11
1813.464618
 21
2466.987145790295
 31
0.0
  0
LINE
  5
7FBB
  8
3
 62
     0
 10
2243.464618
 20
2689.923389
 30
0.0
 11
2243.464618
 21
2466.987145790295
 31
0.0
  0
LINE
  5
7FBC
  8
3
 62
     0
 10
1873.4646179999991
 20
2496.987145790295
 30
0.0
 11
2183.464618
 21
2496.987145790295
 31
0.0
  0
INSERT
  5
7FBD
  8
3
 62
     0
  2
_OPEN
 10
1813.464618
 20
2496.987145790295
 30
0.0
 41
60.0
 42
60.0
 43
60.0
 50
180.0
  0
INSERT
  5
7FBE
  8
3
 62
     0
  2
_OPEN
 10
2243.464618
 20
2496.987145790295
 30
0.0
 41
60.0
 42
60.0
 43
60.0
  0
TEXT
  8
3
  40
90
  5
7FF8
  62
0
  72
0
  71
0
 10
1848.46
 20
2412.69
 30
0.000000
  1
430
  0
POINT
  5
7FC0
  8
DEFPOINTS
 62
     0
 10
1813.464618
 20
2704.923389
 30
0.0
  0
POINT
  5
7FC1
  8
DEFPOINTS
 62
     0
 10
2243.464618
 20
2704.923389000001
 30
0.0
  0
POINT
  5
7FC2
  8
DEFPOINTS
 62
     0
 10
2243.464618
 20
2496.987145790295
 30
0.0
  0
ENDBLK
  5
7E11
  8
0
  0
BLOCK
  8
0
  2
*D14
 70
     1
 10
0.0
 20
0.0
 30
0.0
  3
*D14
  1

  0
LINE
  5
7FC3
  8
3
 62
     0
 10
2243.464618
 20
2689.923389
 30
0.0
 11
2243.464618
 21
2466.987145790295
 31
0.0
  0
LINE
  5
7FC4
  8
3
 62
     0
 10
3223.4646179999991
 20
2689.923389
 30
0.0
 11
3223.4646179999991
 21
2466.987145790295
 31
0.0
  0
LINE
  5
7FC5
  8
3
 62
     0
 10
2303.464618
 20
2496.987145790295
 30
0.0
 11
3163.464618
 21
2496.987145790295
 31
0.0
  0
INSERT
  5
7FC6
  8
3
 62
     0
  2
_OPEN
 10
2243.464618
 20
2496.987145790295
 30
0.0
 41
60.0
 42
60.0
 43
60.0
 50
180.0
  0
INSERT
  5
7FC7
  8
3
 62
     0
  2
_OPEN
 10
3223.4646179999991
 20
2496.987145790295
 30
0.0
 41
60.0
 42
60.0
 43
60.0
  0
TEXT
  8
3
  40
90
  5
7FF9
  62
0
  72
0
  71
0
 10
2553.46
 20
2412.69
 30
0.000000
  1
980
  0
POINT
  5
7FC9
  8
DEFPOINTS
 62
     0
 10
2243.464618
 20
2704.923389000001
 30
0.0
  0
POINT
  5
7FCA
  8
DEFPOINTS
 62
     0
 10
3223.4646179999991
 20
2704.923389
 30
0.0
  0
POINT
  5
7FCB
  8
DEFPOINTS
 62
     0
 10
3223.4646179999991
 20
2496.987145790295
 30
0.0
  0
ENDBLK
  5
7E1E
  8
0
  0
BLOCK
  8
0
  2
*D15
 70
     1
 10
0.0
 20
0.0
 30
0.0
  3
*D15
  1

  0
LINE
  5
7FCC
  8
3
 62
     0
 10
4502.9044819999999
 20
2689.923389
 30
0.0
 11
4502.9044819999999
 21
2466.987145790295
 31
0.0
  0
LINE
  5
7FCD
  8
3
 62
     0
 10
4913.904481999999
 20
2689.923389
 30
0.0
 11
4913.904481999999
 21
2466.987145790295
 31
0.0
  0
LINE
  5
7FCE
  8
3
 62
     0
 10
4562.904481999999
 20
2496.987145790295
 30
0.0
 11
4853.904481999999
 21
2496.987145790295
 31
0.0
  0
INSERT
  5
7FCF
  8
3
 62
     0
  2
_OPEN
 10
4502.9044819999999
 20
2496.987145790295
 30
0.0
 41
60.0
 42
60.0
 43
60.0
 50
180.0
  0
INSERT
  5
7FD0
  8
3
 62
     0
  2
_OPEN
 10
4913.904481999999
 20
2496.987145790295
 30
0.0
 41
60.0
 42
60.0
 43
60.0
  0
TEXT
  8
3
  40
90
  5
7FFA
  62
0
  72
0
  71
0
 10
4528.40
 20
2412.69
 30
0.000000
  1
411
  0
POINT
  5
7FD2
  8
DEFPOINTS
 62
     0
 10
4502.9044819999999
 20
2704.923389
 30
0.0
  0
POINT
  5
7FD3
  8
DEFPOINTS
 62
     0
 10
4913.904481999999
 20
2704.9233889999991
 30
0.0
  0
POINT
  5
7FD4
  8
DEFPOINTS
 62
     0
 10
4913.904481999999
 20
2496.987145790295
 30
0.0
  0
ENDBLK
  5
7E2B
  8
0
  0
BLOCK
  8
0
  2
*D16
 70
     1
 10
0.0
 20
0.0
 30
0.0
  3
*D16
  1

  0
LINE
  5
7FD5
  8
3
 62
     0
 10
4913.904481999999
 20
2689.923389
 30
0.0
 11
4913.904481999999
 21
2466.987145790295
 31
0.0
  0
LINE
  5
7FD6
  8
3
 62
     0
 10
5202.9044819999999
 20
2689.923389
 30
0.0
 11
5202.9044819999999
 21
2466.987145790295
 31
0.0
  0
LINE
  5
7FD7
  8
3
 62
     0
 10
4973.904481999999
 20
2496.987145790295
 30
0.0
 11
5142.9044819999999
 21
2496.987145790295
 31
0.0
  0
INSERT
  5
7FD8
  8
3
 62
     0
  2
_OPEN
 10
4913.904481999999
 20
2496.987145790295
 30
0.0
 41
60.0
 42
60.0
 43
60.0
 50
180.0
  0
INSERT
  5
7FD9
  8
3
 62
     0
  2
_OPEN
 10
5202.9044819999999
 20
2496.987145790295
 30
0.0
 41
60.0
 42
60.0
 43
60.0
  0
TEXT
  8
3
  40
90
  5
7FFB
  62
0
  72
0
  71
0
 10
4878.40
 20
2412.69
 30
0.000000
  1
289
  0
POINT
  5
7FDB
  8
DEFPOINTS
 62
     0
 10
4913.904481999999
 20
2704.9233889999991
 30
0.0
  0
POINT
  5
7FDC
  8
DEFPOINTS
 62
     0
 10
5202.9044819999999
 20
2704.923389
 30
0.0
  0
POINT
  5
7FDD
  8
DEFPOINTS
 62
     0
 10
5202.9044819999999
 20
2496.987145790295
 30
0.0
  0
ENDBLK
  5
7E3A
  8
0
  0
BLOCK
  8
0
  2
_DOT
 70
     0
 10
0.0
 20
0.0
 30
0.0
  3
_DOT
  1

  0
POLYLINE
  5
7E3E
  8
0
  6
BYBLOCK
 62
     0
 66
     1
 10
0.0
 20
0.0
 30
0.0
 70
     1
 40
0.5
 41
0.5
  0
VERTEX
  5
7FDE
  8
0
  6
BYBLOCK
 62
     0
 10
-0.25
 20
0.0
 30
0.0
 42
1.0
  0
VERTEX
  5
7FDF
  8
0
  6
BYBLOCK
 62
     0
 10
0.25
 20
0.0
 30
0.0
 42
1.0
  0
SEQEND
  5
7FE0
  8
0
  6
BYBLOCK
 62
     0
  0
LINE
  5
7E42
  8
0
  6
BYBLOCK
 62
     0
 10
-0.5
 20
0.0
 30
0.0
 11
-1.0
 21
0.0
 31
0.0
  0
ENDBLK
  5
7E43
  8
0
  0
BLOCK
  8
0
  2
*D18
 70
     1
 10
0.0
 20
0.0
 30
0.0
  3
*D18
  1

  0
LINE
  5
7FE1
  8
3
 62
     0
 10
1798.4646179999991
 20
2804.923389
 30
0.0
 11
1242.744487845629
 21
2804.923389
 31
0.0
  0
LINE
  5
7FE2
  8
3
 62
     0
 10
1798.4646179999991
 20
2704.923389
 30
0.0
 11
1242.744487845629
 21
2704.923389
 31
0.0
  0
LINE
  5
7FE3
  8
3
 62
     0
 10
1272.744487845629
 20
2864.923389
 30
0.0
 11
1272.744487845629
 21
2924.9233889999991
 31
0.0
  0
LINE
  5
7FE4
  8
3
 62
     0
 10
1272.744487845629
 20
2644.923389
 30
0.0
 11
1272.744487845629
 21
2310.6376747142849
 31
0.0
  0
LINE
  5
7FE5
  8
3
 62
     0
 10
1272.744487845629
 20
2804.923389
 30
0.0
 11
1272.744487845629
 21
2704.923389
 31
0.0
  0
INSERT
  5
7FE6
  8
3
 62
     0
  2
_DOT
 10
1272.744487845629
 20
2804.923389
 30
0.0
 41
60.0
 42
60.0
 43
60.0
 50
270.0
  0
INSERT
  5
7FE7
  8
3
 62
     0
  2
_OPEN
 10
1272.744487845629
 20
2704.923389
 30
0.0
 41
60.0
 42
60.0
 43
60.0
 50
90.0
  0
TEXT
  8
3
  40
90
  5
7FFC
  62
0
  72
0
  71
0
 10
1017.74
 20
2288.48
 30
0.000000
  1
100
  0
POINT
  5
7FE9
  8
DEFPOINTS
 62
     0
 10
1813.464618
 20
2804.923389
 30
0.0
  0
POINT
  5
7FEA
  8
DEFPOINTS
 62
     0
 10
1813.464618
 20
2704.923389
 30
0.0
  0
POINT
  5
7FEB
  8
DEFPOINTS
 62
     0
 10
1272.744487845629
 20
2704.923389
 30
0.0
  0
ENDBLK
  5
7E51
  8
0
  0
BLOCK
  8
0
  2
*D19
 70
     1
 10
0.0
 20
0.0
 30
0.0
  3
*D19
  1

  0
LINE
  5
7E55
  8
0
  6
BYBLOCK
 62
     0
 10
1798.4646179999991
 20
2804.923389
 30
0.0
 11
1242.744487845629
 21
2804.923389
 31
0.0
  0
LINE
  5
7E56
  8
0
  6
BYBLOCK
 62
     0
 10
1798.4646179999991
 20
2899.9233889999991
 30
0.0
 11
1242.744487845629
 21
2899.9233889999991
 31
0.0
  0
LINE
  5
7E57
  8
0
  6
BYBLOCK
 62
     0
 10
1272.744487845629
 20
2744.923389
 30
0.0
 11
1272.744487845629
 21
2684.923389
 31
0.0
  0
LINE
  5
7E58
  8
0
  6
BYBLOCK
 62
     0
 10
1272.744487845629
 20
2959.923389
 30
0.0
 11
1272.744487845629
 21
3019.923389
 31
0.0
  0
TEXT
  5
7E59
  8
3
 62
     0
 10
1159.173059274201
 20
2721.7091032857138
 30
0.0
 40
90.0
  1
(95)
 50
90.0
  0
LINE
  5
7E5A
  8
0
  6
BYBLOCK
 62
     0
 10
1272.744487845629
 20
2804.923389
 30
0.0
 11
1272.744487845629
 21
2899.9233889999991
 31
0.0
  0
INSERT
  5
7E5B
  8
0
  6
BYBLOCK
 62
     0
  2
_DOT
 10
1272.744487845629
 20
2804.923389
 30
0.0
 41
60.0
 42
60.0
 43
60.0
 50
90.0
  0
INSERT
  5
7E5C
  8
0
  6
BYBLOCK
 62
     0
  2
_OPEN
 10
1272.744487845629
 20
2899.9233889999991
 30
0.0
 41
60.0
 42
60.0
 43
60.0
 50
270.0
  0
POINT
  5
7E5D
  8
DEFPOINTS
  6
BYBLOCK
 62
     0
 10
1813.464618
 20
2804.923389
 30
0.0
  0
POINT
  5
7E5E
  8
DEFPOINTS
  6
BYBLOCK
 62
     0
 10
1813.464618
 20
2899.9233889999991
 30
0.0
  0
POINT
  5
7E5F
  8
DEFPOINTS
  6
BYBLOCK
 62
     0
 10
1272.744487845629
 20
2899.9233889999991
 30
0.0
  0
ENDBLK
  5
7E60
  8
0
  0
ENDSEC
  0
SECTION
  2
ENTITIES
  0
LINE
  5
7ABA
  8
1
  6
CONTINUOUS
 10
3223.4646179999991
 20
2704.923389
 30
0.0
 11
1813.464618
 21
2704.923389
 31
0.0
  0
LINE
  5
7ABB
  8
1
  6
CONTINUOUS
 10
1813.464618
 20
2804.923389
 30
0.0
 11
3223.4646179999991
 21
2804.923389
 31
0.0
  0
LINE
  5
7ABC
  8
1
  6
CONTINUOUS
 10
2924.1086030000001
 20
3130.7600640000001
 30
0.0
 11
2168.080418
 21
3570.242154999999
 31
0.0
  0
LINE
  5
7ABD
  8
1
  6
CONTINUOUS
 10
3015.0086249999999
 20
3261.8104250000001
 30
0.0
 11
2338.5179600000001
 21
3815.9615809999991
 31
0.0
  0
ARC
  5
7ABE
  8
1
  6
CONTINUOUS
 10
2278.464618
 20
3664.923389
 30
0.0
 40
488.25444700000003
 50
4.5139879999999986
 51
97.352379000000013
  0
ARC
  5
7ABF
  8
1
  6
CONTINUOUS
 10
2202.464618
 20
3658.923389
 30
0.0
 40
564.49092099999984
 50
274.165164
 51
4.5139879999999986
  0
LINE
  5
7AC0
  8
1
  6
CONTINUOUS
 10
3173.464618
 20
3299.9233889999991
 30
0.0
 11
2343.464618
 21
3999.923389
 31
0.0
  0
LINE
  5
7AC1
  8
1
  6
CONTINUOUS
 10
1813.464618
 20
2999.923389
 30
0.0
 11
3223.4646179999991
 21
2999.923389
 31
0.0
  0
LINE
  5
7AC2
  8
1
  6
CONTINUOUS
 10
3223.4646179999991
 20
2899.9233889999991
 30
0.0
 11
1813.464618
 21
2899.9233889999991
 31
0.0
  0
LINE
  5
7AC3
  8
1
  6
CONTINUOUS
 10
2884.3135090000001
 20
5345.6280559999996
 30
0.0
 11
2393.464618
 21
5345.6280559999996
 31
0.0
  0
LINE
  5
7AC4
  8
1
  6
CONTINUOUS
 10
1813.464618
 20
6045.6280559999996
 30
0.0
 11
3223.4646179999991
 21
6045.6280559999996
 31
0.0
  0
LINE
  5
7AC5
  8
1
  6
CONTINUOUS
 10
1758.464618
 20
5519.1280559999996
 30
0.0
 11
2766.955539
 21
5519.1280559999996
 31
0.0
  0
LINE
  5
7AC6
  8
1
  6
CONTINUOUS
 10
1758.464618
 20
5994.1280559999996
 30
0.0
 11
2766.955539
 21
5994.1280559999996
 31
0.0
  0
LINE
  5
7AC7
  8
1
  6
CONTINUOUS
 10
1903.464618
 20
5416.6280559999996
 30
0.0
 11
3173.464618
 21
5416.6280559999996
 31
0.0
  0
LINE
  5
7AC8
  8
1
  6
CONTINUOUS
 10
1903.464618
 20
5276.6280559999996
 30
0.0
 11
3173.464618
 21
5276.6280559999996
 31
0.0
  0
LINE
  5
7ACA
  8
1
  6
CONTINUOUS
 10
1813.4646179999991
 20
2999.923389
 30
0.0
 11
2685.464618
 21
2999.923389
 31
0.0
  0
LINE
  5
7ACB
  8
1
  6
CONTINUOUS
 10
2264.4646179999991
 20
5381.6280559999996
 30
0.0
 11
2264.4646179999991
 21
5519.1280559999996
 31
0.0
  0
LINE
  5
7ACC
  8
1
  6
CONTINUOUS
 10
2222.464618
 20
5381.6280559999996
 30
0.0
 11
2222.464618
 21
5519.1280559999996
 31
0.0
  0
LINE
  5
7ACD
  8
1
  6
CONTINUOUS
 10
1758.464618
 20
5476.6280559999996
 30
0.0
 11
1758.464618
 21
6036.6280560000014
 31
0.0
  0
LINE
  5
7ACE
  8
1
  6
CONTINUOUS
 10
1813.464618
 20
5345.6280559999996
 30
0.0
 11
1813.464618
 21
5519.1280559999996
 31
0.0
  0
ARC
  5
7ACF
  8
1
  6
CONTINUOUS
 10
2270.464618
 20
3726.923389
 30
0.0
 40
425.74044800000001
 50
97.352379000000013
 51
179.596259
  0
LINE
  5
7AD0
  8
1
  6
CONTINUOUS
 10
1903.464618
 20
2999.923389
 30
0.0
 11
1903.464618
 21
3999.923389
 31
0.0
  0
LINE
  5
7AD4
  8
1
  6
CONTINUOUS
 10
1788.464618
 20
3729.923389
 30
0.0
 11
1788.464618
 21
3080.9130789999999
 31
0.0
  0
LINE
  5
7AD5
  8
1
  6
CONTINUOUS
 10
1758.464618
 20
3769.923389
 30
0.0
 11
1758.464618
 21
3039.923389
 31
0.0
  0
LINE
  5
7AD6
  8
1
  6
CONTINUOUS
 10
1758.464618
 20
3079.923389
 30
0.0
 11
2243.464618
 21
3095.923389
 31
0.0
  0
LINE
  5
7AD7
  8
1
  6
CONTINUOUS
 10
1813.464618
 20
2704.923389
 30
0.0
 11
1813.464618
 21
2804.923389
 31
0.0
  0
LINE
  5
7AD8
  8
1
  6
CONTINUOUS
 10
1813.464618
 20
2899.9233889999991
 30
0.0
 11
1813.464618
 21
2999.923389
 31
0.0
  0
CIRCLE
  5
7AD9
  8
1
  6
CONTINUOUS
 10
2243.464618
 20
3699.923389
 30
0.0
 40
150.0
  0
LINE
  5
7ADA
  8
2
  6
CENTER
 10
1658.4555339999999
 20
3699.923389
 30
0.0
 11
2973.1109179999999
 21
3699.923389
 31
0.0
  0
LINE
  5
7ADB
  8
1
  6
CONTINUOUS
 10
1844.734739
 20
3729.923389
 30
0.0
 11
1758.464618
 21
3729.923389
 31
0.0
  0
LINE
  5
7ADC
  8
2
  6
CENTER
 10
2243.464618
 20
6146.5182329999998
 30
0.0
 11
2243.464618
 21
5153.138050999999
 31
0.0
  0
LINE
  5
7ADD
  8
1
  6
CONTINUOUS
 10
1903.464618
 20
3999.923389
 30
0.0
 11
2343.464618
 21
3999.923389
 31
0.0
  0
LINE
  5
7ADE
  8
1
  6
CONTINUOUS
 10
2393.464618
 20
5311.6280559999996
 30
0.0
 11
2093.464618
 21
5311.6280559999996
 31
0.0
  0
LINE
  5
7ADF
  8
1
  6
CONTINUOUS
 10
2393.464618
 20
5381.6280559999996
 30
0.0
 11
2093.464618
 21
5381.6280559999996
 31
0.0
  0
LINE
  5
7AE0
  8
1
  6
CONTINUOUS
 10
2093.464618
 20
5345.6280559999996
 30
0.0
 11
1813.464618
 21
5345.6280559999996
 31
0.0
  0
LINE
  5
7AE1
  8
1
  6
CONTINUOUS
 10
1903.464618
 20
5276.6280559999996
 30
0.0
 11
1903.464618
 21
5416.6280559999996
 31
0.0
  0
LINE
  5
7AE2
  8
1
  6
CONTINUOUS
 10
2093.464618
 20
5311.6280559999996
 30
0.0
 11
2093.464618
 21
5381.6280559999996
 31
0.0
  0
LINE
  5
7AE3
  8
1
  6
CONTINUOUS
 10
2393.464618
 20
5311.6280559999996
 30
0.0
 11
2393.464618
 21
5381.6280559999996
 31
0.0
  0
LINE
  5
7AE4
  8
1
  6
CONTINUOUS
 10
1798.4646179999991
 20
5519.1280559999996
 30
0.0
 11
1798.4646179999991
 21
5994.1280559999996
 31
0.0
  0
LINE
  5
7AE5
  8
1
  6
CONTINUOUS
 10
1813.464618
 20
5994.1280559999996
 30
0.0
 11
1813.464618
 21
6045.6280559999996
 31
0.0
  0
LINE
  5
7AED
  8
1
  6
CONTINUOUS
 10
3126.3135090000001
 20
5448.3599729999987
 30
0.0
 11
3126.3135090000001
 21
5933.3599729999987
 31
0.0
  0
LINE
  5
7AEE
  8
1
  6
CONTINUOUS
 10
2802.3135090000001
 20
5448.3599729999987
 30
0.0
 11
2802.3135090000001
 21
5933.3599729999987
 31
0.0
  0
LINE
  5
7AEF
  8
1
  6
CONTINUOUS
 10
3223.4646179999991
 20
6045.6280559999996
 30
0.0
 11
3223.4646179999991
 21
5345.6280559999996
 31
0.0
  0
CIRCLE
  5
7B05
  8
1
  6
CONTINUOUS
 10
2964.3135090000001
 20
3199.923389
 30
0.0
 40
80.0
  0
LINE
  5
7B06
  8
2
  6
CENTER
 10
2964.3135090000001
 20
3279.923389
 30
0.0
 11
2964.3135090000001
 21
3119.923389
 31
0.0
  0
ARC
  5
7B07
  8
1
  6
CONTINUOUS
 10
2964.3135090000001
 20
3199.923389
 30
0.0
 40
162.0
 50
324.972283
 51
215.02771699999991
  0
LINE
  5
7B08
  8
1
  6
CONTINUOUS
 10
3173.464618
 20
2999.923389
 30
0.0
 11
3173.464618
 21
3299.9233889999991
 31
0.0
  0
LINE
  5
7B09
  8
1
  6
CONTINUOUS
 10
3118.3135090000001
 20
3057.923389
 30
0.0
 11
3096.9711750000001
 21
3106.9398219999998
 31
0.0
  0
LINE
  5
7B0A
  8
1
  6
CONTINUOUS
 10
2810.3135090000001
 20
3057.923389
 30
0.0
 11
2831.6558439999999
 21
3106.9398219999998
 31
0.0
  0
LINE
  5
7B0B
  8
1
  6
CONTINUOUS
 10
3118.3135090000001
 20
3039.923389
 30
0.0
 11
3118.3135090000001
 21
3057.923389
 31
0.0
  0
LINE
  5
7B0C
  8
1
  6
CONTINUOUS
 10
2810.3135090000001
 20
2999.923389
 30
0.0
 11
2810.3135090000001
 21
3057.923389
 31
0.0
  0
LINE
  5
7B0D
  8
1
  6
CONTINUOUS
 10
3118.3135090000001
 20
2999.923389
 30
0.0
 11
3118.3135090000001
 21
3057.923389
 31
0.0
  0
LINE
  5
7B0E
  8
1
  6
CONTINUOUS
 10
2810.3135090000001
 20
3039.923389
 30
0.0
 11
3118.3135090000001
 21
3039.923389
 31
0.0
  0
LINE
  5
7B0F
  8
1
  6
CONTINUOUS
 10
3223.4646179999991
 20
2804.923389
 30
0.0
 11
3223.4646179999991
 21
2704.923389
 31
0.0
  0
LINE
  5
7B10
  8
1
  6
CONTINUOUS
 10
3223.4646179999991
 20
2999.923389
 30
0.0
 11
3223.4646179999991
 21
2899.9233889999991
 31
0.0
  0
LINE
  5
7B11
  8
2
  6
CENTER
 10
2884.3135090000001
 20
3199.923389
 30
0.0
 11
3044.3135090000001
 21
3199.923389
 31
0.0
  0
LINE
  5
7B1B
  8
1
  6
CONTINUOUS
 10
3223.4646179999991
 20
5345.6280559999996
 30
0.0
 11
3044.3135090000001
 21
5345.6280559999996
 31
0.0
  0
LINE
  5
7B1C
  8
1
  6
CONTINUOUS
 10
2943.3135090000001
 20
5381.6280559999996
 30
0.0
 11
2943.3135090000001
 21
5448.3599729999987
 31
0.0
  0
LINE
  5
7B1D
  8
1
  6
CONTINUOUS
 10
2985.3135090000001
 20
5381.6280559999996
 30
0.0
 11
2985.3135090000001
 21
5448.3599729999987
 31
0.0
  0
LINE
  5
7B1E
  8
1
  6
CONTINUOUS
 10
3044.3135090000001
 20
5311.6280559999996
 30
0.0
 11
3044.3135090000001
 21
5381.6280559999996
 31
0.0
  0
LINE
  5
7B1F
  8
1
  6
CONTINUOUS
 10
2884.3135090000001
 20
5311.6280559999996
 30
0.0
 11
2884.3135090000001
 21
5381.6280559999996
 31
0.0
  0
LINE
  5
7B20
  8
1
  6
CONTINUOUS
 10
3044.3135090000001
 20
5311.6280559999996
 30
0.0
 11
2884.3135090000001
 21
5311.6280559999996
 31
0.0
  0
LINE
  5
7B21
  8
1
  6
CONTINUOUS
 10
3044.3135090000001
 20
5381.6280559999996
 30
0.0
 11
2884.3135090000001
 21
5381.6280559999996
 31
0.0
  0
LINE
  5
7B22
  8
1
  6
CONTINUOUS
 10
3126.3135090000001
 20
5448.3599729999987
 30
0.0
 11
2802.3135090000001
 21
5448.3599729999987
 31
0.0
  0
LINE
  5
7B23
  8
1
  6
CONTINUOUS
 10
3173.464618
 20
5276.6280559999996
 30
0.0
 11
3173.464618
 21
5416.6280559999996
 31
0.0
  0
LINE
  5
7B45
  8
1
  6
CONTINUOUS
 10
4676.4044819999999
 20
2999.923389
 30
0.0
 11
4676.4044819999999
 21
4153.1778359999998
 31
0.0
  0
LINE
  5
7B46
  8
1
  6
CONTINUOUS
 10
5151.4044819999999
 20
2999.923389
 30
0.0
 11
5151.4044819999999
 21
4153.1778359999998
 31
0.0
  0
LINE
  5
7B47
  8
1
  6
CONTINUOUS
 10
4433.904481999999
 20
3999.923389
 30
0.0
 11
4433.904481999999
 21
2999.923389
 31
0.0
  0
LINE
  5
7B48
  8
1
  6
CONTINUOUS
 10
4573.904481999999
 20
3999.923389
 30
0.0
 11
4573.904481999999
 21
2999.923389
 31
0.0
  0
LINE
  5
7B49
  8
1
  6
CONTINUOUS
 10
5151.4044819999999
 20
3079.923389
 30
0.0
 11
4676.4044819999999
 21
3729.923389
 31
0.0
  0
LINE
  5
7B4A
  8
1
  6
CONTINUOUS
 10
4676.4044819999999
 20
3079.923389
 30
0.0
 11
5151.4044819999999
 21
3729.923389
 31
0.0
  0
LINE
  5
7B4B
  8
1
  6
CONTINUOUS
 10
4538.9044819999999
 20
3279.923389
 30
0.0
 11
4538.9044819999999
 21
3119.923389
 31
0.0
  0
LINE
  5
7B4C
  8
1
  6
CONTINUOUS
 10
4468.9044819999999
 20
3279.923389
 30
0.0
 11
4468.9044819999999
 21
3119.923389
 31
0.0
  0
LINE
  5
7B4D
  8
1
  6
CONTINUOUS
 10
4502.9044819999999
 20
2899.9233889999991
 30
0.0
 11
5202.9044819999999
 21
2899.9233889999991
 31
0.0
  0
LINE
  5
7B4E
  8
1
  6
CONTINUOUS
 10
4676.4044819999999
 20
3079.923389
 30
0.0
 11
5151.4044819999999
 21
3079.923389
 31
0.0
  0
LINE
  5
7B4F
  8
1
  6
CONTINUOUS
 10
5202.9044819999999
 20
2999.923389
 30
0.0
 11
4502.9044819999999
 21
2999.923389
 31
0.0
  0
LINE
  5
7B50
  8
1
  6
CONTINUOUS
 10
4502.9044819999999
 20
2704.923389
 30
0.0
 11
5202.9044819999999
 21
2704.923389
 31
0.0
  0
LINE
  5
7B51
  8
1
  6
CONTINUOUS
 10
4502.9044819999999
 20
2804.923389
 30
0.0
 11
5202.9044819999999
 21
2804.923389
 31
0.0
  0
LINE
  5
7B52
  8
1
  6
CONTINUOUS
 10
4502.9044819999999
 20
2999.923389
 30
0.0
 11
4502.9044819999999
 21
2899.9233889999991
 31
0.0
  0
LINE
  5
7B53
  8
1
  6
CONTINUOUS
 10
4433.904481999999
 20
2999.923389
 30
0.0
 11
4502.9044819999999
 21
2999.923389
 31
0.0
  0
LINE
  5
7B54
  8
1
  6
CONTINUOUS
 10
4468.9044819999999
 20
3119.923389
 30
0.0
 11
4538.9044819999999
 21
3119.923389
 31
0.0
  0
LINE
  5
7B55
  8
1
  6
CONTINUOUS
 10
4502.9044819999999
 20
2804.923389
 30
0.0
 11
4502.9044819999999
 21
2704.923389
 31
0.0
  0
LINE
  5
7B56
  8
1
  6
CONTINUOUS
 10
5202.9044819999999
 20
2999.923389
 30
0.0
 11
5202.9044819999999
 21
2899.9233889999991
 31
0.0
  0
LINE
  5
7B57
  8
1
  6
CONTINUOUS
 10
5202.9044819999999
 20
2804.923389
 30
0.0
 11
5202.9044819999999
 21
2704.923389
 31
0.0
  0
LINE
  5
7B58
  8
1
  6
CONTINUOUS
 10
4676.4044819999999
 20
3729.923389
 30
0.0
 11
5151.4044819999999
 21
3729.923389
 31
0.0
  0
LINE
  5
7B59
  8
1
  6
CONTINUOUS
 10
4468.9044819999999
 20
3849.923389
 30
0.0
 11
4538.9044819999999
 21
3849.923389
 31
0.0
  0
LINE
  5
7B5A
  8
1
  6
CONTINUOUS
 10
4468.9044819999999
 20
3549.9233889999991
 30
0.0
 11
4538.9044819999999
 21
3549.9233889999991
 31
0.0
  0
LINE
  5
7B5B
  8
1
  6
CONTINUOUS
 10
4538.9044819999999
 20
3849.923389
 30
0.0
 11
4538.9044819999999
 21
3549.9233889999991
 31
0.0
  0
LINE
  5
7B5C
  8
1
  6
CONTINUOUS
 10
4468.9044819999999
 20
3849.923389
 30
0.0
 11
4468.9044819999999
 21
3549.9233889999991
 31
0.0
  0
LINE
  5
7B5D
  8
1
  6
CONTINUOUS
 10
4538.9044819999999
 20
3720.923389
 30
0.0
 11
4676.4044819999999
 21
3720.923389
 31
0.0
  0
LINE
  5
7B5E
  8
1
  6
CONTINUOUS
 10
4538.9044819999999
 20
3678.9233889999991
 30
0.0
 11
4676.4044819999999
 21
3678.9233889999991
 31
0.0
  0
LINE
  5
7B5F
  8
1
  6
CONTINUOUS
 10
4468.9044819999999
 20
3279.923389
 30
0.0
 11
4538.9044819999999
 21
3279.923389
 31
0.0
  0
LINE
  5
7B60
  8
1
  6
CONTINUOUS
 10
4538.9044819999999
 20
3220.923389
 30
0.0
 11
4676.4044819999999
 21
3220.923389
 31
0.0
  0
LINE
  5
7B61
  8
1
  6
CONTINUOUS
 10
4538.9044819999999
 20
3178.923389
 30
0.0
 11
4676.4044819999999
 21
3178.923389
 31
0.0
  0
LINE
  5
7B62
  8
1
  6
CONTINUOUS
 10
4676.4044819999999
 20
4153.1778359999998
 30
0.0
 11
5151.4044819999999
 21
4153.1778359999998
 31
0.0
  0
LINE
  5
7B63
  8
1
  6
CONTINUOUS
 10
4573.904481999999
 20
3999.923389
 30
0.0
 11
4433.904481999999
 21
3999.923389
 31
0.0
  0
LINE
  5
7B66
  8
1
  6
CONTINUOUS
 10
2766.955539
 20
5519.1280559999996
 30
0.0
 11
2766.955539
 21
5994.1280559999996
 31
0.0
  0
LINE
  5
7B67
  8
1
  6
CONTINUOUS
 10
3126.3135090000001
 20
5933.3599729999987
 30
0.0
 11
2802.3135090000001
 21
5933.3599729999987
 31
0.0
  0
LINE
  5
7B68
  8
1
  6
CONTINUOUS
 10
2802.3135090000001
 20
5770.0764209999988
 30
0.0
 11
2802.3135090000001
 21
5527.8293809999996
 31
0.0
  0
LINE
  5
7B6F
  8
2
  6
CENTER
 10
3274.2465978471628
 20
5756.6280559999996
 30
0.0
 11
1637.011581
 21
5756.6280559999996
 31
0.0
  0
LINE
  5
7B70
  8
2
  6
CENTER
 10
4913.9044819999999
 20
4252.5962469999986
 30
0.0
 11
4913.904481999999
 21
2704.9233889999991
 31
0.0
  0
LINE
  5
7B71
  8
2
  6
CENTER
 10
2243.464618
 20
4331.1353529999988
 30
0.0
 11
2243.464618
 21
2704.923389000001
 31
0.0
  0
LINE
  5
7B72
  8
2
  6
CENTER
 10
4318.9838479999999
 20
3699.923389
 30
0.0
 11
5247.9572840000001
 21
3699.923389
 31
0.0
  0
LINE
  5
7B73
  8
4
  6
CONTINUOUS
 10
5550.0
 20
1500.0
 30
0.0
 11
5550.0
 21
900.0
 31
0.0
  0
LINE
  5
7B74
  8
4
  6
CONTINUOUS
 10
3450.0
 20
1500.0
 30
0.0
 11
3450.0
 21
900.0
 31
0.0
  0
LINE
  5
7B75
  8
4
  6
CONTINUOUS
 10
1950.0
 20
1500.0
 30
0.0
 11
1950.0
 21
900.0
 31
0.0
  0
LINE
  5
7B78
  8
4
  6
CONTINUOUS
 10
1950.0
 20
900.0
 30
0.0
 11
5550.0
 21
900.0
 31
0.0
  0
LINE
  5
7B79
  8
4
  6
CONTINUOUS
 10
1950.0
 20
1200.0
 30
0.0
 11
5550.0
 21
1200.0
 31
0.0
  0
TEXT
  5
7B7A
  8
4
  6
CONTINUOUS
 10
2065.5062429999989
 20
1294.6290779999999
 30
0.0
 40
150.0
  1
機器名称
  0
TEXT
  5
7B7B
  8
4
  6
CONTINUOUS
 10
2058.7743179999989
 20
964.9354699999999
 30
0.0
 40
150.0
  1
機器型番
  0
TEXT
  5
7B7C
  8
4
  6
CONTINUOUS
 10
3533.0362359999999
 20
1267.7153069999999
 30
0.0
 40
150.0
  1
ミツヤ多翼送風機
  0
TEXT
  5
7B7D
  8
4
  6
CONTINUOUS
 10
3559.9634869999991
 20
951.47875299999987
 30
0.0
 40
150.0
  1
MFE#4-4
  0
TEXT
  5
7B7F
  8
4
  6
CONTINUOUS
 10
2290.8858809999988
 20
7150.2865239999992
 30
0.0
 40
162.0
  1
床置防振ベット
  0
TEXT
  5
7B80
  8
4
  6
CONTINUOUS
 10
948.50278000000014
 20
7601.6429289999996
 30
0.0
 40
216.0
  1
ベルト駆動式片吸込両持排煙ファン
  0
LINE
  5
7B81
  8
4
  6
CONTINUOUS
 10
750.0
 20
7408.2262629999996
 30
0.0
 11
5550.0
 21
7408.2262629999996
 31
0.0
  0
LINE
  5
7B82
  8
4
  6
CONTINUOUS
 10
750.0
 20
8008.2262629999996
 30
0.0
 11
5550.0
 21
8008.2262629999996
 31
0.0
  0
LINE
  5
7B83
  8
4
  6
CONTINUOUS
 10
1950.0
 20
1500.0
 30
0.0
 11
5550.0
 21
1500.0
 31
0.0
  0
LINE
  5
7B84
  8
4
  6
CONTINUOUS
 10
750.0
 20
8008.2262629999996
 30
0.0
 11
750.0
 21
7408.2262629999996
 31
0.0
  0
TEXT
  5
7B85
  8
4
  6
CONTINUOUS
 10
983.30938499999991
 20
7146.9584329999998
 30
0.0
 40
162.0
  1
右回転左横向
  0
TEXT
  5
7B86
  8
4
  6
CONTINUOUS
 10
4406.9086779999989
 20
8118.1832439999989
 30
0.0
 40
168.0
  1
No.
  0
TEXT
  5
7B87
  8
4
  6
CONTINUOUS
 10
3933.8881879999999
 20
7150.2865239999992
 30
0.0
 40
162.0
  1
縮尺：1/30
  0
LINE
  5
7B88
  8
4
  6
CONTINUOUS
 10
5550.0
 20
8008.2262629999996
 30
0.0
 11
5550.0
 21
7408.2262629999996
 31
0.0
  0
LINE
  5
7B8A
  8
4
  6
CONTINUOUS
 10
4321.8522670000002
 20
8043.7907490000007
 30
0.0
 11
4321.8522670000002
 21
8359.9567849999985
 31
0.0
  0
LINE
  5
7B8B
  8
4
  6
CONTINUOUS
 10
4321.8522670000002
 20
8359.9567849999985
 30
0.0
 11
5550.0
 21
8359.9567849999985
 31
0.0
  0
LINE
  5
7B8C
  8
4
  6
CONTINUOUS
 10
5550.0
 20
8359.9567849999985
 30
0.0
 11
5550.0
 21
8043.7907490000007
 31
0.0
  0
LINE
  5
7B8D
  8
4
  6
CONTINUOUS
 10
5550.0
 20
8043.7907490000007
 30
0.0
 11
4321.8522670000002
 21
8043.7907490000007
 31
0.0
  0
DIMENSION
  5
7BA5
  8
3
  6
CONTINUOUS
  2
*D1
 10
1598.777165
 20
3079.923389
 30
0.0
 11
1598.777165
 21
3408.4346179999989
 31
0.0
 70
   128
 13
1758.464618
 23
3729.923389
 33
0.0
 14
1758.464618
 24
3079.923389
 34
0.0
 50
90.0
1001
ACAD
1000
DSTYLE
1002
{
1070
   287
1070
     3
1070
   287
1070
     3
1070
    40
1040
30.0
1070
   143
1040
0.039
1070
   172
1070
     1
1070
   271
1070
     0
1070
   279
1070
     0
1070
   288
1070
     1
1002
}
  0
DIMENSION
  5
7BB2
  8
3
  6
CONTINUOUS
  2
*D2
 10
1433.8029449999999
 20
3079.923389
 30
0.0
 11
1433.8029449999999
 21
3408.4346179999989
 31
0.0
 70
   128
 13
1658.4555339999999
 23
3699.923389
 33
0.0
 14
1758.464618
 24
3079.923389
 34
0.0
 50
90.0
1001
ACAD
1000
DSTYLE
1002
{
1070
   287
1070
     3
1070
   287
1070
     3
1070
    40
1040
30.0
1070
   143
1040
0.039
1070
   172
1070
     1
1070
   271
1070
     0
1070
   279
1070
     0
1070
   288
1070
     1
1002
}
  0
DIMENSION
  5
7BCB
  8
3
  6
CONTINUOUS
  2
*D3
 10
1276.021281
 20
2899.9233889999991
 30
0.0
 11
1201.0212809999989
 21
3299.923389
 31
0.0
 70
     0
 13
1658.4555339999999
 23
3699.923389
 33
0.0
 14
1813.464618
 24
2899.9233889999991
 34
0.0
 50
90.0
1001
ACAD
1000
DSTYLE
1002
{
1070
   287
1070
     4
1070
   287
1070
     4
1070
    40
1040
30.0
1070
    75
1070
     1
1070
   143
1040
0.039
1070
   172
1070
     1
1070
   271
1070
     0
1070
   279
1070
     1
1070
   288
1070
     1
1002
}
  0
DIMENSION
  5
7C0E
  8
3
  6
CONTINUOUS
  2
*D4
 10
2243.464618
 20
4352.5153369999989
 30
0.0
 11
1999.743183
 21
4352.5153369999989
 31
0.0
 70
   128
 13
1758.464618
 23
3769.923389
 33
0.0
 14
2243.464618
 24
4331.1353529999988
 34
0.0
1001
ACAD
1000
DSTYLE
1002
{
1070
   287
1070
     3
1070
   287
1070
     3
1070
    40
1040
30.0
1070
   143
1040
0.039
1070
   172
1070
     1
1070
   271
1070
     0
1070
   279
1070
     0
1070
   288
1070
     1
1002
}
  0
DIMENSION
  5
7C27
  8
3
  6
CONTINUOUS
  2
*D5
 10
4676.4044819999999
 20
4225.3711520000006
 30
0.0
 11
4882.1187680000003
 21
4225.3711520000006
 31
0.0
 70
   128
 13
5151.4044819999999
 23
4153.1778359999998
 33
0.0
 14
4676.4044819999999
 24
4153.1778359999998
 34
0.0
1001
ACAD
1000
DSTYLE
1002
{
1070
   287
1070
     3
1070
   287
1070
     3
1070
    40
1040
30.0
1070
   143
1040
0.039
1070
   172
1070
     1
1070
   271
1070
     0
1070
   279
1070
     0
1070
   288
1070
     1
1002
}
  0
LINE
  5
7C2A
  8
1
  6
CONTINUOUS
 10
5154.9044819999999
 20
3364.9233889999991
 30
0.0
 11
5154.9044819999999
 21
4034.923389
 31
0.0
  0
DIMENSION
  5
7C37
  8
3
  6
CONTINUOUS
  2
*D6
 10
5427.2771140000023
 20
3364.9233889999991
 30
0.0
 11
5427.2771140000004
 21
3687.912906
 31
0.0
 70
   128
 13
5154.9044819999999
 23
4034.923389
 33
0.0
 14
5154.9044819999999
 24
3364.9233889999991
 34
0.0
 50
90.0
1001
ACAD
1000
DSTYLE
1002
{
1070
   287
1070
     3
1070
   287
1070
     3
1070
     3
1000
φ<>
1070
    40
1040
30.0
1070
   143
1040
0.039
1070
   172
1070
     1
1070
   271
1070
     0
1070
   279
1070
     0
1070
   288
1070
     1
1002
}
  0
DIMENSION
  5
7C51
  8
3
  6
CONTINUOUS
  2
*D7
 10
4433.904481999999
 20
4426.0222289999992
 30
0.0
 11
4673.9044819999999
 21
4576.0222290000002
 31
0.0
 70
     0
  1
MAX\P530
 13
4913.9044819999999
 23
4366.5642440000001
 33
0.0
 14
4433.904481999999
 24
3999.923389
 34
0.0
1001
ACAD
1000
DSTYLE
1002
{
1070
   287
1070
     4
1070
   287
1070
     4
1070
    40
1040
30.0
1070
    75
1070
     1
1070
   143
1040
0.039
1070
   172
1070
     1
1070
   271
1070
     0
1070
   279
1070
     1
1070
   288
1070
     1
1002
}
  0
DIMENSION
  5
7C8F
  8
3
  6
CONTINUOUS
  2
*D8
 10
3223.4646179999991
 20
6293.0986950000006
 30
0.0
 11
2473.1474779999999
 21
6293.0986950000006
 31
0.0
 70
   128
 13
1813.464618
 23
6045.6280559999996
 33
0.0
 14
3223.4646179999991
 24
6045.6280559999996
 34
0.0
1001
ACAD
1000
DSTYLE
1002
{
1070
   287
1070
     3
1070
   287
1070
     3
1070
    40
1040
30.0
1070
   143
1040
0.039
1070
   172
1070
     1
1070
   271
1070
     0
1070
   279
1070
     0
1070
   288
1070
     1
1002
}
  0
DIMENSION
  5
7C9C
  8
3
  6
CONTINUOUS
  2
*D9
 10
3477.3383670000012
 20
5345.6280559999996
 30
0.0
 11
3477.3383669999998
 21
5689.9136280000002
 31
0.0
 70
   128
 13
3223.4646179999991
 23
6045.6280559999996
 33
0.0
 14
3223.4646179999991
 24
5345.6280559999996
 34
0.0
 50
90.0
1001
ACAD
1000
DSTYLE
1002
{
1070
   287
1070
     3
1070
   287
1070
     3
1070
    40
1040
30.0
1070
   143
1040
0.039
1070
   172
1070
     1
1070
   271
1070
     0
1070
   279
1070
     0
1070
   288
1070
     1
1002
}
  0
DIMENSION
  5
7CAD
  8
3
  6
CONTINUOUS
  2
*D10
 10
1276.021281
 20
4151.9217514359289
 30
0.0
 11
1201.0212809999989
 21
3925.9225702179651
 31
0.0
 70
     0
 13
1658.4555339999999
 23
3699.923389
 33
0.0
 14
2243.464618
 24
4151.9217514359279
 34
0.0
 50
90.0
1001
ACAD
1000
DSTYLE
1002
{
1070
   287
1070
     4
1070
   287
1070
     4
1070
    40
1040
30.0
1070
    75
1070
     1
1070
   143
1040
0.039
1070
   172
1070
     1
1070
   271
1070
     0
1070
   279
1070
     1
1070
   288
1070
     1
1002
}
  0
DIMENSION
  5
7CB9
  8
3
  6
CONTINUOUS
  2
*D11
 10
2765.464618
 20
4352.5153369999989
 30
0.0
 11
2504.464618
 21
4427.5153369999989
 31
0.0
 70
     0
 13
2243.464618
 23
4331.1353529999988
 33
0.0
 14
2765.464618
 24
3699.923389
 34
0.0
1001
ACAD
1000
DSTYLE
1002
{
1070
   287
1070
     4
1070
   287
1070
     4
1070
    40
1040
30.0
1070
    75
1070
     1
1070
   143
1040
0.039
1070
   172
1070
     1
1070
   271
1070
     0
1070
   279
1070
     1
1070
   288
1070
     1
1002
}
  0
DIMENSION
  5
7D6C
  8
3
  6
CONTINUOUS
  2
*D12
 10
5154.9044819999999
 20
4426.0222289999992
 30
0.0
 11
5028.8388611996743
 21
4522.3250214749496
 31
0.0
 70
   128
 13
4913.9044819999999
 23
4366.5642440000001
 33
0.0
 14
5154.9044819999999
 24
4034.923389
 34
0.0
1001
ACAD
1000
DSTYLE
1002
{
1070
   288
1070
     1
1070
   172
1070
     1
1070
    40
1040
30.0
1070
   271
1070
     0
1070
   143
1040
0.039
1002
}
  0
DIMENSION
  5
7E12
  8
3
  2
*D13
 10
2243.464618
 20
2496.987145790295
 30
0.0
 11
2028.464618
 21
2571.987145790295
 31
0.0
 70
     0
 13
1813.464618
 23
2704.923389
 33
0.0
 14
2243.464618
 24
2704.923389000001
 34
0.0
1001
ACAD
1000
DSTYLE
1002
{
1070
   287
1070
     3
1070
   287
1070
     3
1070
    40
1040
30.0
1070
   143
1040
0.039
1070
   172
1070
     1
1070
   271
1070
     0
1070
   279
1070
     0
1002
}
  0
DIMENSION
  5
7E1F
  8
3
  2
*D14
 10
3223.4646179999991
 20
2496.987145790295
 30
0.0
 11
2733.464618
 21
2571.987145790295
 31
0.0
 70
     0
 13
2243.464618
 23
2704.923389000001
 33
0.0
 14
3223.4646179999991
 24
2704.923389
 34
0.0
1001
ACAD
1000
DSTYLE
1002
{
1070
   287
1070
     3
1070
   287
1070
     3
1070
    40
1040
30.0
1070
   143
1040
0.039
1070
   172
1070
     1
1070
   271
1070
     0
1070
   279
1070
     0
1002
}
  0
DIMENSION
  5
7E2C
  8
3
  2
*D15
 10
4913.904481999999
 20
2496.987145790295
 30
0.0
 11
4708.4044819999999
 21
2571.987145790295
 31
0.0
 70
     0
 13
4502.9044819999999
 23
2704.923389
 33
0.0
 14
4913.904481999999
 24
2704.9233889999991
 34
0.0
1001
ACAD
1000
DSTYLE
1002
{
1070
   287
1070
     3
1070
   287
1070
     3
1070
    40
1040
30.0
1070
   143
1040
0.039
1070
   172
1070
     1
1070
   271
1070
     0
1070
   279
1070
     0
1002
}
  0
DIMENSION
  5
7E3B
  8
3
  2
*D16
 10
5202.9044819999999
 20
2496.987145790295
 30
0.0
 11
5058.4044819999999
 21
2571.987145790295
 31
0.0
 70
     0
 13
4913.904481999999
 23
2704.9233889999991
 33
0.0
 14
5202.9044819999999
 24
2704.923389
 34
0.0
1001
ACAD
1000
DSTYLE
1002
{
1070
   287
1070
     3
1070
   287
1070
     3
1070
    40
1040
30.0
1070
   143
1040
0.039
1070
   172
1070
     1
1070
   271
1070
     0
1070
   279
1070
     0
1002
}
  0
DIMENSION
  5
7E52
  8
3
  2
*D18
 10
1272.744487845629
 20
2704.923389
 30
0.0
 11
1197.744487845629
 21
2447.7805318571432
 31
0.0
 70
     0
 13
1813.464618
 23
2804.923389
 33
0.0
 14
1813.464618
 24
2704.923389
 34
0.0
 50
90.0
1001
ACAD
1000
DSTYLE
1002
{
1070
   287
1070
     3
1070
   287
1070
     3
1070
    40
1040
30.0
1070
   143
1040
0.039
1070
   172
1070
     1
1070
   271
1070
     0
1070
   279
1070
     0
1070
     6
1000
DOT
1002
}
  0
DIMENSION
  5
7E61
  8
3
  2
*D19
 10
1272.744487845629
 20
2899.9233889999991
 30
0.0
 11
1129.173059274201
 21
2852.423389
 31
0.0
 70
     0
 13
1813.464618
 23
2804.923389
 33
0.0
 14
1813.464618
 24
2899.9233889999991
 34
0.0
 50
90.0
1001
ACAD
1000
DSTYLE
1002
{
1070
   172
1070
     1
1070
    40
1040
30.0
1070
     3
1000
(<>)
1070
   271
1070
     0
1070
     6
1000
_DOT
1070
   143
1040
0.039
1002
}
  0
LINE
  5
7F3E
  8
1
  6
CONTINUOUS
 10
2653.464618
 20
3819.923389000001
 30
0.0
 11
1833.4646179999991
 21
3819.923389
 31
0.0
  0
LINE
  5
7F3F
  8
1
 10
1833.4646179999991
 20
3819.923389
 30
0.0
 11
1833.464618
 21
2999.923389
 31
0.0
  0
LINE
  5
7F40
  8
1
 10
2653.464618
 20
3819.923389000001
 30
0.0
 11
2653.464618
 21
2999.923389
 31
0.0
  0
ENDSEC
  0
EOF
