  0
SECTION
  2
HEADER
  9
$ACADVER
  1
AC1009
  9
$INSBASE
 10
0.0
 20
0.0
 30
0.0
  9
$EXTMIN
 10
750.0
 20
900.0
 30
0.0
  9
$EXTMAX
 10
5550.0
 20
8359.9567849999985
 30
0.0
  9
$LIMMIN
 10
0.0
 20
0.0
  9
$LIMMAX
 10
297.0
 20
210.0
  9
$ORTHOMODE
 70
     0
  9
$REGENMODE
 70
     1
  9
$FILLMODE
 70
     0
  9
$QTEXTMODE
 70
     0
  9
$MIRRTEXT
 70
     1
  9
$DRAGMODE
 70
     2
  9
$LTSCALE
 40
100.0
  9
$OSMODE
 70
    37
  9
$ATTMODE
 70
     1
  9
$TEXTSIZE
 40
180.0
  9
$TRACEWID
 40
0.05
  9
$TEXTSTYLE
  7
STANDARD
  9
$CLAYER
  8
3
  9
$CELTYPE
  6
BYLAYER
  9
$CECOLOR
 62
   256
  9
$DIMSCALE
 40
30.0
  9
$DIMASZ
 40
2.0
  9
$DIMEXO
 40
0.5
  9
$DIMDLI
 40
10.0
  9
$DIMRND
 40
0.0
  9
$DIMDLE
 40
0.0
  9
$DIMEXE
 40
1.0
  9
$DIMTP
 40
1.0
  9
$DIMTM
 40
1.0
  9
$DIMTXT
 40
3.0
  9
$DIMCEN
 40
0.0
  9
$DIMTSZ
 40
0.0
  9
$DIMTOL
 70
     0
  9
$DIMLIM
 70
     0
  9
$DIMTIH
 70
     0
  9
$DIMTOH
 70
     0
  9
$DIMSE1
 70
     0
  9
$DIMSE2
 70
     0
  9
$DIMTAD
 70
     1
  9
$DIMZIN
 70
     8
  9
$DIMBLK
  1

  9
$DIMASO
 70
     1
  9
$DIMSHO
 70
     1
  9
$DIMPOST
  1

  9
$DIMAPOST
  1

  9
$DIMALT
 70
     0
  9
$DIMALTD
 70
     2
  9
$DIMALTF
 40
0.039
  9
$DIMLFAC
 40
1.0
  9
$DIMTOFL
 70
     1
  9
$DIMTVP
 40
0.0
  9
$DIMTIX
 70
     0
  9
$DIMSOXD
 70
     0
  9
$DIMSAH
 70
     1
  9
$DIMBLK1
  1
OPEN
  9
$DIMBLK2
  1
OPEN
  9
$DIMSTYLE
  2
IGA
  9
$DIMCLRD
 70
     0
  9
$DIMCLRE
 70
     0
  9
$DIMCLRT
 70
     0
  9
$DIMTFAC
 40
10.0
  9
$DIMGAP
 40
1.0
  9
$LUNITS
 70
     2
  9
$LUPREC
 70
     3
  9
$SKETCHINC
 40
0.1
  9
$FILLETRAD
 40
50.0
  9
$AUNITS
 70
     0
  9
$AUPREC
 70
     0
  9
$MENU
  1
acad
  9
$ELEVATION
 40
0.0
  9
$PELEVATION
 40
0.0
  9
$THICKNESS
 40
0.0
  9
$LIMCHECK
 70
     0
  9
$BLIPMODE
 70
     0
  9
$CHAMFERA
 40
0.5
  9
$CHAMFERB
 40
0.5
  9
$SKPOLY
 70
     0
  9
$TDCREATE
 40
2450738.5772516201
  9
$TDUPDATE
 40
2454953.838346065
  9
$TDINDWG
 40
0.0137018981
  9
$TDUSRTIMER
 40
0.0137018981
  9
$USRTIMER
 70
     1
  9
$ANGBASE
 50
0.0
  9
$ANGDIR
 70
     0
  9
$PDMODE
 70
     0
  9
$PDSIZE
 40
0.0
  9
$PLINEWID
 40
0.0
  9
$COORDS
 70
     1
  9
$SPLFRAME
 70
     0
  9
$SPLINETYPE
 70
     6
  9
$SPLINESEGS
 70
     8
  9
$ATTDIA
 70
     0
  9
$ATTREQ
 70
     1
  9
$HANDLING
 70
 10241
  9
$HANDSEED
  5
7FDA
  9
$SURFTAB1
 70
     6
  9
$SURFTAB2
 70
     6
  9
$SURFTYPE
 70
     6
  9
$SURFU
 70
     6
  9
$SURFV
 70
     6
  9
$UCSNAME
  2

  9
$UCSORG
 10
0.0
 20
0.0
 30
0.0
  9
$UCSXDIR
 10
1.0
 20
0.0
 30
0.0
  9
$UCSYDIR
 10
0.0
 20
1.0
 30
0.0
  9
$PUCSNAME
  2

  9
$PUCSORG
 10
0.0
 20
0.0
 30
0.0
  9
$PUCSXDIR
 10
1.0
 20
0.0
 30
0.0
  9
$PUCSYDIR
 10
0.0
 20
1.0
 30
0.0
  9
$USERI1
 70
     0
  9
$USERI2
 70
     0
  9
$USERI3
 70
     0
  9
$USERI4
 70
     0
  9
$USERI5
 70
     0
  9
$USERR1
 40
0.0
  9
$USERR2
 40
0.0
  9
$USERR3
 40
0.0
  9
$USERR4
 40
0.0
  9
$USERR5
 40
0.0
  9
$WORLDVIEW
 70
     1
  9
$SHADEDGE
 70
     3
  9
$SHADEDIF
 70
    70
  9
$TILEMODE
 70
     1
  9
$MAXACTVP
 70
    16
  9
$PLIMCHECK
 70
     0
  9
$PEXTMIN
 10
1.0000000000000000E+020
 20
1.0000000000000000E+020
 30
1.0000000000000000E+020
  9
$PEXTMAX
 10
-1.0000000000000000E+020
 20
-1.0000000000000000E+020
 30
-1.0000000000000000E+020
  9
$PLIMMIN
 10
0.0
 20
0.0
  9
$PLIMMAX
 10
12.0
 20
9.0
  9
$UNITMODE
 70
     0
  9
$VISRETAIN
 70
     0
  9
$PLINEGEN
 70
     0
  9
$PSLTSCALE
 70
     1
  0
ENDSEC
  0
SECTION
  2
TABLES
  0
TABLE
  2
VPORT
 70
     2
  0
VPORT
  2
*ACTIVE
 70
     0
 10
0.0
 20
0.0
 11
1.0
 21
1.0
 12
2836.5627023206871
 22
4570.7714042841217
 13
0.0
 23
0.0
 14
10.0
 24
10.0
 15
10.0
 25
10.0
 16
0.0
 26
0.0
 36
1.0
 17
0.0
 27
0.0
 37
0.0
 40
9063.6721298111861
 41
1.5051150895140659
 42
50.0
 43
0.0
 44
0.0
 50
0.0
 51
0.0
 71
     0
 72
   100
 73
     1
 74
     0
 75
     0
 76
     0
 77
     0
 78
     0
  0
ENDTAB
  0
TABLE
  2
LTYPE
 70
     2
  0
LTYPE
  2
CONTINUOUS
 70
     0
  3
Solid line
 72
    65
 73
     0
 40
0.0
  0
LTYPE
  2
CENTER
 70
     0
  3
____ _ ____ _ ____ _ ____ _ ____ _ ____ _ ____ 
 72
    65
 73
     4
 40
2.0
 49
1.25
 49
-0.25
 49
0.25
 49
-0.25
  0
ENDTAB
  0
TABLE
  2
LAYER
 70
     6
  0
LAYER
  2
0
 70
     0
 62
     7
  6
CONTINUOUS
  0
LAYER
  2
3
 70
     0
 62
     2
  6
CONTINUOUS
  0
LAYER
  2
2
 70
     0
 62
     3
  6
CENTER
  0
LAYER
  2
1
 70
     0
 62
     4
  6
CONTINUOUS
  0
LAYER
  2
4
 70
     0
 62
     7
  6
CONTINUOUS
  0
LAYER
  2
DEFPOINTS
 70
     0
 62
     7
  6
CONTINUOUS
  0
ENDTAB
  0
TABLE
  2
STYLE
 70
     1
  0
STYLE
  2
STANDARD
 70
     0
 40
0.0
 41
1.0
 50
0.0
 71
     0
 42
180.0
  3
simplex.shx
  4
extfont.shx
  0
ENDTAB
  0
TABLE
  2
VIEW
 70
     0
  0
ENDTAB
  0
TABLE
  2
UCS
 70
     0
  0
ENDTAB
  0
TABLE
  2
APPID
 70
     1
  0
APPID
  2
ACAD
 70
     0
  0
ENDTAB
  0
TABLE
  2
DIMSTYLE
 70
     1
  0
DIMSTYLE
  2
IGA
 70
     0
  3

  4

  5

  6
OPEN
  7
OPEN
 40
2.0
 41
2.0
 42
0.5
 43
10.0
 44
1.0
 45
0.0
 46
0.0
 47
1.0
 48
1.0
140
3.0
141
0.0
142
0.0
143
0.03937
144
1.0
145
0.0
146
10.0
147
1.0
 71
     0
 72
     0
 73
     0
 74
     0
 75
     0
 76
     0
 77
     1
 78
     8
170
     0
171
     2
172
     0
173
     1
174
     0
175
     0
176
     0
177
     0
178
     0
  0
ENDTAB
  0
ENDSEC
  0
SECTION
  2
BLOCKS
  0
BLOCK
  8
0
  2
$MODEL_SPACE
 70
     0
 10
0.0
 20
0.0
 30
0.0
  3
$MODEL_SPACE
  1

  0
ENDBLK
  5
1B
  8
0
  0
BLOCK
 67
     1
  8
0
  2
$PAPER_SPACE
 70
     0
 10
0.0
 20
0.0
 30
0.0
  3
$PAPER_SPACE
  1

  0
ENDBLK
  5
18
 67
     1
  8
0
  0
BLOCK
  8
0
  2
_OPEN
 70
     0
 10
0.0
 20
0.0
 30
0.0
  3
_OPEN
  1

  0
LINE
  5
7AFE
  8
0
  6
BYBLOCK
 62
     0
 10
-1.0
 20
0.166667
 30
0.0
 11
0.0
 21
0.0
 31
0.0
  0
LINE
  5
7AFF
  8
0
  6
BYBLOCK
 62
     0
 10
0.0
 20
0.0
 30
0.0
 11
-1.0
 21
-0.166667
 31
0.0
  0
LINE
  5
7B00
  8
0
  6
BYBLOCK
 62
     0
 10
0.0
 20
0.0
 30
0.0
 11
-1.0
 21
0.0
 31
0.0
  0
ENDBLK
  5
7B01
  8
0
  0
BLOCK
  8
0
  2
*D1
 70
     1
 10
0.0
 20
0.0
 30
0.0
  3
*D1
  1

  0
LINE
  5
7F2F
  8
3
  6
CONTINUOUS
 62
     0
 10
2787.291941
 20
4085.4091503288491
 30
0.0
 11
3010.8001370000002
 21
4085.4091503288491
 31
0.0
  0
LINE
  5
7F30
  8
3
  6
CONTINUOUS
 62
     0
 10
2787.291941
 20
3435.4091503288491
 30
0.0
 11
3010.8001370000002
 21
3435.4091503288491
 31
0.0
  0
LINE
  5
7F31
  8
3
  6
CONTINUOUS
 62
     0
 10
2980.8001370000011
 20
4025.4091503288491
 30
0.0
 11
2980.8001370000011
 21
3495.4091503288491
 31
0.0
  0
INSERT
  5
7F32
  8
3
  6
CONTINUOUS
 62
     0
  2
_OPEN
 10
2980.8001370000011
 20
4085.4091503288491
 30
0.0
 41
60.0
 42
60.0
 43
60.0
 50
90.0
  0
INSERT
  5
7F33
  8
3
  6
CONTINUOUS
 62
     0
  2
_OPEN
 10
2980.8001370000011
 20
3435.4091503288491
 30
0.0
 41
60.0
 42
60.0
 43
60.0
 50
270.0
  0
TEXT
  8
3
  40
90
  5
7FC8
  62
0
  72
0
  71
0
 10
2725.80
 20
3579.30
 30
0.000000
  1
650
  0
POINT
  5
7F35
  8
DEFPOINTS
  6
CONTINUOUS
 62
     0
 10
2772.291941
 20
4085.4091503288491
 30
0.0
  0
POINT
  5
7F36
  8
DEFPOINTS
  6
CONTINUOUS
 62
     0
 10
2772.291941
 20
3435.4091503288491
 30
0.0
  0
POINT
  5
7F37
  8
DEFPOINTS
  6
CONTINUOUS
 62
     0
 10
2980.8001370000011
 20
3435.4091503288491
 30
0.0
  0
ENDBLK
  5
7B0E
  8
0
  0
BLOCK
  8
0
  2
*D2
 70
     1
 10
0.0
 20
0.0
 30
0.0
  3
*D2
  1

  0
LINE
  5
7F38
  8
3
  6
CONTINUOUS
 62
     0
 10
2787.291941
 20
4085.4091503288491
 30
0.0
 11
3213.9153460000011
 21
4085.4091503288491
 31
0.0
  0
LINE
  5
7F39
  8
3
  6
CONTINUOUS
 62
     0
 10
2931.8068870000002
 20
3465.4091503288491
 30
0.0
 11
3213.9153460000011
 21
3465.4091503288491
 31
0.0
  0
LINE
  5
7F3A
  8
3
  6
CONTINUOUS
 62
     0
 10
3183.9153460000002
 20
4025.4091503288482
 30
0.0
 11
3183.9153460000002
 21
3525.4091503288482
 31
0.0
  0
INSERT
  5
7F3B
  8
3
  6
CONTINUOUS
 62
     0
  2
_OPEN
 10
3183.9153460000002
 20
4085.4091503288491
 30
0.0
 41
60.0
 42
60.0
 43
60.0
 50
90.0
  0
INSERT
  5
7F3C
  8
3
  6
CONTINUOUS
 62
     0
  2
_OPEN
 10
3183.9153460000002
 20
3465.4091503288491
 30
0.0
 41
60.0
 42
60.0
 43
60.0
 50
270.0
  0
TEXT
  8
3
  40
90
  5
7FC9
  62
0
  72
0
  71
0
 10
2928.92
 20
3585.64
 30
0.000000
  1
620
  0
POINT
  5
7F3E
  8
DEFPOINTS
  6
CONTINUOUS
 62
     0
 10
2772.291941
 20
4085.4091503288491
 30
0.0
  0
POINT
  5
7F3F
  8
DEFPOINTS
  6
CONTINUOUS
 62
     0
 10
2916.8068870000002
 20
3465.4091503288491
 30
0.0
  0
POINT
  5
7F40
  8
DEFPOINTS
  6
CONTINUOUS
 62
     0
 10
3183.9153460000002
 20
3465.4091503288491
 30
0.0
  0
ENDBLK
  5
7B1B
  8
0
  0
BLOCK
  8
0
  2
*D3
 70
     1
 10
0.0
 20
0.0
 30
0.0
  3
*D3
  1

  0
LINE
  5
7F41
  8
3
  6
CONTINUOUS
 62
     0
 10
2732.291941
 20
2895.4091503288491
 30
0.0
 11
3213.9153460000002
 21
2895.4091503288491
 31
0.0
  0
LINE
  5
7F42
  8
3
  6
CONTINUOUS
 62
     0
 10
3183.9153460000002
 20
3405.4091503288491
 30
0.0
 11
3183.9153460000002
 21
2955.4091503288491
 31
0.0
  0
INSERT
  5
7F43
  8
3
  6
CONTINUOUS
 62
     0
  2
_OPEN
 10
3183.9153460000002
 20
3465.4091503288491
 30
0.0
 41
60.0
 42
60.0
 43
60.0
 50
90.0
  0
INSERT
  5
7F44
  8
3
  6
CONTINUOUS
 62
     0
  2
_OPEN
 10
3183.9153460000002
 20
2895.4091503288491
 30
0.0
 41
60.0
 42
60.0
 43
60.0
 50
270.0
  0
TEXT
  8
3
  40
90
  5
7FCA
  62
0
  72
0
  71
0
 10
2928.92
 20
3021.11
 30
0.000000
  1
570
  0
POINT
  5
7F46
  8
DEFPOINTS
  6
CONTINUOUS
 62
     0
 10
2916.8068870000002
 20
3465.4091503288491
 30
0.0
  0
POINT
  5
7F47
  8
DEFPOINTS
  6
CONTINUOUS
 62
     0
 10
2717.291941
 20
2895.4091503288491
 30
0.0
  0
POINT
  5
7F48
  8
DEFPOINTS
  6
CONTINUOUS
 62
     0
 10
3183.9153460000002
 20
2895.4091503288491
 30
0.0
  0
ENDBLK
  5
7B27
  8
0
  0
BLOCK
  8
0
  2
*D4
 70
     1
 10
0.0
 20
0.0
 30
0.0
  3
*D4
  1

  0
LINE
  5
7F49
  8
3
  6
CONTINUOUS
 62
     0
 10
2732.291941
 20
2895.4091503288491
 30
0.0
 11
3217.0284670000001
 21
2895.4091503288491
 31
0.0
  0
LINE
  5
7F4A
  8
3
  6
CONTINUOUS
 62
     0
 10
2732.291941
 20
2769.4091503288491
 30
0.0
 11
3217.0284670000001
 21
2769.4091503288491
 31
0.0
  0
LINE
  5
7F4B
  8
3
  6
CONTINUOUS
 62
     0
 10
3187.028467000001
 20
2955.4091503288491
 30
0.0
 11
3187.028467000001
 21
3015.4091503288491
 31
0.0
  0
LINE
  5
7F4C
  8
3
  6
CONTINUOUS
 62
     0
 10
3187.028467000001
 20
2709.4091503288491
 30
0.0
 11
3187.028467000001
 21
2379.4091503288491
 31
0.0
  0
LINE
  5
7F4D
  8
3
  6
CONTINUOUS
 62
     0
 10
3187.028467000001
 20
2895.4091503288491
 30
0.0
 11
3187.028467000001
 21
2769.4091503288491
 31
0.0
  0
INSERT
  5
7F4E
  8
3
  6
CONTINUOUS
 62
     0
  2
_OPEN
 10
3187.028467000001
 20
2895.4091503288491
 30
0.0
 41
60.0
 42
60.0
 43
60.0
 50
270.0
  0
INSERT
  5
7F4F
  8
3
  6
CONTINUOUS
 62
     0
  2
_OPEN
 10
3187.028467000001
 20
2769.4091503288491
 30
0.0
 41
60.0
 42
60.0
 43
60.0
 50
90.0
  0
TEXT
  8
3
  40
90
  5
7FCB
  62
0
  72
0
  71
0
 10
2932.03
 20
2355.11
 30
0.000000
  1
126
  0
POINT
  5
7F51
  8
DEFPOINTS
  6
CONTINUOUS
 62
     0
 10
2717.291941
 20
2895.4091503288491
 30
0.0
  0
POINT
  5
7F52
  8
DEFPOINTS
  6
CONTINUOUS
 62
     0
 10
2717.291941
 20
2769.4091503288491
 30
0.0
  0
POINT
  5
7F53
  8
DEFPOINTS
  6
CONTINUOUS
 62
     0
 10
3187.028467000001
 20
2769.4091503288491
 30
0.0
  0
ENDBLK
  5
7CFC
  8
0
  0
BLOCK
  8
0
  2
*D5
 70
     1
 10
0.0
 20
0.0
 30
0.0
  3
*D5
  1

  0
LINE
  5
7F54
  8
3
  6
CONTINUOUS
 62
     0
 10
2787.291941
 20
4125.4091503288491
 30
0.0
 11
3427.9761970000009
 21
4125.4091503288491
 31
0.0
  0
LINE
  5
7F55
  8
3
  6
CONTINUOUS
 62
     0
 10
2732.291941
 20
2769.4091503288491
 30
0.0
 11
3427.976197
 21
2769.4091503288491
 31
0.0
  0
LINE
  5
7F56
  8
3
  6
CONTINUOUS
 62
     0
 10
3397.9761970000009
 20
4065.4091503288491
 30
0.0
 11
3397.976197
 21
2829.4091503288491
 31
0.0
  0
INSERT
  5
7F57
  8
3
  6
CONTINUOUS
 62
     0
  2
_OPEN
 10
3397.9761970000009
 20
4125.4091503288491
 30
0.0
 41
60.0
 42
60.0
 43
60.0
 50
90.0
  0
INSERT
  5
7F58
  8
3
  6
CONTINUOUS
 62
     0
  2
_OPEN
 10
3397.976197
 20
2769.4091503288491
 30
0.0
 41
60.0
 42
60.0
 43
60.0
 50
270.0
  0
TEXT
  8
3
  40
90
  5
7FCC
  62
0
  72
0
  71
0
 10
3142.98
 20
3275.87
 30
0.000000
  1
1356
  0
POINT
  5
7F5A
  8
DEFPOINTS
  6
CONTINUOUS
 62
     0
 10
2772.291941
 20
4125.4091503288491
 30
0.0
  0
POINT
  5
7F5B
  8
DEFPOINTS
  6
CONTINUOUS
 62
     0
 10
2717.291941
 20
2769.4091503288491
 30
0.0
  0
POINT
  5
7F5C
  8
DEFPOINTS
  6
CONTINUOUS
 62
     0
 10
3397.976197
 20
2769.4091503288491
 30
0.0
  0
ENDBLK
  5
7C3F
  8
0
  0
BLOCK
  8
0
  2
*D6
 70
     1
 10
0.0
 20
0.0
 30
0.0
  3
*D6
  1

  0
LINE
  5
7F5D
  8
3
  6
CONTINUOUS
 62
     0
 10
2772.291941
 20
4140.4091503288482
 30
0.0
 11
2772.291941
 21
4295.8033013288496
 31
0.0
  0
LINE
  5
7F5E
  8
3
  6
CONTINUOUS
 62
     0
 10
2287.291941
 20
4215.6435283288502
 30
0.0
 11
2287.291941
 21
4295.8033013288496
 31
0.0
  0
LINE
  5
7F5F
  8
3
  6
CONTINUOUS
 62
     0
 10
2712.291941
 20
4265.8033013288486
 30
0.0
 11
2347.291940999999
 21
4265.8033013288486
 31
0.0
  0
INSERT
  5
7F60
  8
3
  6
CONTINUOUS
 62
     0
  2
_OPEN
 10
2772.291941
 20
4265.8033013288486
 30
0.0
 41
60.0
 42
60.0
 43
60.0
  0
INSERT
  5
7F61
  8
3
  6
CONTINUOUS
 62
     0
  2
_OPEN
 10
2287.291941
 20
4265.8033013288486
 30
0.0
 41
60.0
 42
60.0
 43
60.0
 50
180.0
  0
TEXT
  8
3
  40
90
  5
7FCD
  62
0
  72
0
  71
0
 10
2343.79
 20
4181.50
 30
0.000000
  1
485
  0
POINT
  5
7F63
  8
DEFPOINTS
  6
CONTINUOUS
 62
     0
 10
2772.291941
 20
4125.4091503288491
 30
0.0
  0
POINT
  5
7F64
  8
DEFPOINTS
  6
CONTINUOUS
 62
     0
 10
2287.291941
 20
4200.6435283288492
 30
0.0
  0
POINT
  5
7F65
  8
DEFPOINTS
  6
CONTINUOUS
 62
     0
 10
2287.291941
 20
4265.8033013288486
 30
0.0
  0
ENDBLK
  5
7C60
  8
0
  0
BLOCK
  8
0
  2
*D7
 70
     1
 10
0.0
 20
0.0
 30
0.0
  3
*D7
  1

  0
LINE
  5
7F66
  8
3
  6
CONTINUOUS
 62
     0
 10
1307.291940999999
 20
2754.4091503288491
 30
0.0
 11
1307.291940999999
 21
2484.0113663288489
 31
0.0
  0
LINE
  5
7F67
  8
3
  6
CONTINUOUS
 62
     0
 10
2287.291941
 20
2629.9235923288488
 30
0.0
 11
2287.291941
 21
2484.0113663288489
 31
0.0
  0
LINE
  5
7F68
  8
3
  6
CONTINUOUS
 62
     0
 10
1367.291941
 20
2514.0113663288489
 30
0.0
 11
2227.291941
 21
2514.0113663288489
 31
0.0
  0
INSERT
  5
7F69
  8
3
  6
CONTINUOUS
 62
     0
  2
_OPEN
 10
1307.291940999999
 20
2514.0113663288489
 30
0.0
 41
60.0
 42
60.0
 43
60.0
 50
180.0
  0
INSERT
  5
7F6A
  8
3
  6
CONTINUOUS
 62
     0
  2
_OPEN
 10
2287.291941
 20
2514.0113663288489
 30
0.0
 41
60.0
 42
60.0
 43
60.0
  0
TEXT
  8
3
  40
90
  5
7FCE
  62
0
  72
0
  71
0
 10
1632.89
 20
2429.71
 30
0.000000
  1
980
  0
POINT
  5
7F6C
  8
DEFPOINTS
  6
CONTINUOUS
 62
     0
 10
1307.291940999999
 20
2769.4091503288491
 30
0.0
  0
POINT
  5
7F6D
  8
DEFPOINTS
  6
CONTINUOUS
 62
     0
 10
2287.291941
 20
2644.9235923288488
 30
0.0
  0
POINT
  5
7F6E
  8
DEFPOINTS
  6
CONTINUOUS
 62
     0
 10
2287.291941
 20
2514.0113663288489
 30
0.0
  0
ENDBLK
  5
7C6B
  8
0
  0
BLOCK
  8
0
  2
*D8
 70
     1
 10
0.0
 20
0.0
 30
0.0
  3
*D8
  1

  0
LINE
  5
7F6F
  8
3
  6
CONTINUOUS
 62
     0
 10
2717.291941
 20
2754.4091503288491
 30
0.0
 11
2717.291941
 21
2484.0113663288489
 31
0.0
  0
LINE
  5
7F70
  8
3
  6
CONTINUOUS
 62
     0
 10
2347.291940999999
 20
2514.0113663288489
 30
0.0
 11
2657.291941
 21
2514.0113663288489
 31
0.0
  0
INSERT
  5
7F71
  8
3
  6
CONTINUOUS
 62
     0
  2
_OPEN
 10
2287.291941
 20
2514.0113663288489
 30
0.0
 41
60.0
 42
60.0
 43
60.0
 50
180.0
  0
INSERT
  5
7F72
  8
3
  6
CONTINUOUS
 62
     0
  2
_OPEN
 10
2717.291941
 20
2514.0113663288489
 30
0.0
 41
60.0
 42
60.0
 43
60.0
  0
TEXT
  8
3
  40
90
  5
7FCF
  62
0
  72
0
  71
0
 10
2322.29
 20
2429.71
 30
0.000000
  1
430
  0
POINT
  5
7F74
  8
DEFPOINTS
  6
CONTINUOUS
 62
     0
 10
2287.291941
 20
2644.9235923288488
 30
0.0
  0
POINT
  5
7F75
  8
DEFPOINTS
  6
CONTINUOUS
 62
     0
 10
2717.291941
 20
2769.4091503288491
 30
0.0
  0
POINT
  5
7F76
  8
DEFPOINTS
  6
CONTINUOUS
 62
     0
 10
2717.291941
 20
2514.0113663288489
 30
0.0
  0
ENDBLK
  5
7C75
  8
0
  0
BLOCK
  8
0
  2
*D9
 70
     1
 10
0.0
 20
0.0
 30
0.0
  3
*D9
  1

  0
LINE
  5
7F77
  8
3
  6
CONTINUOUS
 62
     0
 10
4964.8926659999997
 20
4100.4091503288491
 30
0.0
 11
4964.8926659999997
 21
4236.1258943288494
 31
0.0
  0
LINE
  5
7F78
  8
3
  6
CONTINUOUS
 62
     0
 10
4489.8926659999997
 20
4100.4091503288491
 30
0.0
 11
4489.8926659999997
 21
4236.1258943288494
 31
0.0
  0
LINE
  5
7F79
  8
3
  6
CONTINUOUS
 62
     0
 10
4904.8926659999997
 20
4206.1258943288494
 30
0.0
 11
4549.8926659999988
 21
4206.1258943288494
 31
0.0
  0
INSERT
  5
7F7A
  8
3
  6
CONTINUOUS
 62
     0
  2
_OPEN
 10
4964.8926659999997
 20
4206.1258943288494
 30
0.0
 41
60.0
 42
60.0
 43
60.0
  0
INSERT
  5
7F7B
  8
3
  6
CONTINUOUS
 62
     0
  2
_OPEN
 10
4489.8926659999997
 20
4206.1258943288494
 30
0.0
 41
60.0
 42
60.0
 43
60.0
 50
180.0
  0
TEXT
  8
3
  40
90
  5
7FD0
  62
0
  72
0
  71
0
 10
4548.46
 20
4121.83
 30
0.000000
  1
475
  0
POINT
  5
7F7D
  8
DEFPOINTS
  6
CONTINUOUS
 62
     0
 10
4964.8926659999997
 20
4085.4091503288491
 30
0.0
  0
POINT
  5
7F7E
  8
DEFPOINTS
  6
CONTINUOUS
 62
     0
 10
4489.8926659999997
 20
4085.4091503288491
 30
0.0
  0
POINT
  5
7F7F
  8
DEFPOINTS
  6
CONTINUOUS
 62
     0
 10
4489.8926659999997
 20
4206.1258943288494
 30
0.0
  0
ENDBLK
  5
7CDA
  8
0
  0
BLOCK
  8
0
  2
*D10
 70
     1
 10
0.0
 20
0.0
 30
0.0
  3
*D10
  1

  0
LINE
  5
7F80
  8
3
  6
CONTINUOUS
 62
     0
 10
4983.3926659999997
 20
3800.4091503288491
 30
0.0
 11
5266.2430630000008
 21
3800.4091503288482
 31
0.0
  0
LINE
  5
7F81
  8
3
  6
CONTINUOUS
 62
     0
 10
4983.3926659999997
 20
3130.40915032885
 30
0.0
 11
5266.2430630000008
 21
3130.4091503288491
 31
0.0
  0
LINE
  5
7F82
  8
3
  6
CONTINUOUS
 62
     0
 10
5236.2430629999999
 20
3740.4091503288491
 30
0.0
 11
5236.2430629999999
 21
3190.4091503288491
 31
0.0
  0
INSERT
  5
7F83
  8
3
  6
CONTINUOUS
 62
     0
  2
_OPEN
 10
5236.2430629999999
 20
3800.4091503288482
 30
0.0
 41
60.0
 42
60.0
 43
60.0
 50
90.0
  0
INSERT
  5
7F84
  8
3
  6
CONTINUOUS
 62
     0
  2
_OPEN
 10
5236.2430629999999
 20
3130.4091503288491
 30
0.0
 41
60.0
 42
60.0
 43
60.0
 50
270.0
  0
TEXT
  8
3
  40
90
  5
7FD1
  62
0
  72
0
  71
0
 10
4981.24
 20
3319.30
 30
0.000000
  1
φ670
  0
POINT
  5
7F86
  8
DEFPOINTS
  6
CONTINUOUS
 62
     0
 10
4968.3926659999988
 20
3800.4091503288491
 30
0.0
  0
POINT
  5
7F87
  8
DEFPOINTS
  6
CONTINUOUS
 62
     0
 10
4968.3926659999988
 20
3130.40915032885
 30
0.0
  0
POINT
  5
7F88
  8
DEFPOINTS
  6
CONTINUOUS
 62
     0
 10
5236.2430629999999
 20
3130.4091503288491
 30
0.0
  0
ENDBLK
  5
7D1E
  8
0
  0
BLOCK
  8
0
  2
*D11
 70
     1
 10
0.0
 20
0.0
 30
0.0
  3
*D11
  1

  0
LINE
  5
7F89
  8
3
  6
CONTINUOUS
 62
     0
 10
4247.3926659999988
 20
4010.4091503288491
 30
0.0
 11
4247.3926659999988
 21
4436.7677247841093
 31
0.0
  0
LINE
  5
7F8A
  8
3
  6
CONTINUOUS
 62
     0
 10
4667.3926659999997
 20
4406.7677247841093
 30
0.0
 11
4307.3926659999997
 21
4406.7677247841093
 31
0.0
  0
INSERT
  5
7F8B
  8
3
  6
CONTINUOUS
 62
     0
  2
_OPEN
 10
4727.3926659999997
 20
4406.7677247841093
 30
0.0
 41
60.0
 42
60.0
 43
60.0
  0
INSERT
  5
7F8C
  8
3
  6
CONTINUOUS
 62
     0
  2
_OPEN
 10
4247.3926659999988
 20
4406.7677247841093
 30
0.0
 41
60.0
 42
60.0
 43
60.0
 50
180.0
  0
TEXT
  8
3
  40
90
  5
7FD2
  62
0
  72
0
  71
0
 10
4307.39
 20
4397.47
 30
0.000000
  1
MAX
  0
TEXT
  8
3
  40
90
  5
7FD3
  62
0
  72
0
  71
0
 10
4307.39
 20
4280.47
 30
0.000000
  1
530
  0
POINT
  5
7F8E
  8
DEFPOINTS
  6
CONTINUOUS
 62
     0
 10
4727.3926659999997
 20
4334.8315563288488
 30
0.0
  0
POINT
  5
7F8F
  8
DEFPOINTS
  6
CONTINUOUS
 62
     0
 10
4247.3926659999988
 20
3995.4091503288491
 30
0.0
  0
POINT
  5
7F90
  8
DEFPOINTS
  6
CONTINUOUS
 62
     0
 10
4247.3926659999988
 20
4406.7677247841093
 30
0.0
  0
ENDBLK
  5
7D6A
  8
0
  0
BLOCK
  8
0
  2
*D12
 70
     1
 10
0.0
 20
0.0
 30
0.0
  3
*D12
  1

  0
LINE
  5
7F91
  8
3
  6
CONTINUOUS
 62
     0
 10
4316.3926659999997
 20
2754.4091503288491
 30
0.0
 11
4316.3926659999997
 21
2504.5132133288489
 31
0.0
  0
LINE
  5
7F92
  8
3
  6
CONTINUOUS
 62
     0
 10
4727.3926659999997
 20
2595.6382610453138
 30
0.0
 11
4727.3926659999997
 21
2504.5132133288489
 31
0.0
  0
LINE
  5
7F93
  8
3
  6
CONTINUOUS
 62
     0
 10
4376.3926659999997
 20
2534.5132133288489
 30
0.0
 11
4667.3926659999997
 21
2534.5132133288489
 31
0.0
  0
INSERT
  5
7F94
  8
3
  6
CONTINUOUS
 62
     0
  2
_OPEN
 10
4316.3926659999997
 20
2534.5132133288489
 30
0.0
 41
60.0
 42
60.0
 43
60.0
 50
180.0
  0
INSERT
  5
7F95
  8
3
  6
CONTINUOUS
 62
     0
  2
_OPEN
 10
4727.3926659999997
 20
2534.5132133288489
 30
0.0
 41
60.0
 42
60.0
 43
60.0
  0
TEXT
  8
3
  40
90
  5
7FD4
  62
0
  72
0
  71
0
 10
4314.25
 20
2450.21
 30
0.000000
  1
411
  0
POINT
  5
7F97
  8
DEFPOINTS
  6
CONTINUOUS
 62
     0
 10
4316.3926659999997
 20
2769.4091503288491
 30
0.0
  0
POINT
  5
7F98
  8
DEFPOINTS
  6
CONTINUOUS
 62
     0
 10
4727.3926659999997
 20
2610.6382610453138
 30
0.0
  0
POINT
  5
7F99
  8
DEFPOINTS
  6
CONTINUOUS
 62
     0
 10
4727.3926659999997
 20
2534.5132133288489
 30
0.0
  0
ENDBLK
  5
7D33
  8
0
  0
BLOCK
  8
0
  2
*D13
 70
     1
 10
0.0
 20
0.0
 30
0.0
  3
*D13
  1

  0
LINE
  5
7F9A
  8
3
  6
CONTINUOUS
 62
     0
 10
5016.3926659999997
 20
2754.4091503288491
 30
0.0
 11
5016.3926659999997
 21
2504.5132133288489
 31
0.0
  0
LINE
  5
7F9B
  8
3
  6
CONTINUOUS
 62
     0
 10
4787.3926659999988
 20
2534.5132133288489
 30
0.0
 11
4956.3926659999997
 21
2534.5132133288489
 31
0.0
  0
TEXT
  8
3
  40
90
  5
7FD5
  62
0
  72
0
  71
0
 10
4694.70
 20
2451.11
 30
0.000000
  1
289
  0
INSERT
  5
7F9D
  8
3
  6
CONTINUOUS
 62
     0
  2
_OPEN
 10
4727.3926659999997
 20
2534.5132133288489
 30
0.0
 41
60.0
 42
60.0
 43
60.0
 50
180.0
  0
INSERT
  5
7F9E
  8
3
  6
CONTINUOUS
 62
     0
  2
_OPEN
 10
5016.3926659999997
 20
2534.5132133288489
 30
0.0
 41
60.0
 42
60.0
 43
60.0
  0
POINT
  5
7F9F
  8
DEFPOINTS
  6
CONTINUOUS
 62
     0
 10
4727.3926659999997
 20
2610.6382610453138
 30
0.0
  0
POINT
  5
7FA0
  8
DEFPOINTS
  6
CONTINUOUS
 62
     0
 10
5016.3926659999997
 20
2769.4091503288491
 30
0.0
  0
POINT
  5
7FA1
  8
DEFPOINTS
  6
CONTINUOUS
 62
     0
 10
5016.3926659999997
 20
2534.5132133288489
 30
0.0
  0
ENDBLK
  5
7D28
  8
0
  0
BLOCK
  8
0
  2
*D14
 70
     1
 10
0.0
 20
0.0
 30
0.0
  3
*D14
  1

  0
LINE
  5
7FA2
  8
3
  6
CONTINUOUS
 62
     0
 10
1307.291940999999
 20
6168.0770430000002
 30
0.0
 11
1307.291940999999
 21
6416.2960329999996
 31
0.0
  0
LINE
  5
7FA3
  8
3
  6
CONTINUOUS
 62
     0
 10
2717.291941
 20
6168.0770430000002
 30
0.0
 11
2717.291941
 21
6416.2960329999996
 31
0.0
  0
LINE
  5
7FA4
  8
3
  6
CONTINUOUS
 62
     0
 10
1367.291941
 20
6386.2960329999996
 30
0.0
 11
2657.291941
 21
6386.2960329999996
 31
0.0
  0
INSERT
  5
7FA5
  8
3
  6
CONTINUOUS
 62
     0
  2
_OPEN
 10
1307.291940999999
 20
6386.2960329999996
 30
0.0
 41
60.0
 42
60.0
 43
60.0
 50
180.0
  0
INSERT
  5
7FA6
  8
3
  6
CONTINUOUS
 62
     0
  2
_OPEN
 10
2717.291941
 20
6386.2960329999996
 30
0.0
 41
60.0
 42
60.0
 43
60.0
  0
TEXT
  8
3
  40
90
  5
7FD6
  62
0
  72
0
  71
0
 10
1814.53
 20
6302.00
 30
0.000000
  1
1410
  0
POINT
  5
7FA8
  8
DEFPOINTS
  6
CONTINUOUS
 62
     0
 10
1307.291940999999
 20
6153.0770430000002
 30
0.0
  0
POINT
  5
7FA9
  8
DEFPOINTS
  6
CONTINUOUS
 62
     0
 10
2717.291941
 20
6153.0770430000002
 30
0.0
  0
POINT
  5
7FAA
  8
DEFPOINTS
  6
CONTINUOUS
 62
     0
 10
2717.291941
 20
6386.2960329999996
 30
0.0
  0
ENDBLK
  5
7CE5
  8
0
  0
BLOCK
  8
0
  2
*D15
 70
     1
 10
0.0
 20
0.0
 30
0.0
  3
*D15
  1

  0
LINE
  5
7FAB
  8
3
  6
CONTINUOUS
 62
     0
 10
2732.291941
 20
6153.0770430000002
 30
0.0
 11
3041.9004470000009
 21
6153.0770430000002
 31
0.0
  0
LINE
  5
7FAC
  8
3
  6
CONTINUOUS
 62
     0
 10
2732.291941
 20
5453.0770430000002
 30
0.0
 11
3041.9004470000009
 21
5453.0770430000002
 31
0.0
  0
LINE
  5
7FAD
  8
3
  6
CONTINUOUS
 62
     0
 10
3011.9004470000009
 20
6093.0770430000002
 30
0.0
 11
3011.9004470000009
 21
5513.0770430000002
 31
0.0
  0
INSERT
  5
7FAE
  8
3
  6
CONTINUOUS
 62
     0
  2
_OPEN
 10
3011.9004470000009
 20
6153.0770430000002
 30
0.0
 41
60.0
 42
60.0
 43
60.0
 50
90.0
  0
INSERT
  5
7FAF
  8
3
  6
CONTINUOUS
 62
     0
  2
_OPEN
 10
3011.9004470000009
 20
5453.0770430000002
 30
0.0
 41
60.0
 42
60.0
 43
60.0
 50
270.0
  0
TEXT
  8
3
  40
90
  5
7FD7
  62
0
  72
0
  71
0
 10
2756.90
 20
5689.84
 30
0.000000
  1
700
  0
POINT
  5
7FB1
  8
DEFPOINTS
  6
CONTINUOUS
 62
     0
 10
2717.291941
 20
6153.0770430000002
 30
0.0
  0
POINT
  5
7FB2
  8
DEFPOINTS
  6
CONTINUOUS
 62
     0
 10
2717.291941
 20
5453.0770430000002
 30
0.0
  0
POINT
  5
7FB3
  8
DEFPOINTS
  6
CONTINUOUS
 62
     0
 10
3011.9004470000009
 20
5453.0770430000002
 30
0.0
  0
ENDBLK
  5
7C0F
  8
0
  0
BLOCK
  8
0
  2
*D16
 70
     1
 10
0.0
 20
0.0
 30
0.0
  3
*D16
  1

  0
LINE
  5
7FB4
  8
3
  6
CONTINUOUS
 62
     0
 10
1765.291941
 20
3480.4091503288491
 30
0.0
 11
1765.291941
 21
4295.8033013288496
 31
0.0
  0
LINE
  5
7FB5
  8
3
  6
CONTINUOUS
 62
     0
 10
2227.291941
 20
4265.8033013288486
 30
0.0
 11
1825.291941
 21
4265.8033013288486
 31
0.0
  0
INSERT
  5
7FB6
  8
3
  6
CONTINUOUS
 62
     0
  2
_OPEN
 10
2287.291941
 20
4265.8033013288486
 30
0.0
 41
60.0
 42
60.0
 43
60.0
  0
INSERT
  5
7FB7
  8
3
  6
CONTINUOUS
 62
     0
  2
_OPEN
 10
1765.291941
 20
4265.8033013288486
 30
0.0
 41
60.0
 42
60.0
 43
60.0
 50
180.0
  0
TEXT
  8
3
  40
90
  5
7FD8
  62
0
  72
0
  71
0
 10
1846.29
 20
4181.50
 30
0.000000
  1
522
  0
POINT
  5
7FB9
  8
DEFPOINTS
  6
CONTINUOUS
 62
     0
 10
2287.291941
 20
4200.6435283288492
 30
0.0
  0
POINT
  5
7FBA
  8
DEFPOINTS
  6
CONTINUOUS
 62
     0
 10
1765.291941
 20
3465.4091503288491
 30
0.0
  0
POINT
  5
7FBB
  8
DEFPOINTS
  6
CONTINUOUS
 62
     0
 10
1765.291941
 20
4265.8033013288486
 30
0.0
  0
ENDBLK
  5
7C55
  8
0
  0
BLOCK
  8
0
  2
*D17
 70
     1
 10
0.0
 20
0.0
 30
0.0
  3
*D17
  1

  0
LINE
  5
7D57
  8
0
  6
BYBLOCK
 62
     0
 10
4727.3926659999997
 20
4349.8315563288497
 30
0.0
 11
4727.3926659999997
 21
4436.7677247841093
 31
0.0
  0
LINE
  5
7D58
  8
0
  6
BYBLOCK
 62
     0
 10
4968.3926659999988
 20
3815.4091503288491
 30
0.0
 11
4968.3926659999988
 21
4436.7677247841093
 31
0.0
  0
LINE
  5
7D59
  8
0
  6
BYBLOCK
 62
     0
 10
4787.3926659999988
 20
4406.7677247841093
 30
0.0
 11
4908.3926659999997
 21
4406.7677247841093
 31
0.0
  0
TEXT
  5
7D5A
  8
3
 62
     0
 10
4754.4791428837061
 20
4440.1612615423664
 30
0.0
 40
90.0
  1
241
  0
INSERT
  5
7D5B
  8
0
  6
BYBLOCK
 62
     0
  2
_OPEN
 10
4727.3926659999997
 20
4406.7677247841093
 30
0.0
 41
60.0
 42
60.0
 43
60.0
 50
180.0
  0
INSERT
  5
7D5C
  8
0
  6
BYBLOCK
 62
     0
  2
_OPEN
 10
4968.3926659999988
 20
4406.7677247841093
 30
0.0
 41
60.0
 42
60.0
 43
60.0
  0
POINT
  5
7D5D
  8
DEFPOINTS
  6
BYBLOCK
 62
     0
 10
4727.3926659999997
 20
4334.8315563288488
 30
0.0
  0
POINT
  5
7D5E
  8
DEFPOINTS
  6
BYBLOCK
 62
     0
 10
4968.3926659999988
 20
3800.4091503288491
 30
0.0
  0
POINT
  5
7D5F
  8
DEFPOINTS
  6
BYBLOCK
 62
     0
 10
4968.3926659999988
 20
4406.7677247841093
 30
0.0
  0
ENDBLK
  5
7D60
  8
0
  0
BLOCK
  8
0
  2
*D18
 70
     1
 10
0.0
 20
0.0
 30
0.0
  3
*D18
  1

  0
LINE
  5
7FBC
  8
3
 62
     0
 10
2772.291941
 20
4140.4091503288482
 30
0.0
 11
2772.291941
 21
4462.0047315475604
 31
0.0
  0
LINE
  5
7FBD
  8
3
 62
     0
 10
1307.291940999999
 20
3010.4091503288491
 30
0.0
 11
1307.291940999999
 21
4462.0047315475604
 31
0.0
  0
LINE
  5
7FBE
  8
3
 62
     0
 10
2712.291941
 20
4432.0047315475604
 30
0.0
 11
1367.291941
 21
4432.0047315475604
 31
0.0
  0
INSERT
  5
7FBF
  8
3
 62
     0
  2
_OPEN
 10
2772.291941
 20
4432.0047315475604
 30
0.0
 41
60.0
 42
60.0
 43
60.0
  0
INSERT
  5
7FC0
  8
3
 62
     0
  2
_OPEN
 10
1307.291940999999
 20
4432.0047315475604
 30
0.0
 41
60.0
 42
60.0
 43
60.0
 50
180.0
  0
TEXT
  8
3
  40
90
  5
7FD9
  62
0
  72
0
  71
0
 10
1880.77
 20
4347.70
 30
0.000000
  1
1465
  0
POINT
  5
7FC2
  8
DEFPOINTS
 62
     0
 10
2772.291941
 20
4125.4091503288491
 30
0.0
  0
POINT
  5
7FC3
  8
DEFPOINTS
 62
     0
 10
1307.291940999999
 20
2995.4091503288491
 30
0.0
  0
POINT
  5
7FC4
  8
DEFPOINTS
 62
     0
 10
1307.291940999999
 20
4432.0047315475604
 30
0.0
  0
ENDBLK
  5
7D08
  8
0
  0
BLOCK
  8
0
  2
_DOT
 70
     0
 10
0.0
 20
0.0
 30
0.0
  3
_DOT
  1

  0
POLYLINE
  5
7F0F
  8
0
  6
BYBLOCK
 62
     0
 66
     1
 10
0.0
 20
0.0
 30
0.0
 70
     1
 40
0.5
 41
0.5
  0
VERTEX
  5
7FC5
  8
0
  6
BYBLOCK
 62
     0
 10
-0.25
 20
0.0
 30
0.0
 42
1.0
  0
VERTEX
  5
7FC6
  8
0
  6
BYBLOCK
 62
     0
 10
0.25
 20
0.0
 30
0.0
 42
1.0
  0
SEQEND
  5
7FC7
  8
0
  6
BYBLOCK
 62
     0
  0
LINE
  5
7F10
  8
0
  6
BYBLOCK
 62
     0
 10
-0.5
 20
0.0
 30
0.0
 11
-1.0
 21
0.0
 31
0.0
  0
ENDBLK
  5
7F12
  8
0
  0
ENDSEC
  0
SECTION
  2
ENTITIES
  0
LINE
  5
7A6F
  8
1
  6
CONTINUOUS
 10
2717.291941
 20
5453.0770430000002
 30
0.0
 11
2717.291941
 21
5626.5770430000011
 31
0.0
  0
LINE
  5
7A70
  8
1
  6
CONTINUOUS
 10
1307.291940999999
 20
6153.0770430000002
 30
0.0
 11
1307.291940999999
 21
5453.0770430000002
 31
0.0
  0
LINE
  5
7A71
  8
1
  6
CONTINUOUS
 10
1728.4430500000001
 20
5555.8089600000003
 30
0.0
 11
1728.4430500000001
 21
6040.8089600000003
 31
0.0
  0
LINE
  5
7A72
  8
1
  6
CONTINUOUS
 10
1404.4430500000001
 20
5555.8089600000003
 30
0.0
 11
1404.4430500000001
 21
6040.8089600000003
 31
0.0
  0
LINE
  5
7A73
  8
1
  6
CONTINUOUS
 10
2772.291941
 20
5584.0770430000002
 30
0.0
 11
2772.291941
 21
6144.0770430000002
 31
0.0
  0
LINE
  5
7A74
  8
1
  6
CONTINUOUS
 10
2266.291940999999
 20
5489.0770430000002
 30
0.0
 11
2266.291940999999
 21
5626.5770430000011
 31
0.0
  0
LINE
  5
7A75
  8
1
  6
CONTINUOUS
 10
2308.291940999999
 20
5489.0770430000002
 30
0.0
 11
2308.291940999999
 21
5626.5770430000011
 31
0.0
  0
LINE
  5
7A76
  8
1
  6
CONTINUOUS
 10
2717.291941
 20
2995.4091503288491
 30
0.0
 11
1307.291940999999
 21
2995.4091503288491
 31
0.0
  0
LINE
  5
7A77
  8
1
  6
CONTINUOUS
 10
1307.291940999999
 20
5453.0770430000002
 30
0.0
 11
1486.4430500000001
 21
5453.0770430000002
 31
0.0
  0
LINE
  5
7A78
  8
1
  6
CONTINUOUS
 10
1307.291940999999
 20
2895.4091503288491
 30
0.0
 11
2717.291941
 21
2895.4091503288491
 31
0.0
  0
ARC
  5
7A79
  8
1
  6
CONTINUOUS
 10
1566.4430500000001
 20
3195.4091503288491
 30
0.0
 40
162.0
 50
324.972283
 51
215.02771699999991
  0
LINE
  5
7A7A
  8
1
  6
CONTINUOUS
 10
1412.4430500000001
 20
3053.40915032885
 30
0.0
 11
1433.7853839999991
 21
3102.4255833288489
 31
0.0
  0
LINE
  5
7A7B
  8
1
  6
CONTINUOUS
 10
1357.291940999999
 20
3295.4091503288491
 30
0.0
 11
2187.291941
 21
3995.4091503288491
 31
0.0
  0
LINE
  5
7A7C
  8
1
  6
CONTINUOUS
 10
1720.4430500000001
 20
3035.4091503288491
 30
0.0
 11
1412.4430500000001
 21
3035.4091503288491
 31
0.0
  0
LINE
  5
7A7D
  8
1
  6
CONTINUOUS
 10
1404.4430500000001
 20
5555.8089600000003
 30
0.0
 11
1728.4430500000001
 21
5555.8089600000003
 31
0.0
  0
LINE
  5
7A7E
  8
1
  6
CONTINUOUS
 10
2627.291941
 20
5384.0770430000011
 30
0.0
 11
1357.291940999999
 21
5384.0770430000011
 31
0.0
  0
LINE
  5
7A7F
  8
1
  6
CONTINUOUS
 10
2627.291941
 20
5524.0770430000011
 30
0.0
 11
1357.291940999999
 21
5524.0770430000011
 31
0.0
  0
LINE
  5
7A80
  8
1
  6
CONTINUOUS
 10
1307.291940999999
 20
2769.4091503288491
 30
0.0
 11
2717.291941
 21
2769.4091503288491
 31
0.0
  0
LINE
  5
7A81
  8
1
  6
CONTINUOUS
 10
2717.291941
 20
2869.4091503288491
 30
0.0
 11
1307.291940999999
 21
2869.4091503288491
 31
0.0
  0
LINE
  5
7A82
  8
1
  6
CONTINUOUS
 10
1357.291940999999
 20
2995.4091503288491
 30
0.0
 11
1357.291940999999
 21
3295.4091503288491
 31
0.0
  0
LINE
  5
7A83
  8
1
  6
CONTINUOUS
 10
1307.291940999999
 20
2995.4091503288491
 30
0.0
 11
1307.291940999999
 21
2895.4091503288491
 31
0.0
  0
LINE
  5
7A84
  8
1
  6
CONTINUOUS
 10
1412.4430500000001
 20
3035.4091503288491
 30
0.0
 11
1412.4430500000001
 21
3053.40915032885
 31
0.0
  0
LINE
  5
7A85
  8
1
  6
CONTINUOUS
 10
1412.4430500000001
 20
2995.4091503288491
 30
0.0
 11
1412.4430500000001
 21
3053.40915032885
 31
0.0
  0
LINE
  5
7A86
  8
1
  6
CONTINUOUS
 10
1307.291940999999
 20
2869.4091503288491
 30
0.0
 11
1307.291940999999
 21
2769.4091503288491
 31
0.0
  0
LINE
  5
7A87
  8
1
  6
CONTINUOUS
 10
1357.291940999999
 20
5384.0770430000011
 30
0.0
 11
1357.291940999999
 21
5524.0770430000011
 31
0.0
  0
LINE
  5
7A8A
  8
1
  6
CONTINUOUS
 10
2772.291941
 20
3395.4091503288491
 30
0.0
 11
2772.291941
 21
4125.4091503288491
 31
0.0
  0
LINE
  5
7A8D
  8
1
  6
CONTINUOUS
 10
2627.291941
 20
2995.4091503288491
 30
0.0
 11
2627.291941
 21
3995.4091503288491
 31
0.0
  0
ARC
  5
7A8E
  8
1
  6
CONTINUOUS
 10
2328.291941
 20
3506.4091503288491
 30
0.0
 40
564.49092099999984
 50
94.165164000000004
 51
184.5139879999999
  0
LINE
  5
7A8F
  8
1
  6
CONTINUOUS
 10
2742.291940999999
 20
3435.4091503288491
 30
0.0
 11
2742.291940999999
 21
4084.0895623288488
 31
0.0
  0
ARC
  5
7A90
  8
1
  6
CONTINUOUS
 10
2260.291940999999
 20
3438.4091503288491
 30
0.0
 40
425.74044800000001
 50
277.35237899999998
 51
359.59625899999992
  0
LINE
  5
7A91
  8
2
  6
CENTER
 10
5033.1278540000003
 20
3465.4091503288491
 30
0.0
 11
4121.6617380000007
 21
3465.4091503288491
 31
0.0
  0
CIRCLE
  5
7A92
  8
1
  6
CONTINUOUS
 10
2287.291941
 20
3465.4091503288491
 30
0.0
 40
150.0
  0
CIRCLE
  5
7A95
  8
1
  6
CONTINUOUS
 10
1566.4430500000001
 20
3195.4091503288491
 30
0.0
 40
80.0
  0
ARC
  5
7A96
  8
1
  6
CONTINUOUS
 10
2252.291941
 20
3500.4091503288491
 30
0.0
 40
488.25444700000003
 50
184.5139879999999
 51
277.35237899999998
  0
LINE
  5
7A97
  8
2
  6
CENTER
 10
1566.4430500000001
 20
3275.4091503288491
 30
0.0
 11
1566.4430500000001
 21
3115.4091503288491
 31
0.0
  0
LINE
  5
7A98
  8
1
  6
CONTINUOUS
 10
1587.574828
 20
3118.2505603288491
 30
0.0
 11
2326.9140259999999
 21
3320.7367943288491
 31
0.0
  0
LINE
  5
7A99
  8
1
  6
CONTINUOUS
 10
1720.4430500000001
 20
3053.40915032885
 30
0.0
 11
1699.1007149999989
 21
3102.4255833288489
 31
0.0
  0
LINE
  5
7A9A
  8
1
  6
CONTINUOUS
 10
1720.4430500000001
 20
2995.4091503288491
 30
0.0
 11
1720.4430500000001
 21
3053.40915032885
 31
0.0
  0
LINE
  5
7A9B
  8
1
  6
CONTINUOUS
 10
1531.6856299999999
 20
3267.4641413288491
 30
0.0
 11
2222.1217790000001
 21
3600.5122583288498
 31
0.0
  0
LINE
  5
7A9C
  8
2
  6
CENTER
 10
1646.4430500000001
 20
3195.4091503288491
 30
0.0
 11
1486.4430500000001
 21
3195.4091503288491
 31
0.0
  0
LINE
  5
7A9D
  8
2
  6
CENTER
 10
2287.291941
 20
6254.429513
 30
0.0
 11
2287.291941
 21
5303.2755820000011
 31
0.0
  0
LINE
  5
7A9E
  8
1
  6
CONTINUOUS
 10
2717.291941
 20
2895.4091503288491
 30
0.0
 11
2717.291941
 21
2995.4091503288491
 31
0.0
  0
LINE
  5
7A9F
  8
1
  6
CONTINUOUS
 10
2717.291941
 20
2769.4091503288491
 30
0.0
 11
2717.291941
 21
2869.4091503288491
 31
0.0
  0
LINE
  5
7AA0
  8
1
  6
CONTINUOUS
 10
2686.0218199999999
 20
3435.4091503288491
 30
0.0
 11
2772.291941
 21
3435.4091503288491
 31
0.0
  0
LINE
  5
7AA2
  8
1
  6
CONTINUOUS
 10
2627.291941
 20
3995.4091503288491
 30
0.0
 11
2187.291941
 21
3995.4091503288491
 31
0.0
  0
LINE
  5
7AA3
  8
1
  6
CONTINUOUS
 10
2772.291941
 20
4085.4091503288491
 30
0.0
 11
2287.291941
 21
4069.4091503288491
 31
0.0
  0
LINE
  5
7AA4
  8
1
  6
CONTINUOUS
 10
2137.291941
 20
5489.0770430000002
 30
0.0
 11
2437.291941
 21
5489.0770430000002
 31
0.0
  0
LINE
  5
7AA5
  8
1
  6
CONTINUOUS
 10
2137.291941
 20
5419.0770430000002
 30
0.0
 11
2437.291941
 21
5419.0770430000002
 31
0.0
  0
LINE
  5
7AA6
  8
1
  6
CONTINUOUS
 10
1646.4430500000001
 20
5453.0770430000002
 30
0.0
 11
2137.291941
 21
5453.0770430000002
 31
0.0
  0
LINE
  5
7AA7
  8
1
  6
CONTINUOUS
 10
1587.4430500000001
 20
5489.0770430000002
 30
0.0
 11
1587.4430500000001
 21
5555.8089600000003
 31
0.0
  0
LINE
  5
7AA8
  8
1
  6
CONTINUOUS
 10
1545.4430500000001
 20
5489.0770430000002
 30
0.0
 11
1545.4430500000001
 21
5555.8089600000003
 31
0.0
  0
LINE
  5
7AA9
  8
1
  6
CONTINUOUS
 10
1486.4430500000001
 20
5419.0770430000002
 30
0.0
 11
1486.4430500000001
 21
5489.0770430000002
 31
0.0
  0
LINE
  5
7AAA
  8
1
  6
CONTINUOUS
 10
1646.4430500000001
 20
5419.0770430000002
 30
0.0
 11
1646.4430500000001
 21
5489.0770430000002
 31
0.0
  0
LINE
  5
7AAB
  8
1
  6
CONTINUOUS
 10
1486.4430500000001
 20
5419.0770430000002
 30
0.0
 11
1646.4430500000001
 21
5419.0770430000002
 31
0.0
  0
LINE
  5
7AAC
  8
1
  6
CONTINUOUS
 10
1486.4430500000001
 20
5489.0770430000002
 30
0.0
 11
1646.4430500000001
 21
5489.0770430000002
 31
0.0
  0
LINE
  5
7AAD
  8
1
  6
CONTINUOUS
 10
2137.291941
 20
5419.0770430000002
 30
0.0
 11
2137.291941
 21
5489.0770430000002
 31
0.0
  0
LINE
  5
7AAE
  8
1
  6
CONTINUOUS
 10
2437.291941
 20
5419.0770430000002
 30
0.0
 11
2437.291941
 21
5489.0770430000002
 31
0.0
  0
LINE
  5
7AAF
  8
1
  6
CONTINUOUS
 10
2627.291941
 20
5384.0770430000011
 30
0.0
 11
2627.291941
 21
5524.0770430000011
 31
0.0
  0
LINE
  5
7AB0
  8
1
  6
CONTINUOUS
 10
2437.291941
 20
5453.0770430000002
 30
0.0
 11
2717.291941
 21
5453.0770430000002
 31
0.0
  0
LINE
  5
7AB1
  8
1
  6
CONTINUOUS
 10
4489.8926659999997
 20
4085.4091503288491
 30
0.0
 11
4489.8926659999997
 21
2995.4091503288491
 31
0.0
  0
LINE
  5
7AB2
  8
1
  6
CONTINUOUS
 10
4964.8926659999997
 20
4085.4091503288491
 30
0.0
 11
4964.8926659999997
 21
2995.4091503288491
 31
0.0
  0
LINE
  5
7AB3
  8
1
  6
CONTINUOUS
 10
4247.3926659999988
 20
3995.4091503288491
 30
0.0
 11
4247.3926659999988
 21
2995.4091503288491
 31
0.0
  0
LINE
  5
7AB4
  8
1
  6
CONTINUOUS
 10
4964.8926659999997
 20
4085.4091503288491
 30
0.0
 11
4489.8926659999997
 21
3435.4091503288491
 31
0.0
  0
LINE
  5
7AB5
  8
1
  6
CONTINUOUS
 10
4489.8926659999997
 20
4085.4091503288491
 30
0.0
 11
4964.8926659999997
 21
3435.4091503288491
 31
0.0
  0
LINE
  5
7AB6
  8
1
  6
CONTINUOUS
 10
4387.3926659999988
 20
3995.4091503288491
 30
0.0
 11
4387.3926659999988
 21
2995.4091503288491
 31
0.0
  0
LINE
  5
7AB7
  8
1
  6
CONTINUOUS
 10
4316.3926659999997
 20
2895.4091503288491
 30
0.0
 11
5016.3926659999997
 21
2895.4091503288491
 31
0.0
  0
LINE
  5
7AB8
  8
1
  6
CONTINUOUS
 10
4316.3926659999997
 20
2995.4091503288491
 30
0.0
 11
5016.3926659999997
 21
2995.4091503288491
 31
0.0
  0
LINE
  5
7AB9
  8
1
  6
CONTINUOUS
 10
4489.8926659999997
 20
3435.4091503288491
 30
0.0
 11
4964.8926659999997
 21
3435.4091503288491
 31
0.0
  0
LINE
  5
7ABA
  8
1
  6
CONTINUOUS
 10
4316.3926659999997
 20
2869.4091503288491
 30
0.0
 11
5016.3926659999997
 21
2869.4091503288491
 31
0.0
  0
LINE
  5
7ABB
  8
1
  6
CONTINUOUS
 10
4316.3926659999997
 20
2769.4091503288491
 30
0.0
 11
5016.3926659999997
 21
2769.4091503288491
 31
0.0
  0
LINE
  5
7ABC
  8
1
  6
CONTINUOUS
 10
4282.3926659999988
 20
3275.4091503288491
 30
0.0
 11
4282.3926659999988
 21
3115.4091503288491
 31
0.0
  0
LINE
  5
7ABD
  8
1
  6
CONTINUOUS
 10
4352.3926659999997
 20
3275.4091503288491
 30
0.0
 11
4352.3926659999997
 21
3115.4091503288491
 31
0.0
  0
LINE
  5
7ABE
  8
1
  6
CONTINUOUS
 10
4282.3926659999988
 20
3115.4091503288491
 30
0.0
 11
4352.3926659999997
 21
3115.4091503288491
 31
0.0
  0
LINE
  5
7ABF
  8
1
  6
CONTINUOUS
 10
4316.3926659999997
 20
2995.4091503288491
 30
0.0
 11
4316.3926659999997
 21
2895.4091503288491
 31
0.0
  0
LINE
  5
7AC0
  8
1
  6
CONTINUOUS
 10
4247.3926659999988
 20
2995.4091503288491
 30
0.0
 11
4316.3926659999997
 21
2995.4091503288491
 31
0.0
  0
LINE
  5
7AC1
  8
1
  6
CONTINUOUS
 10
4316.3926659999997
 20
2869.4091503288491
 30
0.0
 11
4316.3926659999997
 21
2769.4091503288491
 31
0.0
  0
LINE
  5
7AC4
  8
1
  6
CONTINUOUS
 10
4282.3926659999988
 20
3315.4091503288491
 30
0.0
 11
4352.3926659999997
 21
3315.4091503288491
 31
0.0
  0
LINE
  5
7AC5
  8
1
  6
CONTINUOUS
 10
4282.3926659999988
 20
3615.4091503288491
 30
0.0
 11
4352.3926659999997
 21
3615.4091503288491
 31
0.0
  0
LINE
  5
7AC6
  8
1
  6
CONTINUOUS
 10
4282.3926659999988
 20
3275.4091503288491
 30
0.0
 11
4352.3926659999997
 21
3275.4091503288491
 31
0.0
  0
LINE
  5
7AC7
  8
1
  6
CONTINUOUS
 10
4282.3926659999988
 20
3615.4091503288491
 30
0.0
 11
4282.3926659999988
 21
3315.4091503288491
 31
0.0
  0
LINE
  5
7AC8
  8
1
  6
CONTINUOUS
 10
4352.3926659999997
 20
3444.4091503288491
 30
0.0
 11
4489.8926659999997
 21
3444.4091503288491
 31
0.0
  0
LINE
  5
7AC9
  8
1
  6
CONTINUOUS
 10
4352.3926659999997
 20
3486.4091503288491
 30
0.0
 11
4489.8926659999997
 21
3486.4091503288491
 31
0.0
  0
LINE
  5
7ACA
  8
1
  6
CONTINUOUS
 10
4352.3926659999997
 20
3615.4091503288491
 30
0.0
 11
4352.3926659999997
 21
3315.4091503288491
 31
0.0
  0
LINE
  5
7ACB
  8
1
  6
CONTINUOUS
 10
4352.3926659999997
 20
3174.40915032885
 30
0.0
 11
4489.8926659999997
 21
3174.40915032885
 31
0.0
  0
LINE
  5
7ACC
  8
1
  6
CONTINUOUS
 10
4352.3926659999997
 20
3216.4091503288491
 30
0.0
 11
4489.8926659999997
 21
3216.4091503288491
 31
0.0
  0
LINE
  5
7ACD
  8
1
  6
CONTINUOUS
 10
5016.3926659999997
 20
2995.4091503288491
 30
0.0
 11
5016.3926659999997
 21
2895.4091503288491
 31
0.0
  0
LINE
  5
7ACE
  8
1
  6
CONTINUOUS
 10
5016.3926659999997
 20
2869.4091503288491
 30
0.0
 11
5016.3926659999997
 21
2769.4091503288491
 31
0.0
  0
LINE
  5
7ACF
  8
1
  6
CONTINUOUS
 10
4489.8926659999997
 20
4085.4091503288491
 30
0.0
 11
4964.8926659999997
 21
4085.4091503288491
 31
0.0
  0
LINE
  5
7AD0
  8
1
  6
CONTINUOUS
 10
4387.3926659999988
 20
3995.4091503288491
 30
0.0
 11
4247.3926659999988
 21
3995.4091503288491
 31
0.0
  0
LINE
  5
7AD1
  8
1
  6
CONTINUOUS
 10
1404.4430500000001
 20
6040.8089600000003
 30
0.0
 11
1728.4430500000001
 21
6040.8089600000003
 31
0.0
  0
LINE
  5
7AD2
  8
1
  6
CONTINUOUS
 10
2717.291941
 20
6153.0770430000002
 30
0.0
 11
1307.291940999999
 21
6153.0770430000002
 31
0.0
  0
LINE
  5
7AD3
  8
1
  6
CONTINUOUS
 10
2772.291941
 20
6101.5770430000002
 30
0.0
 11
1763.8010200000001
 21
6101.5770430000002
 31
0.0
  0
LINE
  5
7AD4
  8
1
  6
CONTINUOUS
 10
2772.291941
 20
5626.5770430000011
 30
0.0
 11
1763.8010200000001
 21
5626.5770430000011
 31
0.0
  0
LINE
  5
7AD5
  8
1
  6
CONTINUOUS
 10
1728.4430500000001
 20
5877.5254080000004
 30
0.0
 11
1728.4430500000001
 21
5635.2783680000002
 31
0.0
  0
LINE
  5
7AD6
  8
1
  6
CONTINUOUS
 10
1763.8010200000001
 20
5626.5770430000011
 30
0.0
 11
1763.8010200000001
 21
6101.5770430000002
 31
0.0
  0
LINE
  5
7AD7
  8
1
  6
CONTINUOUS
 10
2717.291941
 20
6101.5770430000002
 30
0.0
 11
2717.291941
 21
6153.0770430000002
 31
0.0
  0
LINE
  5
7AD8
  8
1
  6
CONTINUOUS
 10
2732.291941
 20
5626.5770430000011
 30
0.0
 11
2732.291941
 21
6101.5770430000002
 31
0.0
  0
LINE
  5
7AD9
  8
2
  6
CENTER
 10
1217.5480729999999
 20
5864.0770430000002
 30
0.0
 11
2860.4773340000002
 21
5864.0770430000002
 31
0.0
  0
LINE
  5
7ADB
  8
2
  6
CENTER
 10
2287.291941
 20
4200.6435283288492
 30
0.0
 11
2287.291941
 21
2644.9235923288488
 31
0.0
  0
LINE
  5
7ADC
  8
2
  6
CENTER
 10
2916.8068870000002
 20
3465.4091503288491
 30
0.0
 11
1309.2624919999989
 21
3465.4091503288491
 31
0.0
  0
LINE
  5
7ADD
  8
4
  6
CONTINUOUS
 10
5550.0
 20
1500.0
 30
0.0
 11
5550.0
 21
900.0
 31
0.0
  0
LINE
  5
7ADE
  8
4
  6
CONTINUOUS
 10
3450.0
 20
1500.0
 30
0.0
 11
3450.0
 21
900.0
 31
0.0
  0
LINE
  5
7ADF
  8
4
  6
CONTINUOUS
 10
1950.0
 20
1500.0
 30
0.0
 11
1950.0
 21
900.0
 31
0.0
  0
LINE
  5
7AE2
  8
4
  6
CONTINUOUS
 10
1950.0
 20
900.0
 30
0.0
 11
5550.0
 21
900.0
 31
0.0
  0
LINE
  5
7AE3
  8
4
  6
CONTINUOUS
 10
1950.0
 20
1200.0
 30
0.0
 11
5550.0
 21
1200.0
 31
0.0
  0
TEXT
  5
7AE4
  8
4
  6
CONTINUOUS
 10
2065.5062429999989
 20
1294.6290779999999
 30
0.0
 40
150.0
  1
機器名称
  0
TEXT
  5
7AE5
  8
4
  6
CONTINUOUS
 10
2058.7743179999989
 20
964.9354699999999
 30
0.0
 40
150.0
  1
機器型番
  0
TEXT
  5
7AE6
  8
4
  6
CONTINUOUS
 10
3533.0362359999999
 20
1267.7153069999999
 30
0.0
 40
150.0
  1
ミツヤ多翼送風機
  0
TEXT
  5
7AE7
  8
4
  6
CONTINUOUS
 10
3559.9634869999991
 20
951.47875299999987
 30
0.0
 40
150.0
  1
MFE#4-4
  0
TEXT
  5
7AE9
  8
4
  6
CONTINUOUS
 10
2392.5831870000002
 20
7150.2865239999992
 30
0.0
 40
162.0
  1
床置防振ベット
  0
TEXT
  5
7AEA
  8
4
  6
CONTINUOUS
 10
948.50278000000014
 20
7601.6429289999996
 30
0.0
 40
216.0
  1
ベルト駆動式片吸込両持排煙ファン
  0
LINE
  5
7AEB
  8
4
  6
CONTINUOUS
 10
750.0
 20
7408.2262629999996
 30
0.0
 11
5550.0
 21
7408.2262629999996
 31
0.0
  0
LINE
  5
7AEC
  8
4
  6
CONTINUOUS
 10
750.0
 20
8008.2262629999996
 30
0.0
 11
5550.0
 21
8008.2262629999996
 31
0.0
  0
LINE
  5
7AED
  8
4
  6
CONTINUOUS
 10
1950.0
 20
1500.0
 30
0.0
 11
5550.0
 21
1500.0
 31
0.0
  0
LINE
  5
7AEE
  8
4
  6
CONTINUOUS
 10
750.0
 20
8008.2262629999996
 30
0.0
 11
750.0
 21
7408.2262629999996
 31
0.0
  0
TEXT
  5
7AEF
  8
4
  6
CONTINUOUS
 10
1085.006691
 20
7146.9584329999998
 30
0.0
 40
162.0
  1
右回転右横向
  0
TEXT
  5
7AF0
  8
4
  6
CONTINUOUS
 10
4406.9086779999989
 20
8118.1832439999989
 30
0.0
 40
168.0
  1
No.
  0
TEXT
  5
7AF1
  8
4
  6
CONTINUOUS
 10
3933.8881879999999
 20
7150.2865239999992
 30
0.0
 40
162.0
  1
縮尺：1/30
  0
LINE
  5
7AF2
  8
4
  6
CONTINUOUS
 10
5550.0
 20
8008.2262629999996
 30
0.0
 11
5550.0
 21
7408.2262629999996
 31
0.0
  0
LINE
  5
7AF4
  8
4
  6
CONTINUOUS
 10
4321.8522670000002
 20
8043.7907490000007
 30
0.0
 11
4321.8522670000002
 21
8359.9567849999985
 31
0.0
  0
LINE
  5
7AF5
  8
4
  6
CONTINUOUS
 10
4321.8522670000002
 20
8359.9567849999985
 30
0.0
 11
5550.0
 21
8359.9567849999985
 31
0.0
  0
LINE
  5
7AF6
  8
4
  6
CONTINUOUS
 10
5550.0
 20
8359.9567849999985
 30
0.0
 11
5550.0
 21
8043.7907490000007
 31
0.0
  0
LINE
  5
7AF7
  8
4
  6
CONTINUOUS
 10
5550.0
 20
8043.7907490000007
 30
0.0
 11
4321.8522670000002
 21
8043.7907490000007
 31
0.0
  0
DIMENSION
  5
7B0F
  8
3
  6
CONTINUOUS
  2
*D1
 10
2980.8001370000011
 20
3435.4091503288491
 30
0.0
 11
2980.8001370000002
 21
3738.5968073288482
 31
0.0
 70
   128
 13
2772.291941
 23
4085.4091503288491
 33
0.0
 14
2772.291941
 24
3435.4091503288491
 34
0.0
 50
90.0
1001
ACAD
1000
DSTYLE
1002
{
1070
   287
1070
     3
1070
   287
1070
     3
1070
    40
1040
30.0
1070
   143
1040
0.039
1070
   172
1070
     1
1070
   271
1070
     0
1070
   279
1070
     0
1070
   288
1070
     1
1002
}
  0
DIMENSION
  5
7B1C
  8
3
  6
CONTINUOUS
  2
*D2
 10
3183.9153460000002
 20
3465.4091503288491
 30
0.0
 11
3183.9153460000002
 21
3744.9382563288491
 31
0.0
 70
   128
 13
2772.291941
 23
4085.4091503288491
 33
0.0
 14
2916.8068870000002
 24
3465.4091503288491
 34
0.0
 50
90.0
1001
ACAD
1000
DSTYLE
1002
{
1070
   287
1070
     3
1070
   287
1070
     3
1070
    40
1040
30.0
1070
   143
1040
0.039
1070
   172
1070
     1
1070
   271
1070
     0
1070
   279
1070
     0
1070
   288
1070
     1
1002
}
  0
DIMENSION
  5
7B28
  8
3
  6
CONTINUOUS
  2
*D3
 10
3183.9153460000002
 20
2895.4091503288491
 30
0.0
 11
3108.9153459999989
 21
3180.40915032885
 31
0.0
 70
     0
 13
2916.8068870000002
 23
3465.4091503288491
 33
0.0
 14
2717.291941
 24
2895.4091503288491
 34
0.0
 50
90.0
1001
ACAD
1000
DSTYLE
1002
{
1070
   287
1070
     4
1070
   287
1070
     4
1070
    40
1040
30.0
1070
    75
1070
     1
1070
   143
1040
0.039
1070
   172
1070
     1
1070
   271
1070
     0
1070
   279
1070
     1
1070
   288
1070
     1
1002
}
  0
DIMENSION
  5
7B38
  8
3
  6
CONTINUOUS
  2
*D4
 10
3187.028467000001
 20
2769.4091503288491
 30
0.0
 11
3187.0284670000001
 21
2514.40915032885
 31
0.0
 70
   128
 13
2717.291941
 23
2895.4091503288491
 33
0.0
 14
2717.291941
 24
2769.4091503288491
 34
0.0
 50
90.0
1001
ACAD
1000
DSTYLE
1002
{
1070
   287
1070
     3
1070
   287
1070
     3
1070
    40
1040
30.0
1070
   143
1040
0.039
1070
   172
1070
     1
1070
   271
1070
     0
1070
   279
1070
     0
1070
   288
1070
     1
1002
}
  0
DIMENSION
  5
7B45
  8
3
  6
CONTINUOUS
  2
*D5
 10
3397.976197
 20
2769.4091503288491
 30
0.0
 11
3397.976197
 21
3435.1663433288491
 31
0.0
 70
   128
 13
2772.291941
 23
4125.4091503288491
 33
0.0
 14
2717.291941
 24
2769.4091503288491
 34
0.0
 50
90.0
1001
ACAD
1000
DSTYLE
1002
{
1070
   287
1070
     3
1070
   287
1070
     3
1070
    40
1040
30.0
1070
   143
1040
0.039
1070
   172
1070
     1
1070
   271
1070
     0
1070
   279
1070
     0
1070
   288
1070
     1
1002
}
  0
DIMENSION
  5
7B52
  8
3
  6
CONTINUOUS
  2
*D6
 10
2287.291941
 20
4265.8033013288486
 30
0.0
 11
2523.7909359999999
 21
4265.8033013288486
 31
0.0
 70
   128
 13
2772.291941
 23
4125.4091503288491
 33
0.0
 14
2287.291941
 24
4200.6435283288492
 34
0.0
1001
ACAD
1000
DSTYLE
1002
{
1070
   287
1070
     3
1070
   287
1070
     3
1070
    40
1040
30.0
1070
   143
1040
0.039
1070
   172
1070
     1
1070
   271
1070
     0
1070
   279
1070
     0
1070
   288
1070
     1
1002
}
  0
DIMENSION
  5
7B6B
  8
3
  6
CONTINUOUS
  2
*D7
 10
2287.291941
 20
2514.0113663288489
 30
0.0
 11
1812.8877059999991
 21
2514.0113663288489
 31
0.0
 70
   128
 13
1307.291940999999
 23
2769.4091503288491
 33
0.0
 14
2287.291941
 24
2644.9235923288488
 34
0.0
1001
ACAD
1000
DSTYLE
1002
{
1070
   287
1070
     3
1070
   287
1070
     3
1070
    40
1040
30.0
1070
   143
1040
0.039
1070
   172
1070
     1
1070
   271
1070
     0
1070
   279
1070
     0
1070
   288
1070
     1
1002
}
  0
DIMENSION
  5
7B77
  8
3
  6
CONTINUOUS
  2
*D8
 10
2717.291941
 20
2514.0113663288489
 30
0.0
 11
2502.291941
 21
2589.0113663288489
 31
0.0
 70
     0
 13
2287.291941
 23
2644.9235923288488
 33
0.0
 14
2717.291941
 24
2769.4091503288491
 34
0.0
1001
ACAD
1000
DSTYLE
1002
{
1070
   287
1070
     4
1070
   287
1070
     4
1070
    40
1040
30.0
1070
    75
1070
     1
1070
   143
1040
0.039
1070
   172
1070
     1
1070
   271
1070
     0
1070
   279
1070
     1
1070
   288
1070
     1
1002
}
  0
DIMENSION
  5
7B84
  8
3
  6
CONTINUOUS
  2
*D9
 10
4489.8926659999997
 20
4206.1258943288494
 30
0.0
 11
4728.4550409999993
 21
4206.1258943288494
 31
0.0
 70
   128
 13
4964.8926659999997
 23
4085.4091503288491
 33
0.0
 14
4489.8926659999997
 24
4085.4091503288491
 34
0.0
1001
ACAD
1000
DSTYLE
1002
{
1070
   287
1070
     3
1070
   287
1070
     3
1070
    40
1040
30.0
1070
   143
1040
0.039
1070
   172
1070
     1
1070
   271
1070
     0
1070
   279
1070
     0
1070
   288
1070
     1
1002
}
  0
LINE
  5
7B87
  8
1
  6
CONTINUOUS
 10
4968.3926659999988
 20
3800.4091503288491
 30
0.0
 11
4968.3926659999988
 21
3130.40915032885
 31
0.0
  0
DIMENSION
  5
7B94
  8
3
  6
CONTINUOUS
  2
*D10
 10
5236.2430629999999
 20
3130.4091503288491
 30
0.0
 11
5236.243062999999
 21
3478.5978993288491
 31
0.0
 70
   128
 13
4968.3926659999988
 23
3800.4091503288491
 33
0.0
 14
4968.3926659999988
 24
3130.40915032885
 34
0.0
 50
90.0
1001
ACAD
1000
DSTYLE
1002
{
1070
   287
1070
     3
1070
   287
1070
     3
1070
     3
1000
φ<>
1070
    40
1040
30.0
1070
   143
1040
0.039
1070
   172
1070
     1
1070
   271
1070
     0
1070
   279
1070
     0
1070
   288
1070
     1
1002
}
  0
DIMENSION
  5
7BAE
  8
3
  6
CONTINUOUS
  2
*D11
 10
4247.3926659999988
 20
4406.7677247841093
 30
0.0
 11
4487.3926659999988
 21
4556.7677247841093
 31
0.0
 70
     0
  1
MAX\P530
 13
4727.3926659999997
 23
4334.8315563288488
 33
0.0
 14
4247.3926659999988
 24
3995.4091503288491
 34
0.0
1001
ACAD
1000
DSTYLE
1002
{
1070
   287
1070
     4
1070
   287
1070
     4
1070
    40
1040
30.0
1070
    75
1070
     1
1070
   143
1040
0.039
1070
   172
1070
     1
1070
   271
1070
     0
1070
   279
1070
     1
1070
   288
1070
     1
1002
}
  0
DIMENSION
  5
7BBB
  8
3
  6
CONTINUOUS
  2
*D12
 10
4727.3926659999997
 20
2534.5132133288489
 30
0.0
 11
4494.2498088571419
 21
2534.5132133288489
 31
0.0
 70
   128
 13
4316.3926659999997
 23
2769.4091503288491
 33
0.0
 14
4727.3926659999997
 24
2610.6382610453138
 34
0.0
1001
ACAD
1000
DSTYLE
1002
{
1070
   287
1070
     3
1070
   287
1070
     3
1070
    40
1040
30.0
1070
   143
1040
0.039
1070
   172
1070
     1
1070
   271
1070
     0
1070
   279
1070
     0
1070
   288
1070
     1
1002
}
  0
DIMENSION
  5
7BC9
  8
3
  6
CONTINUOUS
  2
*D13
 10
5016.3926659999997
 20
2534.5132133288489
 30
0.0
 11
4874.704315
 21
2535.410458328849
 31
0.0
 70
   128
 13
4727.3926659999997
 23
2610.6382610453138
 33
0.0
 14
5016.3926659999997
 24
2769.4091503288491
 34
0.0
1001
ACAD
1000
DSTYLE
1002
{
1070
   287
1070
     4
1070
   287
1070
     4
1070
    40
1040
30.0
1070
    75
1070
     1
1070
   143
1040
0.039
1070
   172
1070
     1
1070
   271
1070
     0
1070
   279
1070
     1
1070
   288
1070
     1
1002
}
  0
LINE
  5
7BF6
  8
2
  6
CENTER
 10
4727.3926659999997
 20
4173.3104483288498
 30
0.0
 11
4727.3926659999997
 21
2609.1650214717879
 31
0.0
  0
DIMENSION
  5
7C03
  8
3
  6
CONTINUOUS
  2
*D14
 10
2717.291941
 20
6386.2960329999996
 30
0.0
 11
1994.526384
 21
6386.2960329999996
 31
0.0
 70
   128
 13
1307.291940999999
 23
6153.0770430000002
 33
0.0
 14
2717.291941
 24
6153.0770430000002
 34
0.0
1001
ACAD
1000
DSTYLE
1002
{
1070
   287
1070
     3
1070
   287
1070
     3
1070
    40
1040
30.0
1070
   143
1040
0.039
1070
   172
1070
     1
1070
   271
1070
     0
1070
   279
1070
     0
1070
   288
1070
     1
1002
}
  0
DIMENSION
  5
7C10
  8
3
  6
CONTINUOUS
  2
*D15
 10
3011.9004470000009
 20
5453.0770430000002
 30
0.0
 11
3011.900447
 21
5849.1398079999999
 31
0.0
 70
   128
 13
2717.291941
 23
6153.0770430000002
 33
0.0
 14
2717.291941
 24
5453.0770430000002
 34
0.0
 50
90.0
1001
ACAD
1000
DSTYLE
1002
{
1070
   287
1070
     3
1070
   287
1070
     3
1070
    40
1040
30.0
1070
   143
1040
0.039
1070
   172
1070
     1
1070
   271
1070
     0
1070
   279
1070
     0
1070
   288
1070
     1
1002
}
  0
DIMENSION
  5
7C4B
  8
3
  6
CONTINUOUS
  2
*D16
 10
1765.291941
 20
4265.8033013288486
 30
0.0
 11
2026.291940999999
 21
4340.8033013288496
 31
0.0
 70
     0
 13
2287.291941
 23
4200.6435283288492
 33
0.0
 14
1765.291941
 24
3465.4091503288491
 34
0.0
1001
ACAD
1000
DSTYLE
1002
{
1070
   287
1070
     4
1070
   287
1070
     4
1070
    40
1040
30.0
1070
    75
1070
     1
1070
   143
1040
0.039
1070
   172
1070
     1
1070
   271
1070
     0
1070
   279
1070
     1
1070
   288
1070
     1
1002
}
  0
DIMENSION
  5
7CB9
  8
3
  6
CONTINUOUS
  2
*D17
 10
4968.3926659999988
 20
4406.7677247841093
 30
0.0
 11
4850.9077143122777
 21
4485.1612615423646
 31
0.0
 70
   128
 13
4727.3926659999997
 23
4334.8315563288488
 33
0.0
 14
4968.3926659999988
 24
3800.4091503288491
 34
0.0
1001
ACAD
1000
DSTYLE
1002
{
1070
   288
1070
     1
1070
   172
1070
     1
1070
    40
1040
30.0
1070
   271
1070
     0
1070
   143
1040
0.039
1002
}
  0
DIMENSION
  5
7D09
  8
3
  2
*D18
 10
1307.291940999999
 20
4432.0047315475604
 30
0.0
 11
2060.7719273264588
 21
4432.0047315475604
 31
0.0
 70
   128
 13
2772.291941
 23
4125.4091503288491
 33
0.0
 14
1307.291940999999
 24
2995.4091503288491
 34
0.0
1001
ACAD
1000
DSTYLE
1002
{
1070
   287
1070
     3
1070
   287
1070
     3
1070
    40
1040
30.0
1070
   143
1040
0.039
1070
   172
1070
     1
1070
   271
1070
     0
1070
   279
1070
     0
1070
   288
1070
     1
1002
}
  0
LINE
  5
7F1A
  8
1
  6
CONTINUOUS
 10
2697.291941
 20
3815.40915032885
 30
0.0
 11
1877.291940999999
 21
3815.4091503288491
 31
0.0
  0
LINE
  5
7F1B
  8
1
 10
1877.291940999999
 20
3815.4091503288491
 30
0.0
 11
1877.291941
 21
2995.4091503288491
 31
0.0
  0
LINE
  5
7F1C
  8
1
 10
2697.291941
 20
3815.40915032885
 30
0.0
 11
2697.291941
 21
2995.4091503288491
 31
0.0
  0
ENDSEC
  0
EOF
